osu file format v14

[General]
AudioFilename: audio.mp3
AudioLeadIn: 0
PreviewTime: 54092
Countdown: 0
SampleSet: Soft
StackLeniency: 0.7
Mode: 3
LetterboxInBreaks: 0
SpecialStyle: 0
WidescreenStoryboard: 1

[Editor]
DistanceSpacing: 1.1
BeatDivisor: 4
GridSize: 4
TimelineZoom: 1.7

[Metadata]
Title:Monoqlo City (TV Size)
TitleUnicode:モノクロシティ (TV Size)
Artist:ACE COLLECTION
ArtistUnicode:ACE COLLECTION
Creator:fvrex
Version:No matter how much you want to stop loving, it is hard to simply flip the switch
Source:恋と呼ぶには気持ち悪い
Tags:famoss tigerinity indoroid hytex xtrippin U-ENS Universal Music Group UMG Vocal たつや◎ 奏 It's Too Sick to Call this Love Nomad ノマッド opening jrock j-rock j-pop pop jpop japanese anime monochrome tatsuya◎ liki sou riku koikimo koi to yobu ni wa kimochi warui romantic comedy romance romcom ln long notes
BeatmapID:2938244
BeatmapSetID:1426980

[Difficulty]
HPDrainRate:8.5
CircleSize:4
OverallDifficulty:8
ApproachRate:5
SliderMultiplier:1.4
SliderTickRate:1

[Events]
//Background and Video events
0,0,"Help.jpg",0,0
Video,167,"OP.mp4"
//Break Periods
//Storyboard Layer 0 (Background)
//Storyboard Layer 1 (Fail)
//Storyboard Layer 2 (Pass)
//Storyboard Layer 3 (Foreground)
//Storyboard Layer 4 (Overlay)
//Storyboard Sound Samples

[TimingPoints]
1759,444.444444444444,4,2,1,60,1,0
49758,-100,4,2,1,40,0,0
55092,-100,4,2,1,60,0,1
79970,444.444444444444,4,2,1,60,1,1
83525,-100,4,2,1,60,0,0

[HitObjects]
64,192,1759,5,2,0:0:0:0:
192,192,1759,1,4,0:0:0:0:
448,192,1759,1,0,0:0:0:0:
320,192,1981,1,0,0:0:0:0:
320,192,2092,128,0,2314:0:0:0:0:
64,192,2203,1,2,0:0:0:0:
448,192,2203,1,0,0:0:0:0:
192,192,2314,1,0,0:0:0:0:
320,192,2425,128,0,2536:0:0:0:0:
64,192,2647,1,2,0:0:0:0:
448,192,2647,128,0,2981:0:0:0:0:
320,192,2758,128,0,2870:0:0:0:0:
192,192,2870,1,0,0:0:0:0:
64,192,3092,1,2,0:0:0:0:
192,192,3092,1,0,0:0:0:0:
448,192,3203,1,0,0:0:0:0:
192,192,3314,1,0,0:0:0:0:
192,192,3425,128,0,3536:0:0:0:0:
64,192,3536,1,2,0:0:0:0:
448,192,3536,1,0,0:0:0:0:
320,192,3647,128,0,3870:0:0:0:0:
192,192,3870,128,0,3981:0:0:0:0:
320,192,3981,1,2,0:0:0:0:
448,192,3981,1,0,0:0:0:0:
64,192,4092,1,0,0:0:0:0:
64,192,4203,128,0,4425:0:0:0:0:
320,192,4425,1,2,0:0:0:0:
448,192,4425,128,0,4758:0:0:0:0:
64,192,4536,128,0,4647:0:0:0:0:
192,192,4647,1,0,0:0:0:0:
320,192,4870,1,2,0:0:0:0:
448,192,4870,1,0,0:0:0:0:
64,192,4981,1,0,0:0:0:0:
320,192,5092,128,0,5203:0:0:0:0:
192,192,5314,128,2,5647:0:0:0:0:
320,192,5314,1,0,0:0:0:0:
448,192,5647,128,0,5758:0:0:0:0:
64,192,5758,1,2,0:0:0:0:
320,192,5758,1,0,0:0:0:0:
192,192,5870,128,0,6203:0:0:0:0:
448,192,5981,128,0,6092:0:0:0:0:
64,192,6203,1,2,0:0:0:0:
448,192,6203,128,0,6425:0:0:0:0:
64,192,6425,128,0,6647:0:0:0:0:
192,192,6647,1,2,0:0:0:0:
320,192,6647,128,0,6981:0:0:0:0:
448,192,6758,1,0,0:0:0:0:
192,192,6870,128,0,7092:0:0:0:0:
64,192,6981,128,0,7092:0:0:0:0:
320,192,7092,1,2,0:0:0:0:
448,192,7092,1,0,0:0:0:0:
192,192,7314,1,0,0:0:0:0:
64,192,7425,1,0,0:0:0:0:
320,192,7536,1,2,0:0:0:0:
448,192,7536,1,0,0:0:0:0:
320,192,7647,1,0,0:0:0:0:
192,192,7758,1,0,0:0:0:0:
448,192,7870,1,0,0:0:0:0:
64,192,7981,128,2,8203:0:0:0:0:
192,192,7981,1,0,0:0:0:0:
320,192,8203,128,0,8314:0:0:0:0:
448,192,8203,1,0,0:0:0:0:
64,192,8425,1,2,0:0:0:0:
192,192,8425,128,0,8647:0:0:0:0:
448,192,8536,128,0,8758:0:0:0:0:
64,192,8870,1,2,0:0:0:0:
192,192,8870,1,0,0:0:0:0:
192,192,9092,128,0,9203:0:0:0:0:
448,192,9203,128,0,9314:0:0:0:0:
64,192,9314,1,2,0:0:0:0:
192,192,9314,128,0,9536:0:0:0:0:
448,192,9536,1,0,0:0:0:0:
320,192,9647,128,0,9758:0:0:0:0:
64,192,9758,128,2,10092:0:0:0:0:
192,192,9758,1,0,0:0:0:0:
448,192,9870,128,0,9981:0:0:0:0:
320,192,9981,1,0,0:0:0:0:
64,192,10203,1,2,0:0:0:0:
448,192,10203,1,0,0:0:0:0:
320,192,10314,1,0,0:0:0:0:
192,192,10425,128,0,10536:0:0:0:0:
448,192,10536,128,0,10647:0:0:0:0:
64,192,10647,128,2,10870:0:0:0:0:
320,192,10647,1,0,0:0:0:0:
192,192,10758,128,0,10870:0:0:0:0:
320,192,10870,128,0,10981:0:0:0:0:
448,192,10981,1,0,0:0:0:0:
64,192,11092,1,2,0:0:0:0:
192,192,11092,128,0,11203:0:0:0:0:
320,192,11314,1,0,0:0:0:0:
320,192,11425,128,0,11536:0:0:0:0:
64,192,11536,1,2,0:0:0:0:
448,192,11536,128,0,11870:0:0:0:0:
192,192,11647,128,0,11758:0:0:0:0:
64,192,11758,1,0,0:0:0:0:
320,192,11758,1,0,0:0:0:0:
64,192,11981,1,2,0:0:0:0:
192,192,11981,1,0,0:0:0:0:
448,192,12092,1,0,0:0:0:0:
320,192,12203,1,0,0:0:0:0:
192,192,12425,128,2,12647:0:0:0:0:
320,192,12425,1,0,0:0:0:0:
448,192,12758,128,0,12870:0:0:0:0:
64,192,12870,1,2,0:0:0:0:
320,192,12870,1,0,0:0:0:0:
192,192,12981,128,0,13203:0:0:0:0:
448,192,13092,128,0,13203:0:0:0:0:
64,192,13203,1,0,0:0:0:0:
320,192,13314,128,2,13425:0:0:0:0:
448,192,13314,1,0,0:0:0:0:
64,192,13536,128,0,13758:0:0:0:0:
192,192,13536,1,0,0:0:0:0:
320,192,13758,128,2,13981:0:0:0:0:
448,192,13758,1,0,0:0:0:0:
192,192,13870,128,0,13981:0:0:0:0:
192,192,14092,128,0,14314:0:0:0:0:
64,192,14203,1,2,0:0:0:0:
448,192,14203,1,0,0:0:0:0:
320,192,14314,1,0,0:0:0:0:
64,192,14425,128,0,14536:0:0:0:0:
448,192,14536,1,0,0:0:0:0:
192,192,14647,1,2,0:0:0:0:
320,192,14647,128,0,14758:0:0:0:0:
448,192,14870,1,0,0:0:0:0:
448,192,14981,128,0,15092:0:0:0:0:
64,192,15092,1,2,0:0:0:0:
192,192,15092,128,0,15203:0:0:0:0:
320,192,15314,1,0,0:0:0:0:
320,192,15425,128,0,15536:0:0:0:0:
64,192,15536,1,2,0:0:0:0:
448,192,15536,1,0,0:0:0:0:
192,192,15647,1,0,0:0:0:0:
64,192,15981,1,2,0:0:0:0:
192,192,15981,1,0,0:0:0:0:
448,192,15981,1,0,0:0:0:0:
448,192,16203,1,0,0:0:0:0:
448,192,16314,128,0,16425:0:0:0:0:
64,192,16425,1,2,0:0:0:0:
320,192,16425,1,0,0:0:0:0:
192,192,16536,1,0,0:0:0:0:
448,192,16647,1,0,0:0:0:0:
448,192,16758,1,0,0:0:0:0:
192,192,16870,1,2,0:0:0:0:
320,192,16870,128,0,17092:0:0:0:0:
64,192,16981,128,0,17092:0:0:0:0:
448,192,17092,1,0,0:0:0:0:
320,192,17203,1,0,0:0:0:0:
64,192,17314,1,2,0:0:0:0:
192,192,17314,1,0,0:0:0:0:
448,192,17425,1,0,0:0:0:0:
192,192,17536,1,0,0:0:0:0:
192,192,17647,1,0,0:0:0:0:
320,192,17758,1,2,0:0:0:0:
448,192,17758,1,0,0:0:0:0:
448,192,17870,1,0,0:0:0:0:
192,192,17981,1,0,0:0:0:0:
64,192,18092,1,0,0:0:0:0:
320,192,18203,1,2,0:0:0:0:
448,192,18203,1,0,0:0:0:0:
320,192,18314,1,0,0:0:0:0:
64,192,18425,128,0,18536:0:0:0:0:
64,192,18647,1,2,0:0:0:0:
448,192,18647,128,0,18870:0:0:0:0:
192,192,18758,128,0,18870:0:0:0:0:
320,192,18870,1,0,0:0:0:0:
448,192,18981,1,0,0:0:0:0:
64,192,19092,1,2,0:0:0:0:
192,192,19092,1,0,0:0:0:0:
448,192,19203,1,0,0:0:0:0:
320,192,19314,128,0,19425:0:0:0:0:
64,192,19536,128,2,19870:0:0:0:0:
192,192,19536,1,0,0:0:0:0:
448,192,19870,128,0,19981:0:0:0:0:
64,192,19981,1,2,0:0:0:0:
192,192,19981,1,0,0:0:0:0:
320,192,20092,128,0,20314:0:0:0:0:
192,192,20203,128,0,20314:0:0:0:0:
64,192,20314,1,0,0:0:0:0:
320,192,20425,1,2,0:0:0:0:
448,192,20425,128,0,20536:0:0:0:0:
64,192,20647,128,0,20870:0:0:0:0:
192,192,20647,1,0,0:0:0:0:
320,192,20870,128,2,21092:0:0:0:0:
448,192,20870,1,0,0:0:0:0:
192,192,20981,128,0,21092:0:0:0:0:
64,192,21092,1,0,0:0:0:0:
192,192,21203,128,0,21425:0:0:0:0:
64,192,21314,1,2,0:0:0:0:
448,192,21314,128,0,21425:0:0:0:0:
320,192,21425,1,0,0:0:0:0:
64,192,21536,1,0,0:0:0:0:
64,192,21647,1,0,0:0:0:0:
320,192,21758,128,2,21870:0:0:0:0:
448,192,21758,1,0,0:0:0:0:
192,192,21870,1,0,0:0:0:0:
64,192,21981,1,0,0:0:0:0:
320,192,22092,1,0,0:0:0:0:
192,192,22203,128,2,22425:0:0:0:0:
448,192,22203,1,0,0:0:0:0:
320,192,22425,128,0,22536:0:0:0:0:
320,192,22647,1,2,0:0:0:0:
448,192,22647,128,0,22870:0:0:0:0:
64,192,22758,128,0,22870:0:0:0:0:
192,192,23092,1,2,0:0:0:0:
320,192,23092,1,0,0:0:0:0:
448,192,23092,1,0,0:0:0:0:
64,192,23314,1,0,0:0:0:0:
320,192,23425,1,0,0:0:0:0:
192,192,23536,1,2,0:0:0:0:
448,192,23536,1,0,0:0:0:0:
64,192,23647,1,0,0:0:0:0:
320,192,23758,128,0,23981:0:0:0:0:
192,192,23981,1,2,0:0:0:0:
448,192,23981,128,0,24314:0:0:0:0:
64,192,24092,128,0,24203:0:0:0:0:
320,192,24203,1,0,0:0:0:0:
64,192,24314,1,0,0:0:0:0:
320,192,24425,1,2,0:0:0:0:
448,192,24425,1,0,0:0:0:0:
192,192,24536,1,0,0:0:0:0:
64,192,24647,1,0,0:0:0:0:
64,192,24758,1,0,0:0:0:0:
320,192,24870,1,2,0:0:0:0:
448,192,24870,1,0,0:0:0:0:
192,192,24981,1,0,0:0:0:0:
320,192,25092,1,0,0:0:0:0:
64,192,25203,1,0,0:0:0:0:
320,192,25314,128,2,25536:0:0:0:0:
448,192,25314,1,0,0:0:0:0:
192,192,25536,128,0,25647:0:0:0:0:
320,192,25758,1,2,0:0:0:0:
448,192,25758,128,0,25981:0:0:0:0:
64,192,25870,128,0,25981:0:0:0:0:
192,192,25981,1,0,0:0:0:0:
64,192,26092,1,0,0:0:0:0:
320,192,26203,1,2,0:0:0:0:
448,192,26203,1,0,0:0:0:0:
192,192,26314,1,0,0:0:0:0:
320,192,26425,128,0,26536:0:0:0:0:
64,192,26647,128,2,26870:0:0:0:0:
448,192,26647,1,0,0:0:0:0:
192,192,26758,128,0,26870:0:0:0:0:
448,192,26981,128,0,27092:0:0:0:0:
64,192,27092,1,2,0:0:0:0:
320,192,27092,1,0,0:0:0:0:
192,192,27203,128,0,27425:0:0:0:0:
448,192,27314,128,0,27425:0:0:0:0:
192,192,27536,1,2,0:0:0:0:
320,192,27536,128,0,27647:0:0:0:0:
64,192,27758,128,0,27870:0:0:0:0:
448,192,27758,1,0,0:0:0:0:
320,192,27981,1,2,0:0:0:0:
448,192,27981,128,0,28203:0:0:0:0:
192,192,28092,128,0,28314:0:0:0:0:
64,192,28314,128,0,28425:0:0:0:0:
320,192,28425,1,2,0:0:0:0:
448,192,28425,1,0,0:0:0:0:
192,192,28647,1,0,0:0:0:0:
320,192,28758,1,0,0:0:0:0:
64,192,28870,1,2,0:0:0:0:
192,192,28870,1,0,0:0:0:0:
64,192,29092,1,0,0:0:0:0:
320,192,29314,1,2,0:0:0:0:
448,192,29314,1,0,0:0:0:0:
64,192,29536,1,8,0:0:0:0:
448,192,29536,1,0,0:0:0:0:
64,192,29758,1,8,0:0:0:0:
192,192,29758,1,0,0:0:0:0:
320,192,29870,1,2,0:0:0:0:
448,192,29870,1,0,0:0:0:0:
64,192,30092,128,2,30314:0:0:0:0:
192,192,30092,128,4,30425:0:0:0:0:
448,192,30092,1,0,0:0:0:0:
320,192,30203,128,0,30314:0:0:0:0:
448,192,30314,1,0,0:0:0:0:
320,192,30425,128,0,30536:0:0:0:0:
64,192,30647,128,2,30758:0:0:0:0:
448,192,30647,128,8,30758:0:0:0:0:
64,192,30870,128,0,31092:0:0:0:0:
192,192,30981,128,0,31092:0:0:0:0:
320,192,31092,128,2,31425:0:0:0:0:
448,192,31092,1,0,0:0:0:0:
192,192,31203,128,0,31425:0:0:0:0:
64,192,31481,1,0,0:0:0:0:
192,192,31536,1,2,0:0:0:0:
448,192,31536,128,8,31758:0:0:0:0:
320,192,31647,128,0,31758:0:0:0:0:
64,192,31870,128,8,32092:0:0:0:0:
448,192,31870,1,0,0:0:0:0:
192,192,31981,128,2,32092:0:0:0:0:
320,192,31981,1,0,0:0:0:0:
64,192,32203,128,0,32536:0:0:0:0:
320,192,32425,1,2,0:0:0:0:
448,192,32425,128,8,32647:0:0:0:0:
192,192,32536,1,0,0:0:0:0:
64,192,32647,128,0,32758:0:0:0:0:
320,192,32758,1,0,0:0:0:0:
64,192,32870,1,2,0:0:0:0:
192,192,32870,1,0,0:0:0:0:
448,192,32981,1,0,0:0:0:0:
320,192,33092,1,0,0:0:0:0:
192,192,33203,1,0,0:0:0:0:
64,192,33314,1,2,0:0:0:0:
448,192,33314,1,8,0:0:0:0:
448,192,33425,128,0,33647:0:0:0:0:
192,192,33647,128,0,33870:0:0:0:0:
320,192,33758,128,2,33870:0:0:0:0:
448,192,33758,1,0,0:0:0:0:
192,192,33981,128,0,34203:0:0:0:0:
64,192,34203,1,2,0:0:0:0:
320,192,34203,128,8,34425:0:0:0:0:
448,192,34203,1,4,0:0:0:0:
64,192,34425,128,0,34647:0:0:0:0:
320,192,34647,128,2,34870:0:0:0:0:
448,192,34647,1,0,0:0:0:0:
192,192,34870,1,0,0:0:0:0:
192,192,34981,128,0,35092:0:0:0:0:
64,192,35092,1,2,0:0:0:0:
448,192,35092,1,8,0:0:0:0:
448,192,35203,128,0,35314:0:0:0:0:
192,192,35314,1,0,0:0:0:0:
320,192,35425,1,8,0:0:0:0:
448,192,35425,128,0,35758:0:0:0:0:
64,192,35536,1,2,0:0:0:0:
192,192,35536,1,0,0:0:0:0:
64,192,35758,1,8,0:0:0:0:
192,192,35758,1,4,0:0:0:0:
320,192,35758,1,0,0:0:0:0:
320,192,35981,1,8,0:0:0:0:
448,192,35981,1,2,0:0:0:0:
64,192,36092,1,8,0:0:0:0:
192,192,36092,1,4,0:0:0:0:
448,192,36092,1,0,0:0:0:0:
64,192,36314,1,8,0:0:0:0:
192,192,36314,1,0,0:0:0:0:
64,192,36425,1,2,0:0:0:0:
320,192,36425,1,4,0:0:0:0:
448,192,36425,1,0,0:0:0:0:
192,192,36647,1,0,0:0:0:70:LR_Tom Hit.wav
320,192,36647,1,0,0:0:0:0:
448,192,36721,1,0,0:0:0:0:
64,192,36796,1,0,0:0:0:0:
320,192,36870,128,8,36981:0:0:0:0:
448,192,36870,1,2,0:0:0:0:
64,192,36981,1,8,0:0:0:0:
192,192,36981,128,0,37092:0:0:0:0:
192,192,37203,128,0,37425:0:0:0:0:
320,192,37314,128,2,37425:0:0:0:0:
448,192,37314,1,0,0:0:0:0:
64,192,37536,128,0,37758:0:0:0:0:
320,192,37758,128,8,37981:0:0:0:0:
448,192,37758,1,2,0:0:0:0:
64,192,37981,128,0,38092:0:0:0:0:
192,192,37981,1,0,0:0:0:0:
192,192,38203,128,2,38536:0:0:0:0:
320,192,38203,1,0,0:0:0:0:
448,192,38314,128,0,38536:0:0:0:0:
192,192,38647,1,8,0:0:0:0:
448,192,38647,128,2,38870:0:0:0:0:
320,192,38758,128,0,38870:0:0:0:0:
192,192,38981,128,0,39203:0:0:0:0:
320,192,39092,1,2,0:0:0:0:
448,192,39092,128,0,39203:0:0:0:0:
64,192,39314,128,0,39758:0:0:0:0:
192,192,39536,1,2,0:0:0:0:
320,192,39536,128,8,39647:0:0:0:0:
448,192,39647,128,0,39870:0:0:0:0:
64,192,39870,128,0,39981:0:0:0:0:
192,192,39981,1,2,0:0:0:0:
448,192,39981,1,0,0:0:0:0:
64,192,40425,1,2,0:0:0:0:
320,192,40425,1,8,0:0:0:0:
64,192,40536,128,0,40758:0:0:0:0:
320,192,40758,128,8,40981:0:0:0:0:
448,192,40758,1,0,0:0:0:0:
64,192,40870,1,2,0:0:0:0:
192,192,40870,128,0,40981:0:0:0:0:
192,192,41092,128,0,41314:0:0:0:0:
320,192,41314,128,8,41536:0:0:0:0:
448,192,41314,1,2,0:0:0:0:
64,192,41536,128,0,41758:0:0:0:0:
320,192,41758,128,2,41870:0:0:0:0:
448,192,41758,1,0,0:0:0:0:
64,192,41981,1,0,0:0:0:0:
320,192,42092,128,0,42314:0:0:0:0:
192,192,42203,1,8,0:0:0:0:
448,192,42203,1,2,0:0:0:0:
64,192,42314,128,0,42536:0:0:0:0:
320,192,42425,1,0,0:0:0:70:LR_Tom Normal.wav
448,192,42536,128,0,42758:0:0:0:70:LR_Tom Hit.wav
64,192,42647,1,2,0:0:0:0:
192,192,42647,128,0,42870:0:0:0:0:
64,192,42870,1,8,0:0:0:0:
320,192,42870,1,4,0:0:0:0:
448,192,42870,1,0,0:0:0:0:
320,192,43092,1,8,0:0:0:0:
448,192,43092,1,2,0:0:0:0:
64,192,43203,1,8,0:0:0:0:
192,192,43203,1,4,0:0:0:0:
448,192,43203,1,0,0:0:0:0:
192,192,43425,1,0,0:0:0:0:
192,192,43536,1,2,0:0:0:0:
320,192,43536,1,4,0:0:0:0:
448,192,43536,1,0,0:0:0:0:
64,192,43758,1,0,0:0:0:70:LR_Tom Hit.wav
448,192,43870,1,0,0:0:0:70:LR_Tom Normal.wav
192,192,43981,1,8,0:0:0:0:
320,192,43981,1,2,0:0:0:0:
64,192,44092,1,8,0:0:0:0:
448,192,44092,1,0,0:0:0:0:
192,192,44203,1,0,0:0:0:70:LR_Tom Normal.wav
192,192,44425,1,2,0:0:0:0:
320,192,44425,1,4,0:0:0:0:
448,192,44425,128,0,44647:0:0:0:0:
64,192,44647,1,0,0:0:0:0:
192,192,44758,128,0,44981:0:0:0:0:
320,192,44870,1,2,0:0:0:0:
448,192,44870,1,0,0:0:0:0:
64,192,44981,1,0,0:0:0:0:
320,192,45092,128,0,45314:0:0:0:0:
64,192,45314,1,2,0:0:0:0:
448,192,45314,128,0,45647:0:0:0:0:
320,192,45758,1,2,0:0:0:0:
448,192,45758,1,0,0:0:0:0:
192,192,45981,1,0,0:0:0:0:
192,192,46092,1,0,0:0:0:0:
320,192,46203,1,2,0:0:0:0:
448,192,46203,128,0,46425:0:0:0:0:
64,192,46425,1,0,0:0:0:0:
192,192,46536,128,0,46758:0:0:0:0:
320,192,46647,1,2,0:0:0:0:
448,192,46647,1,0,0:0:0:0:
64,192,46758,1,0,0:0:0:0:
320,192,46870,128,0,47092:0:0:0:0:
64,192,47092,1,2,0:0:0:0:
448,192,47092,128,0,47425:0:0:0:0:
320,192,47314,1,0,0:0:0:0:
192,192,47536,1,2,0:0:0:0:
448,192,47536,1,0,0:0:0:0:
320,192,47758,128,0,47870:0:0:0:0:
64,192,47981,128,2,48120:0:0:0:0:
192,192,47981,1,0,0:0:0:0:
320,192,48203,128,0,48370:0:0:0:0:
64,192,48425,128,2,48620:0:0:0:0:
448,192,48425,1,0,0:0:0:0:
320,192,48647,128,0,48870:0:0:0:0:
64,192,48870,128,2,49120:0:0:0:0:
192,192,48870,1,0,0:0:0:0:
320,192,49092,128,0,49370:0:0:0:0:
64,192,49314,128,2,49620:0:0:0:0:
448,192,49314,1,0,0:0:0:0:
320,192,49536,128,0,49758:0:0:0:0:
64,192,49758,128,2,49870:0:0:0:0:
448,192,49758,128,8,49870:0:0:0:0:
192,192,49870,1,8,0:0:0:0:
64,192,49981,1,8,0:0:0:0:
448,192,50092,1,8,0:0:0:0:
64,192,50203,1,2,0:0:0:0:
192,192,50203,1,8,0:0:0:0:
320,192,50314,1,8,0:0:0:0:
64,192,50425,1,8,0:0:0:0:
448,192,50536,1,8,0:0:0:0:
192,192,50647,128,2,50758:0:0:0:0:
320,192,50647,128,8,50758:0:0:0:0:
64,192,50758,1,8,0:0:0:0:
192,192,50870,1,8,0:0:0:0:
448,192,50981,1,8,0:0:0:0:
192,192,51092,1,2,0:0:0:0:
320,192,51092,1,8,0:0:0:0:
64,192,51203,1,8,0:0:0:0:
192,192,51314,1,8,0:0:0:0:
448,192,51425,1,8,0:0:0:0:
64,192,51536,128,2,51647:0:0:0:0:
320,192,51536,128,8,51647:0:0:0:0:
192,192,51647,1,8,0:0:0:0:
320,192,51758,1,8,0:0:0:0:
64,192,51870,1,8,0:0:0:0:
192,192,51981,1,2,0:0:0:0:
320,192,51981,1,8,0:0:0:0:
448,192,52092,1,8,0:0:0:0:
320,192,52203,1,8,0:0:0:0:
64,192,52314,1,8,0:0:0:0:
192,192,52425,1,2,0:0:0:0:
448,192,52425,1,8,0:0:0:0:
64,192,52536,1,8,0:0:0:0:
448,192,52647,1,8,0:0:0:0:
320,192,52758,1,8,0:0:0:0:
192,192,52870,1,2,0:0:0:0:
448,192,52870,1,8,0:0:0:0:
64,192,52981,1,8,0:0:0:0:
448,192,53092,1,8,0:0:0:0:
192,192,53203,1,8,0:0:0:0:
64,192,53314,1,0,0:0:0:0:
448,192,53758,1,0,0:0:0:0:
64,192,54203,1,0,0:0:0:0:
448,192,54203,128,0,54425:0:0:0:0:
192,192,54425,128,0,54647:0:0:0:0:
320,192,54647,128,0,54870:0:0:0:0:
448,192,54647,1,0,0:0:0:0:
64,192,54870,128,0,55092:0:0:0:0:
192,192,55092,1,4,0:0:0:0:
320,192,55092,1,2,0:0:0:0:
448,192,55092,128,0,55314:0:0:0:0:
448,192,55425,128,0,55758:0:0:0:0:
64,192,55536,128,8,55758:0:0:0:0:
192,192,55536,1,2,0:0:0:0:
320,192,55758,128,0,55981:0:0:0:0:
192,192,55870,128,0,55981:0:0:0:0:
448,192,55981,128,2,56203:0:0:0:0:
64,192,56092,128,0,56203:0:0:0:0:
192,192,56203,1,0,0:0:0:0:
448,192,56314,128,0,56592:0:0:0:0:
64,192,56425,1,8,0:0:0:0:
192,192,56425,128,2,56592:0:0:0:0:
64,192,56647,128,0,56870:0:0:0:0:
448,192,56758,1,0,0:0:0:0:
320,192,56870,128,2,57092:0:0:0:0:
448,192,56870,1,0,0:0:0:0:
192,192,57036,128,0,57203:0:0:0:0:
320,192,57203,128,0,57758:0:0:0:0:
64,192,57314,1,2,0:0:0:0:
192,192,57314,128,8,57536:0:0:0:0:
448,192,57536,128,0,57758:0:0:0:0:
64,192,57758,1,2,0:0:0:0:
192,192,57758,1,0,0:0:0:0:
448,192,57870,1,8,0:0:0:0:
320,192,57981,1,0,0:0:0:0:
64,192,58203,1,2,0:0:0:0:
448,192,58203,1,8,0:0:0:0:
64,192,58314,1,0,0:0:0:0:
320,192,58425,1,0,0:0:0:0:
320,192,58536,1,0,0:0:0:0:
64,192,58647,128,2,58925:0:0:0:0:
448,192,58647,1,0,0:0:0:0:
192,192,58758,128,0,58925:0:0:0:0:
320,192,58870,1,0,0:0:0:0:
448,192,58981,128,0,59314:0:0:0:0:
64,192,59092,1,8,0:0:0:0:
192,192,59092,128,2,59370:0:0:0:0:
320,192,59314,128,0,59647:0:0:0:0:
64,192,59536,128,2,59647:0:0:0:0:
448,192,59536,1,0,0:0:0:0:
192,192,59647,128,0,59758:0:0:0:0:
64,192,59758,128,0,59981:0:0:0:0:
192,192,59981,1,8,0:0:0:0:
320,192,59981,128,2,60092:0:0:0:0:
192,192,60203,128,0,60425:0:0:0:0:
320,192,60314,128,0,60425:0:0:0:0:
64,192,60425,1,2,0:0:0:0:
448,192,60425,1,0,0:0:0:0:
320,192,60647,128,0,60981:0:0:0:0:
64,192,60870,1,2,0:0:0:0:
192,192,60870,1,8,0:0:0:0:
448,192,60925,1,0,0:0:0:0:
192,192,61008,1,0,0:0:0:0:
448,192,61092,1,0,0:0:0:0:
64,192,61147,1,0,0:0:0:0:
320,192,61258,1,0,0:0:0:0:
64,192,61314,1,2,0:0:0:0:
192,192,61314,1,0,0:0:0:0:
320,192,61425,1,8,0:0:0:0:
448,192,61425,1,0,0:0:0:0:
64,192,61536,1,0,0:0:0:0:
448,192,61647,1,8,0:0:0:0:
192,192,61758,1,2,0:0:0:0:
320,192,61758,1,8,0:0:0:0:
320,192,61981,1,8,0:0:0:0:
448,192,61981,1,0,0:0:0:0:
64,192,62036,1,0,0:0:0:0:
192,192,62092,1,8,0:0:0:0:
64,192,62203,1,4,0:0:0:0:
320,192,62203,1,2,0:0:0:0:
448,192,62203,128,0,62425:0:0:0:0:
192,192,62314,128,0,62536:0:0:0:0:
448,192,62536,128,0,62758:0:0:0:0:
64,192,62647,1,8,0:0:0:0:
192,192,62647,128,2,62758:0:0:0:0:
64,192,62870,128,0,63092:0:0:0:0:
320,192,63092,1,2,0:0:0:0:
448,192,63092,1,0,0:0:0:0:
192,192,63203,1,0,0:0:0:0:
64,192,63314,128,0,63647:0:0:0:0:
448,192,63425,128,0,63758:0:0:0:0:
192,192,63536,1,10,0:0:0:0:
320,192,63647,128,0,63758:0:0:0:0:
64,192,63758,128,0,64203:0:0:0:0:
192,192,63870,128,0,64203:0:0:0:0:
320,192,63981,1,2,0:0:0:0:
448,192,63981,1,0,0:0:0:0:
320,192,64203,128,0,64536:0:0:0:0:
448,192,64314,128,0,64536:0:0:0:0:
64,192,64425,1,2,0:0:0:0:
192,192,64425,1,8,0:0:0:0:
192,192,64647,128,0,64870:0:0:0:0:
64,192,64758,128,0,64870:0:0:0:0:
320,192,64870,1,2,0:0:0:0:
448,192,64870,1,0,0:0:0:0:
192,192,64981,1,0,0:0:0:0:
192,192,65092,128,0,65314:0:0:0:0:
320,192,65314,1,2,0:0:0:0:
448,192,65314,1,8,0:0:0:0:
64,192,65536,128,0,65647:0:0:0:0:
320,192,65758,128,2,65981:0:0:0:0:
448,192,65758,1,0,0:0:0:0:
64,192,65981,128,0,66092:0:0:0:0:
448,192,66092,1,0,0:0:0:0:
64,192,66203,1,8,0:0:0:0:
192,192,66203,128,2,66647:0:0:0:0:
320,192,66314,128,0,66647:0:0:0:0:
448,192,66425,1,0,0:0:0:0:
64,192,66647,1,2,0:0:0:0:
448,192,66647,1,0,0:0:0:0:
320,192,66870,128,0,67092:0:0:0:0:
64,192,67092,128,8,67314:0:0:0:0:
192,192,67092,1,0,0:0:0:0:
320,192,67314,1,2,0:0:0:0:
448,192,67314,1,0,0:0:0:0:
192,192,67425,1,2,0:0:0:0:
64,192,67536,1,8,0:0:0:0:
320,192,67536,1,4,0:0:0:0:
448,192,67536,1,0,0:0:0:0:
64,192,67758,1,2,0:0:0:0:
192,192,67758,1,0,0:0:0:0:
320,192,67870,1,8,0:0:0:0:
448,192,67870,1,4,0:0:0:0:
192,192,67981,1,0,0:0:0:0:
64,192,68092,1,2,0:0:0:0:
448,192,68092,1,0,0:0:0:0:
64,192,68203,1,8,0:0:0:0:
192,192,68203,1,4,0:0:0:0:
320,192,68203,1,0,0:0:0:0:
320,192,68425,128,2,68536:0:0:0:0:
448,192,68425,128,0,68536:0:0:0:0:
64,192,68536,1,8,0:0:0:0:
192,192,68647,1,2,0:0:0:0:
320,192,68647,1,8,0:0:0:0:
448,192,68758,1,8,0:0:0:0:
64,192,68870,1,2,0:0:0:0:
192,192,68870,1,8,0:0:0:0:
320,192,68981,1,8,0:0:0:0:
64,192,69092,1,2,0:0:0:0:
448,192,69092,1,0,0:0:0:0:
192,192,69203,1,8,0:0:0:0:
64,192,69314,128,4,69647:0:0:0:0:
320,192,69314,1,2,0:0:0:0:
448,192,69314,1,0,0:0:0:0:
320,192,69536,1,0,0:0:0:0:
448,192,69647,128,0,69870:0:0:0:0:
64,192,69758,1,8,0:0:0:0:
192,192,69758,128,2,69925:0:0:0:0:
64,192,69981,128,0,70092:0:0:0:0:
320,192,70203,128,2,70425:0:0:0:0:
448,192,70203,1,0,0:0:0:0:
64,192,70314,1,0,0:0:0:0:
192,192,70425,1,0,0:0:0:0:
320,192,70536,128,0,70814:0:0:0:0:
64,192,70647,1,8,0:0:0:0:
448,192,70647,128,2,70814:0:0:0:0:
64,192,70870,128,0,70981:0:0:0:0:
192,192,71092,128,2,71314:0:0:0:0:
448,192,71092,1,0,0:0:0:0:
320,192,71314,1,0,0:0:0:0:
192,192,71425,128,0,71981:0:0:0:0:
64,192,71536,1,2,0:0:0:0:
448,192,71536,128,8,71758:0:0:0:0:
64,192,71758,128,0,71981:0:0:0:0:
320,192,71981,1,2,0:0:0:0:
64,192,72092,1,8,0:0:0:0:
192,192,72092,1,0,0:0:0:0:
320,192,72203,1,0,0:0:0:0:
192,192,72425,1,2,0:0:0:0:
448,192,72425,1,8,0:0:0:0:
192,192,72536,1,0,0:0:0:0:
320,192,72647,1,0,0:0:0:0:
320,192,72758,1,0,0:0:0:0:
64,192,72870,1,2,0:0:0:0:
192,192,72870,128,0,73092:0:0:0:0:
320,192,73092,1,0,0:0:0:0:
448,192,73203,128,0,73425:0:0:0:0:
64,192,73314,1,8,0:0:0:0:
192,192,73314,128,2,73481:0:0:0:0:
320,192,73481,1,0,0:0:0:0:
64,192,73536,128,0,73870:0:0:0:0:
192,192,73758,128,2,73870:0:0:0:0:
448,192,73758,1,0,0:0:0:0:
320,192,73870,1,0,0:0:0:0:
64,192,73981,128,0,74203:0:0:0:0:
320,192,74203,128,8,74425:0:0:0:0:
448,192,74203,1,2,0:0:0:0:
64,192,74425,128,0,74703:0:0:0:0:
192,192,74536,128,0,74703:0:0:0:0:
320,192,74647,1,2,0:0:0:0:
448,192,74647,1,0,0:0:0:0:
320,192,74870,128,0,75536:0:0:0:0:
192,192,75092,1,2,0:0:0:0:
448,192,75092,128,8,75314:0:0:0:0:
64,192,75314,128,0,75536:0:0:0:0:
192,192,75536,1,2,0:0:0:0:
448,192,75536,1,0,0:0:0:0:
64,192,75647,1,0,0:0:0:0:
192,192,75758,1,0,0:0:0:0:
64,192,75981,128,2,76203:0:0:0:0:
448,192,75981,1,8,0:0:0:0:
320,192,76203,1,0,0:0:0:0:
192,192,76314,1,0,0:0:0:0:
64,192,76425,1,4,0:0:0:0:
320,192,76425,128,2,76647:0:0:0:0:
448,192,76425,1,0,0:0:0:0:
192,192,76536,128,0,76758:0:0:0:0:
320,192,76758,128,0,77092:0:0:0:0:
64,192,76870,1,8,0:0:0:0:
192,192,76870,128,2,77092:0:0:0:0:
448,192,77092,128,0,77314:0:0:0:0:
64,192,77314,1,2,0:0:0:0:
192,192,77314,128,0,77536:0:0:0:0:
448,192,77425,128,0,77536:0:0:0:0:
320,192,77536,1,0,0:0:0:0:
192,192,77647,128,0,77870:0:0:0:0:
64,192,77758,128,8,77925:0:0:0:0:
448,192,77758,1,2,0:0:0:0:
320,192,77981,128,0,78314:0:0:0:0:
448,192,78092,128,0,78314:0:0:0:0:
64,192,78203,1,2,0:0:0:0:
192,192,78203,1,0,0:0:0:0:
64,192,78425,128,0,78758:0:0:0:0:
192,192,78536,128,0,78758:0:0:0:0:
320,192,78647,1,2,0:0:0:0:
448,192,78647,1,8,0:0:0:0:
192,192,78870,128,0,79092:0:0:0:0:
448,192,78981,128,0,79203:0:0:0:0:
64,192,79092,1,2,0:0:0:0:
320,192,79092,1,0,0:0:0:0:
192,192,79203,1,0,0:0:0:0:
192,192,79314,128,0,79536:0:0:0:0:
64,192,79536,1,2,0:0:0:0:
448,192,79536,1,8,0:0:0:0:
192,192,79758,128,0,79870:0:0:0:0:
64,192,79870,1,0,0:0:0:0:
320,192,79970,128,2,80192:0:0:0:0:
448,192,79970,1,0,0:0:0:0:
64,192,80192,128,0,80303:0:0:0:0:
192,192,80414,1,8,0:0:0:0:
320,192,80414,128,2,80710:0:0:0:0:
64,192,80636,128,0,80747:0:0:0:0:
64,192,80858,1,2,0:0:0:0:
320,192,80858,128,0,81192:0:0:0:0:
448,192,80970,128,0,81081:0:0:0:0:
192,192,81081,1,0,0:0:0:0:
64,192,81303,1,8,0:0:0:0:
448,192,81303,128,2,81525:0:0:0:0:
192,192,81525,128,0,81858:0:0:0:0:
64,192,81636,1,0,0:0:0:0:
320,192,81747,1,2,0:0:0:0:
448,192,81747,128,4,81858:0:0:0:0:
64,192,81858,128,8,81970:0:0:0:0:
192,192,81970,1,8,0:0:0:0:
320,192,81970,1,0,0:0:0:0:
64,192,82192,1,2,0:0:0:0:
448,192,82192,1,8,0:0:0:0:
64,192,82414,128,0,82525:0:0:0:70:LR_Tom Normal.wav
192,192,82414,128,0,82525:0:0:0:0:
320,192,82525,1,0,0:0:0:70:LR_Tom Normal.wav
192,192,82636,1,2,0:0:0:0:
448,192,82636,1,0,0:0:0:0:
64,192,82747,1,2,0:0:0:0:
320,192,82858,1,2,0:0:0:0:
448,192,82858,1,0,0:0:0:0:
192,192,82970,1,2,0:0:0:0:
64,192,83081,1,8,0:0:0:0:
448,192,83081,1,0,0:0:0:0:
320,192,83192,1,8,0:0:0:0:
64,192,83303,1,8,0:0:0:0:
192,192,83303,1,0,0:0:0:0:
320,192,83414,1,8,0:0:0:0:
64,192,83525,128,4,84414:0:0:0:0:
192,192,83525,1,2,0:0:0:0:
448,192,83525,1,0,0:0:0:0:
192,192,83970,1,8,0:0:0:0:
320,192,83970,1,2,0:0:0:0:
320,192,84192,1,0,0:0:0:0:
192,192,84303,1,0,0:0:0:0:
320,192,84414,1,2,0:0:0:0:
448,192,84414,1,0,0:0:0:0:
192,192,84525,1,8,0:0:0:0:
64,192,84636,1,8,0:0:0:0:
320,192,84747,1,8,0:0:0:0:
192,192,84858,1,2,0:0:0:0:
448,192,84858,1,0,0:0:0:0:
64,192,84970,1,8,0:0:0:0:
448,192,85081,128,8,85192:0:0:0:0:
192,192,85192,1,8,0:0:0:0:
64,192,85303,1,2,0:0:0:0:
448,192,85303,128,0,85525:0:0:0:0:
64,192,85525,1,4,0:0:0:0:
192,192,85525,1,8,0:0:0:0:
320,192,85525,1,0,0:0:0:0:
448,192,85747,1,10,0:0:0:0:
64,192,85858,1,0,0:0:0:70:LR_Tom Hit.wav
320,192,85858,1,0,0:0:0:0:
192,192,86081,1,2,0:0:0:0:
64,192,86192,1,8,0:0:0:0:
320,192,86192,1,4,0:0:0:0:
448,192,86192,1,2,0:0:0:0:
192,192,86414,1,2,0:0:0:0:
320,192,86525,1,8,0:0:0:0:
448,192,86525,1,4,0:0:0:0:
192,192,86636,1,0,0:0:0:0:
64,192,86747,1,8,0:0:0:0:
448,192,86747,1,0,0:0:0:0:
192,192,86858,1,8,0:0:0:0:
320,192,86858,1,0,0:0:0:0:
