osu file format v14

[General]
AudioFilename: audio.mp3
AudioLeadIn: 0
PreviewTime: 50202
Countdown: 0
SampleSet: Normal
StackLeniency: 0.7
Mode: 1
LetterboxInBreaks: 0
WidescreenStoryboard: 0

[Editor]
DistanceSpacing: 0.9
BeatDivisor: 4
GridSize: 32
TimelineZoom: 1.4

[Metadata]
Title:Bringer of Chaos! Ultimate
TitleUnicode:Bringer of Chaos! Ultimate
Artist:ACE
ArtistUnicode:ACE
Creator:Shinenite
Version:Oni
Source:Xenoblade Chronicles 2
Tags:raphalge nintendo vgm CHiCO Tomori Kudo 工藤ともり ゼノブレイド2
BeatmapID:1526185
BeatmapSetID:722995

[Difficulty]
HPDrainRate:5
CircleSize:2
OverallDifficulty:5
ApproachRate:8
SliderMultiplier:1.4
SliderTickRate:1

[Events]
//Background and Video events
0,0,"bringer of chaos.png",0,0
//Break Periods
//Storyboard Layer 0 (Background)
//Storyboard Layer 1 (Fail)
//Storyboard Layer 2 (Pass)
//Storyboard Layer 3 (Foreground)
//Storyboard Sound Samples

[TimingPoints]
17,370.37037037037,4,1,0,65,1,0
41868,-96.1538461538461,4,1,0,65,0,0
44831,-92.5925925925926,4,1,0,65,0,0
47424,-89.2857142857143,4,1,0,65,0,0
50387,-86.2068965517241,4,1,0,65,0,1
74091,-125,4,1,0,65,0,0
80016,-111.111111111111,4,1,0,65,0,0
84091,-100,4,1,0,65,0,0

[HitObjects]
256,192,2979,5,0,0:0:0:0:
256,192,3165,1,0,0:0:0:0:
256,192,3350,1,8,0:0:0:0:
256,192,3535,1,8,0:0:0:0:
256,192,3628,1,8,0:0:0:0:
256,192,3720,1,0,0:0:0:0:
256,192,3905,1,8,0:0:0:0:
256,192,4091,1,0,0:0:0:0:
256,192,4276,1,12,0:0:0:0:
256,192,4646,1,8,0:0:0:0:
256,192,4831,1,8,0:0:0:0:
256,192,5017,1,0,0:0:0:0:
256,192,5109,1,8,0:0:0:0:
256,192,5202,1,0,0:0:0:0:
256,192,5294,1,8,0:0:0:0:
256,192,5387,1,0,0:0:0:0:
256,192,5572,1,8,0:0:0:0:
256,192,5942,1,12,0:0:0:0:
256,192,6313,1,0,0:0:0:0:
256,192,6498,1,8,0:0:0:0:
256,192,6591,1,8,0:0:0:0:
256,192,6683,1,0,0:0:0:0:
256,192,6868,1,0,0:0:0:0:
256,192,7054,1,0,0:0:0:0:
256,192,7239,1,8,0:0:0:0:
256,192,7424,1,8,0:0:0:0:
256,192,7794,1,0,0:0:0:0:
256,192,8165,1,8,0:0:0:0:
256,192,8257,1,8,0:0:0:0:
256,192,8350,1,0,0:0:0:0:
256,192,8535,1,0,0:0:0:0:
256,192,8720,1,8,0:0:0:0:
256,192,8813,1,8,0:0:0:0:
256,192,8905,1,8,0:0:0:0:
256,192,9091,1,8,0:0:0:0:
256,192,9276,1,0,0:0:0:0:
256,192,9461,1,8,0:0:0:0:
256,192,9646,1,8,0:0:0:0:
256,192,9831,1,8,0:0:0:0:
256,192,10017,1,0,0:0:0:0:
256,192,10202,1,12,0:0:0:0:
256,192,10572,1,0,0:0:0:0:
256,192,10757,1,8,0:0:0:0:
256,192,10942,1,0,0:0:0:0:
256,192,11035,1,8,0:0:0:0:
256,192,11128,1,0,0:0:0:0:
256,192,11220,1,8,0:0:0:0:
256,192,11313,1,0,0:0:0:0:
256,192,11498,1,8,0:0:0:0:
256,224,11868,1,12,0:0:0:0:
256,224,12239,1,0,0:0:0:0:
256,192,12424,1,0,0:0:0:0:
256,192,12517,1,0,0:0:0:0:
256,192,12609,1,8,0:0:0:0:
256,192,12794,1,8,0:0:0:0:
256,192,12979,1,0,0:0:0:0:
256,192,13165,1,0,0:0:0:0:
256,192,13350,1,8,0:0:0:0:
256,192,13720,1,8,0:0:0:0:
256,192,14091,1,8,0:0:0:0:
256,192,14276,1,0,0:0:0:0:
256,192,14368,1,0,0:0:0:0:
256,192,14461,1,8,0:0:0:0:
256,192,14554,1,8,0:0:0:0:
256,192,14646,1,0,0:0:0:0:
256,192,14739,1,0,0:0:0:0:
256,192,14831,1,8,0:0:0:0:
256,192,15017,1,8,0:0:0:0:
256,192,15202,1,0,0:0:0:0:
256,192,15387,1,8,0:0:0:0:
256,192,15479,1,8,0:0:0:0:
256,192,15572,1,0,0:0:0:0:
256,192,15757,1,0,0:0:0:0:
256,192,15942,1,0,0:0:0:0:
256,192,16128,1,12,0:0:0:0:
256,192,16498,1,0,0:0:0:0:
256,192,16683,1,8,0:0:0:0:
256,192,16868,1,8,0:0:0:0:
256,192,16961,1,8,0:0:0:0:
256,192,17054,1,0,0:0:0:0:
256,192,17146,1,0,0:0:0:0:
256,192,17239,1,8,0:0:0:0:
256,192,17424,1,0,0:0:0:0:
256,192,17794,1,12,0:0:0:0:
256,192,18165,1,8,0:0:0:0:
256,192,18350,1,0,0:0:0:0:
256,192,18442,1,0,0:0:0:0:
256,192,18535,1,8,0:0:0:0:
256,192,18720,1,0,0:0:0:0:
256,192,18905,1,0,0:0:0:0:
256,192,19091,1,8,0:0:0:0:
256,192,19276,1,0,0:0:0:0:
256,192,19646,1,8,0:0:0:0:
256,192,20017,1,8,0:0:0:0:
256,192,20109,1,8,0:0:0:0:
256,192,20202,1,0,0:0:0:0:
256,192,20294,1,0,0:0:0:0:
256,192,20387,1,8,0:0:0:0:
256,192,20572,1,8,0:0:0:0:
256,192,20665,1,8,0:0:0:0:
256,192,20757,1,0,0:0:0:0:
256,192,20942,1,8,0:0:0:0:
256,192,21128,1,8,0:0:0:0:
256,192,21313,1,0,0:0:0:0:
256,192,21405,1,0,0:0:0:0:
256,192,21498,1,8,0:0:0:0:
256,192,21683,1,8,0:0:0:0:
256,192,21868,1,0,0:0:0:0:
256,192,22054,1,12,0:0:0:0:
256,192,22424,1,8,0:0:0:0:
256,192,22609,1,8,0:0:0:0:
256,192,22794,1,0,0:0:0:0:
256,192,22979,1,8,0:0:0:0:
256,192,23072,1,8,0:0:0:0:
256,192,23165,1,0,0:0:0:0:
256,192,23350,1,8,0:0:0:0:
256,192,23720,1,12,0:0:0:0:
256,192,24091,1,0,0:0:0:0:
256,192,24276,1,8,0:0:0:0:
256,192,24368,1,8,0:0:0:0:
256,192,24461,1,0,0:0:0:0:
256,192,24646,1,8,0:0:0:0:
256,192,24831,1,8,0:0:0:0:
256,192,25017,1,0,0:0:0:0:
256,192,25202,1,12,0:0:0:0:
256,192,25387,1,0,0:0:0:0:
256,192,25479,1,0,0:0:0:0:
256,192,25572,1,8,0:0:0:0:
256,192,25757,1,0,0:0:0:0:
256,192,25942,1,8,0:0:0:0:
256,192,26035,1,8,0:0:0:0:
256,192,26128,1,0,0:0:0:0:
256,192,26313,1,0,0:0:0:0:
256,192,26405,1,0,0:0:0:0:
256,192,26498,1,8,0:0:0:0:
256,192,26683,1,4,0:0:0:0:
256,192,26868,1,8,0:0:0:0:
256,192,26961,1,8,0:0:0:0:
256,192,27054,1,0,0:0:0:0:
256,192,27239,1,0,0:0:0:0:
256,192,27331,1,0,0:0:0:0:
256,192,27424,1,8,0:0:0:0:
256,192,27609,1,8,0:0:0:0:
256,192,27702,1,8,0:0:0:0:
256,192,27794,1,0,0:0:0:0:
256,192,27979,1,0,0:0:0:0:
256,192,28072,1,0,0:0:0:0:
256,192,28165,1,8,0:0:0:0:
256,192,28350,1,0,0:0:0:0:
256,192,28535,1,8,0:0:0:0:
256,192,28720,1,0,0:0:0:0:
256,192,28905,1,0,0:0:0:0:
256,192,28998,1,0,0:0:0:0:
256,192,29091,1,8,0:0:0:0:
256,192,29276,1,0,0:0:0:0:
256,192,29646,1,12,0:0:0:0:
256,192,30017,1,0,0:0:0:0:
256,192,30202,1,8,0:0:0:0:
256,192,30294,1,8,0:0:0:0:
256,192,30387,1,0,0:0:0:0:
224,192,30572,1,8,0:0:0:0:
256,192,30757,1,0,0:0:0:0:
256,192,30942,1,8,0:0:0:0:
256,192,31313,1,0,0:0:0:0:
256,192,31498,1,8,0:0:0:0:
256,192,31683,1,0,0:0:0:0:
256,192,31868,1,8,0:0:0:0:
256,192,32054,1,0,0:0:0:0:
256,192,32146,1,0,0:0:0:0:
256,192,32239,1,0,0:0:0:0:
256,192,32331,1,0,0:0:0:0:
256,192,32424,1,0,0:0:0:0:
256,192,32517,1,0,0:0:0:0:
256,192,32609,1,8,0:0:0:0:
256,192,32794,1,0,0:0:0:0:
256,192,32887,1,0,0:0:0:0:
256,192,32979,1,8,0:0:0:0:
256,192,33165,1,8,0:0:0:0:
256,192,33257,1,8,0:0:0:0:
256,192,33350,1,0,0:0:0:0:
256,192,33535,1,0,0:0:0:0:
256,192,33628,1,0,0:0:0:0:
256,192,33720,1,8,0:0:0:0:
256,192,33905,1,8,0:0:0:0:
256,192,33998,1,8,0:0:0:0:
256,192,34091,1,0,0:0:0:0:
256,192,34276,1,8,0:0:0:0:
256,192,34461,1,0,0:0:0:0:
256,192,34646,1,8,0:0:0:0:
256,192,34739,1,8,0:0:0:0:
256,192,34831,1,0,0:0:0:0:
256,192,34924,1,0,0:0:0:0:
256,192,35017,1,8,0:0:0:0:
256,192,35109,1,8,0:0:0:0:
256,192,35202,1,0,0:0:0:0:
256,192,35387,1,0,0:0:0:0:
256,192,35572,1,12,0:0:0:0:
256,192,35942,1,8,0:0:0:0:
256,192,36128,1,8,0:0:0:0:
256,192,36220,1,8,0:0:0:0:
256,192,36313,1,0,0:0:0:0:
256,192,36498,1,8,0:0:0:0:
256,192,36683,1,0,0:0:0:0:
256,192,36868,1,4,0:0:0:0:
256,192,37239,1,8,0:0:0:0:
256,192,37424,1,0,0:0:0:0:
256,192,37794,1,8,0:0:0:0:
256,192,37887,1,8,0:0:0:0:
256,192,37979,1,0,0:0:0:0:
256,192,38072,1,0,0:0:0:0:
256,192,38165,1,0,0:0:0:0:
256,192,38257,1,0,0:0:0:0:
256,192,38350,1,0,0:0:0:0:
256,192,38442,1,0,0:0:0:0:
256,192,38535,1,8,0:0:0:0:
256,192,38905,1,8,0:0:0:0:
256,192,39091,1,0,0:0:0:0:
256,192,39276,1,8,0:0:0:0:
256,192,39461,1,0,0:0:0:0:
256,192,39646,1,8,0:0:0:0:
256,192,39831,1,0,0:0:0:0:
256,192,39924,1,0,0:0:0:0:
256,192,40017,1,8,0:0:0:0:
256,192,40202,1,0,0:0:0:0:
256,192,40387,1,8,0:0:0:0:
256,192,40572,1,8,0:0:0:0:
256,192,40757,1,0,0:0:0:0:
256,192,40942,1,0,0:0:0:0:
256,192,41128,1,8,0:0:0:0:
256,192,41313,1,0,0:0:0:0:
256,192,41498,1,12,0:0:0:0:
256,192,41868,1,0,0:0:0:0:
256,192,42054,1,8,0:0:0:0:
256,192,42239,1,0,0:0:0:0:
256,192,42424,1,8,0:0:0:0:
256,192,42609,1,0,0:0:0:0:
256,192,42794,1,8,0:0:0:0:
256,192,42887,1,8,0:0:0:0:
256,192,42979,1,0,0:0:0:0:
256,192,43350,1,0,0:0:0:0:
256,192,43535,1,8,0:0:0:0:
256,192,43720,1,0,0:0:0:0:
256,192,43905,1,8,0:0:0:0:
256,192,44091,1,0,0:0:0:0:
256,192,44183,1,0,0:0:0:0:
256,192,44276,1,8,0:0:0:0:
256,192,44368,1,8,0:0:0:0:
256,192,44461,1,0,0:0:0:0:
256,192,44831,1,0,0:0:0:0:
256,192,45017,1,8,0:0:0:0:
256,192,45202,1,0,0:0:0:0:
256,192,45387,1,8,0:0:0:0:
256,192,45572,1,0,0:0:0:0:
256,192,45757,1,0,0:0:0:0:
256,192,45850,1,0,0:0:0:0:
256,192,45942,1,8,0:0:0:0:
256,192,46128,1,8,0:0:0:0:
256,192,46313,1,0,0:0:0:0:
256,192,46498,1,8,0:0:0:0:
256,192,46683,1,8,0:0:0:0:
256,192,46868,1,0,0:0:0:0:
256,192,47054,1,8,0:0:0:0:
256,192,47424,1,12,0:0:0:0:
256,192,47794,1,12,0:0:0:0:
256,192,48165,1,12,0:0:0:0:
256,192,48350,1,0,0:0:0:0:
256,192,48442,1,0,0:0:0:0:
256,192,48535,1,0,0:0:0:0:
256,192,48628,1,0,0:0:0:0:
256,192,48720,1,8,0:0:0:0:
256,192,48905,12,0,49646,0:0:0:0:
256,192,49831,5,0,0:0:0:0:
256,192,49924,1,0,0:0:0:0:
256,192,50017,1,8,0:0:0:0:
256,192,50387,1,4,0:0:0:0:
256,192,50757,1,8,0:0:0:0:
256,192,50942,1,8,0:0:0:0:
256,192,51035,1,0,0:0:0:0:
256,192,51128,1,8,0:0:0:0:
256,192,51220,1,0,0:0:0:0:
256,192,51313,1,8,0:0:0:0:
256,192,51498,1,8,0:0:0:0:
256,192,51776,1,8,0:0:0:0:
256,192,51868,1,0,0:0:0:0:
256,192,52054,1,0,0:0:0:0:
256,192,52239,1,8,0:0:0:0:
256,192,52424,1,0,0:0:0:0:
256,192,52517,1,0,0:0:0:0:
256,192,52702,1,8,0:0:0:0:
256,192,52794,1,8,0:0:0:0:
256,192,52979,1,8,0:0:0:0:
256,192,53165,1,8,0:0:0:0:
256,192,53257,1,8,0:0:0:0:
256,192,53350,1,0,0:0:0:0:
256,192,53720,1,8,0:0:0:0:
256,192,53905,1,0,0:0:0:0:
256,192,53998,1,8,0:0:0:0:
256,192,54091,1,0,0:0:0:0:
256,192,54183,1,8,0:0:0:0:
256,192,54276,1,0,0:0:0:0:
256,192,54461,1,8,0:0:0:0:
256,192,54831,1,8,0:0:0:0:
256,192,55017,1,0,0:0:0:0:
256,192,55202,1,0,0:0:0:0:
256,192,55479,1,8,0:0:0:0:
256,192,55572,1,0,0:0:0:0:
256,192,55757,1,0,0:0:0:0:
256,192,55942,1,8,0:0:0:0:
256,192,56128,1,8,0:0:0:0:
256,192,56220,1,8,0:0:0:0:
256,192,56313,1,0,0:0:0:0:
256,192,56683,1,8,0:0:0:0:
256,192,56961,1,8,0:0:0:0:
256,192,57054,1,0,0:0:0:0:
256,192,57239,1,0,0:0:0:0:
256,192,57331,1,0,0:0:0:0:
256,192,57424,1,8,0:0:0:0:
256,192,57702,1,0,0:0:0:0:
256,192,57794,1,8,0:0:0:0:
256,192,57979,1,0,0:0:0:0:
256,192,58072,1,0,0:0:0:0:
256,192,58165,1,8,0:0:0:0:
256,192,58442,1,8,0:0:0:0:
256,192,58720,1,0,0:0:0:0:
256,192,58905,1,8,0:0:0:0:
256,192,58998,1,8,0:0:0:0:
256,192,59091,1,0,0:0:0:0:
256,192,59183,1,0,0:0:0:0:
256,192,59276,1,8,0:0:0:0:
256,192,59646,1,0,0:0:0:0:
256,192,60016,1,8,0:0:0:0:
256,192,60387,1,0,0:0:0:0:
256,192,60757,1,12,0:0:0:0:
256,192,60942,1,4,0:0:0:0:
256,192,61128,1,12,0:0:0:0:
256,192,61313,1,4,0:0:0:0:
256,192,61498,1,12,0:0:0:0:
256,192,61683,1,0,0:0:0:0:
256,192,61776,1,0,0:0:0:0:
256,192,61868,1,8,0:0:0:0:
256,192,62054,1,8,0:0:0:0:
256,192,62146,1,8,0:0:0:0:
256,192,62239,1,8,0:0:0:0:
256,192,62331,1,8,0:0:0:0:
256,192,62424,1,0,0:0:0:0:
256,192,62609,1,12,0:0:0:0:
256,192,62887,1,8,0:0:0:0:
256,192,62979,1,0,0:0:0:0:
256,192,63165,1,8,0:0:0:0:
256,192,63350,1,0,0:0:0:0:
256,192,63628,1,8,0:0:0:0:
256,192,63720,1,0,0:0:0:0:
256,192,63905,1,8,0:0:0:0:
256,192,64091,1,0,0:0:0:0:
256,192,64276,1,0,0:0:0:0:
256,192,64646,1,8,0:0:0:0:
256,192,64831,1,0,0:0:0:0:
256,192,65017,1,8,0:0:0:0:
256,192,65109,1,8,0:0:0:0:
256,192,65202,1,0,0:0:0:0:
256,192,65387,1,8,0:0:0:0:
256,192,65479,1,8,0:0:0:0:
256,192,65572,1,0,0:0:0:0:
256,192,65942,1,0,0:0:0:0:
256,192,66035,1,0,0:0:0:0:
256,192,66128,1,8,0:0:0:0:
256,192,66220,1,0,0:0:0:0:
256,192,66313,1,0,0:0:0:0:
256,192,66683,1,8,0:0:0:0:
256,192,66776,1,8,0:0:0:0:
256,192,66868,1,0,0:0:0:0:
256,192,66961,1,0,0:0:0:0:
256,192,67054,1,8,0:0:0:0:
256,192,67239,1,0,0:0:0:0:
256,192,67424,1,8,0:0:0:0:
256,192,67609,1,0,0:0:0:0:
256,192,67794,1,8,0:0:0:0:
256,192,67887,1,8,0:0:0:0:
256,192,67979,1,8,0:0:0:0:
256,192,68072,1,8,0:0:0:0:
256,192,68165,1,0,0:0:0:0:
256,192,68535,1,8,0:0:0:0:
256,192,68813,1,8,0:0:0:0:
256,192,68905,1,0,0:0:0:0:
256,192,68998,1,8,0:0:0:0:
256,192,69091,1,0,0:0:0:0:
256,192,69276,1,8,0:0:0:0:
256,192,69554,1,8,0:0:0:0:
256,192,69646,1,0,0:0:0:0:
256,192,69831,1,8,0:0:0:0:
256,192,70017,1,0,0:0:0:0:
256,192,70202,1,8,0:0:0:0:
256,192,70294,1,0,0:0:0:0:
256,192,70479,1,0,0:0:0:0:
256,192,70572,1,8,0:0:0:0:
256,192,70757,1,8,0:0:0:0:
256,192,70850,1,8,0:0:0:0:
256,192,70942,1,0,0:0:0:0:
256,192,71035,1,0,0:0:0:0:
256,192,71128,1,12,0:0:0:0:
256,192,71313,1,0,0:0:0:0:
256,192,71498,1,0,0:0:0:0:
256,192,71868,1,12,0:0:0:0:
256,192,72054,1,0,0:0:0:0:
256,192,72239,1,0,0:0:0:0:
256,192,72609,1,12,0:0:0:0:
256,192,72794,1,4,0:0:0:0:
256,192,72979,1,12,0:0:0:0:
256,192,73165,1,4,0:0:0:0:
256,192,73350,1,12,0:0:0:0:
256,192,73720,1,8,0:0:0:0:
256,192,74091,1,12,0:0:0:0:
256,192,74461,1,0,0:0:0:0:
256,192,74831,1,8,0:0:0:0:
256,192,75202,1,8,0:0:0:0:
256,192,75387,1,0,0:0:0:0:
256,192,75572,1,0,0:0:0:0:
256,192,75850,1,8,0:0:0:0:
256,192,75942,1,0,0:0:0:0:
256,192,76128,1,0,0:0:0:0:
256,192,76313,1,8,0:0:0:0:
256,192,76683,1,12,0:0:0:0:
256,192,76868,1,0,0:0:0:0:
256,192,77054,1,4,0:0:0:0:
256,192,77424,1,0,0:0:0:0:
256,192,77609,1,0,0:0:0:0:
256,192,77794,1,8,0:0:0:0:
256,192,78165,1,8,0:0:0:0:
256,192,78350,1,0,0:0:0:0:
256,192,78535,1,0,0:0:0:0:
256,192,78813,1,8,0:0:0:0:
256,192,78905,1,0,0:0:0:0:
256,192,79091,1,8,0:0:0:0:
256,192,79276,1,0,0:0:0:0:
256,192,79554,1,0,0:0:0:0:
256,192,79646,1,0,0:0:0:0:
256,192,79831,1,0,0:0:0:0:
256,192,80017,1,12,0:0:0:0:
256,192,80387,1,0,0:0:0:0:
256,192,80572,1,0,0:0:0:0:
256,192,80757,1,8,0:0:0:0:
256,192,81128,1,8,0:0:0:0:
256,192,81313,1,0,0:0:0:0:
256,192,81498,1,0,0:0:0:0:
256,192,81776,1,0,0:0:0:0:
256,192,81868,1,0,0:0:0:0:
160,128,82054,1,0,0:0:0:0:
256,192,82239,1,8,0:0:0:0:
224,192,82609,1,12,0:0:0:0:
256,192,82794,1,0,0:0:0:0:
256,192,82979,1,0,0:0:0:0:
256,192,83350,1,0,0:0:0:0:
256,192,83535,1,0,0:0:0:0:
256,192,83720,1,8,0:0:0:0:
256,192,84091,1,8,0:0:0:0:
256,192,84183,1,8,0:0:0:0:
256,192,84276,1,0,0:0:0:0:
256,192,84368,1,0,0:0:0:0:
256,192,84461,1,8,0:0:0:0:
256,192,84831,1,0,0:0:0:0:
256,192,85202,1,8,0:0:0:0:
256,192,85387,1,0,0:0:0:0:
256,192,85572,1,0,0:0:0:0:
256,192,85757,1,8,0:0:0:0:
256,192,86128,1,0,0:0:0:0:
256,192,86313,1,8,0:0:0:0:
256,192,86498,1,8,0:0:0:0:
256,192,86683,1,0,0:0:0:0:
256,192,86961,1,8,0:0:0:0:
256,192,87054,1,0,0:0:0:0:
256,192,87146,1,8,0:0:0:0:
256,192,87239,1,0,0:0:0:0:
256,192,87424,1,12,0:0:0:0:
256,192,87794,1,8,0:0:0:0:
256,192,87979,1,0,0:0:0:0:
256,192,88072,1,0,0:0:0:0:
256,192,88165,1,8,0:0:0:0:
256,192,88350,1,0,0:0:0:0:
256,192,88535,1,8,0:0:0:0:
256,192,88720,1,0,0:0:0:0:
256,192,89091,1,0,0:0:0:0:
256,192,89276,1,8,0:0:0:0:
256,192,89461,1,0,0:0:0:0:
256,192,89554,1,0,0:0:0:0:
256,192,89646,1,8,0:0:0:0:
256,192,89739,1,8,0:0:0:0:
256,192,89831,1,0,0:0:0:0:
256,192,89924,1,0,0:0:0:0:
256,192,90017,1,8,0:0:0:0:
256,192,90109,1,8,0:0:0:0:
256,192,90202,1,0,0:0:0:0:
256,192,90387,1,12,0:0:0:0:
