osu file format v14

[General]
AudioFilename: audio.mp3
AudioLeadIn: 0
PreviewTime: 123669
Countdown: 1
SampleSet: Soft
StackLeniency: 0.7
Mode: 0
LetterboxInBreaks: 0
WidescreenStoryboard: 0

[Editor]
Bookmarks: 164855
DistanceSpacing: 1.5
BeatDivisor: 4
GridSize: 32
TimelineZoom: 1

[Metadata]
Title:Beneath the Mask (New Arrangement)
TitleUnicode:Beneath the Mask (New Arrangement)
Artist:ACE (TOMOri Kudo / CHiCO)
ArtistUnicode:ACE (TOMOri Kudo / CHiCO)
Creator:DeviousPanda
Version:Lost
Source:Persona 5
Tags:Super Smash Bros. Ultimate Shin Megami Tensei Shoji Meguro Lyn Inaizumi Rike Schmalz
BeatmapID:2006719
BeatmapSetID:958423

[Difficulty]
HPDrainRate:4.8
CircleSize:4.4
OverallDifficulty:8.9
ApproachRate:9.3
SliderMultiplier:2.8
SliderTickRate:1

[Events]
//Background and Video events
0,0,"Persona-5-Wallpaper-HD-PIC-WPHR23631.jpg",0,0
//Break Periods
2,65776,72776
2,77979,119683
2,124377,127183
2,136453,164301
//Storyboard Layer 0 (Background)
//Storyboard Layer 1 (Fail)
//Storyboard Layer 2 (Pass)
//Storyboard Layer 3 (Foreground)
//Storyboard Sound Samples

[TimingPoints]
110,508.474576271186,4,2,1,50,1,0
110,-66.6666666666667,4,2,1,50,0,1
491,-57.1428571428571,4,2,1,50,0,1
682,-66.6666666666667,4,2,1,5,0,1
745,-66.6666666666667,4,2,1,50,0,1
1254,-100,4,2,1,50,0,1
1444,-66.6666666666667,4,2,1,5,0,1
1507,-66.6666666666667,4,2,1,50,0,1
1635,-100,4,2,1,50,0,1
2143,-133.333333333333,4,2,1,50,0,0
4177,-66.6666666666667,4,2,1,50,0,1
4558,-57.1428571428571,4,2,1,50,0,1
4749,-66.6666666666667,4,2,1,5,0,1
4812,-66.6666666666667,4,2,1,50,0,1
5321,-100,4,2,1,50,0,1
5511,-66.6666666666667,4,2,1,5,0,1
5574,-66.6666666666667,4,2,1,50,0,1
5702,-100,4,2,1,50,0,1
6211,-133.333333333333,4,2,1,50,0,0
8245,-66.6666666666667,4,2,1,50,0,1
8626,-100,4,2,1,50,0,1
9008,-66.6666666666667,4,2,1,50,0,1
9389,-100,4,2,1,50,0,1
9771,-66.6666666666667,4,2,1,50,0,1
10025,-100,4,2,1,50,0,1
10279,-133.333333333333,4,2,1,50,0,0
12313,-66.6666666666667,4,2,1,50,0,1
12694,-80,4,2,1,50,0,1
13076,-100,4,2,1,50,0,1
13457,-133.333333333333,4,2,1,50,0,1
13838,-200,4,2,1,50,0,1
14347,-200,4,2,1,50,0,0
16381,-100,4,2,1,50,0,0
16889,-133.333333333333,4,2,1,50,0,0
18415,-100,4,2,1,50,0,0
18923,-133.333333333333,4,2,1,50,0,0
20448,-100,4,2,1,50,0,0
20957,-133.333333333333,4,2,1,50,0,0
22482,-100,4,2,1,50,0,0
22991,-133.333333333333,4,2,1,50,0,0
24516,-100,4,2,1,50,0,0
25025,-133.333333333333,4,2,1,50,0,0
26550,-100,4,2,1,50,0,0
27059,-133.333333333333,4,2,1,50,0,0
28584,-100,4,2,1,50,0,0
29093,-133.333333333333,4,2,1,50,0,0
32652,-66.6666666666667,4,2,1,50,0,1
37737,-80,4,2,1,50,0,1
38118,-66.6666666666667,4,2,1,50,0,1
42821,-80,4,2,1,50,0,1
43330,-66.6666666666667,4,2,1,50,0,1
48415,-133.333333333333,4,2,1,50,0,0
48923,-66.6666666666667,4,2,1,50,0,1
49432,-57.1428571428571,4,2,1,50,0,1
49686,-66.6666666666667,4,2,1,50,0,1
50067,-80,4,2,1,50,0,1
50448,-66.6666666666667,4,2,1,50,0,1
50703,-100,4,2,1,50,0,1
50957,-133.333333333333,4,2,1,50,0,0
52991,-66.6666666666667,4,2,1,50,0,1
53499,-57.1428571428571,4,2,1,50,0,1
53753,-66.6666666666667,4,2,1,50,0,1
54134,-80,4,2,1,50,0,1
54515,-66.6666666666667,4,2,1,50,0,1
54771,-100,4,2,1,50,0,1
55025,-133.333333333333,4,2,1,50,0,0
73330,-57.1428571428571,4,2,1,50,0,1
74093,-66.6666666666667,4,2,1,50,0,1
88584,-133.333333333333,4,2,1,50,0,0
89601,-66.6666666666667,4,2,1,50,0,1
105872,-133.333333333333,4,2,1,50,0,0
128245,-66.6666666666667,4,2,1,50,0,1
129516,-133.333333333333,4,2,1,50,0,1
130279,-66.6666666666667,4,2,1,50,0,1
131804,-133.333333333333,4,2,1,50,0,1
132694,-66.6666666666667,4,2,1,50,0,1
134347,-133.333333333333,4,2,1,50,0,1
139940,-133.333333333333,4,2,1,50,0,0
140448,-66.6666666666667,4,2,1,50,0,1
156211,-133.333333333333,4,2,1,50,0,0
156720,-66.6666666666667,4,2,1,50,0,1
158754,-133.333333333333,4,2,1,50,0,0
160787,-66.6666666666667,4,2,1,50,0,1
162821,-133.333333333333,4,2,1,50,0,0
172991,-133.333333333333,4,2,1,5,0,0

[Colours]
Combo1 : 138,81,17
Combo2 : 0,128,128
Combo3 : 192,192,192
Combo4 : 140,0,0

[HitObjects]
269,278,110,38,0,B|335:308|381:269|381:269|382:216|335:197,1,210.000008010865
355,50,491,6,0,B|327:84|336:121|336:121|392:133|427:176,1,183.750001752377
426,187,745,37,0,0:0:0:0:
261,67,872,2,0,B|250:124|269:165|269:165|235:223|183:235,1,210.000008010865
150,327,1254,6,0,B|174:305|203:310|203:310|215:333|241:343,1,105
249,336,1508,37,0,0:0:0:0:
105,246,1635,2,0,L|112:172,1,70
94,258,1889,2,0,L|101:184,1,70
401,120,2143,22,0,B|414:95|404:68|404:68|386:88|391:117,1,105.000004005432
445,206,2525,1,0,0:0:0:0:
449,193,2652,5,0,0:0:0:0:
409,210,2779,1,0,0:0:0:0:
353,198,2906,1,0,0:0:0:0:
317,155,3033,1,0,0:0:0:0:
307,102,3160,37,0,0:0:0:0:
270,34,3287,5,0,0:0:0:0:
179,23,3415,37,0,0:0:0:0:
109,109,3542,5,0,0:0:0:0:
143,218,3669,37,0,0:0:0:0:
155,229,3796,2,0,P|183:224|210:207,1,52.5000020027161
118,118,4050,21,0,0:0:0:0:
0,268,4177,2,0,B|58:237|107:266|99:278|93:290|142:321|199:291,1,210.000008010865
288,80,4559,6,0,B|253:101|253:141|253:141|298:183|278:252,1,183.750001752377
270,256,4813,37,0,0:0:0:0:
375,383,4940,2,0,B|381:342|345:290|345:290|314:346|252:337,1,210.000008010865
392,175,5321,6,0,B|365:189|362:215|362:215|389:222|407:246,1,105
418,243,5576,37,0,0:0:0:0:
470,188,5703,1,0,0:0:0:0:
453,115,5830,1,0,0:0:0:0:
378,94,5957,1,0,0:0:0:0:
315,139,6084,1,0,0:0:0:0:
238,156,6211,22,0,B|192:163|171:127|171:127|174:82|212:65,1,157.500006008148
62,16,6720,5,0,0:0:0:0:
104,71,6846,1,0,0:0:0:0:
93,139,6973,1,0,0:0:0:0:
43,187,7101,1,0,0:0:0:0:
16,235,7228,1,0,0:0:0:0:
27,290,7355,1,0,0:0:0:0:
75,324,7482,1,0,0:0:0:0:
131,306,7609,37,0,0:0:0:0:
126,296,7673,1,0,0:0:0:0:
121,286,7737,1,0,0:0:0:0:
164,217,7864,5,0,0:0:0:0:
65,159,7991,37,0,0:0:0:0:
209,72,8118,5,0,0:0:0:0:
44,12,8245,5,0,0:0:0:0:
34,18,8372,2,0,P|84:33|134:19,1,105.000004005432
288,44,8626,5,0,0:0:0:0:
287,120,8753,2,0,P|299:91|284:20,1,70
209,72,9008,37,0,0:0:0:0:
132,132,9135,2,0,P|160:119|204:54,1,105.000004005432
389,66,9389,5,0,0:0:0:0:
397,55,9516,2,0,P|384:26|324:-13,1,70
438,193,9771,38,0,P|421:251|418:315,1,105.000004005432
299,113,10025,2,0,P|312:149|317:197,1,70
243,343,10279,21,0,0:0:0:0:
171,276,10406,2,0,P|116:284|91:299,1,52.5000020027161
312,256,10660,5,0,0:0:0:0:
307,270,10787,2,0,P|341:313|366:327,1,52.5000020027161
206,155,11042,37,0,0:0:0:0:
300,126,11169,2,0,P|320:74|320:45,1,52.5000020027161
487,275,11423,5,0,0:0:0:0:
441,226,11550,1,0,0:0:0:0:
371,216,11677,1,0,0:0:0:0:
312,253,11804,1,0,0:0:0:0:
263,313,11932,37,0,0:0:0:0:
160,337,12059,5,0,0:0:0:0:
72,258,12186,37,0,0:0:0:0:
87,115,12313,22,0,B|107:76|137:70|137:70|211:76|237:157,1,210.000008010865
344,377,12694,6,0,B|307:378|290:359|290:359|264:303|311:251,1,175
402,98,13076,38,0,B|417:122|411:141|411:141|383:182|327:170,1,140
159,188,13457,6,0,B|157:166|169:156|169:156|202:140|234:168,1,105.000004005432
328,292,13838,38,0,P|321:268|326:239,1,35
358,135,14093,2,0,P|340:153|313:163,1,35
173,237,14347,22,0,B|160:218|165:204|165:204|186:173|227:182,1,105.000004005432
348,23,14855,5,0,0:0:0:0:
298,68,14982,1,0,0:0:0:0:
231,63,15109,1,0,0:0:0:0:
178,17,15237,1,0,0:0:0:0:
159,95,15364,37,0,0:0:0:0:
148,90,15491,1,0,0:0:0:0:
90,208,15618,5,0,0:0:0:0:
150,165,15745,1,0,0:0:0:0:
224,177,15872,37,0,0:0:0:0:
268,237,15999,5,0,0:0:0:0:
347,254,16126,37,0,0:0:0:0:
435,215,16254,5,0,0:0:0:0:
462,93,16381,38,0,B|453:33|378:22|333:97|399:168,1,210
427,227,16889,5,0,0:0:0:0:
435,215,17016,2,0,P|458:244|461:283,1,52.5000020027161
328,5,17271,37,0,0:0:0:0:
337,17,17398,2,0,P|314:46|308:85,1,52.5000020027161
331,201,17652,5,0,0:0:0:0:
364,266,17779,2,0,L|351:326,2,52.5000020027161
195,85,18160,37,0,0:0:0:0:
189,74,18287,1,0,0:0:0:0:
161,147,18415,2,0,B|218:175|261:132|257:124|253:116|299:73|356:104,1,210
265,297,18923,6,0,P|242:285|217:244,1,52.5000020027161
152,277,19177,1,0,0:0:0:0:
139,282,19304,2,0,P|137:256|160:213,1,52.5000020027161
98,174,19559,2,0,P|119:160|167:158,1,52.5000020027161
4,384,19813,37,0,0:0:0:0:
39,321,19940,2,0,L|20:188,1,105.000004005432
72,23,20321,5,0,0:0:0:0:
20,75,20448,2,0,B|59:109|108:89|108:89|160:36|223:55,1,210
161,202,20957,37,0,0:0:0:0:
186,134,21084,1,0,0:0:0:0:
239,189,21211,1,0,0:0:0:0:
215,258,21338,6,0,P|207:284|214:329,1,52.5000020027161
291,130,21593,2,0,P|306:152|319:197,1,52.5000020027161
161,202,21847,37,0,0:0:0:0:
151,210,21974,2,0,P|122:201|94:200,2,52.5000020027161
297,277,22355,5,0,0:0:0:0:
308,268,22482,2,0,B|335:291|369:281|369:281|427:235|397:147,1,210
336,39,22991,38,0,P|349:77|387:99,1,52.5000020027161
476,138,23245,1,0,0:0:0:0:
471,127,23372,2,0,P|486:106|492:80,1,52.5000020027161
280,132,23626,2,0,P|311:158|355:158,1,52.5000020027161
512,262,23881,5,0,0:0:0:0:
453,217,24008,2,0,L|377:226,1,52.5000020027161
216,193,24262,37,0,0:0:0:0:
228,196,24389,1,0,0:0:0:0:
153,157,24516,6,0,B|132:200|158:239|158:239|162:313|97:335,1,210
22,253,25025,37,0,0:0:0:0:
30,262,25152,2,0,P|56:255|95:266,1,52.5000020027161
263,326,25406,5,0,0:0:0:0:
194,367,25533,1,0,0:0:0:0:
251,317,25660,1,0,0:0:0:0:
240,240,25787,2,0,P|235:210|212:173,1,52.5000020027161
129,164,26042,37,0,0:0:0:0:
117,168,26296,5,0,0:0:0:0:
215,189,26423,1,0,0:0:0:0:
313,214,26550,38,0,P|348:208|381:189,2,70
270,98,26932,1,0,0:0:0:0:
285,93,27059,2,0,P|312:113|324:147,1,52.5000020027161
257,332,27313,5,0,0:0:0:0:
265,321,27440,2,0,L|253:246,1,52.5000020027161
389,198,27694,2,0,L|401:123,1,52.5000020027161
396,0,27948,37,0,0:0:0:0:
376,67,28076,1,0,0:0:0:0:
310,90,28203,1,0,0:0:0:0:
254,45,28330,5,0,0:0:0:0:
261,34,28457,1,0,0:0:0:0:
186,23,28584,38,0,B|137:12|105:49|105:49|120:94|85:140,1,140
32,141,28965,5,0,0:0:0:0:
39,131,29093,2,0,P|30:100|39:66,1,52.5000020027161
179,96,29347,37,0,0:0:0:0:
168,157,29475,2,0,P|184:129|184:94,1,52.5000020027161
196,239,29728,2,0,P|224:223|241:193,1,52.5000020027161
144,22,29982,5,0,0:0:0:0:
157,13,30109,2,0,L|216:24,1,52.5000020027161
406,80,30364,37,0,0:0:0:0:
416,77,30491,1,0,0:0:0:0:
347,41,30618,6,0,B|323:82|340:120|346:118|351:115|377:154|350:193,1,157.500006008148
179,191,31126,5,0,0:0:0:0:
202,198,31211,1,0,0:0:0:0:
226,187,31296,1,0,0:0:0:0:
237,169,31381,2,0,P|239:153|231:132,2,35.0000013351441
222,269,31635,5,0,0:0:0:0:
250,311,31720,1,0,0:0:0:0:
305,319,31804,1,0,0:0:0:0:
352,294,31889,1,0,0:0:0:0:
371,243,31974,1,0,0:0:0:0:
353,190,32059,1,0,0:0:0:0:
305,163,32143,5,0,0:0:0:0:
267,376,32271,1,0,0:0:0:0:
287,232,32398,5,0,0:0:0:0:
291,244,32525,1,0,0:0:0:0:
364,64,32652,6,0,B|385:82|414:80|414:80|383:114|341:103|339:95|336:87|300:77|268:96,1,210.000008010865
124,82,33033,5,0,0:0:0:0:
139,13,33160,2,0,B|183:25|198:68|198:68|181:144|248:169,1,210.000008010865
104,295,33542,37,0,0:0:0:0:
96,281,33669,1,0,0:0:0:0:
155,238,33796,1,0,0:0:0:0:
224,268,33923,1,0,0:0:0:0:
236,339,34050,1,0,0:0:0:0:
329,269,34177,5,0,0:0:0:0:
321,281,34304,1,0,0:0:0:0:
295,382,34432,37,0,0:0:0:0:
370,384,34559,1,0,0:0:0:0:
418,321,34686,6,0,B|453:260|409:198|409:198|395:154|432:108,1,210.000008010865
366,43,35067,37,0,0:0:0:0:
274,77,35194,2,0,P|325:82|385:45,1,105.000004005432
190,38,35448,5,0,0:0:0:0:
319,189,35576,2,0,B|287:145|230:145|230:145|180:100|202:45,1,210.000008010865
454,41,35957,37,0,0:0:0:0:
447,54,36084,1,0,0:0:0:0:
480,170,36211,5,0,0:0:0:0:
395,131,36338,1,0,0:0:0:0:
313,178,36465,1,0,0:0:0:0:
304,272,36593,1,0,0:0:0:0:
454,310,36720,38,0,B|406:278|353:314|358:328|363:341|304:370|255:333,1,210.000008010865
181,173,37101,5,0,0:0:0:0:
111,189,37228,2,0,B|119:225|157:241|157:241|209:300|176:372,1,210.000008010865
83,319,37609,37,0,0:0:0:0:
276,202,37737,2,0,P|336:205|369:237,2,87.5
72,78,38117,5,0,0:0:0:0:
130,116,38244,1,0,0:0:0:0:
198,100,38371,1,0,0:0:0:0:
248,45,38498,37,0,0:0:0:0:
333,25,38626,5,0,0:0:0:0:
408,80,38753,37,0,0:0:0:0:
421,71,39008,6,0,P|405:125|406:205,1,105.000004005432
405,319,39262,37,0,0:0:0:0:
284,119,39389,2,0,P|309:169|322:248,1,105.000004005432
398,331,39643,5,0,0:0:0:0:
512,166,39770,2,0,P|484:211|467:261,1,105.000004005432
389,341,40025,37,0,0:0:0:0:
389,169,40152,1,0,0:0:0:0:
275,309,40279,5,0,0:0:0:0:
460,252,40406,1,0,0:0:0:0:
326,226,40533,37,0,0:0:0:0:
451,244,40660,1,0,0:0:0:0:
409,96,40787,6,0,B|350:87|318:140|318:140|264:164|220:125,1,210.000008010865
115,53,41169,37,0,0:0:0:0:
57,97,41296,2,0,B|89:72|132:81|132:81|164:159|105:207,1,210.000008010865
5,260,41677,6,0,B|29:245|56:251|56:251|74:270|104:272,1,105.000004005432
228,375,41932,2,0,B|166:332|173:246|173:246|196:222|203:192,1,210.000008010865
37,327,42313,2,0,B|18:347|22:375|22:375|46:358|47:326,1,105.000004005432
2,148,42567,37,0,0:0:0:0:
112,127,42694,1,0,0:0:0:0:
222,104,42821,6,0,P|259:125|281:165,2,87.5
110,248,43203,37,0,0:0:0:0:
125,319,43330,2,0,B|173:305|183:253|183:253|234:216|295:237,1,210.000008010865
358,146,43711,6,0,B|347:160|348:183|348:183|373:212|367:243,1,105.000004005432
512,126,43965,2,0,B|437:136|399:82|399:82|358:62|320:83,1,210.000008010865
337,345,44347,2,0,B|368:309|421:303|421:303|455:253|437:193,1,210.000008010865
204,20,44728,37,0,0:0:0:0:
255,65,44855,2,0,B|225:38|177:52|177:52|149:115|183:183,1,210.000008010865
109,384,45237,5,0,0:0:0:0:
91,311,45364,2,0,B|122:242|197:249|197:249|243:239|255:178,1,210.000008010865
367,177,45745,38,0,B|334:180|321:172|321:172|307:136|260:121,1,105.000004005432
293,372,45999,2,0,B|273:305|307:244|307:244|346:257|393:244,1,210.000008010865
210,136,46381,5,0,0:0:0:0:
200,147,46635,37,0,0:0:0:0:
213,251,46762,1,0,0:0:0:0:
129,316,46889,1,0,0:0:0:0:
38,255,47016,5,0,0:0:0:0:
57,247,47143,1,0,0:0:0:0:
53,261,47271,1,0,0:0:0:0:
74,133,47398,37,0,0:0:0:0:
82,143,47525,1,0,0:0:0:0:
89,153,47652,1,0,0:0:0:0:
144,4,47779,5,0,0:0:0:0:
81,71,47906,1,0,0:0:0:0:
95,162,48033,1,0,0:0:0:0:
14,30,48160,37,0,0:0:0:0:
6,38,48415,5,0,0:0:0:0:
90,63,48542,1,0,0:0:0:0:
20,118,48669,37,0,0:0:0:0:
177,82,48796,1,0,0:0:0:0:
119,246,48923,6,0,B|103:211|125:167|125:167|200:136|246:193,1,210.000008010865
171,384,49304,37,0,0:0:0:0:
115,336,49432,2,0,B|133:315|165:311|165:311|195:284|193:242,1,122.500001168251
310,120,49686,5,0,0:0:0:0:
381,133,49813,2,0,B|348:133|324:158|324:158|318:182|323:201,1,105.000004005432
403,348,50067,38,0,B|395:291|338:270|338:270|297:274|276:250,1,175
460,95,50448,6,0,L|479:236,1,105.000004005432
319,111,50703,2,0,L|334:19,1,70
122,208,50957,6,0,B|164:188|196:207|196:207|221:257|178:316,1,157.500006008148
65,253,51465,5,0,0:0:0:0:
54,242,51593,1,0,0:0:0:0:
50,219,51720,1,0,0:0:0:0:
56,187,51847,1,0,0:0:0:0:
82,157,51974,1,0,0:0:0:0:
113,112,52101,1,0,0:0:0:0:
110,54,52228,1,0,0:0:0:0:
70,15,52355,1,0,0:0:0:0:
20,20,52482,37,0,0:0:0:0:
38,86,52609,1,0,0:0:0:0:
103,108,52737,1,0,0:0:0:0:
163,76,52864,1,0,0:0:0:0:
219,11,52991,22,0,B|294:-23|360:28|360:28|356:61|377:84,1,210.000008010865
274,264,53372,5,0,0:0:0:0:
344,249,53499,2,0,B|335:219|310:203|310:203|304:169|325:142,1,122.500001168251
465,49,53754,37,0,0:0:0:0:
485,117,53881,2,0,B|477:142|458:161|458:161|433:168|402:152,1,105.000004005432
211,302,54135,6,0,B|199:283|202:252|202:252|161:310|192:367,1,175
202,376,54453,1,0,0:0:0:0:
212,384,54516,38,0,B|164:377|164:377|157:380|157:380|108:373,1,105.000004005432
37,286,54771,2,0,B|70:281|70:281|75:283|75:283|110:278,1,70
161,201,55025,22,0,B|175:150|136:109|136:109|103:105|74:126,1,157.500006008148
20,12,55533,5,0,0:0:0:0:
62,39,55660,1,0,0:0:0:0:
120,39,55788,1,0,0:0:0:0:
168,14,55915,1,0,0:0:0:0:
220,3,56042,1,0,0:0:0:0:
275,15,56169,1,0,0:0:0:0:
310,60,56296,37,0,0:0:0:0:
307,105,56423,1,0,0:0:0:0:
282,130,56550,1,0,0:0:0:0:
253,131,56677,1,0,0:0:0:0:
236,121,56804,1,0,0:0:0:0:
230,107,56932,1,0,0:0:0:0:
231,96,57059,5,0,0:0:0:0:
204,218,57567,1,0,0:0:0:0:
180,351,58076,1,0,0:0:0:0:
78,125,58584,37,0,0:0:0:0:
93,196,58838,1,0,0:0:0:0:
107,269,59093,5,0,0:0:0:0:
264,296,59601,1,0,0:0:0:0:
421,327,60109,1,0,0:0:0:0:
358,185,60618,37,0,0:0:0:0:
281,197,60872,1,0,0:0:0:0:
206,207,61126,5,0,0:0:0:0:
301,72,61635,1,0,0:0:0:0:
382,278,62143,1,0,0:0:0:0:
454,56,62652,37,0,0:0:0:0:
377,71,62906,1,0,0:0:0:0:
290,80,63160,5,0,0:0:0:0:
386,266,63669,1,0,0:0:0:0:
126,199,64177,1,0,0:0:0:0:
262,366,64686,37,0,0:0:0:0:
254,290,64940,1,0,0:0:0:0:
246,215,65194,6,0,P|256:155|286:109,1,105.000004005432
294,116,65576,1,0,0:0:0:0:
472,384,73330,6,0,B|445:331|381:308|333:327|333:327|319:371|274:382,1,245.000002336502
263,311,73711,1,0,0:0:0:0:
255,304,73838,1,0,0:0:0:0:
334,43,74093,6,0,B|318:152|318:152|323:162|323:162|312:250,1,210.000008010865
320,259,74474,1,0,0:0:0:0:
246,190,74601,1,0,0:0:0:0:
404,122,74728,1,0,0:0:0:0:
238,0,74855,5,0,0:0:0:0:
327,51,74982,2,0,L|311:190,1,105.000004005432
210,381,75237,6,0,B|253:325|230:264|230:264|186:253|171:210,1,210.000008010865
208,60,75618,5,0,0:0:0:0:
199,70,75745,2,0,B|198:103|222:128|222:128|142:91|92:156,1,210.000008010865
84,340,76126,5,0,0:0:0:0:
89,325,76254,1,0,0:0:0:0:
37,263,76381,5,0,0:0:0:0:
89,244,76508,1,0,0:0:0:0:
147,258,76635,1,0,0:0:0:0:
177,311,76762,1,0,0:0:0:0:
237,358,76889,5,0,0:0:0:0:
331,341,77016,5,0,0:0:0:0:
384,237,77143,5,0,0:0:0:0:
345,112,77271,5,0,0:0:0:0:
151,78,77398,6,0,B|216:114|270:78|270:78|293:35|340:32,1,210.000008010865
339,105,77779,1,0,0:0:0:0:
256,192,120237,12,0,123160,0:0:0:0:
290,379,123287,5,0,0:0:0:0:
288,369,123351,1,0,0:0:0:0:
286,359,123415,1,0,0:0:0:0:
343,299,123542,5,0,0:0:0:0:
211,246,123669,5,0,0:0:0:0:
315,182,123796,5,0,0:0:0:0:
244,130,123923,5,0,0:0:0:0:
288,66,124050,5,0,0:0:0:0:
277,51,124177,5,0,0:0:0:0:
128,183,127737,5,0,0:0:0:0:
137,193,128245,6,0,B|148:146|121:114|121:114|56:91|1:129,1,210.000008010865
216,69,128626,5,0,0:0:0:0:
206,0,128754,2,0,B|175:31|183:72|183:72|220:130|210:203,1,210.000008010865
241,262,129135,5,0,0:0:0:0:
364,147,129262,2,0,B|313:163|285:206|285:206|291:152|275:97,1,210.000008010865
364,372,129643,5,0,0:0:0:0:
241,262,129771,2,0,P|236:292|240:322,1,52.5000020027161
423,300,130025,5,0,0:0:0:0:
282,378,130152,1,0,0:0:0:0:
436,121,130279,6,0,B|453:165|417:206|417:206|351:216|308:271|322:341|368:376,1,315.000012016297
68,335,130787,5,0,0:0:0:0:
61,347,130915,1,0,0:0:0:0:
128,373,131042,1,0,0:0:0:0:
197,351,131169,1,0,0:0:0:0:
224,286,131296,1,0,0:0:0:0:
213,283,131423,1,0,0:0:0:0:
211,211,131550,1,0,0:0:0:0:
244,148,131677,1,0,0:0:0:0:
313,134,131804,6,0,P|361:145|389:173,1,52.5000020027161
331,347,132059,5,0,0:0:0:0:
302,234,132186,1,0,0:0:0:0:
259,74,132313,6,0,P|265:43|281:14,2,52.5000020027161
92,93,132694,5,0,0:0:0:0:
110,11,132821,2,0,B|176:33|174:109|174:109|157:148|174:193,1,210.000008010865
88,281,133203,5,0,0:0:0:0:
19,242,133330,2,0,B|79:262|109:228|109:228|84:175|97:117,1,210.000008010865
210,341,133711,5,0,0:0:0:0:
282,301,133838,2,0,B|246:248|175:263|175:263|149:305|101:316,1,210.000008010865
304,166,134220,5,0,0:0:0:0:
244,148,134347,2,0,L|299:155,2,52.5000020027161
349,241,134728,5,0,0:0:0:0:
409,223,134855,2,0,L|354:230,2,52.5000020027161
496,111,135237,5,0,0:0:0:0:
428,147,135364,1,0,0:0:0:0:
361,117,135491,1,0,0:0:0:0:
349,47,135618,2,0,P|354:21|380:-9,1,52.5000020027161
487,108,135872,5,0,0:0:0:0:
499,203,135999,1,0,0:0:0:0:
509,288,136126,2,0,P|500:327|482:348,1,52.5000020027161
256,192,164855,5,0,0:0:0:0:
256,192,164919,12,0,172991,0:0:0:0:
