osu file format v14

[General]
AudioFilename: audio.mp3
AudioLeadIn: 0
PreviewTime: 123669
Countdown: 1
SampleSet: Soft
StackLeniency: 0
Mode: 0
LetterboxInBreaks: 0
WidescreenStoryboard: 1

[Editor]
Bookmarks: 164855
DistanceSpacing: 1.5
BeatDivisor: 8
GridSize: 32
TimelineZoom: 1

[Metadata]
Title:Beneath the Mask (New Arrangement)
TitleUnicode:Beneath the Mask (New Arrangement)
Artist:ACE (TOMOri Kudo / CHiCO)
ArtistUnicode:ACE (TOMOri Kudo / CHiCO)
Creator:DeviousPanda
Version:Hitsounds
Source:Persona 5
Tags:Super Smash Bros. Ultimate Shin Megami Tensei Shoji Meguro Lyn Inaizumi Rike Schmalz
BeatmapID:2008005
BeatmapSetID:958423

[Difficulty]
HPDrainRate:4.8
CircleSize:4.4
OverallDifficulty:8.9
ApproachRate:9.3
SliderMultiplier:2.8
SliderTickRate:1

[Events]
//Background and Video events
0,0,"Persona-5-Wallpaper-HD-PIC-WPHR23631.jpg",0,0
//Break Periods
2,124378,126974
//Storyboard Layer 0 (Background)
//Storyboard Layer 1 (Fail)
//Storyboard Layer 2 (Pass)
//Storyboard Layer 3 (Foreground)
//Storyboard Sound Samples

[TimingPoints]
110,508.474576271186,4,2,1,50,1,0
491,-100,4,2,2,50,0,0
745,-100,4,2,1,50,0,0
872,-100,4,2,2,50,0,0
1126,-100,4,2,1,50,0,0
1254,-100,4,2,2,50,0,0
1508,-100,4,2,1,50,0,0
1635,-100,4,2,2,50,0,0
2143,-100,4,2,1,50,0,0
2652,-100,4,2,2,50,0,0
3033,-100,4,2,1,50,0,0
3160,-100,4,2,2,50,0,0
3287,-100,4,2,1,50,0,0
3415,-100,4,2,3,50,0,0
3542,-100,4,2,2,50,0,0
3796,-100,4,2,3,50,0,0
3923,-100,4,2,2,50,0,0
4177,-100,4,2,1,50,0,0
4558,-100,4,2,2,50,0,0
4812,-100,4,2,1,50,0,0
4939,-100,4,2,2,50,0,0
5193,-100,4,2,1,50,0,0
5321,-100,4,2,2,50,0,0
5575,-100,4,2,1,50,0,0
5702,-100,4,2,2,50,0,0
6210,-100,4,2,1,50,0,0
6719,-100,4,2,2,50,0,0
7100,-100,4,2,1,50,0,0
7227,-100,4,2,2,50,0,0
7354,-100,4,2,1,50,0,0
7482,-100,4,2,3,50,0,0
7609,-100,4,2,2,50,0,0
7737,-100,4,2,1,50,0,0
7863,-100,4,2,4,50,0,0
7990,-100,4,2,2,50,0,0
8244,-100,4,2,1,50,0,0
8626,-100,4,2,2,50,0,0
8754,-100,4,2,1,50,0,0
9007,-100,4,2,2,50,0,0
9135,-100,4,2,1,50,0,0
9389,-100,4,2,2,50,0,0
9516,-100,4,2,1,50,0,0
9770,-100,4,2,2,50,0,0
10024,-100,4,2,1,50,0,0
10787,-100,4,2,2,50,0,0
11168,-100,4,2,1,50,0,0
11295,-100,4,2,2,50,0,0
11422,-100,4,2,1,50,0,0
11550,-100,4,2,3,50,0,0
11677,-100,4,2,2,50,0,0
11931,-100,4,2,3,50,0,0
12058,-100,4,2,2,50,0,0
12312,-100,4,2,1,50,0,0
14855,-100,4,2,2,50,0,0
16381,-100,4,2,5,50,0,0
16635,-100,4,2,1,50,0,0
16889,-100,4,2,3,50,0,0
17016,-100,4,2,1,50,0,0
17652,-100,4,2,2,50,0,0
17779,-100,4,2,1,50,0,0
18033,-100,4,2,2,50,0,0
18160,-100,4,2,5,50,0,0
18287,-100,4,2,2,50,0,0
18415,-100,4,2,6,50,0,0
18669,-100,4,2,1,50,0,0
18923,-100,4,2,3,50,0,0
19050,-100,4,2,1,50,0,0
19686,-100,4,2,2,50,0,0
19813,-100,4,2,1,50,0,0
20067,-100,4,2,2,50,0,0
20194,-100,4,2,5,50,0,0
20321,-100,4,2,2,50,0,0
20449,-100,4,2,6,50,0,0
20703,-100,4,2,1,50,0,0
20830,-100,4,2,2,50,0,0
20957,-100,4,2,3,50,0,0
21084,-100,4,2,1,50,0,0
21211,-100,4,2,2,50,0,0
21339,-100,4,2,1,50,0,0
21720,-100,4,2,2,50,0,0
21847,-100,4,2,1,50,0,0
22101,-100,4,2,2,50,0,0
22228,-100,4,2,5,50,0,0
22355,-100,4,2,2,50,0,0
22483,-100,4,2,6,50,0,0
22737,-100,4,2,1,50,0,0
22864,-100,4,2,2,50,0,0
22991,-100,4,2,3,50,0,0
23118,-100,4,2,1,50,0,0
23245,-100,4,2,2,50,0,0
23373,-100,4,2,1,50,0,0
23754,-100,4,2,2,50,0,0
23881,-100,4,2,1,50,0,0
24135,-100,4,2,2,50,0,0
24262,-100,4,2,5,50,0,0
24389,-100,4,2,2,50,0,0
24517,-100,4,2,7,50,0,0
24771,-100,4,2,1,50,0,0
25025,-100,4,2,3,50,0,0
25152,-100,4,2,1,50,0,0
25788,-100,4,2,2,50,0,0
25915,-100,4,2,1,50,0,0
26169,-100,4,2,2,50,0,0
26296,-100,4,2,5,50,0,0
26423,-100,4,2,2,50,0,0
26551,-100,4,2,6,50,0,0
26805,-100,4,2,1,50,0,0
27059,-100,4,2,3,50,0,0
27186,-100,4,2,1,50,0,0
27822,-100,4,2,2,50,0,0
27949,-100,4,2,1,50,0,0
28203,-100,4,2,2,50,0,0
28330,-100,4,2,5,50,0,0
28457,-100,4,2,2,50,0,0
28585,-100,4,2,6,50,0,0
28839,-100,4,2,1,50,0,0
28966,-100,4,2,2,50,0,0
29093,-100,4,2,3,50,0,0
29220,-100,4,2,1,50,0,0
29347,-100,4,2,2,50,0,0
29475,-100,4,2,1,50,0,0
29856,-100,4,2,2,50,0,0
29983,-100,4,2,1,50,0,0
30237,-100,4,2,2,50,0,0
30364,-100,4,2,5,50,0,0
30491,-100,4,2,2,50,0,0
30619,-100,4,2,6,50,0,0
30873,-100,4,2,1,50,0,0
31126,-100,4,2,3,50,0,0
31211,-100,4,2,2,50,0,0
31635,-100,4,2,5,50,0,0
31720,-100,4,2,2,50,0,0
32143,-100,4,2,4,50,0,0
32271,-100,4,2,1,50,0,0
32398,-100,4,2,5,50,0,0
32525,-100,4,2,1,50,0,0
32653,-100,4,2,7,50,0,0
32906,-100,4,2,2,50,0,0
33033,-100,4,2,1,50,0,0
33287,-100,4,2,2,50,0,0
33542,-100,4,2,1,50,0,0
33669,-100,4,2,8,50,0,0
33796,-100,4,2,1,50,0,0
33923,-100,4,2,2,50,0,0
34432,-100,4,2,5,50,0,0
34686,-100,4,2,9,50,0,0
34940,-100,4,2,2,50,0,0
35067,-100,4,2,1,50,0,0
35321,-100,4,2,2,50,0,0
35576,-100,4,2,1,50,0,0
35703,-100,4,2,8,50,0,0
35830,-100,4,2,1,50,0,0
35957,-100,4,2,2,50,0,0
36466,-100,4,2,5,50,0,0
36720,-100,4,2,9,50,0,0
36974,-100,4,2,2,50,0,0
37101,-100,4,2,1,50,0,0
37355,-100,4,2,2,50,0,0
37610,-100,4,2,1,50,0,0
37737,-100,4,2,8,50,0,0
37864,-100,4,2,1,50,0,0
37991,-100,4,2,2,50,0,0
38500,-100,4,2,5,50,0,0
38754,-100,4,2,9,50,0,0
39008,-100,4,2,2,50,0,0
39135,-100,4,2,1,50,0,0
39389,-100,4,2,2,50,0,0
39644,-100,4,2,1,50,0,0
39771,-100,4,2,8,50,0,0
39898,-100,4,2,1,50,0,0
40152,-100,4,2,2,50,0,0
40534,-100,4,2,8,50,0,0
40661,-100,4,2,5,50,0,0
40788,-100,4,2,10,50,0,0
41042,-100,4,2,2,50,0,0
41169,-100,4,2,1,50,0,0
41423,-100,4,2,2,50,0,0
41678,-100,4,2,1,50,0,0
41805,-100,4,2,8,50,0,0
41932,-100,4,2,1,50,0,0
42059,-100,4,2,2,50,0,0
42568,-100,4,2,5,50,0,0
42822,-100,4,2,9,50,0,0
43076,-100,4,2,2,50,0,0
43203,-100,4,2,1,50,0,0
43457,-100,4,2,2,50,0,0
43712,-100,4,2,1,50,0,0
43839,-100,4,2,8,50,0,0
43966,-100,4,2,1,50,0,0
44093,-100,4,2,2,50,0,0
44602,-100,4,2,5,50,0,0
44856,-100,4,2,9,50,0,0
45109,-100,4,2,2,50,0,0
45236,-100,4,2,1,50,0,0
45490,-100,4,2,2,50,0,0
45745,-100,4,2,1,50,0,0
45872,-100,4,2,8,50,0,0
45999,-100,4,2,1,50,0,0
46126,-100,4,2,2,50,0,0
46635,-100,4,2,5,50,0,0
46889,-100,4,2,9,50,0,0
47143,-100,4,2,2,50,0,0
47271,-100,4,2,1,50,0,0
47524,-100,4,2,2,50,0,0
47779,-100,4,2,1,50,0,0
47906,-100,4,2,8,50,0,0
48033,-100,4,2,1,50,0,0
48160,-100,4,2,2,50,0,0
48669,-100,4,2,5,50,0,0
48923,-100,4,2,9,50,0,0
49177,-100,4,2,2,50,0,0
49432,-100,4,2,1,50,0,0
49559,-100,4,2,2,50,0,0
49813,-100,4,2,1,50,0,0
50194,-100,4,2,2,50,0,0
50702,-100,4,2,1,50,0,0
51084,-100,4,2,2,50,0,0
51211,-100,4,2,1,50,0,0
51338,-100,4,2,2,50,0,0
51847,-100,4,2,1,50,0,0
51974,-100,4,2,8,50,0,0
52101,-100,4,2,1,50,0,0
52228,-100,4,2,5,50,0,0
52355,-100,4,2,2,50,0,0
52609,-100,4,2,1,50,0,0
52737,-100,4,2,5,50,0,0
52991,-100,4,2,9,50,0,0
53245,-100,4,2,2,50,0,0
53500,-100,4,2,1,50,0,0
53627,-100,4,2,2,50,0,0
53881,-100,4,2,1,50,0,0
54008,-100,4,2,6,50,0,0
54135,-100,4,2,1,50,0,0
54262,-100,4,2,2,50,0,0
54770,-100,4,2,1,50,0,0
54898,-100,4,2,2,50,0,0
55024,-100,4,2,1,50,0,0
55152,-100,4,2,2,50,0,0
55279,-100,4,2,1,50,0,0
55406,-100,4,2,2,50,0,0
55915,-100,4,2,1,50,0,0
56042,-100,4,2,8,50,0,0
56169,-100,4,2,1,50,0,0
56296,-100,4,2,5,50,0,0
56423,-100,4,2,2,50,0,0
56677,-100,4,2,1,50,0,0
56805,-100,4,2,5,50,0,0
57059,-100,4,2,4,50,0,0
57567,-100,4,2,1,50,0,0
58838,-100,4,2,2,50,0,0
59093,-100,4,2,1,50,0,0
60872,-100,4,2,2,50,0,0
61126,-100,4,2,1,50,0,0
62906,-100,4,2,2,50,0,0
63160,-100,4,2,1,50,0,0
64940,-100,4,2,2,50,0,0
65194,-100,4,2,6,50,0,0
65576,-100,4,2,1,50,0,0
65703,-100,4,2,2,50,0,0
66084,-100,4,2,1,50,0,0
66211,-100,4,2,2,50,0,0
66338,-100,4,2,1,50,0,0
66974,-100,4,2,2,50,0,0
67228,-100,4,2,1,50,0,0
68118,-100,4,2,6,50,0,0
68245,-100,4,2,2,50,0,0
68372,-100,4,2,1,50,0,0
68499,-100,4,2,2,50,0,0
68754,-100,4,2,1,50,0,0
69008,-100,4,2,2,50,0,0
69262,-100,4,2,6,50,0,0
69516,-100,4,2,2,50,0,0
69643,-100,4,2,1,50,0,0
70025,-100,4,2,2,50,0,0
70152,-100,4,2,1,50,0,0
70660,-100,4,2,2,50,0,0
70787,-100,4,2,1,50,0,0
71042,-100,4,2,2,50,0,0
71296,-100,4,2,1,50,0,0
72567,-100,4,2,1,30,0,0
73331,-100,4,2,7,50,0,0
73584,-100,4,2,2,50,0,0
73711,-100,4,2,1,50,0,0
73838,-100,4,2,5,50,0,0
74093,-100,4,2,1,50,0,0
74856,-100,4,2,6,50,0,0
75109,-100,4,2,2,50,0,0
75238,-100,4,2,7,50,0,0
75491,-100,4,2,1,50,0,0
75872,-100,4,2,2,50,0,0
76126,-100,4,2,1,50,0,0
76381,-100,4,2,6,50,0,0
76508,-100,4,2,1,50,0,0
76635,-100,4,2,2,50,0,0
76889,-100,4,2,1,50,0,0
77271,-100,4,2,2,50,0,0
77399,-100,4,2,7,50,0,0
77652,-100,4,2,2,50,0,0
77779,-100,4,2,1,50,0,0
77906,-100,4,2,2,50,0,0
78160,-100,4,2,1,50,0,0
78796,-100,4,2,2,50,0,0
78923,-100,4,2,1,50,0,0
79050,-100,4,2,5,50,0,0
79177,-100,4,2,2,50,0,0
79305,-100,4,2,7,50,0,0
79432,-100,4,2,2,50,0,0
79686,-100,4,2,5,50,0,0
79813,-100,4,2,1,50,0,0
79940,-100,4,2,2,50,0,0
80448,-100,4,2,1,50,0,0
80703,-100,4,2,5,50,0,0
80830,-100,4,2,2,50,0,0
81084,-100,4,2,1,50,0,0
81338,-100,4,2,6,50,0,0
81466,-100,4,2,7,50,0,0
81719,-100,4,2,2,50,0,0
81846,-100,4,2,1,50,0,0
81973,-100,4,2,5,50,0,0
82228,-100,4,2,1,50,0,0
82991,-100,4,2,6,50,0,0
83244,-100,4,2,2,50,0,0
83373,-100,4,2,7,50,0,0
83626,-100,4,2,1,50,0,0
84007,-100,4,2,2,50,0,0
84261,-100,4,2,1,50,0,0
84516,-100,4,2,6,50,0,0
84643,-100,4,2,1,50,0,0
84770,-100,4,2,2,50,0,0
85024,-100,4,2,1,50,0,0
85406,-100,4,2,2,50,0,0
85534,-100,4,2,7,50,0,0
85787,-100,4,2,2,50,0,0
85914,-100,4,2,1,50,0,0
86041,-100,4,2,2,50,0,0
86295,-100,4,2,1,50,0,0
86931,-100,4,2,2,50,0,0
87058,-100,4,2,1,50,0,0
87185,-100,4,2,5,50,0,0
87312,-100,4,2,2,50,0,0
87440,-100,4,2,7,50,0,0
87567,-100,4,2,1,50,0,0
87821,-100,4,2,2,50,0,0
87948,-100,4,2,1,50,0,0
88330,-100,4,2,2,50,0,0
88457,-100,4,2,1,50,0,0
88584,-100,4,2,6,50,0,0
88711,-100,4,2,1,50,0,0
89093,-100,4,2,2,50,0,0
89220,-100,4,2,1,50,0,0
89347,-100,4,2,1,30,0,0
89601,-100,4,2,1,50,0,0
89728,-100,4,2,2,50,0,0
89855,-100,4,2,1,50,0,0
89982,-100,4,2,2,50,0,0
90109,-100,4,2,1,50,0,0
90237,-100,4,2,2,50,0,0
90364,-100,4,2,1,50,0,0
90491,-100,4,2,2,50,0,0
90618,-100,4,2,1,50,0,0
90745,-100,4,2,2,50,0,0
90872,-100,4,2,1,50,0,0
90999,-100,4,2,2,50,0,0
91126,-100,4,2,1,50,0,0
91508,-100,4,2,2,50,0,0
91635,-100,4,2,1,50,0,0
91762,-100,4,2,2,50,0,0
91889,-100,4,2,1,50,0,0
92016,-100,4,2,2,50,0,0
92143,-100,4,2,1,50,0,0
92271,-100,4,2,2,50,0,0
92398,-100,4,2,1,50,0,0
92525,-100,4,2,2,50,0,0
92652,-100,4,2,1,50,0,0
92779,-100,4,2,2,50,0,0
92906,-100,4,2,1,50,0,0
93033,-100,4,2,2,50,0,0
93160,-100,4,2,1,50,0,0
93542,-100,4,2,2,50,0,0
93669,-100,4,2,1,50,0,0
93796,-100,4,2,2,50,0,0
93923,-100,4,2,1,50,0,0
94050,-100,4,2,2,50,0,0
94177,-100,4,2,1,50,0,0
94305,-100,4,2,2,50,0,0
94432,-100,4,2,1,50,0,0
94559,-100,4,2,2,50,0,0
94686,-100,4,2,1,50,0,0
94813,-100,4,2,2,50,0,0
94940,-100,4,2,1,50,0,0
95067,-100,4,2,2,50,0,0
95194,-100,4,2,1,50,0,0
95576,-100,4,2,2,50,0,0
95703,-100,4,2,1,50,0,0
95830,-100,4,2,2,50,0,0
95957,-100,4,2,1,50,0,0
96084,-100,4,2,2,50,0,0
96211,-100,4,2,1,50,0,0
96339,-100,4,2,2,50,0,0
96466,-100,4,2,1,50,0,0
96593,-100,4,2,2,50,0,0
96720,-100,4,2,1,50,0,0
96847,-100,4,2,2,50,0,0
96974,-100,4,2,1,50,0,0
97101,-100,4,2,2,50,0,0
97228,-100,4,2,1,50,0,0
97610,-100,4,2,5,50,0,0
97737,-100,4,2,1,50,0,0
97864,-100,4,2,2,50,0,0
97991,-100,4,2,1,50,0,0
98118,-100,4,2,2,50,0,0
98245,-100,4,2,1,50,0,0
98373,-100,4,2,2,50,0,0
98500,-100,4,2,1,50,0,0
98627,-100,4,2,2,50,0,0
98754,-100,4,2,1,50,0,0
98881,-100,4,2,2,50,0,0
99008,-100,4,2,1,50,0,0
99135,-100,4,2,2,50,0,0
99262,-100,4,2,1,50,0,0
99644,-100,4,2,2,50,0,0
99771,-100,4,2,1,50,0,0
99898,-100,4,2,2,50,0,0
100025,-100,4,2,1,50,0,0
100152,-100,4,2,2,50,0,0
100279,-100,4,2,1,50,0,0
100407,-100,4,2,2,50,0,0
100534,-100,4,2,1,50,0,0
100661,-100,4,2,2,50,0,0
100788,-100,4,2,1,50,0,0
100915,-100,4,2,2,50,0,0
101042,-100,4,2,1,50,0,0
101169,-100,4,2,2,50,0,0
101296,-100,4,2,1,50,0,0
101678,-100,4,2,2,50,0,0
101805,-100,4,2,1,50,0,0
101932,-100,4,2,2,50,0,0
102059,-100,4,2,1,50,0,0
102186,-100,4,2,2,50,0,0
102313,-100,4,2,1,50,0,0
102441,-100,4,2,2,50,0,0
102568,-100,4,2,1,50,0,0
102695,-100,4,2,2,50,0,0
102822,-100,4,2,1,50,0,0
102949,-100,4,2,2,50,0,0
103076,-100,4,2,1,50,0,0
103203,-100,4,2,2,50,0,0
103330,-100,4,2,1,50,0,0
103712,-100,4,2,2,50,0,0
103839,-100,4,2,1,50,0,0
104601,-100,4,2,2,50,0,0
105109,-100,4,2,11,50,0,0
105194,-100,4,2,2,50,0,0
105363,-100,4,2,11,50,0,0
105448,-100,4,2,2,50,0,0
105618,-100,4,2,11,50,0,0
105702,-100,4,2,2,50,0,0
105872,-100,4,2,9,50,0,0
107906,-100,4,2,1,50,0,0
114008,-100,4,2,4,50,0,0
115025,-100,4,2,2,50,0,0
118076,-100,4,2,4,50,0,0
120109,-100,4,2,1,50,0,0
123160,-100,4,2,1,40,0,0
123669,-100,4,2,2,50,0,0
123796,-100,4,2,3,50,0,0
123923,-100,4,2,4,50,0,0
124050,-100,4,2,5,50,0,0
124178,-100,4,2,1,50,0,0
127737,-100,4,2,6,50,0,0
128246,-100,4,2,7,50,0,0
128499,-100,4,2,1,50,0,0
128626,-100,4,2,2,50,0,0
129135,-100,4,2,1,50,0,0
129262,-100,4,2,6,50,0,0
129389,-100,4,2,2,50,0,0
129516,-100,4,2,1,50,0,0
129643,-100,4,2,2,50,0,0
130025,-100,4,2,1,50,0,0
130152,-100,4,2,2,50,0,0
130279,-100,4,2,6,50,0,0
130533,-100,4,2,1,50,0,0
130660,-100,4,2,2,50,0,0
131169,-100,4,2,1,50,0,0
131296,-100,4,2,6,50,0,0
131423,-100,4,2,2,50,0,0
131550,-100,4,2,1,50,0,0
131677,-100,4,2,2,50,0,0
132059,-100,4,2,1,50,0,0
132314,-100,4,2,7,50,0,0
132567,-100,4,2,1,50,0,0
132694,-100,4,2,2,50,0,0
133203,-100,4,2,1,50,0,0
133330,-100,4,2,6,50,0,0
133457,-100,4,2,2,50,0,0
133584,-100,4,2,1,50,0,0
133711,-100,4,2,2,50,0,0
134093,-100,4,2,1,50,0,0
134220,-100,4,2,2,50,0,0
134347,-100,4,2,6,50,0,0
134601,-100,4,2,1,50,0,0
134728,-100,4,2,2,50,0,0
135237,-100,4,2,1,50,0,0
135364,-100,4,2,6,50,0,0
135491,-100,4,2,2,50,0,0
135618,-100,4,2,1,50,0,0
135745,-100,4,2,2,50,0,0
136127,-100,4,2,1,50,0,0
136382,-100,4,2,7,50,0,0
136635,-100,4,2,1,50,0,0
136762,-100,4,2,2,50,0,0
137271,-100,4,2,1,50,0,0
137398,-100,4,2,6,50,0,0
137525,-100,4,2,2,50,0,0
137652,-100,4,2,1,50,0,0
137779,-100,4,2,2,50,0,0
138161,-100,4,2,1,50,0,0
138288,-100,4,2,2,50,0,0
138415,-100,4,2,6,50,0,0
138669,-100,4,2,1,50,0,0
138796,-100,4,2,2,50,0,0
139305,-100,4,2,1,50,0,0
139432,-100,4,2,6,50,0,0
139559,-100,4,2,2,50,0,0
139686,-100,4,2,1,50,0,0
139813,-100,4,2,2,50,0,0
140194,-100,4,2,5,50,0,0
140449,-100,4,2,7,50,0,0
140576,-100,4,2,2,50,0,0
140703,-100,4,2,6,50,0,0
140830,-100,4,2,2,50,0,0
141211,-100,4,2,6,50,0,0
141338,-100,4,2,2,50,0,0
141465,-100,4,2,6,50,0,0
141593,-100,4,2,2,50,0,0
141720,-100,4,2,6,50,0,0
141847,-100,4,2,2,50,0,0
142228,-100,4,2,6,50,0,0
142355,-100,4,2,2,50,0,0
142483,-100,4,2,7,50,0,0
142609,-100,4,2,2,50,0,0
142736,-100,4,2,6,50,0,0
142863,-100,4,2,2,50,0,0
143244,-100,4,2,6,50,0,0
143371,-100,4,2,2,50,0,0
143499,-100,4,2,1,50,0,0
143626,-100,4,2,2,50,0,0
143754,-100,4,2,1,50,0,0
143880,-100,4,2,2,50,0,0
144262,-100,4,2,1,50,0,0
144388,-100,4,2,2,50,0,0
144516,-100,4,2,10,50,0,0
144643,-100,4,2,2,50,0,0
144770,-100,4,2,6,50,0,0
144897,-100,4,2,2,50,0,0
145278,-100,4,2,6,50,0,0
145405,-100,4,2,2,50,0,0
145532,-100,4,2,6,50,0,0
145660,-100,4,2,2,50,0,0
145787,-100,4,2,6,50,0,0
145914,-100,4,2,2,50,0,0
146295,-100,4,2,6,50,0,0
146422,-100,4,2,2,50,0,0
146550,-100,4,2,7,50,0,0
146676,-100,4,2,2,50,0,0
146803,-100,4,2,6,50,0,0
146930,-100,4,2,2,50,0,0
147311,-100,4,2,6,50,0,0
147438,-100,4,2,2,50,0,0
147565,-100,4,2,6,50,0,0
147693,-100,4,2,2,50,0,0
147820,-100,4,2,6,50,0,0
147947,-100,4,2,2,50,0,0
148074,-100,4,2,12,50,0,0
148201,-100,4,2,1,50,0,0
148328,-100,4,2,13,50,0,0
148455,-100,4,2,1,50,0,0
148583,-100,4,2,7,50,0,0
148711,-100,4,2,2,50,0,0
148838,-100,4,2,6,50,0,0
148965,-100,4,2,2,50,0,0
149346,-100,4,2,6,50,0,0
149473,-100,4,2,2,50,0,0
149600,-100,4,2,6,50,0,0
149728,-100,4,2,2,50,0,0
149855,-100,4,2,6,50,0,0
149982,-100,4,2,2,50,0,0
150363,-100,4,2,6,50,0,0
150490,-100,4,2,2,50,0,0
150618,-100,4,2,7,50,0,0
150744,-100,4,2,2,50,0,0
150871,-100,4,2,6,50,0,0
150998,-100,4,2,2,50,0,0
151379,-100,4,2,6,50,0,0
151506,-100,4,2,2,50,0,0
151634,-100,4,2,1,50,0,0
151761,-100,4,2,2,50,0,0
151889,-100,4,2,1,50,0,0
152015,-100,4,2,2,50,0,0
152397,-100,4,2,1,50,0,0
152523,-100,4,2,2,50,0,0
152653,-100,4,2,7,50,0,0
152781,-100,4,2,2,50,0,0
152908,-100,4,2,6,50,0,0
153035,-100,4,2,2,50,0,0
153416,-100,4,2,6,50,0,0
153543,-100,4,2,2,50,0,0
153670,-100,4,2,6,50,0,0
153798,-100,4,2,2,50,0,0
153925,-100,4,2,6,50,0,0
154052,-100,4,2,2,50,0,0
154433,-100,4,2,6,50,0,0
154560,-100,4,2,2,50,0,0
154688,-100,4,2,7,50,0,0
154814,-100,4,2,2,50,0,0
154941,-100,4,2,6,50,0,0
155068,-100,4,2,2,50,0,0
155449,-100,4,2,6,50,0,0
155576,-100,4,2,2,50,0,0
155704,-100,4,2,1,50,0,0
155831,-100,4,2,2,50,0,0
155959,-100,4,2,1,50,0,0
156085,-100,4,2,2,50,0,0
156467,-100,4,2,1,50,0,0
156593,-100,4,2,2,50,0,0
156720,-100,4,2,1,50,0,0
157101,-100,4,2,2,50,0,0
157355,-100,4,2,1,50,0,0
157482,-100,4,2,2,50,0,0
157736,-100,4,2,1,50,0,0
157864,-100,4,2,2,50,0,0
158118,-100,4,2,1,50,0,0
158245,-100,4,2,2,50,0,0
158753,-100,4,2,1,50,0,0
159262,-100,4,2,2,50,0,0
159643,-100,4,2,1,50,0,0
159770,-100,4,2,2,50,0,0
159897,-100,4,2,1,50,0,0
160025,-100,4,2,3,50,0,0
160152,-100,4,2,2,50,0,0
160406,-100,4,2,3,50,0,0
160533,-100,4,2,2,50,0,0
160787,-100,4,2,1,50,0,0
161168,-100,4,2,2,50,0,0
161422,-100,4,2,1,50,0,0
161549,-100,4,2,2,50,0,0
161803,-100,4,2,1,50,0,0
161931,-100,4,2,2,50,0,0
162185,-100,4,2,1,50,0,0
162312,-100,4,2,2,50,0,0
162820,-100,4,2,1,50,0,0
163329,-100,4,2,2,50,0,0
163710,-100,4,2,1,50,0,0
163837,-100,4,2,2,50,0,0
163964,-100,4,2,1,50,0,0
164092,-100,4,2,3,50,0,0
164177,-100,4,2,2,50,0,0
164347,-100,4,2,1,50,0,0
164473,-100,4,2,4,50,0,0
164600,-100,4,2,2,50,0,0
164854,-100,4,2,1,50,0,0

[Colours]
Combo1 : 192,192,192
Combo2 : 0,128,128

[HitObjects]
256,192,110,5,6,0:2:0:0:
256,192,364,5,8,0:3:0:0:
256,192,491,5,6,0:2:0:0:
256,192,745,5,8,0:3:0:0:
256,192,872,5,6,0:2:0:0:
256,192,1126,5,8,0:3:0:0:
256,192,1254,5,6,0:2:0:0:
256,192,1508,5,8,0:3:0:0:
256,192,1635,5,6,0:2:0:0:
256,192,1889,5,6,0:2:0:0:
256,192,2143,5,6,0:2:0:0:
256,192,2652,5,10,0:2:0:0:
256,192,2779,5,2,0:2:0:0:
256,192,2906,5,2,0:2:0:0:
256,192,3033,5,2,0:2:0:0:
256,192,3160,5,2,0:2:0:0:
256,192,3287,5,2,0:2:0:0:
256,192,3415,5,10,0:2:0:0:
256,192,3542,5,2,0:2:0:0:
256,192,3669,5,10,0:2:0:0:
256,192,3796,5,10,0:2:0:0:
256,192,3923,5,2,0:2:0:0:
256,192,4050,5,10,0:2:0:0:
256,192,4177,5,6,0:2:0:0:
256,192,4431,5,8,0:3:0:0:
256,192,4558,5,6,0:2:0:0:
256,192,4812,5,8,0:3:0:0:
256,192,4939,5,6,0:2:0:0:
256,192,5193,5,8,0:3:0:0:
256,192,5321,5,6,0:2:0:0:
256,192,5575,5,8,0:3:0:0:
256,192,5702,5,6,0:2:0:0:
256,192,5956,5,6,0:2:0:0:
256,192,6210,5,6,0:2:0:0:
256,192,6719,5,10,0:2:0:0:
256,192,6846,5,2,0:2:0:0:
256,192,6973,5,2,0:2:0:0:
256,192,7100,5,2,0:2:0:0:
256,192,7227,5,2,0:2:0:0:
256,192,7354,5,2,0:2:0:0:
256,192,7482,5,10,0:2:0:0:
256,192,7609,5,2,0:2:0:0:
256,192,7673,5,2,0:2:0:0:
256,192,7737,5,8,0:3:0:0:
256,192,7863,5,10,0:2:0:0:
256,192,7990,5,10,0:2:0:0:
256,192,8117,5,10,0:2:0:0:
256,192,8244,5,6,0:2:0:0:
256,192,8372,5,4,0:2:0:0:
256,192,8626,5,2,0:2:0:0:
256,192,8754,5,8,0:3:0:0:
256,192,9007,5,6,0:2:0:0:
256,192,9135,5,4,0:2:0:0:
256,192,9389,5,2,0:2:0:0:
256,192,9516,5,8,0:3:0:0:
256,192,9770,5,2,0:2:0:0:
256,192,10024,5,2,0:2:0:0:
256,192,10152,5,8,0:3:0:0:
256,192,10278,5,6,0:2:0:0:
256,192,10406,5,4,0:2:0:0:
256,192,10787,5,10,0:2:0:0:
256,192,10914,5,2,0:2:0:0:
256,192,11041,5,6,0:2:0:0:
256,192,11168,5,6,0:2:0:0:
256,192,11295,5,2,0:2:0:0:
256,192,11422,5,2,0:2:0:0:
256,192,11550,5,10,0:2:0:0:
256,192,11677,5,2,0:2:0:0:
256,192,11804,5,10,0:2:0:0:
256,192,11931,5,10,0:2:0:0:
256,192,12058,5,2,0:2:0:0:
256,192,12185,5,2,0:2:0:0:
256,192,12312,5,6,0:2:0:0:
256,192,12567,5,8,0:3:0:0:
256,192,12694,5,6,0:2:0:0:
256,192,12948,5,8,0:3:0:0:
256,192,13075,5,6,0:2:0:0:
256,192,13330,5,8,0:3:0:0:
256,192,13457,5,6,0:2:0:0:
256,192,13711,5,8,0:3:0:0:
256,192,13838,5,6,0:2:0:0:
256,192,14092,5,6,0:2:0:0:
256,192,14346,5,6,0:2:0:0:
256,192,14855,5,10,0:2:0:0:
256,192,14982,5,2,0:2:0:0:
256,192,15109,5,2,0:2:0:0:
256,192,15237,5,10,0:2:0:0:
256,192,15364,5,2,0:2:0:0:
256,192,15491,5,10,0:2:0:0:
256,192,15618,5,2,0:2:0:0:
256,192,15745,5,2,0:2:0:0:
256,192,15872,5,2,0:2:0:0:
256,192,15999,5,10,0:2:0:0:
256,192,16126,5,10,0:2:0:0:
256,192,16254,5,10,0:2:0:0:
256,192,16381,5,12,0:2:0:0:
256,192,16635,5,8,0:2:0:0:
256,192,16889,5,12,0:2:0:0:
256,192,17016,5,8,0:2:0:0:
256,192,17271,5,2,0:3:0:0:
256,192,17398,5,8,0:2:0:0:
256,192,17525,5,2,0:3:0:0:
256,192,17652,5,2,0:2:0:0:
256,192,17779,5,8,0:2:0:0:
256,192,17906,5,8,0:1:0:0:
256,192,18033,5,2,0:2:0:0:
256,192,18160,5,10,0:2:0:0:
256,192,18287,5,2,0:2:0:0:
256,192,18415,5,14,0:2:0:0:
256,192,18669,5,8,0:2:0:0:
256,192,18923,5,12,0:2:0:0:
256,192,19050,5,8,0:2:0:0:
256,192,19305,5,2,0:3:0:0:
256,192,19432,5,8,0:2:0:0:
256,192,19559,5,2,0:3:0:0:
256,192,19686,5,2,0:2:0:0:
256,192,19813,5,8,0:2:0:0:
256,192,19940,5,8,0:1:0:0:
256,192,20067,5,2,0:2:0:0:
256,192,20194,5,10,0:2:0:0:
256,192,20321,5,2,0:2:0:0:
256,192,20449,5,14,0:2:0:0:
256,192,20703,5,8,0:2:0:0:
256,192,20830,5,2,0:2:0:0:
256,192,20957,5,12,0:2:0:0:
256,192,21084,5,8,0:2:0:0:
256,192,21211,5,2,0:2:0:0:
256,192,21339,5,2,0:3:0:0:
256,192,21466,5,8,0:2:0:0:
256,192,21593,5,2,0:3:0:0:
256,192,21720,5,2,0:2:0:0:
256,192,21847,5,8,0:2:0:0:
256,192,21974,5,8,0:1:0:0:
256,192,22101,5,2,0:2:0:0:
256,192,22228,5,10,0:2:0:0:
256,192,22355,5,2,0:2:0:0:
256,192,22483,5,14,0:2:0:0:
256,192,22737,5,8,0:2:0:0:
256,192,22864,5,2,0:2:0:0:
256,192,22991,5,12,0:2:0:0:
256,192,23118,5,8,0:2:0:0:
256,192,23245,5,2,0:2:0:0:
256,192,23373,5,2,0:3:0:0:
256,192,23500,5,8,0:2:0:0:
256,192,23627,5,2,0:3:0:0:
256,192,23754,5,2,0:2:0:0:
256,192,23881,5,8,0:2:0:0:
256,192,24008,5,8,0:1:0:0:
256,192,24135,5,2,0:2:0:0:
256,192,24262,5,10,0:2:0:0:
256,192,24389,5,2,0:2:0:0:
256,192,24517,5,14,0:2:0:0:
256,192,24771,5,8,0:2:0:0:
256,192,25025,5,12,0:2:0:0:
256,192,25152,5,8,0:2:0:0:
256,192,25407,5,2,0:3:0:0:
256,192,25534,5,8,0:2:0:0:
256,192,25661,5,2,0:3:0:0:
256,192,25788,5,2,0:2:0:0:
256,192,25915,5,8,0:2:0:0:
256,192,26042,5,8,0:1:0:0:
256,192,26169,5,2,0:2:0:0:
256,192,26296,5,10,0:2:0:0:
256,192,26423,5,2,0:2:0:0:
256,192,26551,5,14,0:2:0:0:
256,192,26805,5,8,0:2:0:0:
256,192,27059,5,12,0:2:0:0:
256,192,27186,5,8,0:2:0:0:
256,192,27441,5,2,0:3:0:0:
256,192,27568,5,8,0:2:0:0:
256,192,27695,5,2,0:3:0:0:
256,192,27822,5,2,0:2:0:0:
256,192,27949,5,8,0:2:0:0:
256,192,28076,5,8,0:1:0:0:
256,192,28203,5,2,0:2:0:0:
256,192,28330,5,10,0:2:0:0:
256,192,28457,5,2,0:2:0:0:
256,192,28585,5,14,0:2:0:0:
256,192,28839,5,8,0:2:0:0:
256,192,28966,5,2,0:2:0:0:
256,192,29093,5,12,0:2:0:0:
256,192,29220,5,8,0:2:0:0:
256,192,29347,5,2,0:2:0:0:
256,192,29475,5,2,0:3:0:0:
256,192,29602,5,8,0:2:0:0:
256,192,29729,5,2,0:3:0:0:
256,192,29856,5,2,0:2:0:0:
256,192,29983,5,8,0:2:0:0:
256,192,30110,5,8,0:1:0:0:
256,192,30237,5,2,0:2:0:0:
256,192,30364,5,10,0:2:0:0:
256,192,30491,5,2,0:2:0:0:
256,192,30619,5,14,0:2:0:0:
256,192,30873,5,8,0:2:0:0:
256,192,31126,5,14,0:2:0:0:
256,192,31211,5,2,0:2:0:0:
256,192,31296,5,2,0:2:0:0:
256,192,31381,5,2,0:2:0:0:
256,192,31465,5,2,0:2:0:0:
256,192,31550,5,2,0:2:0:0:
256,192,31635,5,10,0:2:0:0:
256,192,31720,5,2,0:2:0:0:
256,192,31804,5,2,0:2:0:0:
256,192,31889,5,2,0:2:0:0:
256,192,31974,5,2,0:2:0:0:
256,192,32059,5,2,0:2:0:0:
256,192,32143,5,10,0:2:0:0:
256,192,32271,5,8,0:3:0:0:
256,192,32398,5,10,0:2:0:0:
256,192,32525,5,2,0:3:0:0:
256,192,32653,5,14,0:2:0:0:
256,192,32906,5,2,0:2:0:0:
256,192,33033,5,8,0:2:0:0:
256,192,33160,5,8,0:3:0:0:
256,192,33287,5,2,0:2:0:0:
256,192,33415,5,2,0:2:0:0:
256,192,33542,5,2,0:2:0:0:
256,192,33669,5,14,0:2:0:0:
256,192,33796,5,2,0:2:0:0:
256,192,33923,5,2,0:2:0:0:
256,192,34050,5,2,0:2:0:0:
256,192,34177,5,10,0:2:0:0:
256,192,34304,5,2,0:2:0:0:
256,192,34432,5,10,0:2:0:0:
256,192,34559,5,10,0:2:0:0:
256,192,34686,5,14,0:2:0:0:
256,192,34940,5,2,0:2:0:0:
256,192,35067,5,8,0:2:0:0:
256,192,35194,5,8,0:3:0:0:
256,192,35321,5,2,0:2:0:0:
256,192,35449,5,2,0:2:0:0:
256,192,35576,5,2,0:2:0:0:
256,192,35703,5,14,0:2:0:0:
256,192,35830,5,2,0:2:0:0:
256,192,35957,5,2,0:2:0:0:
256,192,36084,5,2,0:2:0:0:
256,192,36211,5,10,0:2:0:0:
256,192,36338,5,2,0:2:0:0:
256,192,36466,5,10,0:2:0:0:
256,192,36593,5,10,0:2:0:0:
256,192,36720,5,14,0:2:0:0:
256,192,36974,5,2,0:2:0:0:
256,192,37101,5,8,0:2:0:0:
256,192,37228,5,8,0:3:0:0:
256,192,37355,5,2,0:2:0:0:
256,192,37483,5,2,0:2:0:0:
256,192,37610,5,2,0:2:0:0:
256,192,37737,5,14,0:2:0:0:
256,192,37864,5,2,0:2:0:0:
256,192,37991,5,2,0:2:0:0:
256,192,38118,5,2,0:2:0:0:
256,192,38245,5,10,0:2:0:0:
256,192,38372,5,2,0:2:0:0:
256,192,38500,5,10,0:2:0:0:
256,192,38627,5,10,0:2:0:0:
256,192,38754,5,14,0:2:0:0:
256,192,39008,5,6,0:2:0:0:
256,192,39135,5,8,0:2:0:0:
256,192,39262,5,10,0:3:0:0:
256,192,39389,5,6,0:2:0:0:
256,192,39517,5,2,0:2:0:0:
256,192,39644,5,2,0:2:0:0:
256,192,39771,5,14,0:2:0:0:
256,192,39898,5,2,0:2:0:0:
256,192,40025,5,2,0:2:0:0:
256,192,40152,5,6,0:2:0:0:
256,192,40279,5,10,0:2:0:0:
256,192,40406,5,10,0:2:0:0:
256,192,40533,5,14,0:2:0:0:
256,192,40661,5,10,0:2:0:0:
256,192,40788,5,14,0:2:0:0:
256,192,41042,5,2,0:2:0:0:
256,192,41169,5,8,0:2:0:0:
256,192,41296,5,8,0:3:0:0:
256,192,41423,5,2,0:2:0:0:
256,192,41551,5,2,0:2:0:0:
256,192,41678,5,2,0:2:0:0:
256,192,41805,5,14,0:2:0:0:
256,192,41932,5,2,0:2:0:0:
256,192,42059,5,2,0:2:0:0:
256,192,42186,5,2,0:2:0:0:
256,192,42313,5,10,0:2:0:0:
256,192,42440,5,2,0:2:0:0:
256,192,42568,5,10,0:2:0:0:
256,192,42695,5,10,0:2:0:0:
256,192,42822,5,14,0:2:0:0:
256,192,43076,5,2,0:2:0:0:
256,192,43203,5,8,0:2:0:0:
256,192,43330,5,8,0:3:0:0:
256,192,43457,5,2,0:2:0:0:
256,192,43585,5,2,0:2:0:0:
256,192,43712,5,2,0:2:0:0:
256,192,43839,5,14,0:2:0:0:
256,192,43966,5,2,0:2:0:0:
256,192,44093,5,2,0:2:0:0:
256,192,44220,5,2,0:2:0:0:
256,192,44347,5,10,0:2:0:0:
256,192,44474,5,2,0:2:0:0:
256,192,44602,5,10,0:2:0:0:
256,192,44729,5,10,0:2:0:0:
256,192,44856,5,14,0:2:0:0:
256,192,45109,5,2,0:2:0:0:
256,192,45236,5,8,0:2:0:0:
256,192,45363,5,8,0:3:0:0:
256,192,45490,5,2,0:2:0:0:
256,192,45618,5,2,0:2:0:0:
256,192,45745,5,2,0:2:0:0:
256,192,45872,5,14,0:2:0:0:
256,192,45999,5,2,0:2:0:0:
256,192,46126,5,2,0:2:0:0:
256,192,46253,5,2,0:2:0:0:
256,192,46380,5,10,0:2:0:0:
256,192,46507,5,2,0:2:0:0:
256,192,46635,5,10,0:2:0:0:
256,192,46762,5,10,0:2:0:0:
256,192,46889,5,14,0:2:0:0:
256,192,47143,5,2,0:2:0:0:
256,192,47271,5,8,0:2:0:0:
256,192,47397,5,8,0:3:0:0:
256,192,47524,5,2,0:2:0:0:
256,192,47652,5,2,0:2:0:0:
256,192,47779,5,2,0:2:0:0:
256,192,47906,5,14,0:2:0:0:
256,192,48033,5,2,0:2:0:0:
256,192,48160,5,8,0:2:0:0:
256,192,48414,5,10,0:2:0:0:
256,192,48542,5,10,0:2:0:0:
256,192,48669,5,10,0:2:0:0:
256,192,48796,5,10,0:2:0:0:
256,192,48923,5,14,0:2:0:0:
256,192,49177,5,2,0:2:0:0:
256,192,49304,5,6,0:2:0:0:
256,192,49432,5,8,0:3:0:0:
256,192,49559,5,2,0:2:0:0:
256,192,49685,5,6,0:2:0:0:
256,192,49813,5,2,0:3:0:0:
256,192,49940,5,12,0:2:0:0:
256,192,50067,5,2,0:3:0:0:
256,192,50194,5,2,0:2:0:0:
256,192,50321,5,2,0:2:0:0:
256,192,50448,5,14,0:2:0:0:
256,192,50576,5,2,0:2:0:0:
256,192,50702,5,6,0:2:0:0:
256,192,50956,5,6,0:2:0:0:
256,192,51084,5,2,0:2:0:0:
256,192,51211,5,8,0:2:0:0:
256,192,51338,5,2,0:2:0:0:
256,192,51465,5,10,0:2:0:0:
256,192,51593,5,2,0:2:0:0:
256,192,51720,5,2,0:2:0:0:
256,192,51847,5,2,0:2:0:0:
256,192,51974,5,14,0:2:0:0:
256,192,52101,5,2,0:2:0:0:
256,192,52228,5,10,0:2:0:0:
256,192,52355,5,2,0:2:0:0:
256,192,52482,5,10,0:2:0:0:
256,192,52609,5,2,0:2:0:0:
256,192,52737,5,10,0:2:0:0:
256,192,52864,5,10,0:2:0:0:
256,192,52991,5,14,0:2:0:0:
256,192,53245,5,2,0:2:0:0:
256,192,53372,5,6,0:2:0:0:
256,192,53500,5,8,0:3:0:0:
256,192,53627,5,2,0:2:0:0:
256,192,53753,5,6,0:2:0:0:
256,192,53881,5,2,0:3:0:0:
256,192,54008,5,6,0:2:0:0:
256,192,54135,5,2,0:3:0:0:
256,192,54262,5,2,0:2:0:0:
256,192,54389,5,2,0:2:0:0:
256,192,54453,5,2,0:2:0:0:
256,192,54516,5,14,0:2:0:0:
256,192,54644,5,2,0:2:0:0:
256,192,54770,5,6,0:2:0:0:
256,192,54898,5,2,0:2:0:0:
256,192,55024,5,6,0:2:0:0:
256,192,55152,5,2,0:2:0:0:
256,192,55279,5,8,0:2:0:0:
256,192,55406,5,2,0:2:0:0:
256,192,55533,5,10,0:2:0:0:
256,192,55661,5,2,0:2:0:0:
256,192,55788,5,2,0:2:0:0:
256,192,55915,5,2,0:2:0:0:
256,192,56042,5,14,0:2:0:0:
256,192,56169,5,2,0:2:0:0:
256,192,56296,5,10,0:2:0:0:
256,192,56423,5,2,0:2:0:0:
256,192,56550,5,10,0:2:0:0:
256,192,56677,5,2,0:2:0:0:
256,192,56805,5,10,0:2:0:0:
256,192,56932,5,10,0:2:0:0:
256,192,57059,5,6,0:2:0:0:
256,192,57567,5,2,0:3:0:0:
256,192,58076,5,2,0:3:0:0:
256,192,58584,5,2,0:3:0:0:
256,192,58838,5,2,0:2:0:0:
256,192,59093,5,2,0:3:0:0:
256,192,59601,5,2,0:3:0:0:
256,192,60109,5,2,0:3:0:0:
256,192,60618,5,2,0:3:0:0:
256,192,60872,5,2,0:2:0:0:
256,192,61126,5,2,0:3:0:0:
256,192,61635,5,2,0:3:0:0:
256,192,62143,5,2,0:3:0:0:
256,192,62652,5,2,0:3:0:0:
256,192,62906,5,2,0:2:0:0:
256,192,63160,5,2,0:3:0:0:
256,192,63669,5,2,0:3:0:0:
256,192,64177,5,2,0:3:0:0:
256,192,64686,5,2,0:3:0:0:
256,192,64940,5,2,0:2:0:0:
256,192,65194,5,6,0:2:0:0:
256,192,65576,5,2,0:3:0:0:
256,192,65703,5,2,0:2:0:0:
256,192,66084,5,2,0:3:0:0:
256,192,66211,5,2,0:2:0:0:
256,192,66338,5,2,0:3:0:0:
256,192,66593,5,8,0:2:0:0:
256,192,66720,5,8,0:1:0:0:
256,192,66974,5,2,0:2:0:0:
256,192,67228,5,2,0:3:0:0:
256,192,67609,5,2,0:3:0:0:
256,192,67737,5,8,0:2:0:0:
256,192,68118,5,10,0:2:0:0:
256,192,68245,5,2,0:2:0:0:
256,192,68372,5,2,0:3:0:0:
256,192,68499,5,2,0:2:0:0:
256,192,68754,5,8,0:1:0:0:
256,192,69008,5,2,0:2:0:0:
256,192,69262,5,6,0:2:0:0:
256,192,69516,5,2,0:2:0:0:
256,192,69643,5,2,0:3:0:0:
256,192,69771,5,8,0:2:0:0:
256,192,70025,5,2,0:2:0:0:
256,192,70152,5,2,0:3:0:0:
256,192,70279,5,8,0:2:0:0:
256,192,70406,5,2,0:3:0:0:
256,192,70660,5,2,0:2:0:0:
256,192,70787,5,8,0:1:0:0:
256,192,71042,5,2,0:2:0:0:
256,192,71296,5,2,0:3:0:0:
256,192,72567,5,8,0:3:0:0:
256,192,72694,5,8,0:3:0:0:
256,192,72821,5,8,0:3:0:0:
256,192,72948,5,8,0:3:0:0:
256,192,73076,5,8,0:3:0:0:
256,192,73203,5,8,0:3:0:0:
256,192,73331,5,14,0:2:0:0:
256,192,73584,5,2,0:2:0:0:
256,192,73711,5,2,0:3:0:0:
256,192,73838,5,10,0:2:0:0:
256,192,74093,5,8,0:3:0:0:
256,192,74347,5,8,0:2:0:0:
256,192,74474,5,2,0:3:0:0:
256,192,74601,5,2,0:3:0:0:
256,192,74728,5,8,0:2:0:0:
256,192,74856,5,14,0:2:0:0:
256,192,75109,5,2,0:2:0:0:
256,192,75238,5,14,0:2:0:0:
256,192,75491,5,8,0:2:0:0:
256,192,75618,5,8,0:2:0:0:
256,192,75745,5,2,0:3:0:0:
256,192,75872,5,2,0:2:0:0:
256,192,75999,5,2,0:2:0:0:
256,192,76126,5,8,0:3:0:0:
256,192,76381,5,6,0:2:0:0:
256,192,76508,5,8,0:2:0:0:
256,192,76635,5,2,0:2:0:0:
256,192,76762,5,6,0:2:0:0:
256,192,76889,5,8,0:3:0:0:
256,192,77143,5,2,0:3:0:0:
256,192,77271,5,2,0:2:0:0:
256,192,77399,5,14,0:2:0:0:
256,192,77652,5,2,0:2:0:0:
256,192,77779,5,2,0:3:0:0:
256,192,77906,5,2,0:2:0:0:
256,192,78160,5,8,0:3:0:0:
256,192,78415,5,8,0:2:0:0:
256,192,78542,5,2,0:3:0:0:
256,192,78669,5,2,0:3:0:0:
256,192,78796,5,2,0:2:0:0:
256,192,78923,5,8,0:3:0:0:
256,192,79050,5,10,0:2:0:0:
256,192,79177,5,2,0:2:0:0:
256,192,79305,5,14,0:2:0:0:
256,192,79432,5,2,0:2:0:0:
256,192,79686,5,10,0:2:0:0:
256,192,79813,5,2,0:2:0:0:
256,192,79940,5,6,0:2:0:0:
256,192,80067,5,2,0:2:0:0:
256,192,80194,5,10,0:2:0:0:
256,192,80321,5,2,0:2:0:0:
256,192,80448,5,14,0:2:0:0:
256,192,80576,5,2,0:2:0:0:
256,192,80703,5,10,0:2:0:0:
256,192,80830,5,2,0:2:0:0:
256,192,80957,5,10,0:2:0:0:
256,192,81084,5,8,0:2:0:0:
256,192,81211,5,2,0:3:0:0:
256,192,81338,5,10,0:2:0:0:
256,192,81466,5,14,0:2:0:0:
256,192,81719,5,2,0:2:0:0:
256,192,81846,5,2,0:3:0:0:
256,192,81973,5,10,0:2:0:0:
256,192,82228,5,8,0:3:0:0:
256,192,82355,5,8,0:2:0:0:
256,192,82482,5,8,0:2:0:0:
256,192,82609,5,2,0:3:0:0:
256,192,82736,5,2,0:3:0:0:
256,192,82863,5,8,0:2:0:0:
256,192,82991,5,14,0:2:0:0:
256,192,83244,5,2,0:2:0:0:
256,192,83373,5,14,0:2:0:0:
256,192,83626,5,8,0:2:0:0:
256,192,83753,5,8,0:2:0:0:
256,192,83880,5,2,0:3:0:0:
256,192,84007,5,2,0:2:0:0:
256,192,84134,5,2,0:2:0:0:
256,192,84261,5,8,0:3:0:0:
256,192,84516,5,6,0:2:0:0:
256,192,84643,5,8,0:2:0:0:
256,192,84770,5,2,0:2:0:0:
256,192,84897,5,6,0:2:0:0:
256,192,85024,5,8,0:3:0:0:
256,192,85278,5,2,0:3:0:0:
256,192,85406,5,2,0:2:0:0:
256,192,85534,5,14,0:2:0:0:
256,192,85787,5,2,0:2:0:0:
256,192,85914,5,2,0:3:0:0:
256,192,86041,5,2,0:2:0:0:
256,192,86295,5,8,0:3:0:0:
256,192,86550,5,8,0:2:0:0:
256,192,86677,5,2,0:3:0:0:
256,192,86804,5,2,0:3:0:0:
256,192,86931,5,2,0:2:0:0:
256,192,87058,5,8,0:3:0:0:
256,192,87185,5,10,0:2:0:0:
256,192,87312,5,2,0:2:0:0:
256,192,87440,5,14,0:2:0:0:
256,192,87567,5,8,0:2:0:0:
256,192,87821,5,2,0:2:0:0:
256,192,87948,5,2,0:3:0:0:
256,192,88076,5,8,0:3:0:0:
256,192,88203,5,8,0:2:0:0:
256,192,88330,5,2,0:2:0:0:
256,192,88457,5,2,0:3:0:0:
256,192,88584,5,6,0:2:0:0:
256,192,88711,5,2,0:3:0:0:
256,192,88838,5,8,0:2:0:0:
256,192,89093,5,12,0:2:0:0:
256,192,89220,5,2,0:3:0:0:
256,192,89347,5,8,0:3:0:0:
256,192,89474,5,8,0:3:0:0:
256,192,89601,5,6,0:3:0:0:
256,192,89728,5,2,0:2:0:0:
256,192,89855,5,8,0:2:0:0:
256,192,89982,5,6,0:2:0:0:
256,192,90109,5,8,0:1:0:0:
256,192,90237,5,2,0:2:0:0:
256,192,90364,5,8,0:2:0:0:
256,192,90491,5,6,0:2:0:0:
256,192,90618,5,2,0:3:0:0:
256,192,90745,5,2,0:2:0:0:
256,192,90872,5,8,0:2:0:0:
256,192,90999,5,6,0:2:0:0:
256,192,91126,5,8,0:1:0:0:
256,192,91254,5,8,0:2:0:0:
256,192,91381,5,12,0:2:0:0:
256,192,91508,5,2,0:2:0:0:
256,192,91635,5,6,0:3:0:0:
256,192,91762,5,2,0:2:0:0:
256,192,91889,5,8,0:2:0:0:
256,192,92016,5,6,0:2:0:0:
256,192,92143,5,8,0:1:0:0:
256,192,92271,5,2,0:2:0:0:
256,192,92398,5,8,0:2:0:0:
256,192,92525,5,6,0:2:0:0:
256,192,92652,5,2,0:3:0:0:
256,192,92779,5,2,0:2:0:0:
256,192,92906,5,8,0:2:0:0:
256,192,93033,5,6,0:2:0:0:
256,192,93160,5,8,0:1:0:0:
256,192,93288,5,8,0:2:0:0:
256,192,93415,5,12,0:2:0:0:
256,192,93542,5,2,0:2:0:0:
256,192,93669,5,6,0:3:0:0:
256,192,93796,5,2,0:2:0:0:
256,192,93923,5,8,0:2:0:0:
256,192,94050,5,6,0:2:0:0:
256,192,94177,5,8,0:1:0:0:
256,192,94305,5,2,0:2:0:0:
256,192,94432,5,8,0:2:0:0:
256,192,94559,5,6,0:2:0:0:
256,192,94686,5,2,0:3:0:0:
256,192,94813,5,2,0:2:0:0:
256,192,94940,5,8,0:2:0:0:
256,192,95067,5,6,0:2:0:0:
256,192,95194,5,8,0:1:0:0:
256,192,95322,5,8,0:2:0:0:
256,192,95449,5,12,0:2:0:0:
256,192,95576,5,2,0:2:0:0:
256,192,95703,5,6,0:3:0:0:
256,192,95830,5,2,0:2:0:0:
256,192,95957,5,8,0:2:0:0:
256,192,96084,5,6,0:2:0:0:
256,192,96211,5,8,0:1:0:0:
256,192,96339,5,2,0:2:0:0:
256,192,96466,5,8,0:2:0:0:
256,192,96593,5,6,0:2:0:0:
256,192,96720,5,2,0:3:0:0:
256,192,96847,5,2,0:2:0:0:
256,192,96974,5,8,0:2:0:0:
256,192,97101,5,6,0:2:0:0:
256,192,97228,5,8,0:1:0:0:
256,192,97356,5,8,0:2:0:0:
256,192,97483,5,12,0:2:0:0:
256,192,97610,5,10,0:2:0:0:
256,192,97737,5,6,0:3:0:0:
256,192,97864,5,2,0:2:0:0:
256,192,97991,5,8,0:2:0:0:
256,192,98118,5,6,0:2:0:0:
256,192,98245,5,8,0:1:0:0:
256,192,98373,5,2,0:2:0:0:
256,192,98500,5,8,0:2:0:0:
256,192,98627,5,6,0:2:0:0:
256,192,98754,5,2,0:3:0:0:
256,192,98881,5,2,0:2:0:0:
256,192,99008,5,8,0:2:0:0:
256,192,99135,5,6,0:2:0:0:
256,192,99262,5,8,0:1:0:0:
256,192,99390,5,8,0:2:0:0:
256,192,99517,5,12,0:2:0:0:
256,192,99644,5,2,0:2:0:0:
256,192,99771,5,6,0:3:0:0:
256,192,99898,5,2,0:2:0:0:
256,192,100025,5,8,0:2:0:0:
256,192,100152,5,6,0:2:0:0:
256,192,100279,5,8,0:1:0:0:
256,192,100407,5,2,0:2:0:0:
256,192,100534,5,8,0:2:0:0:
256,192,100661,5,6,0:2:0:0:
256,192,100788,5,2,0:3:0:0:
256,192,100915,5,2,0:2:0:0:
256,192,101042,5,8,0:2:0:0:
256,192,101169,5,6,0:2:0:0:
256,192,101296,5,8,0:1:0:0:
256,192,101424,5,8,0:2:0:0:
256,192,101551,5,12,0:2:0:0:
256,192,101678,5,2,0:2:0:0:
256,192,101805,5,6,0:3:0:0:
256,192,101932,5,2,0:2:0:0:
256,192,102059,5,8,0:2:0:0:
256,192,102186,5,6,0:2:0:0:
256,192,102313,5,8,0:1:0:0:
256,192,102441,5,2,0:2:0:0:
256,192,102568,5,8,0:2:0:0:
256,192,102695,5,6,0:2:0:0:
256,192,102822,5,2,0:3:0:0:
256,192,102949,5,2,0:2:0:0:
256,192,103076,5,8,0:2:0:0:
256,192,103203,5,6,0:2:0:0:
256,192,103330,5,8,0:1:0:0:
256,192,103458,5,8,0:2:0:0:
256,192,103585,5,12,0:2:0:0:
256,192,103712,5,2,0:2:0:0:
256,192,103839,5,6,0:3:0:0:
256,192,103965,5,2,0:3:0:0:
256,192,104093,5,8,0:2:0:0:
256,192,104220,5,4,0:2:0:0:
256,192,104347,5,8,0:1:0:0:
256,192,104474,5,8,0:2:0:0:
256,192,104601,5,6,0:2:0:0:
256,192,104686,5,2,0:2:0:0:
256,192,104771,5,2,0:2:0:0:
256,192,104855,5,6,0:2:0:0:
256,192,104940,5,2,0:2:0:0:
256,192,105025,5,2,0:2:0:0:
256,192,105109,5,10,0:2:0:0:
256,192,105194,5,2,0:2:0:0:
256,192,105279,5,2,0:2:0:0:
256,192,105363,5,10,0:2:0:0:
256,192,105448,5,2,0:2:0:0:
256,192,105533,5,2,0:2:0:0:
256,192,105618,5,10,0:2:0:0:
256,192,105702,5,2,0:2:0:0:
256,192,105787,5,2,0:2:0:0:
256,192,105872,5,14,0:2:0:0:
256,192,107906,5,4,0:2:0:0:
256,192,109876,5,4,0:1:0:0:
256,192,111974,5,4,0:2:0:0:
256,192,114008,5,6,0:2:0:0:
256,192,115025,5,2,0:2:0:0:
256,192,116042,5,6,0:2:0:0:
256,192,117059,5,2,0:2:0:0:
256,192,118076,5,6,0:2:0:0:
256,192,120109,5,4,0:2:0:0:
256,192,122143,5,4,0:1:0:0:
256,192,123160,5,8,0:3:0:0:
256,192,123224,5,8,0:3:0:0:
256,192,123287,5,8,0:3:0:0:
256,192,123415,5,8,0:3:0:0:
256,192,123542,5,8,0:3:0:0:
256,192,123669,5,8,0:3:0:0:
256,192,123796,5,8,0:3:0:0:
256,192,123923,5,8,0:3:0:0:
256,192,124050,5,8,0:3:0:0:
256,192,124178,5,6,0:3:0:0:
256,192,127737,5,8,0:3:0:0:
256,192,128246,5,14,0:2:0:0:
256,192,128499,5,8,0:2:0:0:
256,192,128626,5,2,0:2:0:0:
256,192,128754,5,12,0:2:0:0:
256,192,128881,5,2,0:2:0:0:
256,192,129008,5,6,0:2:0:0:
256,192,129135,5,8,0:2:0:0:
256,192,129262,5,10,0:2:0:0:
256,192,129389,5,2,0:2:0:0:
256,192,129516,5,8,0:2:0:0:
256,192,129643,5,2,0:2:0:0:
256,192,129771,5,12,0:2:0:0:
256,192,129898,5,2,0:2:0:0:
256,192,130025,5,8,0:2:0:0:
256,192,130152,5,2,0:2:0:0:
256,192,130279,5,10,0:2:0:0:
256,192,130533,5,8,0:2:0:0:
256,192,130660,5,2,0:2:0:0:
256,192,130788,5,12,0:2:0:0:
256,192,130915,5,2,0:2:0:0:
256,192,131042,5,6,0:2:0:0:
256,192,131169,5,8,0:2:0:0:
256,192,131296,5,10,0:2:0:0:
256,192,131423,5,2,0:2:0:0:
256,192,131550,5,8,0:2:0:0:
256,192,131677,5,2,0:2:0:0:
256,192,131805,5,12,0:2:0:0:
256,192,131932,5,2,0:2:0:0:
256,192,132059,5,8,0:2:0:0:
256,192,132186,5,8,0:2:0:0:
256,192,132314,5,14,0:2:0:0:
256,192,132567,5,8,0:2:0:0:
256,192,132694,5,2,0:2:0:0:
256,192,132822,5,12,0:2:0:0:
256,192,132949,5,2,0:2:0:0:
256,192,133076,5,6,0:2:0:0:
256,192,133203,5,8,0:2:0:0:
256,192,133330,5,10,0:2:0:0:
256,192,133457,5,2,0:2:0:0:
256,192,133584,5,8,0:2:0:0:
256,192,133711,5,2,0:2:0:0:
256,192,133839,5,12,0:2:0:0:
256,192,133966,5,2,0:2:0:0:
256,192,134093,5,8,0:2:0:0:
256,192,134220,5,2,0:2:0:0:
256,192,134347,5,10,0:2:0:0:
256,192,134601,5,8,0:2:0:0:
256,192,134728,5,2,0:2:0:0:
256,192,134856,5,12,0:2:0:0:
256,192,134983,5,2,0:2:0:0:
256,192,135110,5,6,0:2:0:0:
256,192,135237,5,8,0:2:0:0:
256,192,135364,5,10,0:2:0:0:
256,192,135491,5,2,0:2:0:0:
256,192,135618,5,8,0:2:0:0:
256,192,135745,5,2,0:2:0:0:
256,192,135873,5,12,0:2:0:0:
256,192,136000,5,2,0:2:0:0:
256,192,136127,5,8,0:2:0:0:
256,192,136254,5,8,0:2:0:0:
256,192,136382,5,14,0:2:0:0:
256,192,136635,5,8,0:2:0:0:
256,192,136762,5,2,0:2:0:0:
256,192,136890,5,12,0:2:0:0:
256,192,137017,5,2,0:2:0:0:
256,192,137144,5,6,0:2:0:0:
256,192,137271,5,8,0:2:0:0:
256,192,137398,5,10,0:2:0:0:
256,192,137525,5,2,0:2:0:0:
256,192,137652,5,8,0:2:0:0:
256,192,137779,5,2,0:2:0:0:
256,192,137907,5,12,0:2:0:0:
256,192,138034,5,2,0:2:0:0:
256,192,138161,5,8,0:2:0:0:
256,192,138288,5,2,0:2:0:0:
256,192,138415,5,10,0:2:0:0:
256,192,138669,5,8,0:2:0:0:
256,192,138796,5,2,0:2:0:0:
256,192,138924,5,12,0:2:0:0:
256,192,139051,5,2,0:2:0:0:
256,192,139178,5,6,0:2:0:0:
256,192,139305,5,8,0:2:0:0:
256,192,139432,5,10,0:2:0:0:
256,192,139559,5,2,0:2:0:0:
256,192,139686,5,8,0:2:0:0:
256,192,139813,5,2,0:2:0:0:
256,192,139940,5,14,0:2:0:0:
256,192,140067,5,2,0:2:0:0:
256,192,140194,5,10,0:2:0:0:
256,192,140321,5,10,0:2:0:0:
256,192,140449,5,14,0:2:0:0:
256,192,140576,5,2,0:2:0:0:
256,192,140703,5,10,0:2:0:0:
256,192,140830,5,2,0:2:0:0:
256,192,140957,5,12,0:2:0:0:
256,192,141084,5,2,0:2:0:0:
256,192,141211,5,10,0:2:0:0:
256,192,141338,5,2,0:2:0:0:
256,192,141465,5,6,0:2:0:0:
256,192,141593,5,2,0:2:0:0:
256,192,141720,5,10,0:2:0:0:
256,192,141847,5,2,0:2:0:0:
256,192,141974,5,12,0:2:0:0:
256,192,142101,5,2,0:2:0:0:
256,192,142228,5,10,0:2:0:0:
256,192,142355,5,2,0:2:0:0:
256,192,142483,5,14,0:2:0:0:
256,192,142609,5,2,0:2:0:0:
256,192,142736,5,10,0:2:0:0:
256,192,142863,5,2,0:2:0:0:
256,192,142990,5,12,0:2:0:0:
256,192,143117,5,2,0:2:0:0:
256,192,143244,5,10,0:2:0:0:
256,192,143371,5,2,0:2:0:0:
256,192,143499,5,6,0:2:0:0:
256,192,143626,5,2,0:2:0:0:
256,192,143754,5,10,0:2:0:0:
256,192,143880,5,2,0:2:0:0:
256,192,144008,5,14,0:2:0:0:
256,192,144134,5,2,0:2:0:0:
256,192,144262,5,10,0:2:0:0:
256,192,144388,5,2,0:2:0:0:
256,192,144516,5,14,0:2:0:0:
256,192,144643,5,2,0:2:0:0:
256,192,144770,5,10,0:2:0:0:
256,192,144897,5,2,0:2:0:0:
256,192,145024,5,12,0:2:0:0:
256,192,145151,5,2,0:2:0:0:
256,192,145278,5,10,0:2:0:0:
256,192,145405,5,2,0:2:0:0:
256,192,145532,5,6,0:2:0:0:
256,192,145660,5,2,0:2:0:0:
256,192,145787,5,10,0:2:0:0:
256,192,145914,5,2,0:2:0:0:
256,192,146041,5,12,0:2:0:0:
256,192,146168,5,2,0:2:0:0:
256,192,146295,5,10,0:2:0:0:
256,192,146422,5,2,0:2:0:0:
256,192,146550,5,14,0:2:0:0:
256,192,146676,5,2,0:2:0:0:
256,192,146803,5,10,0:2:0:0:
256,192,146930,5,2,0:2:0:0:
256,192,147057,5,12,0:2:0:0:
256,192,147184,5,2,0:2:0:0:
256,192,147311,5,10,0:2:0:0:
256,192,147438,5,2,0:2:0:0:
256,192,147565,5,6,0:2:0:0:
256,192,147693,5,2,0:2:0:0:
256,192,147820,5,10,0:2:0:0:
256,192,147947,5,2,0:2:0:0:
256,192,148074,5,14,0:2:0:0:
256,192,148201,5,2,0:2:0:0:
256,192,148328,5,10,0:2:0:0:
256,192,148455,5,2,0:2:0:0:
256,192,148583,5,14,0:2:0:0:
256,192,148711,5,2,0:2:0:0:
256,192,148838,5,10,0:2:0:0:
256,192,148965,5,2,0:2:0:0:
256,192,149092,5,12,0:2:0:0:
256,192,149219,5,2,0:2:0:0:
256,192,149346,5,10,0:2:0:0:
256,192,149473,5,2,0:2:0:0:
256,192,149600,5,6,0:2:0:0:
256,192,149728,5,2,0:2:0:0:
256,192,149855,5,10,0:2:0:0:
256,192,149982,5,2,0:2:0:0:
256,192,150109,5,12,0:2:0:0:
256,192,150236,5,2,0:2:0:0:
256,192,150363,5,10,0:2:0:0:
256,192,150490,5,2,0:2:0:0:
256,192,150618,5,14,0:2:0:0:
256,192,150744,5,2,0:2:0:0:
256,192,150871,5,10,0:2:0:0:
256,192,150998,5,2,0:2:0:0:
256,192,151125,5,12,0:2:0:0:
256,192,151252,5,2,0:2:0:0:
256,192,151379,5,10,0:2:0:0:
256,192,151506,5,2,0:2:0:0:
256,192,151634,5,6,0:2:0:0:
256,192,151761,5,2,0:2:0:0:
256,192,151889,5,10,0:2:0:0:
256,192,152015,5,2,0:2:0:0:
256,192,152143,5,14,0:2:0:0:
256,192,152269,5,2,0:2:0:0:
256,192,152397,5,10,0:2:0:0:
256,192,152523,5,2,0:2:0:0:
256,192,152653,5,14,0:2:0:0:
256,192,152781,5,2,0:2:0:0:
256,192,152908,5,10,0:2:0:0:
256,192,153035,5,2,0:2:0:0:
256,192,153162,5,12,0:2:0:0:
256,192,153289,5,2,0:2:0:0:
256,192,153416,5,10,0:2:0:0:
256,192,153543,5,2,0:2:0:0:
256,192,153670,5,6,0:2:0:0:
256,192,153798,5,2,0:2:0:0:
256,192,153925,5,10,0:2:0:0:
256,192,154052,5,2,0:2:0:0:
256,192,154179,5,12,0:2:0:0:
256,192,154306,5,2,0:2:0:0:
256,192,154433,5,10,0:2:0:0:
256,192,154560,5,2,0:2:0:0:
256,192,154688,5,14,0:2:0:0:
256,192,154814,5,2,0:2:0:0:
256,192,154941,5,10,0:2:0:0:
256,192,155068,5,2,0:2:0:0:
256,192,155195,5,12,0:2:0:0:
256,192,155322,5,2,0:2:0:0:
256,192,155449,5,10,0:2:0:0:
256,192,155576,5,2,0:2:0:0:
256,192,155704,5,6,0:2:0:0:
256,192,155831,5,2,0:2:0:0:
256,192,155959,5,10,0:2:0:0:
256,192,156085,5,2,0:2:0:0:
256,192,156213,5,14,0:2:0:0:
256,192,156339,5,2,0:2:0:0:
256,192,156467,5,10,0:2:0:0:
256,192,156593,5,2,0:2:0:0:
256,192,156720,5,6,0:2:0:0:
256,192,156974,5,8,0:3:0:0:
256,192,157101,5,6,0:2:0:0:
256,192,157355,5,8,0:3:0:0:
256,192,157482,5,6,0:2:0:0:
256,192,157736,5,8,0:3:0:0:
256,192,157864,5,6,0:2:0:0:
256,192,158118,5,8,0:3:0:0:
256,192,158245,5,6,0:2:0:0:
256,192,158499,5,6,0:2:0:0:
256,192,158753,5,6,0:2:0:0:
256,192,159262,5,10,0:2:0:0:
256,192,159389,5,2,0:2:0:0:
256,192,159516,5,2,0:2:0:0:
256,192,159643,5,2,0:2:0:0:
256,192,159770,5,2,0:2:0:0:
256,192,159897,5,2,0:2:0:0:
256,192,160025,5,10,0:2:0:0:
256,192,160152,5,2,0:2:0:0:
256,192,160279,5,10,0:2:0:0:
256,192,160406,5,10,0:2:0:0:
256,192,160533,5,2,0:2:0:0:
256,192,160660,5,10,0:2:0:0:
256,192,160787,5,6,0:2:0:0:
256,192,161041,5,8,0:3:0:0:
256,192,161168,5,6,0:2:0:0:
256,192,161422,5,8,0:3:0:0:
256,192,161549,5,6,0:2:0:0:
256,192,161803,5,8,0:3:0:0:
256,192,161931,5,6,0:2:0:0:
256,192,162185,5,8,0:3:0:0:
256,192,162312,5,6,0:2:0:0:
256,192,162566,5,6,0:2:0:0:
256,192,162820,5,6,0:2:0:0:
256,192,163329,5,10,0:2:0:0:
256,192,163456,5,2,0:2:0:0:
256,192,163583,5,2,0:2:0:0:
256,192,163710,5,2,0:2:0:0:
256,192,163837,5,2,0:2:0:0:
256,192,163964,5,2,0:2:0:0:
256,192,164092,5,10,0:2:0:0:
256,192,164177,5,2,0:2:0:0:
256,192,164262,5,2,0:2:0:0:
256,192,164347,5,8,0:3:0:0:
256,192,164473,5,10,0:2:0:0:
256,192,164600,5,10,0:2:0:0:
256,192,164727,5,10,0:2:0:0:
256,192,164854,5,6,0:2:0:0:
