osu file format v14

[General]
AudioFilename: audio.mp3
AudioLeadIn: 0
PreviewTime: 142
Countdown: 1
SampleSet: Soft
StackLeniency: 0.7
Mode: 2
LetterboxInBreaks: 0
WidescreenStoryboard: 1

[Editor]
Bookmarks: 16346,32617,48888,57024,65159,73295,89566,105837,113973,124142,140413,156685,164820
DistanceSpacing: 1.1
BeatDivisor: 4
GridSize: 8
TimelineZoom: 1.8

[Metadata]
Title:Beneath the Mask
TitleUnicode:Beneath the Mask
Artist:ACE (TOMOri Kudo / CHiCO)
ArtistUnicode:ACE (TOMOri Kudo / CHiCO)
Creator:JierYagtama
Version:Platter
Source:ペルソナ 5
Tags:JierYagtama Shoji Meguro 目黒将司 大乱闘スマッシュブラザーズ SPECIAL Super Smash Bros. Ultimate 稲泉 りん Lyn Inaizumi Atlus Co., Ltd. Persona 5 Ren Amamiya 雨宮 蓮 Video Game English
BeatmapID:2048017
BeatmapSetID:978534

[Difficulty]
HPDrainRate:5
CircleSize:4
OverallDifficulty:8
ApproachRate:8
SliderMultiplier:2.1
SliderTickRate:0.5

[Events]
//Background and Video events
0,0,"aresenn.jpg",0,0
//Break Periods
2,57291,64476
2,106104,119391
//Storyboard Layer 0 (Background)
//Storyboard Layer 1 (Fail)
//Storyboard Layer 2 (Pass)
//Storyboard Layer 3 (Foreground)
//Storyboard Layer 4 (Overlay)
//Storyboard Sound Samples

[TimingPoints]
142,508.474576271186,4,2,1,70,1,0
142,-58.8235294117647,4,2,1,70,0,0
2684,-71.4285714285714,4,2,1,70,0,0
4209,-58.8235294117647,4,2,1,70,0,0
6243,-71.4285714285714,4,2,1,70,0,0
12345,-58.8235294117647,4,2,1,70,0,0
14379,-71.4285714285714,4,2,1,70,0,0
89633,-71.4285714285714,4,2,1,70,0,1
92048,-62.5,4,2,1,70,0,1
92303,-71.4285714285714,4,2,1,70,0,1
96879,-71.4285714285714,4,2,1,70,0,1
97769,-71.4285714285714,4,2,1,70,0,1
100184,-62.5,4,2,1,70,0,1
100438,-71.4285714285714,4,2,1,70,0,1
105904,-58.8235294117647,4,2,1,70,0,0
123701,-71.4285714285714,4,2,1,70,0,0
124591,-71.4285714285714,4,2,0,70,0,0
127769,-71.4285714285714,4,2,1,70,0,0
164887,-47.6190476190476,4,2,1,30,0,0

[Colours]
Combo1 : 255,255,255
Combo2 : 198,0,0
Combo3 : 128,128,128

[HitObjects]
124,235,142,6,0,P|153:168|288:181,1,178.500003404617,12|0,0:0|0:0,0:0:0:0:
167,142,523,1,2,0:0:0:0:
425,261,904,2,0,P|505:212|423:153,1,178.500003404617,12|0,0:0|0:0,0:0:0:0:
361,145,1286,1,2,0:0:0:0:
65,127,1667,2,0,L|71:335,1,178.500003404617,8|0,0:0|0:0,0:0:0:0:
416,309,2175,6,0,P|368:211|266:231,1,178.500003404617,8|0,0:0|0:0,0:0:0:0:
190,199,2684,2,0,L|57:200,2,73.4999977569581,2|0|0,0:0|0:0|0:0,0:0:0:0:
369,201,3192,2,0,L|473:199,2,73.4999977569581,0|8|0,0:0|0:0|0:0,0:0:0:0:
297,197,3574,1,8,0:0:0:0:
377,194,3701,1,2,0:0:0:0:
457,194,3828,1,2,0:0:0:0:
458,113,3955,1,0,0:0:0:0:
106,90,4209,6,0,L|108:291,1,178.500003404617,12|0,0:0|0:0,0:0:0:0:
209,281,4591,1,2,0:0:0:0:
469,295,4972,2,0,L|291:217,1,178.500003404617,12|0,0:0|0:0,0:0:0:0:
395,196,5353,1,2,0:0:0:0:
104,160,5735,2,0,P|55:220|152:302,1,178.500003404617,8|0,0:0|0:0,0:0:0:0:
464,315,6243,6,0,L|472:127,1,146.999995513916,8|0,0:0|0:0,0:0:0:0:
315,123,6752,1,2,0:0:0:0:
402,122,6879,1,0,0:0:0:0:
409,30,7006,1,0,0:0:0:0:
321,30,7133,1,8,0:0:0:0:
233,29,7260,5,0,0:0:0:0:
306,28,7387,1,8,0:0:0:0:
379,25,7514,1,0,0:0:0:0:
186,82,7769,2,0,L|106:86,1,73.4999977569581,8|8,0:0|0:0,0:0:0:0:
105,85,8023,1,2,0:0:0:0:
186,82,8150,1,2,0:0:0:0:
422,188,8277,6,0,L|425:67,1,73.4999977569581,8|8,0:0|0:0,0:0:0:0:
255,107,8786,1,2,0:0:0:0:
512,170,9040,2,0,L|511:261,1,73.4999977569581,0|8,0:0|0:0,0:0:0:0:
324,255,9421,1,0,0:0:0:0:
485,250,9803,2,0,P|502:193|404:194,1,146.999995513916,2|8,0:0|0:0,0:0:0:0:
92,220,10311,6,0,L|90:113,1,73.4999977569581,8|0,0:0|0:0,0:0:0:0:
284,135,10819,1,2,0:0:0:0:
26,160,11074,2,0,L|28:264,1,73.4999977569581,8|8,0:0|0:0,0:0:0:0:
156,236,11455,1,8,0:0:0:0:
268,237,11709,1,8,0:0:0:0:
188,235,11836,1,0,0:0:0:0:
107,235,11964,1,0,0:0:0:0:
104,146,12091,1,0,0:0:0:0:
419,252,12345,6,0,P|486:182|436:151,1,178.500003404617,12|0,0:0|0:0,0:0:0:0:
354,139,12726,1,2,0:0:0:0:
36,157,13108,2,0,P|55:103|205:108,1,178.500003404617,12|0,0:0|0:0,0:0:0:0:
90,77,13489,1,2,0:0:0:0:
437,247,13870,2,0,P|506:172|399:137,1,178.500003404617,8|0,0:0|0:0,0:0:0:0:
89,285,14379,6,0,L|90:90,1,146.999995513916,8|0,0:0|0:0,0:0:0:0:
216,132,14887,2,0,L|118:136,1,73.4999977569581,2|0,0:0|0:0,0:0:0:0:
130,50,15141,1,0,0:0:0:0:
210,42,15269,1,8,0:0:0:0:
290,46,15396,1,0,0:0:0:0:
216,42,15523,1,8,0:0:0:0:
142,43,15650,1,0,0:0:0:0:
69,41,15777,2,0,L|272:42,2,146.999995513916,0|0|0,0:0|0:0|0:0,0:0:0:0:
250,154,16413,6,0,L|440:149,1,146.999995513916,12|0,0:0|0:0,0:0:0:0:
245,151,16921,2,0,L|243:17,1,73.4999977569581,2|0,0:0|0:0,0:0:0:0:
391,81,17303,2,0,L|206:41,2,146.999995513916,0|0|0,0:0|0:0|0:0,0:0:0:0:
479,82,17938,1,2,0:0:0:0:
483,169,18065,1,0,0:0:0:0:
395,176,18192,1,0,0:0:0:0:
128,249,18447,6,0,P|77:209|150:166,1,146.999995513916,8|0,0:0|0:0,0:0:0:0:
266,160,18955,2,0,L|169:157,1,73.4999977569581,2|0,0:0|0:0,0:0:0:0:
198,84,19209,1,0,0:0:0:0:
270,82,19336,2,0,L|110:41,2,146.999995513916,0|0|0,0:0|0:0|0:0,0:0:0:0:
188,81,19972,1,2,0:0:0:0:
107,77,20099,1,0,0:0:0:0:
107,157,20226,1,0,0:0:0:0:
487,188,20480,6,0,P|473:122|379:116,1,146.999995513916,8|0,0:0|0:0,0:0:0:0:
194,110,20989,2,0,L|98:111,2,73.4999977569581,2|0|0,0:0|0:0|0:0,0:0:0:0:
273,121,21370,2,0,L|92:120,2,146.999995513916,0|0|0,0:0|0:0|0:0,0:0:0:0:
104,199,22006,2,0,L|102:16,1,146.999995513916,2|0,0:0|0:0,0:0:0:0:
365,164,22514,6,0,P|347:109|253:114,1,146.999995513916,8|0,0:0|0:0,0:0:0:0:
149,114,23023,2,0,L|289:114,1,73.4999977569581,2|0,0:0|0:0,0:0:0:0:
295,115,23277,1,0,0:0:0:0:
369,111,23404,2,0,L|172:115,2,146.999995513916,0|0|8,0:0|0:0|0:0,0:0:0:0:
209,110,24040,2,0,L|21:115,1,146.999995513916,2|0,0:0|0:0,0:0:0:0:
441,208,24548,6,0,L|433:14,1,146.999995513916,12|0,0:0|0:0,0:0:0:0:
293,206,25057,2,0,L|182:203,1,73.4999977569581,2|0,0:0|0:0,0:0:0:0:
416,165,25438,2,0,L|268:123,2,146.999995513916,0|0|0,0:0|0:0|0:0,0:0:0:0:
342,167,26074,1,2,0:0:0:0:
261,163,26201,1,0,0:0:0:0:
180,158,26328,1,0,0:0:0:0:
446,295,26582,6,0,L|446:103,1,146.999995513916,8|0,0:0|0:0,0:0:0:0:
312,137,27091,2,0,L|238:127,2,73.4999977569581,2|0|0,0:0|0:0|0:0,0:0:0:0:
231,134,27472,2,0,L|57:94,2,146.999995513916,0|0|0,0:0|0:0|0:0,0:0:0:0:
312,136,28108,1,2,0:0:0:0:
392,137,28235,1,0,0:0:0:0:
392,56,28362,1,0,0:0:0:0:
126,144,28616,6,0,P|71:131|83:37,1,146.999995513916,8|0,0:0|0:0,0:0:0:0:
320,77,29125,2,0,L|320:150,1,73.4999977569581,2|0,0:0|0:0,0:0:0:0:
240,155,29379,1,0,0:0:0:0:
159,152,29506,2,0,L|354:151,2,146.999995513916,0|0|0,0:0|0:0|0:0,0:0:0:0:
315,148,30141,2,0,L|495:122,1,146.999995513916,2|0,0:0|0:0,0:0:0:0:
92,269,30650,6,0,L|91:76,1,146.999995513916,8|0,0:0|0:0,0:0:0:0:
348,249,31158,1,2,0:0:0:0:
393,244,31242,1,0,0:0:0:0:
419,205,31327,1,0,0:0:0:0:
409,161,31412,1,0,0:0:0:0:
368,139,31496,1,0,0:0:0:0:
315,130,31582,1,0,0:0:0:0:
264,157,31667,5,0,0:0:0:0:
219,152,31751,1,0,0:0:0:0:
192,114,31836,1,0,0:0:0:0:
202,69,31921,1,8,0:0:0:0:
243,46,32005,1,0,0:0:0:0:
438,51,32175,2,0,L|440:213,1,146.999995513916,2|0,0:0|0:0,0:0:0:0:
96,223,32684,6,0,P|42:176|95:133,1,146.999995513916,12|0,0:0|0:0,0:0:0:0:
171,135,33065,2,0,L|8:111,1,146.999995513916,8|0,0:0|0:0,0:0:0:0:
280,130,33574,1,0,0:0:0:0:
207,128,33701,1,8,0:0:0:0:
134,129,33828,1,0,0:0:0:0:
207,128,33955,1,0,0:0:0:0:
457,126,34209,2,0,L|456:311,1,146.999995513916,2|0,0:0|0:0,0:0:0:0:
121,275,34718,6,0,P|156:210|235:226,1,146.999995513916,8|0,0:0|0:0,0:0:0:0:
448,214,35226,1,2,0:0:0:0:
315,214,35480,1,0,0:0:0:0:
388,212,35608,2,0,L|168:172,1,220.499993270874,0|0,0:0|0:0,0:0:0:0:
170,86,36116,1,0,0:0:0:0:
337,205,36243,2,0,L|524:199,1,146.999995513916,2|0,0:0|0:0,0:0:0:0:
155,211,36752,6,0,P|54:191|44:127,1,146.999995513916,12|0,0:0|0:0,0:0:0:0:
129,158,37133,2,0,L|317:154,1,146.999995513916,8|0,0:0|0:0,0:0:0:0:
129,160,37641,1,0,0:0:0:0:
188,163,37769,2,0,L|292:156,1,73.4999977569581,8|0,0:0|0:0,0:0:0:0:
143,158,38150,1,8,0:0:0:0:
232,155,38277,2,0,L|337:153,1,73.4999977569581,2|0,0:0|0:0,0:0:0:0:
232,154,38531,2,0,L|109:155,1,73.4999977569581,0|0,0:0|0:0,0:0:0:0:
360,201,38786,5,8,0:0:0:0:
477,201,39040,2,0,P|437:103|333:87,1,220.499993270874,12|2,0:0|0:0,0:0:0:0:
216,85,39675,1,0,0:0:0:0:
290,83,39803,2,0,L|401:87,2,73.4999977569581,2|0|0,0:0|0:0|0:0,0:0:0:0:
216,85,40184,1,0,0:0:0:0:
42,96,40311,2,0,L|40:296,1,146.999995513916,8|0,0:0|0:0,0:0:0:0:
366,253,40819,6,0,P|436:250|453:155,1,146.999995513916,8|0,0:0|0:0,0:0:0:0:
217,186,41328,2,0,L|422:153,1,146.999995513916,2|0,0:0|0:0,0:0:0:0:
283,185,41709,1,0,0:0:0:0:
202,182,41836,2,0,L|28:140,1,146.999995513916,8|0,0:0|0:0,0:0:0:0:
366,164,42345,2,0,L|555:128,1,146.999995513916,2|0,0:0|0:0,0:0:0:0:
197,179,42853,6,0,P|126:178|109:65,1,146.999995513916,8|0,0:0|0:0,0:0:0:0:
236,122,43362,2,0,L|70:80,1,146.999995513916,2|0,0:0|0:0,0:0:0:0:
342,123,43870,2,0,P|386:180|304:227,1,146.999995513916,8|0,0:0|0:0,0:0:0:0:
264,230,44252,1,0,0:0:0:0:
113,227,44379,2,0,P|41:201|53:127,1,146.999995513916,2|0,0:0|0:0,0:0:0:0:
366,162,44887,6,0,P|413:107|339:73,1,146.999995513916,8|0,0:0|0:0,0:0:0:0:
281,121,45269,2,0,P|294:76|393:95,1,146.999995513916,8|0,0:0|0:0,0:0:0:0:
155,164,45777,2,0,P|96:101|162:68,1,146.999995513916,0|0,0:0|0:0,0:0:0:0:
256,69,46286,1,0,0:0:0:0:
85,74,46413,2,0,L|82:279,1,146.999995513916,2|0,0:0|0:0,0:0:0:0:
397,240,46921,6,0,P|490:200|484:148,1,146.999995513916,8|8,0:0|0:0,0:0:0:0:
274,159,47430,1,2,0:0:0:0:
148,161,47557,2,0,P|153:123|271:99,1,146.999995513916,0|0,0:0|0:0,0:0:0:0:
439,87,47938,2,0,L|573:90,2,73.4999977569581,8|8|2,0:0|0:0|0:0,0:0:0:0:
196,178,48447,2,0,L|122:176,1,73.4999977569581,8|8,0:0|0:0,0:0:0:0:
49,177,48701,1,2,0:0:0:0:
49,103,48828,1,2,0:0:0:0:
239,110,48955,6,0,L|434:68,1,146.999995513916,12|0,0:0|0:0,0:0:0:0:
389,32,49336,1,0,0:0:0:0:
75,126,49718,2,0,P|88:70|202:76,1,146.999995513916,0|8,0:0|0:0,0:0:0:0:
93,50,50099,1,0,0:0:0:0:
403,198,50480,2,0,L|403:-2,1,146.999995513916,2|0,0:0|0:0,0:0:0:0:
87,199,50989,6,0,P|15:177|32:105,1,146.999995513916,8|0,0:0|0:0,0:0:0:0:
284,127,51497,2,0,L|358:126,2,73.4999977569581,2|0|0,0:0|0:0|0:0,0:0:0:0:
75,138,52006,2,0,L|1:137,2,73.4999977569581,8|0|0,0:0|0:0|0:0,0:0:0:0:
148,134,52387,1,0,0:0:0:0:
74,136,52514,1,2,0:0:0:0:
1,137,52641,1,0,0:0:0:0:
74,136,52769,1,8,0:0:0:0:
398,151,53023,6,0,P|355:92|280:107,1,146.999995513916,12|0,0:0|0:0,0:0:0:0:
369,96,53404,1,0,0:0:0:0:
75,171,53786,2,0,P|7:151|18:77,1,146.999995513916,4|0,0:0|0:0,0:0:0:0:
90,81,54167,1,0,0:0:0:0:
416,91,54548,2,0,L|408:276,1,146.999995513916,2|0,0:0|0:0,0:0:0:0:
79,227,55057,6,0,P|148:151|209:172,1,146.999995513916,8|0,0:0|0:0,0:0:0:0:
390,166,55565,1,2,0:0:0:0:
309,166,55692,1,0,0:0:0:0:
308,79,55819,1,0,0:0:0:0:
390,79,55946,1,0,0:0:0:0:
472,78,56073,5,8,0:0:0:0:
384,73,56200,1,0,0:0:0:0:
312,75,56327,1,0,0:0:0:0:
237,75,56455,2,0,L|428:35,2,146.999995513916,0|0|0,0:0|0:0|0:0,0:0:0:0:
26,81,57091,1,8,0:0:0:0:
86,188,65226,6,0,L|334:137,1,220.499993270874,8|8,0:0|0:0,0:0:0:0:
86,188,66116,2,0,L|281:120,2,146.999995513916,8|8|8,0:0|0:0|0:0,0:0:0:0:
253,182,66752,2,0,L|247:309,1,73.4999977569581,2|0,0:0|0:0,0:0:0:0:
176,255,67006,1,0,0:0:0:0:
425,238,67260,6,0,P|488:202|381:125,1,220.499993270874,8|8,0:0|0:0,0:0:0:0:
170,103,68150,2,0,L|-33:48,2,146.999995513916,8|8|8,0:0|0:0|0:0,0:0:0:0:
320,104,68786,2,0,L|443:102,1,73.4999977569581,2|0,0:0|0:0,0:0:0:0:
398,29,69040,1,0,0:0:0:0:
160,180,69294,6,0,P|66:170|72:15,1,220.499993270874,8|8,0:0|0:0,0:0:0:0:
214,90,70184,2,0,L|11:35,2,146.999995513916,8|8|8,0:0|0:0|0:0,0:0:0:0:
63,203,70819,2,0,L|64:27,1,146.999995513916,2|0,0:0|0:0,0:0:0:0:
400,73,71328,1,8,0:0:0:0:
256,192,71582,12,10,72853,0:0:0:0:
101,189,73362,6,0,L|275:155,1,146.999995513916,8|0,0:0|0:0,0:0:0:0:
174,186,73743,1,8,0:0:0:0:
500,236,74125,2,0,L|501:67,1,146.999995513916,2|0,0:0|0:0,0:0:0:0:
427,95,74506,1,0,0:0:0:0:
147,107,74887,2,0,L|42:105,1,73.4999977569581,2|0,0:0|0:0,0:0:0:0:
73,171,75141,1,0,0:0:0:0:
139,173,75269,1,0,0:0:0:0:
332,186,75396,6,0,P|423:155|424:95,1,146.999995513916,8|0,0:0|0:0,0:0:0:0:
357,109,75777,1,8,0:0:0:0:
69,134,76158,2,0,P|121:64|208:81,1,146.999995513916,2|0,0:0|0:0,0:0:0:0:
101,61,76540,1,8,0:0:0:0:
97,207,76794,1,0,0:0:0:0:
262,220,76921,2,0,L|303:142,1,73.4999977569581,2|0,0:0|0:0,0:0:0:0:
208,142,77175,2,0,L|167:64,1,73.4999977569581,2|0,0:0|0:0,0:0:0:0:
389,148,77430,6,0,P|476:130|481:30,1,146.999995513916,8|0,0:0|0:0,0:0:0:0:
410,79,77811,1,8,0:0:0:0:
101,108,78192,2,0,L|315:111,1,146.999995513916,2|0,0:0|0:0,0:0:0:0:
329,109,78574,1,0,0:0:0:0:
324,242,78828,1,0,0:0:0:0:
152,236,78955,2,0,L|139:154,1,73.4999977569581,2|0,0:0|0:0,0:0:0:0:
240,229,79209,2,0,L|253:147,1,73.4999977569581,0|0,0:0|0:0,0:0:0:0:
56,191,79464,6,0,P|11:140|77:96,1,146.999995513916,8|0,0:0|0:0,0:0:0:0:
130,96,79845,1,8,0:0:0:0:
316,103,80226,2,0,L|452:99,2,73.4999977569581,2|0|8,0:0|0:0|0:0,0:0:0:0:
241,103,80608,1,0,0:0:0:0:
167,107,80735,2,0,L|163:217,1,73.4999977569581,0|0,0:0|0:0,0:0:0:0:
334,183,80989,2,0,L|300:105,1,73.4999977569581,0|0,0:0|0:0,0:0:0:0:
209,114,81243,2,0,L|243:36,1,73.4999977569581,0|0,0:0|0:0,0:0:0:0:
438,183,81497,6,0,P|455:79|389:94,1,146.999995513916,8|0,0:0|0:0,0:0:0:0:
375,72,81879,1,8,0:0:0:0:
43,166,82260,2,0,P|141:135|139:71,1,146.999995513916,2|0,0:0|0:0,0:0:0:0:
74,98,82641,1,0,0:0:0:0:
74,98,82896,1,0,0:0:0:0:
244,199,83023,2,0,L|210:121,1,73.4999977569581,2|0,0:0|0:0,0:0:0:0:
119,130,83277,2,0,L|153:52,1,73.4999977569581,2|0,0:0|0:0,0:0:0:0:
347,140,83531,6,0,P|396:136|450:55,1,146.999995513916,8|0,0:0|0:0,0:0:0:0:
376,54,83913,1,0,0:0:0:0:
79,94,84294,2,0,L|277:89,1,146.999995513916,2|8,0:0|0:0,0:0:0:0:
299,92,84675,1,0,0:0:0:0:
299,92,84930,1,0,0:0:0:0:
128,146,85057,2,0,L|20:147,1,73.4999977569581
49,73,85311,1,0,0:0:0:0:
122,69,85438,1,0,0:0:0:0:
325,109,85565,6,0,P|266:45|192:72,1,146.999995513916,8|0,0:0|0:0,0:0:0:0:
139,51,85947,1,8,0:0:0:0:
471,223,86328,2,0,L|466:49,1,146.999995513916,2|0,0:0|0:0,0:0:0:0:
393,73,86709,1,0,0:0:0:0:
267,71,86964,1,0,0:0:0:0:
347,73,87091,2,0,L|458:73,1,73.4999977569581,10|0,0:0|0:0,0:0:0:0:
86,186,87472,6,0,P|5:173|48:56,1,220.499993270874,4|0,0:0|0:0,0:0:0:0:
328,62,88108,2,0,L|155:31,1,146.999995513916,8|0,0:0|0:0,0:0:0:0:
495,197,88616,2,0,L|499:73,1,73.4999977569581,10|0,0:0|0:0,0:0:0:0:
219,128,89125,2,0,L|207:18,1,73.4999977569581,0|0,0:0|0:0,0:0:0:0:
284,53,89379,1,2,0:0:0:0:
357,48,89506,1,2,0:0:0:0:
159,140,89633,6,0,L|154:50,1,73.4999977569581,12|0,0:0|0:0,0:0:0:0:
301,65,90014,2,0,L|157:35,3,146.999995513916,8|8|8|8,3:0|0:0|0:0|0:0,0:0:0:0:
301,63,91031,1,8,0:0:0:0:
120,69,91158,2,0,P|74:137|156:154,1,146.999995513916,2|0,0:0|0:0,0:0:0:0:
466,162,91667,6,0,L|471:72,1,73.4999977569581,8|0,0:0|0:0,0:0:0:0:
302,93,92048,2,8,L|500:85,3,168,0|0|0|0,0:0|0:0|0:0|0:0,0:0:0:0:
470,87,93065,1,8,0:0:0:0:
297,88,93192,2,0,L|94:95,1,146.999995513916,2|0,0:0|0:0,0:0:0:0:
484,184,93701,6,0,L|431:109,1,73.4999977569581,8|0,0:0|0:0,0:0:0:0:
294,131,94082,2,0,L|504:129,1,146.999995513916,8|0,0:0|0:0,0:0:0:0:
193,199,94591,2,0,P|90:180|96:61,1,220.499993270874,8|8,0:0|0:0,0:0:0:0:
154,82,95099,1,0,0:0:0:0:
324,90,95226,2,0,P|432:21|415:-5,1,146.999995513916,2|2,0:0|0:0,0:0:0:0:
66,213,95735,6,0,L|69:33,1,146.999995513916,8|0,0:0|0:0,0:0:0:0:
185,71,96243,2,0,L|281:72,2,73.4999977569581,2|0|0,0:0|0:0|0:0,0:0:0:0:
111,78,96625,1,0,0:0:0:0:
308,174,96752,1,8,0:0:0:0:
387,177,96879,2,0,L|205:175,2,146.999995513916,2|2|2,0:0|0:0|0:0,0:0:0:0:
390,97,97514,1,0,0:0:0:0:
310,94,97641,1,0,0:0:0:0:
120,100,97769,6,0,L|8:106,1,73.4999977569581,12|0,0:0|0:0,0:0:0:0:
163,94,98150,2,8,L|347:94,3,146.999995513916,0|0|0|0,0:0|0:0|0:0|0:0,0:0:0:0:
310,94,99167,1,8,0:0:0:0:
161,119,99294,2,0,P|73:111|95:19,1,146.999995513916,2|0,0:0|0:0,0:0:0:0:
378,62,99803,6,0,L|494:63,1,73.4999977569581,8|0,0:0|0:0,0:0:0:0:
300,65,100184,2,8,L|499:65,3,168,8|8|8|8,0:0|0:0|0:0|0:0,0:0:0:0:
468,65,101201,1,8,0:0:0:0:
317,130,101328,2,0,P|339:65|446:94,1,146.999995513916,2|0,0:0|0:0,0:0:0:0:
30,137,101836,6,0,L|55:62,1,73.4999977569581,8|0,0:0|0:0,0:0:0:0:
284,119,102218,2,0,L|74:117,1,146.999995513916,0|0,0:0|0:0,0:0:0:0:
385,187,102727,2,0,P|488:168|482:49,1,220.499993270874,0|8,0:0|0:0,0:0:0:0:
424,70,103235,1,0,0:0:0:0:
229,127,103362,2,0,L|30:120,1,146.999995513916,2|0,0:0|0:0,0:0:0:0:
407,130,103870,2,0,P|246:106|209:38,2,220.499993270874,2|2|2,0:0|0:0|0:0,0:0:0:0:
256,192,104887,12,0,105904,0:0:0:0:
256,192,120141,12,0,122175,0:0:0:0:
120,229,123192,5,8,0:0:0:0:
209,229,123319,1,8,0:0:0:0:
205,139,123446,1,2,0:0:0:0:
115,136,123573,1,2,0:0:0:0:
264,126,123701,2,0,L|293:59,1,73.4999977569581,0|0,0:0|0:0,0:0:0:0:
195,103,123955,2,0,L|166:36,1,73.4999977569581,0|0,0:0|0:0,0:0:0:0:
356,125,124209,6,0,P|439:87|452:13,1,146.999995513916,4|0,0:0|0:0,0:0:0:0:
366,34,124591,2,0,L|177:38,1,146.999995513916,2|0,0:0|0:0,0:0:0:0:
439,36,125226,1,0,0:0:0:0:
366,34,125353,1,0,0:0:0:0:
370,107,125480,1,0,0:0:0:0:
443,106,125607,1,0,0:0:0:0:
361,109,125735,2,0,L|571:97,1,146.999995513916,2|0,0:0|0:0,0:0:0:0:
256,182,126243,6,0,L|88:131,1,146.999995513916,2|0,0:0|0:0,0:0:0:0:
114,99,126625,1,2,0:0:0:0:
273,104,126879,1,0,0:0:0:0:
52,106,127133,2,0,P|57:275|189:280,1,293.999991027832,2|0,0:0|0:0,0:0:0:0:
345,295,127769,2,0,L|519:270,1,146.999995513916,2|0,0:0|0:0,0:0:0:0:
161,279,128277,6,0,P|112:227|181:191,1,146.999995513916,12|0,0:0|0:0,0:0:0:0:
244,185,128658,2,0,L|448:153,1,146.999995513916,8|0,0:0|0:0,0:0:0:0:
134,151,129167,2,0,L|27:149,2,73.4999977569581,8|2|0,0:0|0:0|0:0,0:0:0:0:
280,163,129675,1,8,0:0:0:0:
206,168,129803,1,2,0:0:0:0:
132,168,129930,1,0,0:0:0:0:
206,168,130057,1,0,0:0:0:0:
280,163,130184,1,0,0:0:0:0:
84,163,130311,6,0,L|90:351,1,146.999995513916,8|0,0:0|0:0,0:0:0:0:
344,308,130819,2,0,L|154:277,1,146.999995513916,2|0,0:0|0:0,0:0:0:0:
453,318,131328,2,0,P|404:220|263:255,1,220.499993270874,8|0,0:0|0:0,0:0:0:0:
469,225,131836,2,0,L|473:64,1,146.999995513916,2|0,0:0|0:0,0:0:0:0:
156,163,132345,6,0,P|214:82|260:86,1,146.999995513916,12|0,0:0|0:0,0:0:0:0:
163,83,132726,2,0,P|70:57|69:0,1,146.999995513916,0|0,0:0|0:0,0:0:0:0:
210,25,133235,1,0,0:0:0:0:
283,27,133362,2,0,L|62:35,1,220.499993270874,8|0,0:0|0:0,0:0:0:0:
236,128,133870,2,0,L|440:104,1,146.999995513916,2|0,0:0|0:0,0:0:0:0:
66,181,134379,6,0,P|57:90|104:102,1,146.999995513916,8|0,0:0|0:0,0:0:0:0:
345,115,134887,2,0,L|182:89,1,146.999995513916,2|0,0:0|0:0,0:0:0:0:
276,118,135269,1,0,0:0:0:0:
447,130,135396,2,0,L|451:25,1,73.4999977569581,8|0,0:0|0:0,0:0:0:0:
302,59,135777,1,0,0:0:0:0:
221,52,135904,2,0,L|415:24,1,146.999995513916,2|0,0:0|0:0,0:0:0:0:
37,232,136413,6,0,L|40:42,1,146.999995513916,12|0,0:0|0:0,0:0:0:0:
120,85,136794,2,0,L|319:84,1,146.999995513916,8|0,0:0|0:0,0:0:0:0:
119,90,137303,1,8,0:0:0:0:
285,90,137430,2,0,L|496:93,1,146.999995513916,8|0,0:0|0:0,0:0:0:0:
184,154,137938,2,0,L|24:149,1,146.999995513916,2|0,0:0|0:0,0:0:0:0:
378,148,138447,6,0,L|231:146,2,146.999995513916,8|0|2,0:0|0:0|0:0,0:0:0:0:
374,294,139209,1,0,0:0:0:0:
119,289,139464,2,0,P|158:200|310:247,1,220.499993270874,8|0,0:0|0:0,0:0:0:0:
196,188,139972,1,0,0:0:0:0:
122,191,140099,1,0,0:0:0:0:
48,188,140226,1,0,0:0:0:0:
50,114,140353,1,0,0:0:0:0:
236,110,140480,6,0,L|360:112,1,73.4999977569581,4|0,0:0|0:0,0:0:0:0:
162,115,140862,2,0,L|159:0,1,73.4999977569581,0|2,0:0|0:0,0:0:0:0:
387,125,141243,2,0,L|504:124,1,73.4999977569581,0|0,0:0|0:0,0:0:0:0:
153,157,141752,2,0,L|274:156,1,73.4999977569581,0|0,0:0|0:0,0:0:0:0:
299,154,142006,1,2,0:0:0:0:
226,156,142133,1,0,0:0:0:0:
153,157,142260,1,0,0:0:0:0:
477,153,142514,6,0,P|471:234|374:222,1,146.999995513916,8|8,0:0|0:0,0:0:0:0:
270,238,143023,1,2,0:0:0:0:
342,239,143150,1,0,0:0:0:0:
416,240,143277,1,0,0:0:0:0:
414,173,143404,1,0,0:0:0:0:
316,172,143531,2,0,L|496:173,1,146.999995513916,8|0,0:0|0:0,0:0:0:0:
239,146,144040,2,0,L|77:145,1,146.999995513916,2|0,0:0|0:0,0:0:0:0:
416,183,144548,6,0,L|429:97,1,73.4999977569581,12|0,0:0|0:0,0:0:0:0:
280,97,144930,2,0,L|267:11,1,73.4999977569581,0|2,0:0|0:0,0:0:0:0:
505,168,145311,2,0,L|500:276,1,73.4999977569581,0|0,0:0|0:0,0:0:0:0:
199,181,145819,2,0,L|72:185,1,73.4999977569581,0|0,0:0|0:0,0:0:0:0:
199,181,146074,2,0,L|200:291,1,73.4999977569581,2|0,0:0|0:0,0:0:0:0:
118,251,146328,1,0,0:0:0:0:
191,254,146455,1,0,0:0:0:0:
377,180,146582,6,0,P|360:117|254:133,1,146.999995513916,8|8,0:0|0:0,0:0:0:0:
41,115,147091,2,0,L|36:309,1,146.999995513916,2|0,0:0|0:0,0:0:0:0:
387,95,147599,2,0,L|383:193,1,73.4999977569581,0|0,0:0|0:0,0:0:0:0:
238,166,147980,1,0,0:0:0:0:
311,172,148108,1,2,0:0:0:0:
385,174,148235,1,0,0:0:0:0:
387,95,148362,1,0,0:0:0:0:
314,91,148489,1,0,0:0:0:0:
114,112,148616,6,0,L|-4:116,1,73.4999977569581,8|0,0:0|0:0,0:0:0:0:
172,110,148997,2,0,L|290:114,1,73.4999977569581,0|2,0:0|0:0,0:0:0:0:
15,120,149379,2,0,L|15:220,1,73.4999977569581,0|0,0:0|0:0,0:0:0:0:
359,171,149887,2,0,L|238:170,1,73.4999977569581,0|0,0:0|0:0,0:0:0:0:
213,168,150141,1,2,0:0:0:0:
286,170,150268,1,0,0:0:0:0:
359,171,150395,1,0,0:0:0:0:
16,183,150650,6,0,P|60:120|157:161,1,146.999995513916,8|8,0:0|0:0,0:0:0:0:
349,141,151158,2,0,L|142:149,1,146.999995513916,2|0,0:0|0:0,0:0:0:0:
430,235,151667,1,8,0:0:0:0:
502,236,151794,1,0,0:0:0:0:
503,162,151921,1,0,0:0:0:0:
429,164,152048,1,0,0:0:0:0:
355,164,152175,2,0,L|545:163,1,146.999995513916,2|0,0:0|0:0,0:0:0:0:
165,180,152684,6,0,L|86:180,1,73.4999977569581,12|0,0:0|0:0,0:0:0:0:
223,174,153065,2,0,L|302:174,1,73.4999977569581,0|2,0:0|0:0,0:0:0:0:
65,160,153447,2,0,L|161:153,1,73.4999977569581,0|0,0:0|0:0,0:0:0:0:
455,164,153955,2,0,L|328:168,1,73.4999977569581,0|0,0:0|0:0,0:0:0:0:
314,164,154210,2,0,L|315:274,1,73.4999977569581,2|0,0:0|0:0,0:0:0:0:
380,237,154464,1,0,0:0:0:0:
446,234,154591,1,0,0:0:0:0:
251,223,154718,6,0,L|105:220,1,146.999995513916,8|8,0:0|0:0,0:0:0:0:
332,194,155226,2,0,L|431:194,2,73.4999977569581,2|0|0,0:0|0:0|0:0,0:0:0:0:
199,193,155735,2,0,L|375:188,1,146.999995513916,8|0,0:0|0:0,0:0:0:0:
117,198,156243,2,0,P|42:181|75:76,1,146.999995513916,2|0,0:0|0:0,0:0:0:0:
376,119,156752,6,0,L|530:118,1,146.999995513916,12|0,0:0|0:0,0:0:0:0:
449,119,157133,1,2,0:0:0:0:
129,134,157514,2,0,L|307:131,1,146.999995513916,12|0,0:0|0:0,0:0:0:0:
349,135,157896,1,2,0:0:0:0:
37,113,158277,2,0,L|39:329,1,146.999995513916,8|0,0:0|0:0,0:0:0:0:
387,264,158786,6,0,P|306:187|273:206,1,146.999995513916,12|0,0:0|0:0,0:0:0:0:
160,189,159294,2,0,L|27:190,1,73.4999977569581,2|0,0:0|0:0,0:0:0:0:
81,116,159548,1,0,0:0:0:0:
326,160,159803,2,0,L|459:161,1,73.4999977569581,0|8,0:0|0:0,0:0:0:0:
405,87,160057,1,0,0:0:0:0:
332,96,160184,1,8,0:0:0:0:
405,98,160311,1,0,0:0:0:0:
478,98,160438,1,0,0:0:0:0:
475,24,160565,1,0,0:0:0:0:
118,76,160819,6,0,P|175:153|223:154,1,146.999995513916,12|0,0:0|0:0,0:0:0:0:
293,153,161201,1,8,0:0:0:0:
0,230,161582,2,0,L|0:49,1,146.999995513916,6|0,0:0|0:0,0:0:0:0:
81,78,161964,1,8,0:0:0:0:
437,93,162345,2,0,L|434:305,1,146.999995513916,2|0,0:0|0:0,0:0:0:0:
97,218,162853,6,0,L|275:222,1,146.999995513916,8|0,0:0|0:0,0:0:0:0:
376,224,163362,1,2,0:0:0:0:
289,223,163489,1,0,0:0:0:0:
282,131,163616,1,0,0:0:0:0:
370,131,163743,1,8,0:0:0:0:
458,130,163870,5,0,0:0:0:0:
370,131,163997,1,8,0:0:0:0:
289,131,164124,1,0,0:0:0:0:
207,131,164252,2,0,L|353:129,2,146.999995513916,8|0|0,0:0|0:0|0:0,0:0:0:0:
21,129,164887,1,6,0:0:0:0:
