osu file format v14

[General]
AudioFilename: audio.mp3
AudioLeadIn: 0
PreviewTime: 142
Countdown: 1
SampleSet: Soft
StackLeniency: 0.7
Mode: 2
LetterboxInBreaks: 0
WidescreenStoryboard: 1

[Editor]
Bookmarks: 16346,32617,48888,57024,65159,73295,77138,89566,105837,113973,124142,140413,156685,164820
DistanceSpacing: 0.7
BeatDivisor: 4
GridSize: 8
TimelineZoom: 1.8

[Metadata]
Title:Beneath the Mask
TitleUnicode:Beneath the Mask
Artist:ACE (TOMOri Kudo / CHiCO)
ArtistUnicode:ACE (TOMOri Kudo / CHiCO)
Creator:JierYagtama
Version:Cup
Source:ペルソナ 5
Tags:JierYagtama Shoji Meguro 目黒将司 大乱闘スマッシュブラザーズ SPECIAL Super Smash Bros. Ultimate 稲泉 りん Lyn Inaizumi Atlus Co., Ltd. Persona 5 Ren Amamiya 雨宮 蓮 Video Game English
BeatmapID:2069190
BeatmapSetID:978534

[Difficulty]
HPDrainRate:3
CircleSize:3
OverallDifficulty:6
ApproachRate:6
SliderMultiplier:1.7
SliderTickRate:0.5

[Events]
//Background and Video events
0,0,"aresenn.jpg",0,0
//Break Periods
2,57291,64176
2,106104,119091
//Storyboard Layer 0 (Background)
//Storyboard Layer 1 (Fail)
//Storyboard Layer 2 (Pass)
//Storyboard Layer 3 (Foreground)
//Storyboard Layer 4 (Overlay)
//Storyboard Sound Samples

[TimingPoints]
142,508.474576271186,4,2,1,70,1,0
142,-76.9230769230769,4,2,1,70,0,0
89633,-76.9230769230769,4,2,1,70,0,1
96879,-76.9230769230769,4,2,1,70,0,1
97769,-76.9230769230769,4,2,1,70,0,1
105904,-76.9230769230769,4,2,1,70,0,0
164887,-76.9230769230769,4,2,1,30,0,0

[Colours]
Combo1 : 255,255,255
Combo2 : 198,0,0
Combo3 : 128,128,128

[HitObjects]
168,265,142,6,0,P|103:197|150:168,1,165.749992412568,12|2,0:0|0:0,0:0:0:0:
302,169,904,2,0,L|99:170,1,165.749992412568,12|2,0:0|0:0,0:0:0:0:
302,163,1667,2,0,L|451:166,1,110.499994941712,8|0,0:0|0:0,0:0:0:0:
280,160,2175,6,0,P|198:96|286:70,1,220.999989883423,8|2,0:0|0:0,0:0:0:0:
377,64,2938,1,0,0:0:0:0:
266,64,3192,2,0,L|119:70,2,110.499994941712,0|0|2,0:0|0:0|0:0,0:0:0:0:
377,64,3955,1,0,0:0:0:0:
250,102,4209,6,0,P|147:85|149:0,1,165.749992412568,12|2,0:0|0:0,0:0:0:0:
289,97,4972,2,0,P|392:80|390:-5,1,165.749992412568,12|2,0:0|0:0,0:0:0:0:
239,46,5735,2,0,L|398:49,1,110.499994941712,8|0,0:0|0:0,0:0:0:0:
221,100,6243,6,0,P|122:125|81:32,1,220.999989883423,8|2,0:0|0:0,0:0:0:0:
192,35,7006,1,0,0:0:0:0:
302,36,7260,1,0,0:0:0:0:
192,35,7514,1,0,0:0:0:0:
302,36,7769,2,0,L|299:176,1,110.499994941712,8|2,0:0|0:0,0:0:0:0:
190,143,8277,6,0,L|83:140,1,55.2499974708558,8|8,0:0|0:0,0:0:0:0:
383,144,9040,2,0,L|475:137,1,55.2499974708558,0|8,0:0|0:0,0:0:0:0:
327,143,9421,1,0,0:0:0:0:
161,152,9803,2,0,L|165:3,1,110.499994941712,2|8,0:0|0:0,0:0:0:0:
274,45,10311,6,0,L|381:42,1,55.2499974708558,8|0,0:0|0:0,0:0:0:0:
81,46,11074,2,0,L|77:135,1,55.2499974708558,8|8,0:0|0:0,0:0:0:0:
188,100,11455,1,8,0:0:0:0:
353,105,11836,2,8,L|223:105,1,110.499994941712,0|0,0:0|0:0,0:0:0:0:
353,103,12345,6,0,P|412:168|350:214,1,165.749992412568,12|2,0:0|0:0,0:0:0:0:
204,196,13108,2,0,P|145:261|207:307,1,165.749992412568,12|2,0:0|0:0,0:0:0:0:
352,310,13870,2,0,L|207:311,1,110.499994941712,8|0,0:0|0:0,0:0:0:0:
131,300,14379,1,8,0:0:0:0:
256,192,14887,12,12,16413,0:0:0:0:
135,183,16921,6,0,L|132:99,1,55.2499974708558,2|0,0:0|0:0,0:0:0:0:
243,127,17303,2,0,L|405:127,1,110.499994941712,0|0,0:0|0:0,0:0:0:0:
188,134,17938,1,2,0:0:0:0:
77,137,18192,1,0,0:0:0:0:
188,134,18447,6,0,P|309:124|333:25,1,220.999989883423,8|2,0:0|0:0,0:0:0:0:
171,46,19336,2,0,L|60:47,2,110.499994941712
166,101,19972,1,2,0:0:0:0:
334,49,20480,6,0,L|346:183,1,110.499994941712,8|0,0:0|0:0,0:0:0:0:
233,162,20989,1,2,0:0:0:0:
84,156,21370,2,0,L|240:148,2,110.499994941712,0|0|0,0:0|0:0|0:0,0:0:0:0:
29,156,22006,1,2,0:0:0:0:
227,170,22514,6,0,L|347:168,1,110.499994941712,8|0,0:0|0:0,0:0:0:0:
227,165,23023,1,2,0:0:0:0:
393,157,23404,2,0,L|400:31,2,110.499994941712,0|0|8,0:0|0:0|0:0,0:0:0:0:
338,159,24040,1,2,0:0:0:0:
228,159,24294,1,0,0:0:0:0:
327,159,24548,5,12,0:0:0:0:
127,161,25057,2,0,L|123:89,1,55.2499974708558,2|0,0:0|0:0,0:0:0:0:
223,104,25438,2,0,L|366:96,1,110.499994941712,0|0,0:0|0:0,0:0:0:0:
233,101,26074,1,2,0:0:0:0:
122,98,26328,1,0,0:0:0:0:
233,101,26582,6,0,L|397:101,1,110.499994941712,8|0,0:0|0:0,0:0:0:0:
232,96,27091,1,2,0:0:0:0:
397,105,27472,2,0,L|250:105,2,110.499994941712,0|0|0,0:0|0:0|0:0,0:0:0:0:
452,98,28108,1,2,0:0:0:0:
230,96,28616,6,0,L|92:99,1,110.499994941712,8|0,0:0|0:0,0:0:0:0:
230,99,29125,1,2,0:0:0:0:
64,97,29506,2,0,L|220:98,2,110.499994941712,0|0|0,0:0|0:0|0:0,0:0:0:0:
60,95,30141,1,2,0:0:0:0:
60,95,30396,1,0,0:0:0:0:
170,97,30650,1,8,0:0:0:0:
256,192,31158,12,2,32175,0:0:0:0:
107,184,32684,6,0,L|232:184,1,110.499994941712,12|0,0:0|0:0,0:0:0:0:
274,188,33065,2,0,P|194:166|311:92,1,276.249987354279,8|8,0:0|0:0,0:0:0:0:
390,69,33955,1,0,0:0:0:0:
279,72,34209,2,0,L|137:71,1,110.499994941712,2|0,0:0|0:0,0:0:0:0:
279,73,34718,6,0,L|409:71,2,110.499994941712,8|0|2,0:0|0:0|0:0,0:0:0:0:
168,77,35480,1,0,0:0:0:0:
170,153,35608,1,0,0:0:0:0:
335,149,35989,1,0,0:0:0:0:
225,163,36243,2,0,L|114:161,1,110.499994941712,2|0,0:0|0:0,0:0:0:0:
225,156,36752,6,0,L|368:157,1,110.499994941712,12|0,0:0|0:0,0:0:0:0:
391,161,37133,1,8,0:0:0:0:
281,161,37387,1,0,0:0:0:0:
448,160,37769,2,0,L|455:285,1,110.499994941712,8|0,0:0|0:0,0:0:0:0:
345,259,38277,2,0,L|186:260,2,110.499994941712,2|0|8,0:0|0:0|0:0,0:0:0:0:
456,262,39040,5,12,0:0:0:0:
290,262,39421,1,2,0:0:0:0:
456,262,39803,1,2,0:0:0:0:
235,263,40311,2,0,L|242:136,1,110.499994941712,8|0,0:0|0:0,0:0:0:0:
351,155,40819,6,0,L|485:154,2,110.499994941712,8|0|2,0:0|0:0|0:0,0:0:0:0:
241,173,41582,1,0,0:0:0:0:
130,169,41836,2,0,L|323:168,1,165.749992412568,8|0,0:0|0:0,0:0:0:0:
302,112,42345,1,2,0:0:0:0:
111,115,42853,6,0,L|-28:115,2,110.499994941712,8|0|2,0:0|0:0|0:0,0:0:0:0:
217,119,43616,1,0,0:0:0:0:
120,118,43870,2,0,P|67:96|138:45,1,165.749992412568,8|0,0:0|0:0,0:0:0:0:
197,36,44379,1,2,0:0:0:0:
307,30,44633,1,0,0:0:0:0:
207,77,44887,6,0,L|63:84,1,110.499994941712,8|0,0:0|0:0,0:0:0:0:
96,82,45269,1,8,0:0:0:0:
261,85,45523,1,0,0:0:0:0:
316,83,45777,2,0,L|318:224,1,110.499994941712,0|0,0:0|0:0,0:0:0:0:
151,187,46413,2,0,L|265:181,1,110.499994941712,2|0,0:0|0:0,0:0:0:0:
371,187,46921,6,0,L|371:56,1,110.499994941712,8|8,0:0|0:0,0:0:0:0:
260,79,47430,2,0,L|144:84,1,110.499994941712,2|0,0:0|0:0,0:0:0:0:
259,78,47938,2,0,L|375:83,1,110.499994941712,8|2,0:0|0:0,0:0:0:0:
479,74,48447,2,0,L|477:199,1,110.499994941712,8|2,0:0|0:0,0:0:0:0:
366,187,48955,6,0,L|170:186,1,165.749992412568,12|0,0:0|0:0,0:0:0:0:
366,189,49718,2,0,P|435:136|358:89,1,165.749992412568,0|0,0:0|0:0,0:0:0:0:
233,82,50480,2,0,L|383:78,1,110.499994941712,2|0,0:0|0:0,0:0:0:0:
232,82,50989,6,0,L|120:82,2,110.499994941712,8|0|2,0:0|0:0|0:0,0:0:0:0:
343,79,51752,1,0,0:0:0:0:
453,88,52006,2,0,L|455:224,1,110.499994941712,8|0,0:0|0:0,0:0:0:0:
344,203,52514,2,0,L|345:58,1,110.499994941712,2|8,0:0|0:0,0:0:0:0:
234,107,53023,6,0,L|46:108,1,165.749992412568,12|0,0:0|0:0,0:0:0:0:
234,107,53786,2,0,L|50:114,1,165.749992412568,4|0,0:0|0:0,0:0:0:0:
267,112,54548,2,0,L|416:108,1,110.499994941712,2|0,0:0|0:0,0:0:0:0:
276,119,55057,1,8,0:0:0:0:
256,192,55565,12,8,57091,0:0:0:0:
180,191,65226,6,0,P|128:135|198:132,1,165.749992412568,8|8,0:0|0:0,0:0:0:0:
375,118,66116,1,8,0:0:0:0:
264,119,66370,1,8,0:0:0:0:
375,118,66625,1,8,0:0:0:0:
314,110,66752,2,0,L|182:117,1,110.499994941712,2|0,0:0|0:0,0:0:0:0:
313,121,67260,6,0,P|365:65|295:62,1,165.749992412568,8|8,0:0|0:0,0:0:0:0:
106,64,68150,1,8,0:0:0:0:
19,63,68404,1,8,0:0:0:0:
106,64,68659,1,8,0:0:0:0:
161,65,68786,2,0,L|32:73,1,110.499994941712,2|0,0:0|0:0,0:0:0:0:
142,66,69294,6,0,L|332:62,1,165.749992412568,8|8,0:0|0:0,0:0:0:0:
86,69,70184,1,8,0:0:0:0:
196,69,70438,1,8,0:0:0:0:
86,69,70692,1,8,0:0:0:0:
30,70,70819,2,0,L|27:189,1,110.499994941712,2|0,0:0|0:0,0:0:0:0:
138,182,71328,1,8,0:0:0:0:
256,192,71582,12,10,72853,0:0:0:0:
183,194,73362,6,0,L|394:185,1,165.749992412568,8|8,0:0|0:0,0:0:0:0:
182,195,74125,2,0,L|43:199,2,110.499994941712,2|0|0,0:0|0:0|0:0,0:0:0:0:
292,188,74887,1,2,0:0:0:0:
182,177,75141,1,0,0:0:0:0:
292,177,75396,6,0,P|367:173|350:91,1,165.749992412568,8|8,0:0|0:0,0:0:0:0:
196,97,76158,2,0,L|55:96,2,110.499994941712,2|0|0,0:0|0:0|0:0,0:0:0:0:
306,104,76921,1,2,0:0:0:0:
195,96,77175,1,2,0:0:0:0:
88,65,77430,6,0,L|298:65,1,165.749992412568,8|8,0:0|0:0,0:0:0:0:
419,71,78192,2,0,L|297:74,2,110.499994941712,2|0|0,0:0|0:0|0:0,0:0:0:0:
308,73,78955,2,0,L|177:72,1,110.499994941712,2|0,0:0|0:0,0:0:0:0:
309,159,79464,6,0,P|365:121|279:98,1,165.749992412568,8|8,0:0|0:0,0:0:0:0:
141,77,80226,1,2,0:0:0:0:
249,95,80480,2,0,L|370:91,1,110.499994941712,8|0,0:0|0:0,0:0:0:0:
248,95,80989,2,0,L|127:91,1,110.499994941712,0|0,0:0|0:0,0:0:0:0:
254,199,81497,6,0,P|338:193|346:94,1,165.749992412568,8|8,0:0|0:0,0:0:0:0:
198,162,82260,2,0,L|202:6,1,110.499994941712,2|0,0:0|0:0,0:0:0:0:
311,50,82769,1,0,0:0:0:0:
418,73,83023,2,0,L|278:80,1,110.499994941712,2|2,0:0|0:0,0:0:0:0:
197,81,83531,6,0,L|26:81,1,165.749992412568,8|0,0:0|0:0,0:0:0:0:
214,234,84294,2,0,L|74:237,1,110.499994941712,2|8,0:0|0:0,0:0:0:0:
214,235,84803,1,0,0:0:0:0:
324,233,85057,2,0,L|471:232,1,110.499994941712,0|0,0:0|0:0,0:0:0:0:
298,249,85565,6,0,P|207:238|194:155,1,165.749992412568,8|8,0:0|0:0,0:0:0:0:
353,183,86328,2,0,L|344:69,1,110.499994941712,2|0,0:0|0:0,0:0:0:0:
233,76,86836,1,0,0:0:0:0:
122,78,87091,2,0,L|124:2,1,55.2499974708558,10|0,0:0|0:0,0:0:0:0:
234,23,87472,6,0,P|329:124|310:159,1,165.749992412568,4|0,0:0|0:0,0:0:0:0:
219,131,88108,2,0,L|94:131,1,110.499994941712,8|0,0:0|0:0,0:0:0:0:
219,134,88616,2,0,L|233:30,1,55.2499974708558,10|0,0:0|0:0,0:0:0:0:
73,105,89125,2,0,L|59:1,1,55.2499974708558,0|0,0:0|0:0,0:0:0:0:
231,43,89633,6,0,L|294:40,1,55.2499974708558,12|0,0:0|0:0,0:0:0:0:
175,42,90014,2,0,L|177:203,1,110.499994941712,8|8,3:0|0:0,0:0:0:0:
287,154,90523,2,0,L|285:315,1,110.499994941712,8|8,0:0|0:0,0:0:0:0:
120,265,91158,2,0,L|255:260,1,110.499994941712,2|0,0:0|0:0,0:0:0:0:
341,261,91667,2,0,L|343:168,1,55.2499974708558,8|0,0:0|0:0,0:0:0:0:
232,196,92048,6,8,L|107:198,1,110.499994941712,0|0,0:0|0:0,0:0:0:0:
232,196,92557,2,0,L|357:198,1,110.499994941712,0|0,0:0|0:0,0:0:0:0:
177,203,93192,2,0,L|170:63,1,110.499994941712,2|0,0:0|0:0,0:0:0:0:
282,90,93701,6,0,L|370:88,1,55.2499974708558,8|0,0:0|0:0,0:0:0:0:
226,89,94082,1,8,0:0:0:0:
115,90,94336,1,0,0:0:0:0:
226,89,94591,2,0,P|281:91|286:205,1,165.749992412568,8|8,0:0|0:0,0:0:0:0:
196,193,95226,2,0,L|338:190,1,110.499994941712,2|2,0:0|0:0,0:0:0:0:
195,186,95735,6,0,L|82:186,2,110.499994941712,8|0|2,0:0|0:0|0:0,0:0:0:0:
305,194,96497,1,0,0:0:0:0:
423,197,96752,1,8,0:0:0:0:
424,141,96879,2,0,L|276:143,2,110.499994941712,2|2|2,0:0|0:0|0:0,0:0:0:0:
258,146,97769,6,0,L|179:145,1,55.2499974708558,12|0,0:0|0:0,0:0:0:0:
313,142,98150,2,8,L|439:133,1,110.499994941712,0|0,0:0|0:0,0:0:0:0:
312,140,98658,2,0,L|198:132,1,110.499994941712,0|0,0:0|0:0,0:0:0:0:
367,142,99294,2,0,L|381:273,1,110.499994941712,2|0,0:0|0:0,0:0:0:0:
268,246,99803,6,0,L|266:155,1,55.2499974708558,8|0,0:0|0:0,0:0:0:0:
377,191,100184,2,8,L|224:188,1,110.499994941712,8|8,0:0|0:0,0:0:0:0:
156,192,100692,2,0,L|309:189,1,110.499994941712,8|8,0:0|0:0,0:0:0:0:
100,180,101328,2,0,L|-13:177,1,110.499994941712,2|0,0:0|0:0,0:0:0:0:
99,163,101836,6,0,L|170:160,1,55.2499974708558,8|0,0:0|0:0,0:0:0:0:
263,162,102218,1,0,0:0:0:0:
374,149,102472,1,0,0:0:0:0:
263,162,102726,2,0,P|173:124|214:86,1,165.749992412568,0|8,0:0|0:0,0:0:0:0:
296,95,103362,2,0,L|440:95,1,110.499994941712,2|0,0:0|0:0,0:0:0:0:
256,192,103870,12,4,105904,0:0:0:0:
256,192,120141,12,4,124209,0:0:0:0:
256,192,126243,12,2,127769,0:0:0:0:
204,183,128277,6,0,L|61:181,1,110.499994941712,12|0,0:0|0:0,0:0:0:0:
88,126,128658,1,8,0:0:0:0:
198,125,128913,1,0,0:0:0:0:
363,125,129294,2,0,L|497:128,1,110.499994941712,2|0,0:0|0:0,0:0:0:0:
363,125,129803,2,0,L|209:125,1,110.499994941712,2|0,0:0|0:0,0:0:0:0:
362,125,130311,6,0,L|476:129,2,110.499994941712,8|0|2,0:0|0:0|0:0,0:0:0:0:
251,130,131074,1,0,0:0:0:0:
140,136,131328,2,0,P|179:65|297:69,1,165.749992412568,8|0,0:0|0:0,0:0:0:0:
306,52,131836,1,2,0:0:0:0:
411,51,132091,1,0,0:0:0:0:
311,53,132345,6,0,L|181:56,2,110.499994941712,12|0|2,0:0|0:0|0:0,0:0:0:0:
411,51,133108,1,0,0:0:0:0:
299,129,133362,2,0,L|109:128,1,165.749992412568,8|0,0:0|0:0,0:0:0:0:
135,69,133870,1,2,0:0:0:0:
244,61,134125,1,0,0:0:0:0:
354,58,134379,6,0,L|484:61,2,110.499994941712,8|0|2,0:0|0:0|0:0,0:0:0:0:
244,61,135141,1,0,0:0:0:0:
133,57,135396,2,0,L|222:55,1,55.2499974708558,8|0,0:0|0:0,0:0:0:0:
388,63,135904,2,0,L|385:209,1,110.499994941712,2|0,0:0|0:0,0:0:0:0:
277,178,136413,6,0,L|122:178,1,110.499994941712,12|0,0:0|0:0,0:0:0:0:
277,167,136921,2,0,L|392:165,1,110.499994941712,0|0,0:0|0:0,0:0:0:0:
277,171,137430,2,0,P|188:144|163:72,1,165.749992412568,8|0,0:0|0:0,0:0:0:0:
218,78,137938,1,2,0:0:0:0:
301,77,138192,1,0,0:0:0:0:
213,188,138447,6,0,L|220:56,1,110.499994941712,8|0,0:0|0:0,0:0:0:0:
330,84,138955,1,2,0:0:0:0:
221,70,139209,1,0,0:0:0:0:
341,169,139464,2,0,P|419:116|310:67,1,220.999989883423,8|0,0:0|0:0,0:0:0:0:
239,46,140226,1,0,0:0:0:0:
129,46,140480,6,0,L|124:140,1,55.2499974708558,4|0,0:0|0:0,0:0:0:0:
292,111,140989,1,2,0:0:0:0:
182,115,141243,2,0,L|173:192,1,55.2499974708558,0|0,0:0|0:0,0:0:0:0:
342,175,141752,1,0,0:0:0:0:
232,180,142006,2,0,L|111:178,1,110.499994941712,2|0,0:0|0:0,0:0:0:0:
232,167,142514,6,0,L|373:173,2,110.499994941712,8|8|2,0:0|0:0|0:0,0:0:0:0:
122,163,143277,1,0,0:0:0:0:
233,163,143531,2,0,L|367:163,1,110.499994941712,8|0,0:0|0:0,0:0:0:0:
232,167,144040,2,0,L|92:163,1,110.499994941712,2|0,0:0|0:0,0:0:0:0:
232,155,144548,6,0,L|237:249,1,55.2499974708558,12|0,0:0|0:0,0:0:0:0:
69,220,145057,1,2,0:0:0:0:
179,224,145311,2,0,L|188:301,1,55.2499974708558,0|0,0:0|0:0,0:0:0:0:
19,284,145820,1,0,0:0:0:0:
129,289,146074,2,0,L|250:287,1,110.499994941712,2|0,0:0|0:0,0:0:0:0:
350,290,146582,6,0,L|216:289,2,110.499994941712,8|8|2,0:0|0:0|0:0,0:0:0:0:
461,294,147345,1,0,0:0:0:0:
350,290,147599,2,0,L|349:213,1,55.2499974708558,0|0,0:0|0:0,0:0:0:0:
184,234,148108,2,0,L|185:157,1,55.2499974708558,2|0,0:0|0:0,0:0:0:0:
351,172,148616,6,0,L|437:175,1,55.2499974708558,8|0,0:0|0:0,0:0:0:0:
241,172,149125,1,2,0:0:0:0:
352,171,149379,2,0,L|357:77,1,55.2499974708558,0|0,0:0|0:0,0:0:0:0:
190,118,149887,1,0,0:0:0:0:
301,112,150141,2,0,L|412:112,1,110.499994941712,2|0,0:0|0:0,0:0:0:0:
301,112,150650,6,0,L|177:114,2,110.499994941712,8|8|2,0:0|0:0|0:0,0:0:0:0:
389,110,151413,1,0,0:0:0:0:
477,108,151667,2,0,L|482:260,1,110.499994941712,8|0,0:0|0:0,0:0:0:0:
370,219,152175,2,0,L|497:218,1,110.499994941712,2|0,0:0|0:0,0:0:0:0:
400,230,152684,6,0,L|314:233,1,55.2499974708558,12|0,0:0|0:0,0:0:0:0:
147,240,153193,1,2,0:0:0:0:
247,238,153447,2,0,L|242:144,1,55.2499974708558,0|0,0:0|0:0,0:0:0:0:
96,182,153955,1,0,0:0:0:0:
196,183,154209,2,0,L|306:183,1,110.499994941712,2|0,0:0|0:0,0:0:0:0:
418,183,154718,6,0,L|255:182,2,110.499994941712,8|8|2,0:0|0:0|0:0,0:0:0:0:
406,86,155480,1,0,0:0:0:0:
328,85,155735,2,0,L|168:85,1,110.499994941712,8|0,0:0|0:0,0:0:0:0:
140,85,156243,2,0,L|297:84,1,110.499994941712,2|0,0:0|0:0,0:0:0:0:
378,253,156752,6,0,P|443:185|396:156,1,165.749992412568,12|2,0:0|0:0,0:0:0:0:
274,181,157514,2,0,L|477:182,1,165.749992412568,12|2,0:0|0:0,0:0:0:0:
274,175,158277,2,0,L|125:178,1,110.499994941712,8|0,0:0|0:0,0:0:0:0:
296,172,158785,6,0,P|400:153|407:53,1,220.999989883423,12|2,0:0|0:0,0:0:0:0:
297,51,159548,1,0,0:0:0:0:
188,65,159802,2,0,L|195:194,1,110.499994941712,0|0,0:0|0:0,0:0:0:0:
305,178,160311,1,0,0:0:0:0:
194,175,160565,1,0,0:0:0:0:
305,167,160819,6,0,P|268:97|190:103,1,165.749992412568,12|8,0:0|0:0,0:0:0:0:
78,107,161582,2,0,P|116:37|194:43,1,165.749992412568,6|8,0:0|0:0,0:0:0:0:
343,117,162345,2,0,L|184:120,1,110.499994941712,2|0,0:0|0:0,0:0:0:0:
343,122,162853,1,8,0:0:0:0:
256,192,163362,12,6,164887,0:0:0:0:
