osu file format v14

[General]
AudioFilename: audio.mp3
AudioLeadIn: 0
PreviewTime: 75771
Countdown: 0
SampleSet: Soft
StackLeniency: 0.6
Mode: 0
LetterboxInBreaks: 0
WidescreenStoryboard: 0

[Editor]
Bookmarks: 16694,31463,46233,61002,75771,77617,92386,107156,121925,136694,151463,166233,173617,188386,192079,206848,221617,238233,240079,254848
DistanceSpacing: 1.4
BeatDivisor: 4
GridSize: 4
TimelineZoom: 1

[Metadata]
Title:Byoushin wo Kamu
TitleUnicode:秒針を噛む
Artist:ACANE
ArtistUnicode:ACAね
Creator:Silent Rock
Version:Insane
Source:
Tags:ACAね ぬゆり ずっと真夜中でいいのに。 秒針を噛む
BeatmapID:1708263
BeatmapSetID:814643

[Difficulty]
HPDrainRate:7
CircleSize:4
OverallDifficulty:8
ApproachRate:9
SliderMultiplier:2
SliderTickRate:1

[Events]
//Background and Video events
0,0,"BG .jpg",0,0
//Break Periods
2,208894,213633
//Storyboard Layer 0 (Background)
//Storyboard Layer 1 (Fail)
//Storyboard Layer 2 (Pass)
//Storyboard Layer 3 (Foreground)
//Storyboard Sound Samples

[TimingPoints]
9310,461.538461538462,4,2,1,10,1,0
16002,-100,4,2,1,40,0,0
16233,-50,4,2,1,40,0,0
16463,-50,4,2,1,10,0,0
16694,-66.6666666666667,4,2,1,40,0,0
31463,-83.3333333333333,4,2,1,40,0,0
35156,-76.9230769230769,4,2,1,40,0,0
35386,-83.3333333333333,4,2,1,40,0,0
60079,-83.3333333333333,4,3,1,40,0,0
61002,-83.3333333333333,4,2,1,40,0,0
71617,-90.9090909090909,4,2,1,40,0,0
71963,-83.3333333333333,4,2,1,40,0,0
72079,-83.3333333333333,4,2,1,30,0,0
72310,-83.3333333333333,4,2,1,35,0,0
72540,-83.3333333333333,4,2,1,40,0,0
72771,-83.3333333333333,4,2,1,45,0,0
73002,-83.3333333333333,4,2,1,50,0,0
73233,-83.3333333333333,4,2,1,55,0,0
75079,-83.3333333333333,4,2,1,40,0,0
77617,-66.6666666666667,4,2,2,50,0,1
91925,-50,4,2,2,50,0,1
92386,-66.6666666666667,4,2,1,40,0,0
107156,-83.3333333333333,4,2,1,40,0,0
151463,-66.6666666666667,4,2,2,50,0,1
166233,-83.3333333333333,4,3,2,40,0,0
185617,-83.3333333333333,4,3,2,50,0,0
186540,-83.3333333333333,4,3,2,20,0,0
187925,-62.5,4,1,1,40,0,0
188617,-62.5,4,1,1,45,0,0
188848,-62.5,4,1,1,50,0,0
189079,-62.5,4,1,1,55,0,0
189310,-62.5,4,1,1,60,0,0
189540,-62.5,4,1,1,65,0,0
189771,-62.5,4,1,1,70,0,0
190002,-62.5,4,1,1,75,0,0
190233,-62.5,4,1,1,80,0,0
190463,-62.5,4,1,1,70,0,0
192079,-71.4285714285714,4,2,1,60,0,0
192310,-71.4285714285714,4,2,1,50,0,0
205925,-83.3333333333333,4,1,1,50,0,0
206848,-83.3333333333333,4,1,1,40,0,0
206963,-83.3333333333333,4,2,1,30,0,0
217925,-83.3333333333333,4,1,1,30,0,0
218386,-83.3333333333333,4,1,1,40,0,0
218848,-83.3333333333333,4,1,1,50,0,0
219310,-83.3333333333333,4,1,1,60,0,0
219771,-83.3333333333333,4,1,1,70,0,0
221617,-50,4,2,1,50,0,1
222079,-66.6666666666667,4,2,2,50,0,1
238233,-83.3333333333333,4,2,1,40,0,0
239156,-76.9230769230769,4,2,1,40,0,0
240079,-83.3333333333333,4,2,1,40,0,0

[HitObjects]
256,192,9310,12,0,14848,0:0:0:0:
169,131,16002,5,2,0:0:0:0:
169,131,16233,2,0,B|202:191|167:276|167:276|211:253,1,200,2|0,0:0|0:0,0:0:0:0:
211,252,16694,6,0,P|286:229|352:256,1,150.000005722046,6|0,0:0|0:0,0:0:0:0:
448,312,17040,2,0,L|432:228,1,75.0000028610231,2|8,0:0|0:0,0:0:0:0:
389,11,17386,1,0,0:0:0:0:
389,11,17502,2,0,P|330:40|242:29,1,150.000005722046,2|0,0:0|0:0,0:0:0:0:
139,0,17848,2,0,P|115:58|141:139,1,150.000005722046,2|8,0:0|0:0,0:0:0:0:
291,306,18310,1,2,0:0:0:0:
291,306,18425,1,0,0:0:0:0:
291,306,18540,6,0,L|304:231,1,75.0000028610231,2|0,0:0|0:0,0:0:0:0:
391,159,18771,2,0,L|404:233,1,75.0000028610231
430,342,19002,1,8,0:0:0:0:
231,233,19233,1,0,0:0:0:0:
231,233,19348,2,0,P|211:171|245:95,1,150.000005722046,2|0,0:0|0:0,0:0:0:0:
368,109,19694,2,0,P|388:171|354:247,1,150.000005722046,2|8,0:0|0:0,0:0:0:0:
169,383,20156,1,2,0:0:0:0:
169,383,20271,1,0,0:0:0:0:
169,383,20386,6,0,L|96:356,1,75.0000028610231,2|0,0:0|0:0,0:0:0:0:
55,252,20617,2,0,L|127:225,1,75.0000028610231,0|2,0:0|0:0,0:0:0:0:
231,187,20848,1,8,0:0:0:0:
38,70,21079,1,0,0:0:0:0:
38,70,21194,2,0,P|17:145|42:211,1,150.000005722046,2|0,0:0|0:0,0:0:0:0:
110,299,21540,2,0,P|185:278|251:303,1,150.000005722046,2|8,0:0|0:0,0:0:0:0:
476,306,22002,1,2,0:0:0:0:
476,306,22117,1,0,0:0:0:0:
476,306,22233,6,0,L|461:224,1,75.0000028610231,2|8,0:0|0:0,0:0:0:0:
359,178,22463,2,0,L|343:262,1,75.0000028610231,0|2,0:0|0:0,0:0:0:0:
316,361,22694,1,8,0:0:0:0:
110,269,22925,1,0,0:0:0:0:
110,269,23040,1,2,0:0:0:0:
198,61,23271,1,0,0:0:0:0:
198,61,23386,1,2,0:0:0:0:
316,361,23617,1,8,0:0:0:0:
412,157,23848,1,0,0:0:0:0:
412,157,23963,1,0,0:0:0:0:
412,157,24079,6,0,P|367:97|295:92,1,150.000005722046,2|0,0:0|0:0,0:0:0:0:
186,118,24425,2,0,L|212:36,1,75.0000028610231,2|8,0:0|0:0,0:0:0:0:
321,241,24771,1,0,0:0:0:0:
321,241,24886,2,0,P|256:295|191:296,1,150.000005722046,2|0,0:0|0:0,0:0:0:0:
86,257,25233,2,0,P|100:173|68:116,1,150.000005722046,2|8,0:0|0:0,0:0:0:0:
278,204,25694,1,2,0:0:0:0:
278,204,25810,1,0,0:0:0:0:
278,204,25925,6,0,L|349:232,1,75.0000028610231,2|0,0:0|0:0,0:0:0:0:
424,314,26156,2,0,L|351:338,1,75.0000028610231,0|2,0:0|0:0,0:0:0:0:
246,371,26386,1,8,0:0:0:0:
314,156,26617,1,0,0:0:0:0:
314,156,26733,2,0,P|328:76|296:9,1,150.000005722046,2|0,0:0|0:0,0:0:0:0:
200,67,27079,2,0,P|186:147|218:214,1,150.000005722046,2|8,0:0|0:0,0:0:0:0:
438,211,27540,1,2,0:0:0:0:
438,211,27656,1,0,0:0:0:0:
438,211,27771,6,0,L|425:135,1,75.0000028610231,2|0,0:0|0:0,0:0:0:0:
324,86,28002,2,0,L|309:160,1,75.0000028610231,0|2,0:0|0:0,0:0:0:0:
285,270,28233,1,8,0:0:0:0:
69,332,28463,1,0,0:0:0:0:
69,332,28579,2,0,P|33:273|45:188,1,150.000005722046,2|0,0:0|0:0,0:0:0:0:
98,97,28925,2,0,P|162:122|243:95,1,150.000005722046,2|8,0:0|0:0,0:0:0:0:
94,274,29386,1,2,0:0:0:0:
94,274,29502,1,0,0:0:0:0:
94,274,29617,6,0,P|166:256|246:278,2,150.000005722046,0|2|8,0:0|0:0|0:0,0:0:0:0:
181,65,30310,1,0,0:0:0:0:
181,65,30425,1,2,0:0:0:0:
403,101,30656,1,0,0:0:0:0:
403,101,30771,1,2,0:0:0:0:
195,231,31002,1,8,0:0:0:0:
180,300,31117,1,0,0:0:0:0:
218,360,31232,1,2,0:0:0:0:
287,379,31348,1,2,0:0:0:0:
355,356,31463,6,0,P|390:311|392:247,2,119.999996337891,6|0|8,0:0|0:0|0:0,0:0:0:0:
195,384,32156,1,2,0:0:0:0:
144,229,32386,2,0,B|131:172|205:127|178:34,1,179.999994506836,2|2,0:0|0:0,0:0:0:0:
182,56,32848,1,0,0:0:0:0:
50,115,33079,1,8,0:0:0:0:
144,229,33310,6,0,P|206:250|266:227,1,119.999996337891,2|0,0:0|0:0,0:0:0:0:
332,112,33771,2,0,P|270:91|210:114,1,119.999996337891,8|2,0:0|0:0,0:0:0:0:
144,229,34233,1,2,0:0:0:0:
144,229,34348,1,8,0:0:0:0:
230,344,34579,1,2,0:0:0:0:
230,344,34694,1,8,0:0:0:0:
372,323,34925,1,2,0:0:0:0:
372,323,35156,6,0,L|372:194,1,129.999994049073,2|0,0:0|0:0,0:0:0:0:
257,87,35617,1,8,0:0:0:0:
121,190,35848,1,2,0:0:0:0:
121,190,35963,1,0,0:0:0:0:
121,190,36079,1,2,0:0:0:0:
208,337,36310,1,0,0:0:0:0:
256,363,36425,1,2,0:0:0:0:
307,364,36540,1,0,0:0:0:0:
356,341,36656,1,0,0:0:0:0:
388,297,36771,1,8,0:0:0:0:
392,139,37002,5,2,0:0:0:0:
206,177,37233,1,0,0:0:0:0:
206,177,37348,1,2,0:0:0:0:
206,177,37464,1,8,0:0:0:0:
335,249,37694,1,2,0:0:0:0:
283,84,37924,1,0,0:0:0:0:
283,84,38040,1,8,0:0:0:0:
283,84,38156,1,2,0:0:0:0:
427,162,38386,2,0,B|439:226|439:226|426:282,1,119.999996337891,8|2,0:0|0:0,0:0:0:0:
320,377,38848,6,0,B|256:389|256:389|200:376,1,119.999996337891,2|0,0:0|0:0,0:0:0:0:
142,245,39310,2,0,B|206:233|206:233|262:246,1,119.999996337891,8|2,0:0|0:0,0:0:0:0:
395,292,39771,2,0,B|424:232|370:168|406:106,1,179.999994506836,2|2,0:0|0:0,0:0:0:0:
401,115,40232,1,0,0:0:0:0:
263,23,40463,1,8,0:0:0:0:
290,156,40694,5,2,0:0:0:0:
387,3,40925,1,0,0:0:0:0:
387,3,41041,1,2,0:0:0:0:
387,3,41156,1,8,0:0:0:0:
210,49,41386,2,0,B|175:72|142:73|142:73|133:141|96:177,1,179.999994506836,2|8,0:0|0:0,0:0:0:0:
107,170,41848,1,2,0:0:0:0:
221,339,42079,1,8,0:0:0:0:
266,176,42310,1,2,0:0:0:0:
128,263,42540,5,2,0:0:0:0:
281,287,42771,1,0,0:0:0:0:
330,293,42886,1,0,0:0:0:0:
378,300,43002,1,8,0:0:0:0:
128,263,43233,1,2,0:0:0:0:
263,154,43463,1,2,0:0:0:0:
297,197,43578,1,0,0:0:0:0:
306,251,43693,1,0,0:0:0:0:
289,303,43809,1,2,0:0:0:0:
249,341,43924,1,8,0:0:0:0:
107,352,44156,1,8,0:0:0:0:
21,237,44386,5,2,0:0:0:0:
21,237,44502,1,0,0:0:0:0:
21,237,44617,2,0,P|16:167|60:122,1,119.999996337891,2|8,0:0|0:0,0:0:0:0:
173,92,45079,2,0,L|244:107,1,59.9999981689454,2|0,0:0|0:0,0:0:0:0:
277,178,45310,2,0,L|349:144,1,59.9999981689454,2|8,0:0|0:0,0:0:0:0:
406,117,45540,1,8,0:0:0:0:
482,249,45771,1,8,0:0:0:0:
459,309,45886,1,0,0:0:0:0:
406,346,46002,1,0,0:0:0:0:
342,349,46117,1,0,0:0:0:0:
284,328,46233,6,0,P|218:305|166:321,1,119.999996337891,2|0,0:0|0:0,0:0:0:0:
17,381,46694,2,0,P|-14:324|-4:260,1,119.999996337891,8|2,0:0|0:0,0:0:0:0:
113,154,47156,2,0,L|125:219,1,59.9999981689454,2|0,0:0|0:0,0:0:0:0:
205,202,47386,2,0,L|194:264,1,59.9999981689454,0|2,0:0|0:0,0:0:0:0:
174,343,47617,1,0,0:0:0:0:
338,377,47848,1,8,0:0:0:0:
466,268,48079,5,2,0:0:0:0:
485,217,48194,1,0,0:0:0:0:
486,163,48309,1,0,0:0:0:0:
468,111,48425,1,2,0:0:0:0:
430,72,48540,1,8,0:0:0:0:
254,19,48771,1,2,0:0:0:0:
254,19,48886,1,0,0:0:0:0:
128,130,49117,1,8,0:0:0:0:
128,130,49233,1,0,0:0:0:0:
255,238,49463,2,0,P|317:236|368:205,1,119.999996337891,8|2,0:0|0:0,0:0:0:0:
425,49,49925,5,2,0:0:0:0:
228,101,50156,1,0,0:0:0:0:
228,101,50271,1,0,0:0:0:0:
228,101,50386,1,8,0:0:0:0:
388,159,50617,1,2,0:0:0:0:
303,0,50848,1,2,0:0:0:0:
258,158,51079,1,0,0:0:0:0:
258,158,51194,1,2,0:0:0:0:
258,158,51310,1,0,0:0:0:0:
165,45,51540,1,8,0:0:0:0:
336,58,51771,5,2,0:0:0:0:
377,88,51886,1,0,0:0:0:0:
405,134,52001,1,0,0:0:0:0:
412,186,52117,1,2,0:0:0:0:
398,237,52232,1,8,0:0:0:0:
279,355,52463,2,0,B|215:383|146:330|81:367,1,179.999994506836,2|8,0:0|0:3,0:0:0:0:
18,375,52925,2,0,P|2:314|19:243,1,119.999996337891,2|8,0:0|0:0,0:0:0:0:
128,124,53386,1,2,0:0:0:0:
128,124,53502,1,2,0:0:0:0:
128,124,53617,6,0,P|246:83|351:143,1,239.999992675781,4|8,0:1|0:0,0:0:0:0:
441,269,54310,1,2,0:0:0:0:
441,269,54540,2,0,P|494:201|490:107,1,179.999994506836,2|2,0:0|0:0,0:0:0:0:
491,110,55002,1,0,0:0:0:0:
346,24,55233,1,8,0:0:0:0:
201,108,55463,5,2,0:0:0:0:
352,180,55694,1,0,0:0:0:0:
352,180,55810,1,2,0:0:0:0:
352,180,55925,1,8,0:0:0:0:
276,29,56156,1,2,0:0:0:0:
201,178,56386,1,0,0:0:0:0:
201,178,56502,1,8,0:0:0:0:
201,178,56617,2,0,P|245:229|303:247,1,119.999996337891,2|8,0:0|0:0,0:0:0:0:
459,215,57079,1,0,0:0:0:0:
392,383,57310,5,2,0:0:0:0:
310,207,57540,1,0,0:0:0:0:
119,383,57771,1,8,0:0:0:0:
202,207,58002,1,0,0:0:0:0:
261,358,58233,1,2,0:0:0:0:
261,358,58348,1,8,0:3:0:0:
261,358,58463,1,2,0:0:0:0:
376,144,58694,1,12,0:0:0:0:
136,144,58925,1,12,0:0:0:0:
136,144,59386,6,0,P|121:213|143:263,1,119.999996337891,2|8,0:0|0:0,0:0:0:0:
327,328,59848,1,8,0:0:0:0:
381,313,59963,1,0,0:0:0:0:
419,272,60078,1,8,0:0:0:0:
430,217,60194,1,8,0:0:0:0:
409,164,60309,1,0,0:0:0:0:
129,107,60540,1,4,0:0:0:0:
123,173,60656,1,8,0:0:0:0:
116,238,60771,1,8,0:0:0:0:
110,303,60886,1,8,0:0:0:0:
104,369,61002,6,0,L|219:322,1,119.999996337891
269,340,61348,1,2,0:0:0:0:
269,340,61463,2,0,L|386:290,1,119.999996337891,8|0,0:0|0:0,0:0:0:0:
428,306,61810,1,2,0:0:0:0:
488,144,62040,1,8,0:0:0:0:
444,118,62156,2,0,L|328:165,1,119.999996337891,2|8,0:0|0:0,0:0:0:0:
127,246,62617,1,6,0:0:0:0:
193,32,62848,5,0,0:0:0:0:
193,32,62963,1,2,0:0:0:0:
193,32,63079,1,2,0:0:0:0:
308,193,63310,1,8,0:0:0:0:
88,101,63540,2,0,L|25:77,1,59.9999981689454,0|2,0:0|0:0,0:0:0:0:
138,209,63771,2,0,L|214:241,1,59.9999981689454,0|8,0:0|0:0,0:0:0:0:
31,244,64002,1,2,0:0:0:0:
218,76,64233,2,0,P|273:48|336:58,1,119.999996337891,8|0,0:0|0:0,0:0:0:0:
486,231,64694,5,2,0:0:0:0:
247,238,64925,1,0,0:0:0:0:
247,238,65040,1,2,0:0:0:0:
247,238,65156,1,8,0:0:0:0:
412,84,65386,1,2,0:0:0:0:
412,84,65502,1,8,0:0:0:0:
404,321,65733,1,0,0:0:0:0:
404,321,65848,1,2,0:0:0:0:
261,161,66079,1,8,0:0:0:0:
512,190,66310,1,0,0:0:0:0:
404,321,66540,5,2,0:0:0:0:
351,316,66656,1,0,0:0:0:0:
306,287,66771,1,0,0:0:0:0:
291,237,66886,1,2,0:0:0:0:
300,184,67002,1,8,0:0:0:0:
487,64,67233,1,2,0:0:0:0:
487,64,67348,1,0,0:0:0:0:
487,64,67463,6,0,L|412:70,1,59.9999981689454,8|0,0:3|0:0,0:0:0:0:
358,118,67694,2,0,L|280:111,1,59.9999981689454,2|0,0:0|0:0,0:0:0:0:
226,68,67925,2,0,L|153:74,1,59.9999981689454,2|0,0:0|0:0,0:0:0:0:
93,115,68156,2,0,L|19:108,1,59.9999981689454
33,109,68386,5,4,0:0:0:0:
104,264,68617,1,0,0:0:0:0:
104,264,68733,1,2,0:0:0:0:
104,264,68848,2,0,P|160:298|227:291,1,119.999996337891,8|0,0:0|0:0,0:0:0:0:
303,239,69194,2,0,P|335:189|335:130,1,119.999996337891,8|0,0:0|0:0,0:0:0:0:
335,130,69540,1,2,0:0:0:0:
172,27,69771,1,8,0:0:0:0:
115,38,69886,1,8,0:0:0:0:
71,75,70001,1,0,0:0:0:0:
50,128,70117,1,2,0:0:0:0:
56,185,70232,5,12,0:0:0:0:
329,331,70463,1,2,0:0:0:0:
91,319,70694,1,12,0:0:0:0:
296,175,70925,1,2,0:0:0:0:
225,384,71156,1,12,0:0:0:0:
179,151,71386,1,2,0:0:0:0:
290,294,71617,2,0,L|346:317,1,55.0000016784668,2|0,0:0|0:0,0:0:0:0:
153,235,71848,2,0,L|94:212,1,55.0000016784668,0|2,0:0|0:3,0:0:0:0:
2,175,72079,5,8,0:0:0:0:
346,93,72310,1,8,0:0:0:0:
64,93,72540,1,8,0:0:0:0:
395,199,72771,1,8,0:0:0:0:
112,224,73002,1,8,0:0:0:0:
426,133,73233,1,2,0:3:0:0:
480,172,73348,1,8,0:3:0:0:
482,238,73463,1,2,0:0:0:0:
431,287,73579,1,2,0:0:0:0:
365,281,73694,1,2,0:0:0:0:
315,235,73810,1,2,0:0:0:0:
249,236,73925,5,2,0:0:0:0:
240,244,75079,1,2,0:0:0:0:
217,264,75310,1,2,0:0:0:0:
161,313,75771,5,2,0:0:0:0:
87,107,76002,1,2,0:0:0:0:
285,26,76233,1,8,0:0:0:0:
377,239,76463,1,2,0:0:0:0:
377,239,76579,1,8,0:0:0:0:
377,239,76694,2,0,P|336:294|272:310,1,119.999996337891,2|0,0:0|0:0,0:0:0:0:
135,239,77156,2,0,P|176:294|240:310,1,119.999996337891,2|0,0:0|0:0,0:0:0:0:
254,102,77617,6,0,P|149:60|48:107,1,225.000008583069,2|2,0:0|0:0,0:0:0:0:
50,226,78079,2,0,P|155:268|256:221,1,225.000008583069,8|2,0:0|0:0,0:0:0:0:
417,61,78656,1,0,0:0:0:0:
417,61,78771,1,2,0:0:0:0:
192,40,79002,1,8,0:0:0:0:
285,244,79233,1,2,0:0:0:0:
325,23,79463,5,2,0:0:0:0:
109,88,79694,1,0,0:0:0:0:
109,88,79810,1,2,0:0:0:0:
109,88,79925,2,0,P|59:139|49:231,1,150.000005722046,8|0,0:0|0:0,0:0:0:0:
99,313,80271,2,0,P|168:330|252:293,1,150.000005722046,2|0,0:0|0:0,0:0:0:0:
299,207,80617,2,0,P|279:138|205:83,1,150.000005722046,2|8,0:0|0:0,0:0:0:0:
21,194,81079,1,0,0:0:0:0:
21,194,81194,1,0,0:0:0:0:
21,194,81310,6,0,B|39:265|129:318|129:318|131:286|123:260,1,225.000008583069,2|2,0:0|0:0,0:0:0:0:
124,263,81771,1,8,0:0:0:0:
41,68,82002,1,0,0:0:0:0:
97,42,82117,1,2,0:0:0:0:
159,40,82232,1,0,0:0:0:0:
217,60,82348,1,8,0:0:0:0:
264,100,82463,1,2,0:0:0:0:
292,311,82694,1,8,0:0:0:0:
105,185,82925,1,2,0:0:0:0:
327,148,83156,6,0,L|416:134,1,75.0000028610231,2|8,0:0|0:3,0:0:0:0:
472,223,83386,2,0,L|383:237,1,75.0000028610231,0|2,0:0|0:0,0:0:0:0:
286,254,83617,1,8,0:0:0:0:
425,77,83848,1,0,0:0:0:0:
425,77,83963,1,2,0:0:0:0:
200,87,84194,1,8,0:0:0:0:
200,87,84310,1,2,0:0:0:0:
124,298,84540,1,8,0:0:0:0:
328,203,84771,1,2,0:0:0:0:
328,203,84886,1,0,0:0:0:0:
328,203,85002,6,0,B|248:175|181:232|104:204,1,225.000008583069,2|2,0:0|0:0,0:0:0:0:
16,137,85463,2,0,P|63:85|139:77,1,150.000005722046,8|0,0:0|0:0,0:0:0:0:
236,137,85810,2,0,P|299:166|372:144,1,150.000005722046,2|0,0:0|0:0,0:0:0:0:
455,66,86156,1,2,0:0:0:0:
235,22,86386,1,8,0:0:0:0:
316,231,86617,1,2,0:0:0:0:
315,232,86848,6,0,P|240:308|168:236,1,225.000008583069,2|0,0:0|0:0,0:0:0:0:
168,242,87310,1,8,0:0:0:0:
239,29,87540,1,2,0:0:0:0:
393,193,87771,1,0,0:0:0:0:
171,239,88002,1,2,0:0:0:0:
138,189,88117,1,0,0:0:0:0:
135,127,88232,1,2,0:0:0:0:
166,74,88348,1,0,0:0:0:0:
219,45,88463,1,8,0:3:0:0:
280,48,88578,1,0,0:0:0:0:
327,86,88694,6,0,P|360:146|337:222,1,150.000005722046,2|0,0:0|0:0,0:0:0:0:
225,232,89040,1,2,0:0:0:0:
225,232,89156,6,0,P|158:248|118:317,1,150.000005722046,8|2,0:0|0:0,0:0:0:0:
221,364,89502,2,0,P|287:347|327:278,1,150.000005722046,8|0,0:0|0:0,0:0:0:0:
313,221,89848,1,2,0:0:0:0:
266,176,89963,1,0,0:0:0:0:
204,169,90078,1,2,0:0:0:0:
151,202,90194,1,0,0:0:0:0:
127,259,90309,1,8,0:3:0:0:
144,320,90424,1,0,0:0:0:0:
190,362,90540,6,0,P|266:369|319:321,1,150.000005722046,2|0,0:0|0:0,0:0:0:0:
252,134,91002,2,0,P|175:126|122:174,1,150.000005722046
182,370,91463,1,0,0:0:0:0:
433,216,91694,1,2,0:0:0:0:
201,102,91925,2,0,B|168:162|203:247|203:247|159:224,1,200,2|0,0:0|0:0,0:0:0:0:
158,223,92386,6,0,P|86:247|19:210,1,150.000005722046,4|0,0:0|0:0,0:0:0:0:
33,101,92733,1,2,0:0:0:0:
33,101,92848,1,8,0:0:0:0:
33,101,92963,2,0,P|105:77|172:114,2,150.000005722046,0|2|0,0:0|0:0|0:0,0:0:0:0:
1,209,93540,1,2,0:0:0:0:
166,362,93771,2,0,P|248:373|303:331,1,150.000005722046,8|2,0:0|0:0,0:0:0:0:
313,110,94233,5,2,0:0:0:0:
267,73,94348,1,8,0:3:0:0:
211,58,94463,1,0,0:0:0:0:
154,68,94579,1,2,0:0:0:0:
105,101,94694,1,8,0:0:0:0:
63,322,94925,2,0,L|133:283,1,75.0000028610231,0|2,0:0|0:0,0:0:0:0:
229,335,95156,1,0,0:0:0:0:
229,335,95271,2,0,L|299:296,1,75.0000028610231,8|2,0:0|0:0,0:0:0:0:
485,179,95617,1,8,0:0:0:0:
307,39,95848,1,2,0:0:0:0:
307,39,95963,1,8,0:0:0:0:
307,39,96079,6,0,L|292:118,1,75.0000028610231,2|0,0:0|0:0,0:0:0:0:
201,179,96310,2,0,L|215:259,1,75.0000028610231,8|2,0:3|0:0,0:0:0:0:
262,354,96540,1,8,0:0:0:0:
415,193,96771,1,0,0:0:0:0:
366,165,96886,1,2,0:0:0:0:
311,153,97001,1,0,0:0:0:0:
254,158,97117,1,8,0:0:0:0:
201,179,97232,1,2,0:0:0:0:
51,347,97463,1,8,0:0:0:0:
101,127,97694,1,0,0:0:0:0:
101,127,97810,1,8,0:2:0:0:
101,127,97925,6,0,L|116:40,1,75.0000028610231,2|0,0:0|0:0,0:0:0:0:
214,2,98156,2,0,P|293:17|344:74,2,150.000005722046,8|8|8,0:3|0:0|0:0,0:0:0:0:
113,53,98733,2,0,P|86:128|110:201,1,150.000005722046,2|8,0:0|0:0,0:0:0:0:
218,192,99079,2,0,P|290:226|365:210,1,150.000005722046,2|8,0:0|0:0,0:0:0:0:
462,15,99540,1,8,0:0:0:0:
462,15,99656,1,8,0:0:0:0:
462,15,99771,2,0,P|386:-12|313:9,1,150.000005722046,2|0,0:0|0:0,0:0:0:0:
239,82,100117,1,2,0:0:0:0:
239,82,100233,6,0,B|216:135|263:183|239:242,1,150.000005722046,8|0,0:0|0:0,0:0:0:0:
214,339,100579,1,2,0:0:0:0:
46,187,100810,1,8,0:0:0:0:
46,187,100925,1,2,0:0:0:0:
239,82,101156,1,2,0:0:0:0:
366,266,101386,1,2,0:0:0:0:
366,266,101502,1,8,0:0:0:0:
366,266,101617,6,0,L|292:252,1,75.0000028610231,2|8,0:0|0:3,0:0:0:0:
207,178,101848,2,0,L|125:192,1,75.0000028610231,0|2,0:0|0:0,0:0:0:0:
46,232,102079,1,8,0:0:0:0:
241,348,102310,1,0,0:0:0:0:
277,306,102425,1,2,0:0:0:0:
292,252,102540,1,0,0:0:0:0:
282,196,102656,1,8,0:0:0:0:
250,150,102771,1,2,0:0:0:0:
32,92,103002,1,8,0:0:0:0:
122,298,103233,1,2,0:0:0:0:
122,298,103348,1,8,0:0:0:0:
122,298,103463,6,0,L|205:283,1,75.0000028610231,2|8,0:0|0:3,0:0:0:0:
286,217,103694,2,0,L|368:231,1,75.0000028610231,0|2,0:0|0:0,0:0:0:0:
462,278,103925,1,8,0:0:0:0:
330,95,104156,1,0,0:0:0:0:
278,69,104271,1,2,0:0:0:0:
220,68,104386,1,0,0:0:0:0:
168,93,104502,1,8,0:0:0:0:
132,139,104617,1,2,0:0:0:0:
129,364,104848,1,8,0:0:0:0:
278,195,105079,1,2,0:0:0:0:
278,195,105194,1,0,0:0:0:0:
278,195,105310,6,0,P|216:137|148:132,1,150.000005722046,2|2,0:0|0:0,0:0:0:0:
5,299,105771,2,0,P|67:357|135:362,1,150.000005722046,8|0,0:0|0:0,0:0:0:0:
236,327,106117,2,0,P|294:265|298:197,1,150.000005722046,2|8,0:0|0:0,0:0:0:0:
257,98,106463,1,2,0:0:0:0:
257,98,106579,1,0,0:0:0:0:
257,98,106694,2,0,L|174:112,1,75.0000028610231,8|8,0:0|0:0,0:0:0:0:
115,201,106925,2,0,L|196:215,1,75.0000028610231,8|8,0:0|0:0,0:0:0:0:
252,299,107156,6,0,P|204:330|140:328,2,119.999996337891,2|0|8,0:0|0:0|0:0,0:0:0:0:
309,127,107848,2,0,L|253:96,1,59.9999981689454,2|0,0:0|0:0,0:0:0:0:
198,55,108079,1,2,0:0:0:0:
198,55,108194,2,0,L|141:87,1,59.9999981689454
73,82,108425,1,2,0:0:0:0:
73,82,108540,2,0,P|61:145|92:205,1,119.999996337891,8|8,1:3|0:0,0:0:0:0:
193,287,109002,5,2,0:0:0:0:
220,145,109233,1,0,0:0:0:0:
220,145,109348,1,0,0:0:0:0:
220,145,109463,1,8,0:0:0:0:
339,279,109694,2,0,L|387:325,1,59.9999981689454,2|0,0:0|0:0,0:0:0:0:
475,286,109925,2,0,L|427:240,1,59.9999981689454
372,186,110156,1,2,0:0:0:0:
122,215,110386,1,8,0:0:0:0:
279,309,110617,1,2,0:0:0:0:
279,309,110733,1,8,0:0:0:0:
279,309,110848,6,0,P|306:252|296:188,1,119.999996337891,2|0,0:0|0:0,0:0:0:0:
211,63,111310,1,8,0:0:0:0:
211,63,111425,1,0,0:0:0:0:
211,63,111540,1,2,0:0:0:0:
181,202,111771,1,2,0:0:0:0:
327,148,112002,2,0,L|395:117,1,59.9999981689454,0|2,0:0|0:0,0:0:0:0:
392,209,112233,2,0,L|452:182,1,59.9999981689454,8|0,0:3|0:0,0:0:0:0:
467,265,112463,1,8,0:0:0:0:
194,357,112694,6,0,L|172:296,1,59.9999981689454,2|0,0:0|0:0,0:0:0:0:
99,248,112925,2,0,L|120:190,1,59.9999981689454,0|2,0:0|0:0,0:0:0:0:
171,122,113156,1,8,0:0:0:0:
322,0,113386,2,0,L|377:33,1,59.9999981689454,2|8,0:0|0:0,0:0:0:0:
373,113,113617,2,0,L|446:127,1,59.9999981689454,2|8,0:0|0:0,0:0:0:0:
512,111,113848,1,2,0:0:0:0:
462,319,114079,1,8,0:0:0:0:
331,182,114310,1,2,0:0:0:0:
331,182,114425,1,8,0:0:0:0:
331,182,114540,6,0,P|279:157|213:172,1,119.999996337891,6|0,0:0|0:0,0:0:0:0:
153,197,114886,2,0,L|103:165,1,59.9999981689454,2|8,0:0|0:0,0:0:0:0:
309,303,115233,1,2,0:0:0:0:
316,102,115463,1,2,0:0:0:0:
277,60,115578,1,0,0:0:0:0:
225,37,115693,1,0,0:0:0:0:
168,37,115809,1,2,0:0:0:0:
116,60,115924,1,8,0:3:0:0:
24,212,116156,1,8,0:0:0:0:
227,235,116386,6,0,P|236:205|231:178,1,59.9999981689454,2|0,0:0|0:0,0:0:0:0:
180,302,116617,2,0,P|149:308|128:327,1,59.9999981689454,0|2,0:0|0:0,0:0:0:0:
261,308,116848,2,0,P|282:330|308:339,1,59.9999981689454,8|0,0:0|0:0,0:0:0:0:
415,339,117079,2,0,P|471:288|459:186,1,179.999994506836,2|8,0:0|0:0,0:0:0:0:
463,191,117540,1,2,0:0:0:0:
258,66,117771,2,0,P|234:122|266:193,1,119.999996337891,8|2,0:0|0:0,0:0:0:0:
379,241,118233,6,0,P|403:185|371:114,1,119.999996337891,2|0,0:0|0:0,0:0:0:0:
258,66,118694,1,8,0:0:0:0:
141,197,118925,2,0,L|141:272,1,59.9999981689454,2|0,0:0|0:0,0:0:0:0:
256,272,119156,2,0,L|254:345,1,59.9999981689454,2|8,0:0|0:0,0:0:0:0:
371,197,119386,2,0,L|371:272,1,59.9999981689454,8|2,0:3|0:0,0:0:0:0:
367,105,119617,2,0,P|332:47|278:28,1,119.999996337891,8|4,0:0|0:0,0:0:0:0:
285,28,120310,5,2,0:0:0:0:
120,216,120540,1,8,0:0:0:0:
358,272,120771,1,2,0:0:0:0:
377,219,120886,1,8,0:0:0:0:
367,164,121001,1,2,0:0:0:0:
331,121,121117,1,8,0:3:0:0:
277,103,121232,1,8,0:3:0:0:
14,241,121463,1,8,0:0:0:0:
30,176,121578,1,2,0:0:0:0:
47,112,121693,1,0,0:0:0:0:
65,46,121809,1,0,0:0:0:0:
114,0,121925,6,0,P|174:-9|223:20,1,119.999996337891,4|0,0:0|0:0,0:0:0:0:
278,128,122271,1,0,0:0:0:0:
278,128,122386,2,0,P|342:138|393:106,2,119.999996337891,8|2|2,0:0|0:0|0:0,0:0:0:0:
152,43,123079,1,0,0:0:0:0:
152,43,123194,1,2,0:0:0:0:
152,43,123310,1,2,0:3:0:0:
183,216,123540,1,8,0:0:0:0:
277,98,123771,5,2,0:0:0:0:
277,98,123886,2,0,P|216:77|152:98,1,119.999996337891,8|2,0:3|0:0,0:0:0:0:
100,136,124233,2,0,P|121:197|100:261,1,119.999996337891,8|2,0:0|0:0,0:0:0:0:
121,335,124579,2,0,P|182:314|246:335,1,119.999996337891,8|8,0:3|0:3,0:0:0:0:
307,366,124925,2,0,P|368:387|432:366,1,119.999996337891,2|8,0:0|0:0,0:0:0:0:
490,199,125386,1,2,0:0:0:0:
490,199,125502,1,8,0:3:0:0:
490,199,125617,6,0,L|422:197,1,59.9999981689454,2|0,0:0|0:0,0:0:0:0:
409,117,125848,2,0,L|341:115,1,59.9999981689454,0|2,0:0|0:0,0:0:0:0:
270,113,126079,1,8,0:0:0:0:
399,267,126310,1,2,0:0:0:0:
399,267,126425,1,8,0:3:0:0:
399,267,126540,1,2,0:0:0:0:
203,271,126771,1,0,0:0:0:0:
203,271,126886,1,2,0:0:0:0:
203,271,127002,2,0,P|138:234|125:180,1,119.999996337891,2|8,0:3|0:0,0:0:0:0:
254,0,127463,5,6,0:0:0:0:
370,184,127694,1,0,0:0:0:0:
378,192,127810,1,2,0:0:0:0:
378,192,127925,1,8,0:0:0:0:
215,126,128156,1,0,0:0:0:0:
454,23,128386,1,0,0:0:0:0:
378,192,128617,1,2,0:0:0:0:
327,224,128733,1,0,0:0:0:0:
294,193,128848,1,2,0:0:0:0:
244,225,128963,1,0,0:0:0:0:
191,194,129079,1,0,0:0:0:0:
7,223,129310,5,6,0:0:0:0:
149,299,129540,1,0,0:0:0:0:
196,321,129656,1,0,0:0:0:0:
243,342,129771,1,8,0:0:0:0:
365,264,130002,1,2,0:0:0:0:
360,213,130118,1,8,0:3:0:0:
355,161,130233,1,2,0:0:0:0:
226,96,130463,1,0,0:0:0:0:
183,125,130579,1,2,0:0:0:0:
141,156,130694,1,2,0:3:0:0:
355,161,130925,1,8,0:0:0:0:
226,96,131156,6,0,L|162:61,1,59.9999981689454,2|0,0:0|0:0,0:0:0:0:
146,146,131386,2,0,L|82:111,1,59.9999981689454,0|2,0:0|0:0,0:0:0:0:
60,195,131617,1,8,0:0:0:0:
147,340,131848,1,0,0:0:0:0:
196,373,131963,1,8,0:3:0:0:
255,384,132078,1,0,0:0:0:0:
313,371,132194,1,8,0:3:0:0:
361,337,132309,1,2,0:0:0:0:
390,142,132540,1,8,0:0:0:0:
229,224,132771,1,2,0:0:0:0:
229,224,132886,1,8,0:3:0:0:
229,224,133002,6,0,L|301:237,1,59.9999981689454,2|8,0:0|0:3,0:0:0:0:
367,248,133233,1,2,0:0:0:0:
154,229,133463,1,8,0:0:0:0:
390,173,133694,1,2,0:0:0:0:
124,136,133925,1,8,0:0:0:0:
416,103,134156,1,2,0:0:0:0:
94,49,134386,1,0,0:0:0:0:
444,31,134617,1,8,0:0:0:0:
473,114,134848,5,0,0:0:0:0:
428,187,135310,1,0,0:0:0:0:
350,216,135771,1,0,0:0:0:0:
197,175,136002,1,2,0:0:0:0:
168,203,136117,1,8,0:0:0:0:
152,240,136232,1,8,0:0:0:0:
151,280,136348,1,8,0:0:0:0:
166,317,136463,1,8,0:0:0:0:
194,346,136578,1,8,0:0:0:0:
230,362,136694,6,0,P|295:367|364:337,1,119.999996337891,4|0,0:0|0:0,0:0:0:0:
414,299,137040,2,0,L|362:267,1,59.9999981689454,2|8,0:0|0:0,0:0:0:0:
221,176,137386,1,2,0:0:0:0:
221,176,137502,1,8,0:0:0:0:
221,176,137617,1,0,0:0:0:0:
427,124,137848,1,2,0:0:0:0:
427,124,137963,1,0,0:0:0:0:
427,124,138079,1,2,0:0:0:0:
261,33,138310,1,8,0:0:0:0:
337,213,138540,5,2,0:0:0:0:
353,267,138655,1,0,0:0:0:0:
338,322,138770,1,0,0:0:0:0:
296,360,138886,1,2,0:0:0:0:
241,372,139002,1,8,0:0:0:0:
88,297,139233,1,2,0:0:0:0:
88,297,139348,1,8,0:3:0:0:
88,297,139463,2,0,P|66:230|87:173,1,119.999996337891,0|2,0:0|0:0,0:0:0:0:
267,85,139925,1,8,0:0:0:0:
234,274,140156,1,2,0:0:0:0:
234,274,140271,1,0,0:0:0:0:
234,274,140386,6,0,L|221:341,1,59.9999981689454,2|2,0:0|0:3,0:0:0:0:
294,376,140617,2,0,L|306:309,1,59.9999981689454,0|2,0:0|0:0,0:0:0:0:
323,234,140848,1,8,0:0:0:0:
291,68,141079,1,0,0:0:0:0:
291,68,141194,1,2,0:0:0:0:
125,36,141425,1,8,0:0:0:0:
125,36,141540,1,2,0:0:0:0:
16,164,141771,1,8,0:0:0:0:
119,296,142002,1,2,0:0:0:0:
119,296,142117,1,8,0:0:0:0:
119,296,142233,6,0,L|186:296,1,59.9999981689454,2|8,0:0|0:0,0:0:0:0:
262,294,142463,1,0,0:0:0:0:
346,148,142694,2,0,B|288:121|288:121|226:121,1,119.999996337891,8|2,0:0|0:0,0:0:0:0:
162,169,143040,2,0,B|220:196|220:196|282:196,1,119.999996337891,8|8,0:0|0:0,0:0:0:0:
276,196,143386,1,2,0:0:0:0:
462,265,143617,1,2,0:0:0:0:
438,320,143732,1,8,0:0:0:0:
393,359,143847,1,0,0:0:0:0:
336,377,143963,1,0,0:0:0:0:
276,380,144079,6,0,P|209:365|172:332,1,119.999996337891,6|0,0:0|0:0,0:0:0:0:
135,255,144425,2,0,L|204:242,1,59.9999981689454,2|8,0:0|0:0,0:0:0:0:
392,202,144771,1,0,0:0:0:0:
409,148,144886,1,2,0:0:0:0:
392,94,145001,1,0,0:0:0:0:
346,61,145117,1,8,0:0:0:0:
289,60,145232,1,2,0:0:0:0:
123,173,145463,1,8,0:0:0:0:
292,298,145694,1,0,0:0:0:0:
292,298,145810,1,8,0:0:0:0:
292,298,145925,6,0,L|343:262,1,59.9999981689454,2|0,0:0|0:0,0:0:0:0:
349,179,146156,2,0,L|419:168,1,59.9999981689454,0|2,0:0|0:0,0:0:0:0:
491,176,146386,1,8,0:0:0:0:
250,196,146617,1,2,0:0:0:0:
413,336,146848,1,8,0:0:0:0:
383,111,147079,2,0,L|327:139,1,59.9999981689454,2|8,0:0|0:3,0:0:0:0:
259,185,147310,2,0,L|311:219,1,59.9999981689454,2|0,0:0|0:0,0:0:0:0:
385,252,147540,2,0,L|388:189,1,59.9999981689454,0|2,0:0|0:0,0:0:0:0:
383,111,147771,5,8,0:0:0:0:
341,273,148002,1,2,0:0:0:0:
288,88,148233,1,8,0:0:0:0:
239,297,148463,1,8,0:0:0:0:
188,62,148694,1,2,0:0:0:0:
130,320,148925,1,8,0:3:0:0:
130,320,149040,1,0,0:0:0:0:
130,320,149156,1,8,0:0:0:0:
80,37,149386,1,0,0:0:0:0:
252,167,149617,5,2,0:0:0:0:
252,167,150310,1,2,0:0:0:0:
301,345,150540,2,0,L|358:326,1,59.9999981689454,8|2,0:0|0:0,0:0:0:0:
459,324,150771,2,0,L|478:265,1,59.9999981689454
446,167,151002,2,0,P|415:114|363:93,1,119.999996337891,2|2,0:0|0:0,0:0:0:0:
164,149,151463,6,0,B|169:190|198:221|198:221|286:209|331:260,1,225.000008583069,4|2,0:0|0:0,0:0:0:0:
412,344,151925,2,0,P|467:271|440:136,1,225.000008583069,8|2,0:0|0:0,0:0:0:0:
249,37,152502,1,8,0:0:0:0:
249,37,152617,1,2,0:0:0:0:
209,258,152848,1,8,0:0:0:0:
392,127,153079,1,2,0:0:0:0:
168,150,153310,5,2,0:0:0:0:
168,150,153425,1,0,0:0:0:0:
168,150,153540,2,0,L|85:160,1,75.0000028610231,0|2,0:0|0:0,0:0:0:0:
0,169,153771,1,8,0:0:0:0:
142,343,154002,2,0,L|232:334,1,75.0000028610231,0|2,0:0|0:0,0:0:0:0:
325,366,154233,2,0,L|398:313,1,75.0000028610231,0|8,0:0|0:3,0:0:0:0:
473,251,154463,1,2,0:0:0:0:
259,177,154694,1,8,0:0:0:0:
364,340,154925,1,2,0:0:0:0:
364,340,155040,1,0,0:0:0:0:
364,340,155156,6,0,P|401:273|392:193,1,150.000005722046,2|0,0:0|0:0,0:0:0:0:
339,103,155502,2,2,L|301:172,1,75.0000028610231,2|10,0:0|0:0,0:0:0:0:
189,363,155848,1,0,0:0:0:0:
129,340,155963,1,2,0:0:0:0:
88,291,156078,1,0,0:0:0:0:
76,228,156194,1,8,0:3:0:0:
98,168,156309,1,2,0:0:0:0:
315,107,156540,1,8,0:0:0:0:
236,267,156771,1,2,0:0:0:0:
236,267,156886,1,8,0:0:0:0:
236,267,157002,6,0,L|212:188,1,75.0000028610231,2|8,0:0|0:3,0:0:0:0:
123,163,157233,2,0,L|123:77,1,75.0000028610231,0|2,0:0|0:0,0:0:0:0:
151,1,157463,1,8,0:0:0:0:
352,102,157694,1,0,0:0:0:0:
398,147,157809,1,2,0:0:0:0:
413,209,157924,1,0,0:0:0:0:
393,270,158040,1,8,0:3:0:0:
344,311,158155,1,2,0:0:0:0:
122,271,158386,1,8,0:0:0:0:
285,180,158617,1,8,0:0:0:0:
285,180,158733,1,8,0:0:0:0:
285,180,158848,6,0,P|359:154|433:186,1,150.000005722046,2|0,0:0|0:0,0:0:0:0:
498,262,159194,2,0,L|421:298,1,75.0000028610231,2|8,0:0|0:0,0:0:0:0:
217,384,159540,1,0,0:0:0:0:
172,339,159655,1,2,0:0:0:0:
157,277,159770,1,0,0:0:0:0:
175,216,159886,1,8,0:0:0:0:
223,173,160001,1,2,0:0:0:0:
439,237,160233,2,0,P|394:308|326:319,1,150.000005722046,8|2,0:0|0:0,0:0:0:0:
127,228,160694,5,8,0:0:0:0:
365,135,160925,1,2,0:0:0:0:
92,218,161156,1,8,0:0:0:0:
401,165,161386,1,2,0:0:0:0:
56,185,161617,1,8,0:0:0:0:
292,315,161848,1,2,0:0:0:0:
292,315,161963,1,0,0:0:0:0:
292,315,162079,1,8,0:0:0:0:
254,92,162310,1,0,0:0:0:0:
135,245,162540,6,0,P|193:295|272:293,1,150.000005722046,6|0,0:0|0:0,0:0:0:0:
317,273,162886,1,2,0:0:0:0:
361,236,163002,1,8,0:0:0:0:
391,12,163233,2,0,L|309:26,1,75.0000028610231,0|2,0:0|0:0,0:0:0:0:
269,109,163463,2,0,L|184:94,1,75.0000028610231,0|8,0:0|0:0,0:0:0:0:
112,49,163694,1,2,0:0:0:0:
228,242,163925,1,8,0:0:0:0:
37,211,164156,1,2,0:0:0:0:
37,211,164271,1,8,0:0:0:0:
37,211,164386,5,0,0:0:0:0:
203,59,164617,1,0,0:0:0:0:
251,278,164848,1,0,0:0:0:0:
96,113,165079,1,0,0:0:0:0:
316,67,165310,1,8,0:0:0:0:
322,141,165425,1,2,0:0:0:0:
282,204,165540,1,2,0:0:0:0:
206,209,165656,1,2,0:0:0:0:
140,244,165771,2,0,P|91:298|103:376,1,150.000005722046,8|2,0:0|0:0,0:0:0:0:
282,337,166233,5,4,0:2:0:0:
86,191,166463,1,0,0:0:0:0:
86,191,166579,1,0,0:0:0:0:
86,191,166694,1,8,0:1:0:0:
162,364,166925,1,0,0:0:0:0:
215,337,167040,1,0,0:0:0:0:
251,290,167155,1,2,0:0:0:0:
261,231,167271,1,0,0:0:0:0:
244,174,167386,1,0,0:0:0:0:
60,74,167617,1,2,0:0:0:0:
60,74,167733,1,0,0:0:0:0:
60,74,167848,1,0,0:0:0:0:
104,267,168079,5,2,0:0:0:0:
218,76,168310,1,0,0:0:0:0:
218,76,168425,1,0,0:0:0:0:
218,76,168540,1,8,0:1:0:0:
321,211,168771,1,0,0:0:0:0:
318,270,168886,1,0,0:0:0:0:
291,322,169001,1,2,0:0:0:0:
242,356,169117,1,0,0:0:0:0:
183,365,169232,1,0,0:0:0:0:
10,264,169463,1,2,0:0:0:0:
370,195,169694,1,0,0:0:0:0:
123,96,169925,5,2,0:0:0:0:
230,296,170156,1,0,0:0:0:0:
230,296,170271,1,0,0:0:0:0:
230,296,170386,1,8,0:1:0:0:
312,99,170617,1,0,0:0:0:0:
285,46,170732,1,0,0:0:0:0:
238,10,170847,1,2,0:0:0:0:
179,0,170963,1,0,0:0:0:0:
122,17,171078,1,0,0:0:0:0:
34,197,171310,1,2,0:0:0:0:
34,197,171425,1,0,0:0:0:0:
34,197,171540,1,0,0:0:0:0:
241,135,171771,5,2,0:0:0:0:
52,39,172002,1,0,0:0:0:0:
52,39,172117,1,0,0:0:0:0:
52,39,172233,1,8,0:1:0:0:
106,233,172463,1,0,0:0:0:0:
106,233,172579,2,0,P|143:278|163:286,1,59.9999981689454,0|2,0:0|0:0,0:0:0:0:
214,260,172810,2,0,P|286:268|326:302,1,119.999996337891,8|2,0:1|0:0,0:0:0:0:
349,365,173156,1,8,0:1:0:0:
464,218,173386,1,0,0:0:0:0:
476,165,173502,1,0,0:0:0:0:
452,116,173617,5,6,0:2:0:0:
285,40,173848,1,0,0:0:0:0:
273,93,173964,1,0,0:0:0:0:
297,142,174079,1,8,0:1:0:0:
249,298,174310,1,0,0:0:0:0:
189,304,174425,1,0,0:0:0:0:
134,284,174540,1,2,0:0:0:0:
93,240,174656,1,0,0:0:0:0:
76,183,174771,1,0,0:0:0:0:
149,25,175002,2,0,P|220:24|268:68,1,119.999996337891,2|0,0:0|0:0,0:0:0:0:
289,211,175463,5,2,0:0:0:0:
96,128,175694,1,0,0:0:0:0:
96,128,175810,1,0,0:0:0:0:
96,128,175925,1,8,0:1:0:0:
284,57,176156,1,0,0:0:0:0:
284,57,176271,1,0,0:0:0:0:
284,57,176386,2,0,L|256:116,1,59.9999981689454,2|0,0:0|0:0,0:0:0:0:
216,195,176617,1,0,0:0:0:0:
327,360,176848,2,0,L|382:248,1,119.999996337891,2|0,0:0|0:0,0:0:0:0:
471,63,177310,5,2,0:0:0:0:
258,111,177540,1,0,0:0:0:0:
258,111,177656,1,0,0:0:0:0:
258,111,177771,1,8,0:1:0:0:
442,209,178002,1,0,0:0:0:0:
451,149,178117,1,0,0:0:0:0:
435,92,178232,1,2,0:0:0:0:
394,48,178348,1,0,0:0:0:0:
339,27,178463,1,0,0:0:0:0:
163,113,178694,1,2,0:0:0:0:
163,113,178810,1,0,0:0:0:0:
163,113,178925,1,0,0:0:0:0:
373,254,179156,5,2,0:0:0:0:
173,294,179386,1,0,0:0:0:0:
173,294,179502,1,0,0:0:0:0:
173,294,179617,1,8,0:1:0:0:
283,123,179848,1,0,0:0:0:0:
283,123,179963,1,0,0:0:0:0:
283,123,180079,2,0,L|319:63,1,59.9999981689454,2|0,0:0|0:0,0:0:0:0:
364,0,180310,1,0,0:0:0:0:
424,157,180540,2,0,L|361:264,1,119.999996337891,2|0,0:0|0:0,0:0:0:0:
363,260,181002,5,2,0:0:0:0:
182,300,181233,1,0,0:0:0:0:
182,300,181348,1,0,0:0:0:0:
182,300,181463,1,8,0:1:0:0:
60,134,181694,1,0,0:0:0:0:
80,76,181809,1,0,0:0:0:0:
121,33,181924,1,2,0:0:0:0:
177,15,182040,1,0,0:0:0:0:
236,21,182155,1,0,0:0:0:0:
356,192,182386,1,2,0:0:0:0:
356,192,182502,1,0,0:0:0:0:
356,192,182617,1,0,0:0:0:0:
128,219,182848,5,2,0:0:0:0:
247,52,183079,1,0,0:0:0:0:
289,295,183310,1,8,0:1:0:0:
126,147,183540,2,0,L|79:109,1,59.9999981689454
90,13,183771,2,0,L|140:52,1,59.9999981689454,2|0,0:0|0:0,0:0:0:0:
207,105,184002,1,0,0:0:0:0:
262,287,184233,2,0,P|228:362|192:375,1,119.999996337891,2|0,0:0|0:0,0:0:0:0:
0,331,184694,5,2,0:0:0:0:
52,166,184925,1,8,0:1:0:0:
180,50,185156,1,2,0:0:0:0:
352,43,185386,1,8,0:1:0:0:
163,239,185617,1,2,0:0:0:0:
438,138,185848,1,8,0:1:0:0:
151,109,186079,1,2,0:0:0:0:
452,273,186310,1,8,0:1:0:0:
299,190,186540,5,4,0:0:0:0:
206,320,187925,6,0,B|162:283|162:283|143:238|143:238|100:202,1,160,0|2,0:0|0:2,0:0:0:0:
356,64,188386,5,0,0:0:0:0:
154,64,188617,1,0,0:0:0:0:
392,168,188848,1,2,0:2:0:0:
117,169,189079,1,0,0:0:0:0:
431,276,189310,1,0,0:0:0:0:
78,276,189540,1,0,0:0:0:0:
471,382,189771,1,0,0:0:0:0:
43,382,190002,1,0,0:0:0:0:
255,79,190233,5,2,0:2:0:0:
256,205,190463,1,0,0:0:0:0:
256,213,190579,1,0,0:0:0:0:
256,220,190694,1,2,0:2:0:0:
256,228,190810,1,0,0:0:0:0:
257,235,190925,1,0,0:0:0:0:
256,242,191040,1,0,0:0:0:0:
256,250,191156,1,2,0:2:0:0:
109,349,191386,1,2,0:2:0:0:
256,89,191617,1,0,0:0:0:0:
401,345,191848,1,2,0:2:0:0:
145,208,192079,5,4,0:0:0:0:
401,138,192310,1,0,0:0:0:0:
401,138,192425,1,2,0:0:0:0:
401,138,192540,1,8,0:0:0:0:
284,323,192771,1,0,0:0:0:0:
284,323,192886,1,2,0:0:0:0:
240,101,193117,1,8,0:0:0:0:
240,101,193233,1,2,0:0:0:0:
70,250,193463,1,8,0:0:0:0:
278,217,193694,1,2,0:0:0:0:
278,217,193810,1,8,0:3:0:0:
278,217,193925,6,0,L|347:205,1,69.9999978637696,2|8,0:0|0:0,0:0:0:0:
435,194,194156,1,2,0:0:0:0:
260,58,194386,1,8,0:0:0:0:
285,265,194617,1,0,0:0:0:0:
285,265,194733,2,0,P|358:290|430:259,1,139.999995727539,2|8,0:0|0:0,0:0:0:0:
415,165,195079,2,0,P|342:140|270:171,1,139.999995727539,2|8,0:0|0:0,0:0:0:0:
144,303,195540,1,2,0:0:0:0:
144,303,195656,1,8,0:0:0:0:
144,303,195771,6,0,L|130:222,1,69.9999978637696,2|8,0:0|0:3,0:0:0:0:
68,162,196002,2,0,L|81:84,1,69.9999978637696,0|2,0:0|0:0,0:0:0:0:
125,10,196233,1,8,0:0:0:0:
299,176,196463,1,0,0:0:0:0:
299,176,196579,1,2,0:0:0:0:
83,153,196810,1,8,0:0:0:0:
83,153,196925,1,2,0:0:0:0:
244,9,197156,1,8,0:0:0:0:
223,217,197386,1,2,0:0:0:0:
223,217,197502,1,8,0:0:0:0:
223,217,197617,6,0,L|210:300,1,69.9999978637696,2|8,0:0|0:3,0:0:0:0:
298,347,197848,2,0,L|311:264,1,69.9999978637696,0|2,0:0|0:0,0:0:0:0:
325,173,198079,1,8,0:0:0:0:
132,88,198310,1,8,0:0:0:0:
113,148,198425,1,2,0:0:0:0:
127,209,198540,1,0,0:0:0:0:
172,253,198656,1,8,0:3:0:0:
233,267,198771,1,2,0:0:0:0:
430,194,199002,1,8,0:0:0:0:
230,127,199233,1,8,0:0:0:0:
230,127,199348,1,8,0:0:0:0:
230,127,199463,6,0,L|230:268,1,139.999995727539,2|0,0:0|0:0,0:0:0:0:
321,321,199810,2,0,L|321:247,1,69.9999978637696,2|8,0:0|0:0,0:0:0:0:
182,92,200156,1,0,0:0:0:0:
182,92,200271,1,2,0:0:0:0:
65,266,200502,1,8,0:0:0:0:
65,266,200617,1,2,0:0:0:0:
274,247,200848,1,8,0:0:0:0:
96,133,201079,1,2,0:0:0:0:
96,133,201194,1,8,0:3:0:0:
96,133,201310,6,0,L|39:94,1,69.9999978637696,2|8,0:0|0:0,0:0:0:0:
59,0,201540,2,0,L|116:39,1,69.9999978637696,0|2,0:0|0:0,0:0:0:0:
202,101,201771,1,8,0:0:0:0:
327,269,202002,1,0,0:0:0:0:
286,317,202117,1,2,0:0:0:0:
227,337,202232,1,0,0:0:0:0:
166,322,202348,1,8,0:0:0:0:
122,278,202463,1,2,0:0:0:0:
90,70,202694,1,8,0:0:0:0:
242,214,202925,1,2,0:0:0:0:
242,214,203040,1,8,0:0:0:0:
242,214,203156,6,0,L|301:269,1,69.9999978637696,2|8,0:0|0:3,0:0:0:0:
394,236,203386,2,0,L|335:181,1,69.9999978637696,0|2,0:0|0:0,0:0:0:0:
265,116,203617,1,8,0:0:0:0:
81,217,203848,1,0,0:0:0:0:
68,279,203963,1,2,0:0:0:0:
89,338,204078,1,0,0:0:0:0:
138,377,204194,1,8,0:0:0:0:
200,384,204309,1,2,0:0:0:0:
367,257,204540,1,8,0:0:0:0:
157,273,204771,1,2,0:0:0:0:
157,273,204886,1,8,0:0:0:0:
157,273,205002,6,0,P|61:254|39:211,1,139.999995727539,2|8,0:0|0:3,0:0:0:0:
31,154,205348,1,8,0:3:0:0:
66,93,205463,1,2,0:0:0:0:
135,79,205579,1,8,0:3:0:0:
197,110,205694,1,0,0:0:0:0:
260,139,205810,1,0,0:0:0:0:
329,140,205925,2,0,P|406:107|447:22,2,179.999994506836,4|0|0,0:0|0:0|0:0,0:0:0:0:
329,140,206848,5,0,0:0:0:0:
256,192,206963,12,0,208694,0:0:0:0:
256,190,214233,5,4,0:0:0:0:
256,190,214694,1,2,0:0:0:0:
256,190,215617,1,2,0:0:0:0:
256,190,216540,1,2,0:0:0:0:
255,278,217233,1,2,0:0:0:0:
167,126,217463,1,8,0:0:0:0:
340,126,217694,1,2,0:0:0:0:
253,332,217925,5,0,0:0:0:0:
104,183,218156,1,0,0:0:0:0:
253,33,218386,1,0,0:0:0:0:
399,183,218617,1,0,0:0:0:0:
107,320,218848,1,0,0:0:0:0:
107,33,219079,1,0,0:0:0:0:
392,33,219310,1,0,0:0:0:0:
392,319,219540,1,0,0:0:0:0:
284,219,219771,5,0,0:0:0:0:
284,219,219886,1,0,0:0:0:0:
284,219,220002,1,0,0:0:0:0:
284,219,220117,1,0,0:0:0:0:
284,219,220233,1,0,0:0:0:0:
284,219,220348,1,0,0:0:0:0:
284,219,220463,1,0,0:0:0:0:
284,219,220579,1,0,0:0:0:0:
284,219,220694,1,0,0:0:0:0:
284,219,220810,1,0,0:0:0:0:
284,219,220925,1,0,0:0:0:0:
284,219,221040,1,0,0:0:0:0:
284,219,221156,1,0,0:0:0:0:
284,219,221271,1,0,0:0:0:0:
284,219,221386,1,0,0:0:0:0:
284,219,221502,1,0,0:0:0:0:
284,219,221617,6,0,P|98:161|191:84,1,400
378,128,222310,1,0,0:0:0:0:
378,128,222425,1,8,0:0:0:0:
299,323,222656,1,8,0:0:0:0:
299,323,222771,1,2,0:0:0:0:
92,281,223002,2,0,L|92:198,1,75.0000028610231
60,105,223233,2,0,L|131:63,1,75.0000028610231,2|8,0:0|0:0,0:0:0:0:
207,2,223463,6,0,P|287:28|332:97,1,150.000005722046,2|0,0:0|0:0,0:0:0:0:
311,183,223810,2,0,L|236:148,1,75.0000028610231,2|8,0:0|0:0,0:0:0:0:
54,59,224156,1,0,0:0:0:0:
54,59,224271,1,2,0:0:0:0:
131,254,224502,1,8,0:0:0:0:
131,254,224617,1,2,0:0:0:0:
229,68,224848,1,8,0:0:0:0:
31,141,225079,1,2,0:0:0:0:
31,141,225194,1,0,0:0:0:0:
31,141,225310,6,0,L|107:182,1,75.0000028610231,2|8,0:0|0:3,0:0:0:0:
201,168,225540,2,0,L|265:232,1,75.0000028610231,0|2,0:0|0:0,0:0:0:0:
307,311,225771,1,8,0:0:0:0:
332,102,226002,1,0,0:0:0:0:
291,54,226117,1,2,0:0:0:0:
232,34,226232,1,0,0:0:0:0:
171,49,226348,1,8,0:0:0:0:
127,93,226463,1,2,0:0:0:0:
136,302,226694,1,8,0:0:0:0:
263,134,226925,1,2,0:0:0:0:
263,134,227040,1,8,0:0:0:0:
263,134,227156,6,0,L|298:68,1,75.0000028610231,2|8,0:0|0:3,0:0:0:0:
402,70,227386,2,0,L|367:136,1,75.0000028610231,0|2,0:0|0:0,0:0:0:0:
310,225,227617,1,8,0:0:0:0:
469,362,227848,1,0,0:0:0:0:
506,311,227963,1,2,0:0:0:0:
512,249,228078,1,0,0:0:0:0:
484,193,228194,1,8,0:0:0:0:
431,160,228309,1,2,0:0:0:0:
227,214,228540,1,2,0:0:0:0:
227,214,228656,1,0,0:0:0:0:
227,214,228771,1,0,0:0:0:0:
409,319,229002,6,0,P|356:378|275:379,1,150.000005722046,2|0,0:0|0:0,0:0:0:0:
198,329,229348,2,0,L|262:276,1,75.0000028610231,2|8,0:0|0:0,0:0:0:0:
415,144,229694,2,0,L|349:203,1,75.0000028610231,0|2,0:0|0:0,0:0:0:0:
314,98,229925,2,0,L|248:157,1,75.0000028610231,0|8,0:0|0:0,0:0:0:0:
177,216,230156,1,2,0:0:0:0:
55,45,230386,2,0,P|126:13|198:31,1,150.000005722046,8|2,0:0|0:0,0:0:0:0:
295,213,230848,6,0,P|224:245|152:227,1,150.000005722046,2|0,0:0|0:0,0:0:0:0:
83,153,231194,1,2,0:0:0:0:
83,153,231310,2,0,L|159:122,1,75.0000028610231,8|2,0:0|0:0,0:0:0:0:
226,50,231540,2,0,L|290:100,1,75.0000028610231
389,110,231771,2,0,L|377:191,1,75.0000028610231,2|0,0:0|0:0,0:0:0:0:
401,287,232002,2,0,L|325:318,1,75.0000028610231,2|2,0:3|0:0,0:0:0:0:
233,353,232233,1,8,0:0:0:0:
236,97,232463,1,8,0:0:0:0:
236,97,232579,1,0,0:0:0:0:
236,97,232694,6,0,P|302:124|331:205,1,150.000005722046,2|0,0:0|0:0,0:0:0:0:
301,294,233040,2,0,L|230:251,1,75.0000028610231,2|8,0:0|0:0,0:0:0:0:
26,247,233386,1,0,0:0:0:0:
32,310,233501,1,2,0:0:0:0:
69,360,233616,1,0,0:0:0:0:
128,383,233732,1,8,0:0:0:0:
189,372,233847,1,2,0:0:0:0:
306,196,234079,1,8,0:0:0:0:
101,242,234310,1,2,0:0:0:0:
101,242,234425,1,8,0:0:0:0:
101,242,234540,6,0,L|9:264,1,75.0000028610231,2|8,0:0|0:3,0:0:0:0:
56,157,234771,2,0,L|148:135,1,75.0000028610231,0|2,0:0|0:0,0:0:0:0:
231,116,235002,1,8,0:0:0:0:
423,199,235233,1,0,0:0:0:0:
417,262,235348,1,2,0:0:0:0:
380,312,235463,1,0,0:0:0:0:
321,335,235579,1,8,0:0:0:0:
260,324,235694,1,2,0:0:0:0:
149,145,235925,1,8,0:0:0:0:
355,182,236156,1,2,0:0:0:0:
355,182,236271,1,8,0:0:0:0:
355,182,236386,6,0,L|355:271,1,75.0000028610231,2|8,0:0|0:3,0:0:0:0:
261,305,236617,2,0,L|261:216,1,75.0000028610231,0|2,0:0|0:0,0:0:0:0:
263,124,236848,1,8,0:0:0:0:
90,4,237079,1,0,0:0:0:0:
46,49,237194,1,2,0:0:0:0:
33,110,237309,1,0,0:0:0:0:
52,170,237425,1,8,0:0:0:0:
100,209,237540,1,2,0:0:0:0:
310,200,237771,1,8,0:0:0:0:
154,58,238002,1,0,0:0:0:0:
154,58,238117,1,0,0:0:0:0:
154,58,238233,5,2,0:0:0:0:
362,315,239156,5,8,0:0:0:0:
362,315,239271,2,0,P|381:242|349:185,1,129.999994049073,2|0,0:0|0:0,0:0:0:0:
295,129,239617,2,0,P|276:56|308:-1,1,129.999994049073,2|2,0:0|0:0,0:0:0:0:
450,114,240079,6,0,P|434:174|389:212,1,119.999996337891,4|0,0:0|0:0,0:0:0:0:
307,208,240425,2,0,P|269:206|232:218,1,59.9999981689454,2|8,0:0|0:0,0:0:0:0:
142,342,240771,1,0,0:0:0:0:
142,342,240886,1,2,0:0:0:0:
142,342,241002,2,0,P|180:344|217:332,1,59.9999981689454,0|8,0:0|0:0,0:0:0:0:
280,310,241233,1,2,0:0:0:0:
289,102,241463,1,8,0:0:0:0:
131,214,241694,1,2,0:0:0:0:
131,214,241810,1,8,0:0:0:0:
131,214,241925,6,0,L|206:241,1,59.9999981689454,2|8,0:0|0:3,0:0:0:0:
265,201,242156,2,0,L|327:245,1,59.9999981689454,0|2,0:0|0:0,0:0:0:0:
363,303,242386,1,8,0:0:0:0:
331,82,242617,1,0,0:0:0:0:
331,82,242733,1,2,0:0:0:0:
502,211,242963,1,8,0:0:0:0:
502,211,243079,1,2,0:0:0:0:
265,227,243310,1,8,0:0:0:0:
389,63,243540,1,0,0:0:0:0:
389,63,243656,1,0,0:0:0:0:
389,63,243771,6,0,L|375:138,1,59.9999981689454,2|8,0:0|0:0,0:0:0:0:
328,189,244002,2,0,L|342:272,1,59.9999981689454,0|2,0:0|0:0,0:0:0:0:
382,319,244233,1,8,0:0:0:0:
123,321,244463,1,0,0:0:0:0:
123,321,244579,1,2,0:0:0:0:
123,321,244694,2,0,L|136:245,1,59.9999981689454,0|8,0:0|0:0,0:0:0:0:
184,195,244925,2,0,L|169:111,1,59.9999981689454,2|0,0:0|0:0,0:0:0:0:
130,65,245156,1,8,0:0:0:0:
51,212,245386,1,0,0:0:0:0:
51,212,245502,1,8,0:0:0:0:
51,212,245617,6,0,L|109:222,1,59.9999981689454,2|8,0:0|0:3,0:0:0:0:
181,267,245848,1,0,0:0:0:0:
181,267,245963,2,0,L|245:255,1,59.9999981689454,2|8,0:0|0:0,0:0:0:0:
383,166,246310,1,8,0:0:0:0:
377,103,246425,1,2,0:0:0:0:
340,53,246540,1,0,0:0:0:0:
281,30,246656,1,8,0:0:0:0:
220,41,246771,1,2,0:0:0:0:
162,199,247002,1,8,0:0:0:0:
329,180,247233,1,2,0:0:0:0:
329,180,247348,1,8,0:0:0:0:
329,180,247463,6,0,P|375:228|372:294,1,119.999996337891,2|0,0:0|0:0,0:0:0:0:
326,346,247810,2,0,L|275:298,1,59.9999981689454,2|8,0:0|0:0,0:0:0:0:
164,184,248156,1,0,0:0:0:0:
164,184,248271,1,2,0:0:0:0:
257,20,248502,1,8,0:0:0:0:
257,20,248617,1,2,0:0:0:0:
434,79,248848,1,8,0:0:0:0:
298,169,249079,1,2,0:0:0:0:
298,169,249194,1,8,0:0:0:0:
298,169,249310,6,0,L|231:179,1,59.9999981689454,2|8,0:0|0:3,0:0:0:0:
194,249,249540,2,0,L|121:236,1,59.9999981689454,0|2,0:0|0:0,0:0:0:0:
64,192,249771,1,8,0:0:0:0:
199,91,250002,1,0,0:0:0:0:
199,91,250117,1,2,0:0:0:0:
324,203,250348,1,8,0:0:0:0:
324,203,250463,1,2,0:0:0:0:
239,348,250694,1,8,0:0:0:0:
148,205,250925,1,2,0:0:0:0:
148,205,251040,1,8,0:0:0:0:
148,205,251156,6,0,L|148:129,1,59.9999981689454,2|8,0:0|0:3,0:0:0:0:
225,114,251386,2,0,L|225:190,1,59.9999981689454,0|2,0:0|0:0,0:0:0:0:
222,258,251617,1,8,0:0:0:0:
360,353,251848,1,0,0:0:0:0:
423,347,251963,1,2,0:0:0:0:
473,310,252078,1,0,0:0:0:0:
496,251,252194,1,8,0:0:0:0:
485,190,252309,1,2,0:0:0:0:
343,98,252540,1,8,0:0:0:0:
362,265,252771,1,2,0:0:0:0:
362,265,252886,1,8,0:0:0:0:
362,265,253002,6,0,L|362:338,1,59.9999981689454,2|8,0:0|0:0,0:0:0:0:
148,224,253233,2,0,L|148:297,1,59.9999981689454,8|8,0:0|0:0,0:0:0:0:
324,186,253463,2,0,L|324:260,1,59.9999981689454,2|0,0:0|0:0,0:0:0:0:
187,161,253694,2,0,L|188:224,1,59.9999981689454,8|2,0:0|0:0,0:0:0:0:
288,164,253925,2,0,L|288:104,2,59.9999981689454,2|8|2,0:3|0:0|0:0,0:0:0:0:
172,288,254386,2,0,L|172:356,1,59.9999981689454,2|0,0:0|0:0,0:0:0:0:
340,348,254617,2,0,L|340:288,1,59.9999981689454
