osu file format v14

[General]
AudioFilename: audio.mp3
AudioLeadIn: 0
PreviewTime: 56730
Countdown: 0
SampleSet: Soft
StackLeniency: 0.7
Mode: 0
LetterboxInBreaks: 0
WidescreenStoryboard: 1

[Editor]
DistanceSpacing: 1
BeatDivisor: 4
GridSize: 4
TimelineZoom: 1

[Metadata]
Title:Konpeitou Retrotica
TitleUnicode:金平糖レトロチカ
Artist:ABSOLUTE CASTAWAY
ArtistUnicode:ABSOLUTE CASTAWAY
Creator:Akito
Version:Normal
Source:
Tags:shikibe mayu shizuku- kazato asa konpeito confetti retrotica retorochika 中恵 光城 nakae mitsuki noah melty records japanese rock featured artist fa mappers' guild mpg
BeatmapID:3117197
BeatmapSetID:1522511

[Difficulty]
HPDrainRate:3
CircleSize:3
OverallDifficulty:4
ApproachRate:6
SliderMultiplier:1
SliderTickRate:1

[Events]
//Background and Video events
0,0,"konpeito.jpg",0,0
//Break Periods
2,79013,88430
2,120013,128429
//Storyboard Layer 0 (Background)
//Storyboard Layer 1 (Fail)
//Storyboard Layer 2 (Pass)
//Storyboard Layer 3 (Foreground)
//Storyboard Layer 4 (Overlay)
//Storyboard Sound Samples

[TimingPoints]
1481,333.333333333333,4,2,1,30,1,0
13814,-100,4,2,1,5,0,0
14147,-90.9090909090909,4,2,1,50,0,0
14814,-90.9090909090909,4,2,1,60,0,0
25814,-90.9090909090909,4,2,1,50,0,0
57480,-90.9090909090909,4,2,1,75,0,0
78814,-90.9090909090909,4,2,1,60,0,0
89480,-90.9090909090909,4,2,1,50,0,0
110814,333.333333333333,3,2,1,50,1,0
110814,-90.9090909090909,3,2,1,50,0,0
119813,333.333333333333,4,2,1,50,1,0
129479,-90.9090909090909,4,2,1,50,0,0
130479,-90.9090909090909,4,2,1,60,0,0
141146,-90.9090909090909,4,2,1,70,0,0
146479,-90.9090909090909,4,2,1,75,0,0
189146,-90.9090909090909,4,2,1,70,0,0

[Colours]
Combo1 : 247,147,147
Combo2 : 210,150,243
Combo3 : 193,249,153
Combo4 : 164,196,249

[HitObjects]
414,364,14147,6,0,L|354:353,2,55.0000016784668,8|8|8,0:0|0:0|0:0,0:0:0:0:
466,342,14647,1,8,0:0:0:0:
466,342,14814,2,0,P|498:282|485:233,1,110.000003356934,4|10,3:2|0:0,0:0:0:0:
417,161,15480,1,2,3:2:0:0:
320,214,15814,1,10,0:0:0:0:
251,127,16147,6,0,L|240:65,1,55.0000016784668,2|0,3:2|3:0,0:0:0:0:
208,28,16480,2,0,P|133:34|104:66,1,110.000003356934,10|2,0:0|3:2,0:0:0:0:
50,148,17147,1,8,0:0:0:0:
147,199,17480,6,0,P|155:254|149:314,1,110.000003356934,2|10,3:2|0:0,0:0:0:0:
201,340,17980,1,0,3:0:0:0:
201,340,18147,1,2,3:2:0:0:
302,381,18480,1,10,0:0:0:0:
369,294,18814,6,0,L|356:234,1,55.0000016784668,2|0,3:2|3:0,0:0:0:0:
346,186,19147,1,10,0:0:0:0:
245,141,19480,2,0,L|232:81,1,55.0000016784668,2|0,3:2|3:0,0:0:0:0:
261,39,19814,2,0,L|321:26,1,55.0000016784668,10|0,0:0|0:0,0:0:0:0:
366,8,20147,1,6,3:2:0:0:
451,76,20480,6,0,L|440:149,1,55.0000016784668,10|0,0:0|3:0,0:0:0:0:
425,183,20814,1,2,3:2:0:0:
500,262,21147,1,10,0:0:0:0:
425,342,21480,6,0,L|366:354,1,55.0000016784668,2|0,3:2|3:0,0:0:0:0:
326,320,21814,2,0,P|280:289|208:303,1,110.000003356934,10|2,0:0|3:2,0:0:0:0:
141,360,22480,1,8,0:0:0:0:
53,293,22814,6,0,L|31:161,1,110.000003356934,2|10,3:2|0:0,0:0:0:0:
78,149,23314,1,0,3:0:0:0:
78,149,23480,2,0,B|145:143|124:169|206:161,1,110.000003356934,2|10,3:2|0:0,0:0:0:0:
258,79,24147,6,0,L|330:66,1,55.0000016784668,2|0,3:2|3:0,0:0:0:0:
342,23,24480,2,0,L|414:10,1,55.0000016784668,10|2,0:0|0:0,0:0:0:0:
454,44,24814,1,2,3:2:0:0:
454,44,24980,1,8,0:0:0:0:
454,44,25147,2,0,P|469:93|456:164,1,110.000003356934,8|6,0:0|3:2,0:0:0:0:
189,337,26480,6,0,L|318:363,1,110.000003356934,10|2,0:0|3:2,0:0:0:0:
95,96,27814,6,0,P|58:161|69:204,1,110.000003356934,8|2,0:0|3:2,0:0:0:0:
384,115,29147,6,0,P|371:61|362:-2,1,110.000003356934,10|2,0:0|3:2,0:0:0:0:
216,171,30147,5,2,3:2:0:0:
306,233,30480,1,10,0:0:0:0:
217,301,30814,1,4,3:2:0:0:
471,85,31814,6,0,L|342:61,1,110.000003356934,10|2,0:0|3:2,0:0:0:0:
48,165,33147,6,0,P|83:230|66:280,1,110.000003356934,8|2,0:0|3:2,0:0:0:0:
386,375,34480,6,0,L|405:265,1,110.000003356934,8|2,0:0|3:2,0:0:0:0:
459,53,35480,6,0,P|424:93|352:91,1,110.000003356934,2|8,3:2|0:0,0:0:0:0:
324,78,35980,1,8,0:0:0:0:
324,78,36147,1,6,3:2:0:0:
265,170,36480,6,0,P|209:180|146:197,1,110.000003356934,8|2,0:0|3:2,0:0:0:0:
59,144,37147,1,8,0:0:0:0:
95,43,37480,1,2,3:2:0:0:
95,43,37647,2,0,P|154:38|182:95,1,110.000003356934,0|0,3:0|0:0,0:0:0:0:
182,189,38314,5,0,3:0:0:0:
182,189,38480,2,0,P|170:244|158:321,1,110.000003356934,8|2,0:0|3:2,0:0:0:0:
254,355,39147,2,0,P|288:363|321:373,1,55.0000016784668,8|0,0:0|3:0,0:0:0:0:
360,384,39480,1,0,3:0:0:0:
448,318,39814,1,8,0:0:0:0:
363,247,40147,6,0,L|350:190,1,55.0000016784668,2|0,3:2|0:0,0:0:0:0:
388,153,40480,2,0,P|442:109|434:59,1,110.000003356934,8|2,0:0|3:2,0:0:0:0:
357,1,41147,1,10,0:0:0:0:
270,69,41480,1,4,3:2:0:0:
164,37,41814,6,0,L|181:162,1,110.000003356934,8|0,0:0|3:2,0:0:0:0:
193,204,42314,1,0,3:0:0:0:
193,204,42480,1,8,0:0:0:0:
103,268,42814,5,2,3:2:0:0:
169,355,43147,1,8,0:0:0:0:
267,307,43480,2,0,P|323:305|375:350,1,110.000003356934,0|8,3:0|0:0,0:0:0:0:
454,270,44147,5,2,3:2:0:0:
384,185,44480,2,0,L|395:112,1,55.0000016784668,8|0,0:0|3:0,0:0:0:0:
401,75,44814,2,0,P|356:38|303:44,1,110.000003356934,2|8,3:2|0:0,0:0:0:0:
232,122,45480,5,2,3:2:0:0:
143,56,45814,1,10,0:0:0:0:
43,103,46147,1,2,3:2:0:0:
38,212,46480,1,10,0:0:0:0:
134,265,46814,6,0,P|188:252|263:243,1,110.000003356934,6|8,3:2|0:0,0:0:0:0:
320,321,47480,1,0,3:2:0:0:
410,258,47814,2,0,P|402:228|394:190,1,55.0000016784668,10|0,0:0|0:0,0:0:0:0:
434,164,48147,5,2,3:2:0:0:
434,164,48314,2,0,P|460:125|452:53,1,110.000003356934,0|0,3:0|3:0,0:0:0:0:
366,12,48980,1,0,3:0:0:0:
366,12,49147,2,0,L|293:28,1,55.0000016784668,10|0,0:0|0:0,0:0:0:0:
258,37,49480,5,2,3:2:0:0:
203,132,49814,2,0,P|209:169|219:211,2,55.0000016784668,8|0|0,0:0|3:0|3:0,0:0:0:0:
111,71,50480,2,0,P|73:77|32:87,1,55.0000016784668,8|0,0:0|3:0,0:0:0:0:
3,95,50814,5,2,3:2:0:0:
60,188,51147,1,10,0:0:0:0:
5,283,51480,1,2,3:2:0:0:
77,366,51814,1,8,0:0:0:0:
184,342,52147,6,0,L|310:358,1,110.000003356934,6|8,3:2|0:0,0:0:0:0:
352,365,52647,1,0,3:0:0:0:
352,365,52814,1,0,3:0:0:0:
389,261,53147,6,0,P|380:228|368:186,1,55.0000016784668,8|0,0:0|3:0,0:0:0:0:
321,191,53480,2,0,P|262:188|219:143,1,110.000003356934,2|8,3:2|0:0,0:0:0:0:
225,100,53980,1,0,0:0:0:0:
139,40,54314,1,0,3:0:0:0:
139,40,54480,2,0,P|112:47|85:54,1,55.0000016784668,10|0,0:0|0:0,0:0:0:0:
31,64,54814,5,2,3:2:0:0:
5,170,55147,2,0,P|14:203|22:238,1,55.0000016784668,8|0,0:0|3:0,0:0:0:0:
31,276,55480,1,2,3:2:0:0:
132,232,55814,1,8,0:0:0:0:
205,314,56147,1,0,3:0:0:0:
416,375,56814,6,0,B|410:329|410:329|397:313|397:313|388:249,1,110.000003356934,8|8,0:3|0:0,0:0:0:0:
435,237,57314,1,8,0:0:0:0:
435,237,57480,6,0,P|493:213|495:155,1,110.000003356934,6|8,3:2|0:0,0:0:0:0:
476,122,57980,2,0,P|447:113|406:93,1,55.0000016784668,0|2,3:0|3:2,0:0:0:0:
333,52,58480,1,8,0:0:0:0:
333,52,58647,1,0,0:0:0:0:
333,52,58814,6,0,B|266:58|295:70|223:80,1,110.000003356934,2|8,3:2|0:0,0:0:0:0:
179,51,59314,2,0,P|148:47|117:40,1,55.0000016784668,0|2,3:0|3:2,0:0:0:0:
28,95,59814,2,0,P|21:131|21:153,1,55.0000016784668,8|0,0:0|0:0,0:0:0:0:
62,185,60147,6,0,P|117:208|131:262,1,110.000003356934,2|8,3:2|0:0,0:0:0:0:
63,338,60814,1,2,3:2:0:0:
169,382,61147,1,8,0:0:0:0:
169,382,61314,6,0,P|225:369|294:359,1,110.000003356934
330,348,61814,1,10,0:0:0:0:
405,268,62147,2,0,P|436:277|470:285,1,55.0000016784668,2|0,3:2|3:0,0:0:0:0:
512,292,62480,1,10,0:0:0:0:
488,184,62814,6,0,B|498:114|476:132|485:72,1,110.000003356934,2|8,3:2|0:0,0:0:0:0:
447,34,63314,2,0,P|413:42|371:50,1,55.0000016784668,0|2,3:0|3:2,0:0:0:0:
312,121,63814,2,0,P|285:115|258:108,1,55.0000016784668,8|0,0:0|0:0,0:0:0:0:
224,65,64147,6,0,P|151:62|111:101,1,110.000003356934,2|8,3:2|0:0,0:0:0:0:
97,132,64647,1,0,0:0:0:0:
97,132,64814,1,2,3:2:0:0:
187,194,65147,1,8,0:0:0:0:
283,247,65480,6,0,P|338:234|402:225,1,110.000003356934,2|8,3:2|0:0,0:0:0:0:
492,281,66147,1,2,3:2:0:0:
492,281,66314,2,0,P|500:315|510:350,1,55.0000016784668,0|8,3:0|0:0,0:0:0:0:
467,374,66647,6,0,P|412:346|349:359,1,110.000003356934,4|0,3:2|3:0,0:0:0:0:
317,377,67147,1,8,0:0:0:0:
237,301,67480,1,8,0:0:0:0:
316,224,67814,2,0,L|330:160,1,55.0000016784668,8|8,0:0|0:0,0:0:0:0:
299,123,68147,6,0,P|241:110|217:54,1,110.000003356934,4|8,3:2|0:0,0:0:0:0:
219,17,68647,1,0,3:0:0:0:
219,17,68814,1,2,3:2:0:0:
111,39,69147,2,0,L|43:54,1,55.0000016784668,8|0,0:0|0:0,0:0:0:0:
24,94,69480,6,0,P|39:166|26:218,1,110.000003356934,2|8,3:2|0:0,0:0:0:0:
68,242,69980,2,0,P|67:276|73:309,1,55.0000016784668,0|2,3:0|3:2,0:0:0:0:
158,363,70480,2,0,P|185:355|211:349,1,55.0000016784668,8|0,0:0|0:0,0:0:0:0:
244,304,70814,6,0,P|303:317|364:328,1,110.000003356934,2|8,3:2|0:0,0:0:0:0:
445,382,71480,2,0,P|450:351|459:318,1,55.0000016784668,2|0,3:2|3:0,0:0:0:0:
473,275,71814,1,8,0:0:0:0:
473,275,71980,6,0,B|469:211|448:227|443:167,1,110.000003356934,6|0,3:2|3:0,0:0:0:0:
393,146,72480,2,0,P|387:114|380:84,1,55.0000016784668,10|0,0:0|0:0,0:0:0:0:
409,43,72814,2,0,P|455:37|487:18,2,82.5000025177003,2|2|2,3:2|0:0|3:2,0:0:0:0:
365,9,73480,5,6,3:2:0:0:
271,64,73814,1,8,0:0:0:0:
271,64,73980,2,0,P|211:50|146:39,1,110.000003356934,0|0,3:0|3:0,0:0:0:0:
108,35,74480,1,8,0:0:0:0:
23,106,74814,6,0,P|5:160|26:231,1,110.000003356934,2|8,3:2|0:0,0:0:0:0:
55,247,75314,2,0,P|110:236|177:230,1,110.000003356934,0|0,3:0|3:0,0:0:0:0:
218,226,75814,1,8,0:0:0:0:
293,146,76147,6,0,P|348:157|415:163,1,110.000003356934,2|8,3:2|0:0,0:0:0:0:
460,166,76647,1,0,3:0:0:0:
460,166,76814,1,2,3:2:0:0:
510,269,77147,1,8,0:0:0:0:
510,269,77314,6,0,P|449:281|421:333,1,110.000003356934,6|0,3:2|3:0,0:0:0:0:
424,380,77814,1,8,0:0:0:0:
424,380,77980,1,0,3:0:0:0:
424,380,78147,2,0,L|304:354,2,110.000003356934,8|8|4,0:0|0:0|3:2,0:0:0:0:
0,86,89480,5,6,3:2:0:0:
76,164,89814,2,0,L|194:146,1,110.000003356934,8|0,0:0|3:0,0:0:0:0:
286,104,90480,2,0,L|297:181,1,55.0000016784668,10|0,0:0|0:0,0:0:0:0:
305,217,90814,5,2,3:2:0:0:
305,217,90980,2,0,P|336:253|395:251,1,110.000003356934,0|0,3:0|3:0,0:0:0:0:
486,322,91647,1,0,3:0:0:0:
486,322,91814,6,0,P|493:271|507:211,1,110.000003356934,8|2,0:0|3:2,0:0:0:0:
437,128,92480,2,0,P|431:100|423:64,2,55.0000016784668,8|0|0,0:0|3:0|3:2,0:0:0:0:
360,206,93147,2,0,L|290:194,1,55.0000016784668,10|0,0:0|0:0,0:0:0:0:
269,155,93480,6,0,P|284:100|266:32,1,110.000003356934,2|8,3:2|0:0,0:0:0:0:
173,3,94147,1,2,3:2:0:0:
84,68,94480,1,10,0:0:0:0:
132,166,94814,1,4,3:2:0:0:
47,236,95147,6,0,L|33:300,1,55.0000016784668,10|0,0:0|0:0,0:0:0:0:
55,341,95480,2,0,P|101:367|174:351,1,110.000003356934,0|10,3:0|0:0,0:0:0:0:
240,290,96147,5,2,3:2:0:0:
240,290,96314,2,0,P|301:278|354:271,1,110.000003356934,0|0,3:0|3:0,0:0:0:0:
298,179,96980,1,0,3:0:0:0:
298,179,97147,2,0,P|291:146|283:100,1,55.0000016784668,8|0,0:0|0:0,0:0:0:0:
278,70,97480,1,2,3:2:0:0:
365,2,97814,6,0,P|393:10|424:17,1,55.0000016784668,8|0,0:0|3:0,0:0:0:0:
472,25,98147,2,0,P|499:70|484:143,1,110.000003356934,0|8,3:0|0:0,0:0:0:0:
408,194,98814,5,2,3:2:0:0:
465,287,99147,1,8,0:0:0:0:
383,360,99480,2,0,L|322:347,1,55.0000016784668,2|8,3:2|0:0,0:0:0:0:
279,372,99814,2,0,L|218:359,1,55.0000016784668,8|8,0:0|0:0,0:0:0:0:
173,342,100147,1,6,3:2:0:0:
71,383,100480,6,0,P|49:333|64:263,1,110.000003356934,8|2,0:0|3:2,0:0:0:0:
137,205,101147,2,0,L|200:193,1,55.0000016784668,8|0,0:0|0:0,0:0:0:0:
242,227,101480,5,2,3:2:0:0:
242,227,101647,2,0,P|293:235|341:201,1,110.000003356934,0|0,3:0|0:0,0:0:0:0:
426,135,102314,1,0,3:0:0:0:
426,135,102480,2,0,L|416:81,1,55.0000016784668,8|0,0:0|0:0,0:0:0:0:
374,43,102814,6,0,B|309:45|329:58|248:60,1,110.000003356934,2|8,3:2|0:0,0:0:0:0:
171,3,103480,1,0,3:0:0:0:
73,55,103814,1,8,0:0:0:0:
115,156,104147,6,0,L|105:220,1,55.0000016784668,2|0,3:2|0:0,0:0:0:0:
96,264,104480,1,8,0:0:0:0:
159,354,104814,1,2,3:2:0:0:
267,333,105147,1,10,0:0:0:0:
294,226,105480,5,4,3:2:0:0:
389,171,105814,2,0,P|453:190|476:237,1,110.000003356934,8|0,0:0|3:2,0:0:0:0:
440,328,106480,2,0,L|378:341,1,55.0000016784668,8|0,0:0|0:0,0:0:0:0:
335,316,106814,6,0,P|273:306|232:334,1,110.000003356934,2|8,3:2|0:0,0:0:0:0:
137,280,107480,1,0,3:0:0:0:
38,328,107814,1,10,0:0:0:0:
3,223,108147,6,0,P|0:158|6:101,1,110.000003356934,2|8,3:2|0:0,0:0:0:0:
44,75,108647,1,0,3:0:0:0:
44,75,108814,2,0,P|92:106|155:101,1,110.000003356934,2|8,3:2|0:0,0:0:0:0:
221,28,109480,5,2,3:2:0:0:
302,101,109814,2,0,L|292:158,1,55.0000016784668,10|8,0:0|0:3,0:0:0:0:
324,199,110147,2,0,L|314:256,1,55.0000016784668,0|0,3:2|3:0,0:0:0:0:
347,297,110480,1,4,0:3:0:0:
424,375,110814,6,0,P|487:371|515:322,1,110.000003356934,6|0,3:2|3:0,0:0:0:0:
485,288,111314,2,0,P|475:239|470:177,1,110.000003356934,10|2,0:0|3:2,0:0:0:0:
469,128,111814,1,0,3:2:0:0:
469,128,111980,1,0,3:0:0:0:
391,49,112314,1,8,0:0:0:0:
307,120,112647,5,0,3:0:0:0:
307,120,112814,2,0,P|243:111|212:68,1,110.000003356934,2|0,3:2|3:0,0:0:0:0:
220,23,113314,2,0,P|159:37|104:48,1,110.000003356934,10|0,0:0|0:0,0:0:0:0:
62,59,113814,1,2,3:2:0:0:
62,59,113980,2,0,B|46:120|82:105|61:176,1,110.000003356934,8|8,0:0|0:0,0:0:0:0:
56,280,114647,5,4,0:3:0:0:
56,280,114814,2,0,P|102:256|165:267,1,110.000003356934,4|0,3:2|3:0,0:0:0:0:
200,298,115314,1,8,0:0:0:0:
309,264,115647,1,2,3:2:0:0:
309,264,115814,1,0,3:0:0:0:
309,264,115980,2,0,P|304:320|308:390,1,110.000003356934,8|8,0:0|0:0,0:0:0:0:
412,337,116647,5,0,3:0:0:0:
412,337,116814,2,0,P|470:322|486:263,1,110.000003356934,2|0,3:2|3:0,0:0:0:0:
461,231,117314,2,0,P|449:180|455:108,1,110.000003356934,8|8,0:0|0:0,0:0:0:0:
476,73,117814,1,2,3:2:0:0:
386,8,118147,2,0,L|326:21,1,55.0000016784668,0|8,3:0|0:3,0:0:0:0:
299,64,118480,2,0,L|239:77,1,55.0000016784668,4|4,0:3|0:3,0:0:0:0:
195,89,118813,5,4,3:0:0:0:
195,89,118980,1,4,3:0:0:0:
131,179,119313,1,8,0:3:0:0:
131,179,119480,1,0,3:0:0:0:
197,253,119813,1,4,3:2:0:0:
42,203,129479,5,0,3:0:0:0:
21,311,129812,2,0,P|48:341|129:342,1,110.000003356934,8|4,0:3|0:3,0:0:0:0:
180,260,130479,6,0,P|169:211|157:132,2,110.000003356934,4|8|2,3:2|0:0|3:2,0:0:0:0:
220,297,131313,1,0,3:0:0:0:
220,297,131479,2,0,P|252:306|284:316,1,55.0000016784668,10|2,0:0|0:0,0:0:0:0:
324,333,131813,5,2,3:2:0:0:
426,292,132146,2,0,P|432:230|387:180,1,110.000003356934,8|2,0:0|3:2,0:0:0:0:
362,169,132646,1,0,3:0:0:0:
362,169,132813,1,10,0:0:0:0:
422,77,133146,6,0,P|362:62|312:45,1,110.000003356934,2|8,3:2|0:0,0:0:0:0:
229,114,133813,2,0,P|197:120|163:129,1,55.0000016784668,2|0,3:2|3:0,0:0:0:0:
141,82,134146,2,0,P|109:76|75:67,1,55.0000016784668,10|0,0:0|0:0,0:0:0:0:
36,91,134479,6,0,P|17:141|28:202,1,110.000003356934,2|8,3:2|0:0,0:0:0:0:
115,259,135146,2,0,L|181:246,1,55.0000016784668,8|0,0:0|3:0,0:0:0:0:
231,245,135479,1,8,0:0:0:0:
231,245,135646,1,8,0:0:0:0:
231,245,135812,6,0,P|279:285|275:333,1,110.000003356934,6|8,3:2|0:0,0:0:0:0:
236,364,136312,1,0,0:0:0:0:
236,364,136479,2,0,P|181:371|128:383,1,110.000003356934,2|8,3:2|0:0,0:0:0:0:
40,316,137146,6,0,L|14:191,1,110.000003356934,2|8,3:2|0:0,0:0:0:0:
46,161,137646,1,0,0:0:0:0:
46,161,137812,2,0,L|111:148,1,55.0000016784668,2|0,3:2|3:0,0:0:0:0:
154,139,138146,1,8,0:0:0:0:
234,64,138479,6,0,P|271:102|345:99,1,110.000003356934,2|8,3:2|0:0,0:0:0:0:
367,71,138979,1,0,0:0:0:0:
367,71,139146,2,0,P|420:75|458:114,1,110.000003356934,2|8,3:2|0:0,0:0:0:0:
471,172,139646,1,0,3:0:0:0:
471,172,139812,1,2,3:2:0:0:
492,280,140146,6,0,L|423:266,1,55.0000016784668,12|2,0:0|3:2,0:0:0:0:
389,295,140479,2,0,L|376:358,2,55.0000016784668,8|0|8,0:0|3:0|0:0,0:0:0:0:
326,204,141146,5,14,0:0:0:0:
326,204,141312,2,0,P|295:209|266:215,1,55.0000016784668,0|0,3:0|3:0,0:0:0:0:
239,259,141646,1,10,0:0:0:0:
239,259,141812,2,0,P|208:264|179:270,1,55.0000016784668,0|0,3:0|3:0,0:0:0:0:
131,281,142146,1,10,0:0:0:0:
43,214,142479,6,0,P|50:185|57:149,1,55.0000016784668,14|2,0:0|3:2,0:0:0:0:
36,120,142812,1,0,3:0:0:0:
36,120,142979,1,8,0:0:0:0:
36,120,143146,2,0,P|78:91|152:102,1,110.000003356934,0|10,3:0|0:0,0:0:0:0:
237,53,143812,6,0,L|224:-4,2,55.0000016784668,12|8|8,0:0|0:0|0:0,0:0:0:0:
255,110,144312,1,8,0:0:0:0:
255,110,144479,2,0,L|317:124,1,55.0000016784668,8|8,0:3|0:3,0:0:0:0:
361,139,144812,1,4,0:3:0:0:
412,120,144979,1,4,0:3:0:0:
462,97,145146,1,8,0:3:0:0:
510,195,145479,1,12,0:0:0:0:
447,285,145812,6,0,L|374:270,1,55.0000016784668,8|8,0:0|0:0,0:0:0:0:
348,307,146146,2,0,L|294:318,1,55.0000016784668,8|8,0:0|0:0,0:0:0:0:
246,289,146479,1,6,3:2:0:0:
157,352,146812,5,8,0:0:0:0:
157,352,146979,2,0,L|138:228,1,110.000003356934,0|0,3:0|3:0,0:0:0:0:
179,204,147479,2,0,L|193:136,1,55.0000016784668,8|0,0:0|0:0,0:0:0:0:
204,97,147812,5,2,3:2:0:0:
285,23,148146,1,8,0:0:0:0:
285,23,148312,2,0,L|342:34,1,55.0000016784668,0|2,3:0|3:2,0:0:0:0:
455,60,148812,1,8,0:0:0:0:
455,60,148979,1,0,0:0:0:0:
455,60,149146,6,0,P|480:117|467:180,1,110.000003356934,2|8,3:2|0:0,0:0:0:0:
420,258,149812,2,0,L|497:276,2,55.0000016784668,2|0|8,3:2|3:0|0:0,0:0:0:0:
385,222,150312,1,0,0:0:0:0:
385,222,150479,6,0,P|338:188|273:200,1,110.000003356934,2|10,3:2|0:0,0:0:0:0:
203,261,151146,1,2,3:2:0:0:
113,197,151479,1,10,0:0:0:0:
13,243,151812,6,0,P|0:311|20:356,1,110.000003356934,2|8,3:2|0:0,0:0:0:0:
62,373,152312,2,0,L|129:358,1,55.0000016784668,0|2,3:0|3:2,0:0:0:0:
224,381,152812,2,0,L|291:366,1,55.0000016784668,8|0,0:0|0:0,0:0:0:0:
317,330,153146,6,0,P|310:274|251:243,1,110.000003356934,2|8,3:2|0:0,0:0:0:0:
219,236,153646,1,0,0:0:0:0:
219,236,153812,2,0,P|209:187|214:122,1,110.000003356934,2|8,3:2|0:0,0:0:0:0:
269,32,154479,5,2,3:2:0:0:
361,90,154812,1,8,0:0:0:0:
464,53,155146,2,0,L|475:-5,2,55.0000016784668,2|0|8,3:2|3:0|0:0,0:0:0:0:
496,97,155646,6,0,P|516:143|504:221,1,110.000003356934,4|0,3:2|3:0,0:0:0:0:
486,250,156146,1,8,0:0:0:0:
486,359,156479,2,0,L|423:345,1,55.0000016784668,8|0,0:0|3:0,0:0:0:0:
381,369,156812,2,0,L|318:355,1,55.0000016784668,8|8,0:0|0:0,0:0:0:0:
291,314,157146,6,0,P|281:260|294:195,1,110.000003356934,4|8,3:2|0:0,0:0:0:0:
324,163,157646,2,0,L|388:175,1,55.0000016784668,0|2,3:0|3:2,0:0:0:0:
471,114,158146,2,0,L|483:50,1,55.0000016784668,8|0,0:0|0:0,0:0:0:0:
457,10,158479,6,0,B|393:9|417:29|333:29,1,110.000003356934,2|8,3:2|0:0,0:0:0:0:
302,58,158979,2,0,P|270:49|238:44,1,55.0000016784668,0|2,3:0|3:2,0:0:0:0:
146,3,159479,2,0,P|114:12|82:17,1,55.0000016784668,8|0,0:0|0:0,0:0:0:0:
38,23,159812,5,2,3:2:0:0:
1,127,160146,1,8,0:0:0:0:
97,178,160479,2,0,L|155:167,2,55.0000016784668,2|0|8,3:2|3:0|0:0,0:0:0:0:
66,223,160979,6,0,P|41:273|50:337,1,110.000003356934,6|0,3:2|3:0,0:0:0:0:
79,368,161479,1,10,0:0:0:0:
186,343,161812,2,0,B|222:352|222:352|226:355|226:355|268:366,2,82.5000025177003,2|10|10,3:2|0:0|0:2,0:0:0:0:
184,287,162479,6,0,B|170:228|201:234|185:163,1,110.000003356934,6|8,3:2|0:0,0:0:0:0:
149,139,162979,2,0,L|138:84,1,55.0000016784668,0|2,3:0|3:2,0:0:0:0:
221,13,163479,1,8,0:0:0:0:
312,74,163812,6,0,P|374:80|415:131,1,110.000003356934,2|8,3:2|0:0,0:0:0:0:
456,134,164312,2,0,P|447:189|440:256,1,110.000003356934,0|0,3:0|3:0,0:0:0:0:
436,297,164812,1,8,0:0:0:0:
347,362,165146,5,2,3:2:0:0:
239,337,165479,1,8,0:0:0:0:
132,311,165812,2,0,L|124:256,1,55.0000016784668,2|0,3:2|3:0,0:0:0:0:
119,205,166146,1,8,0:0:0:0:
119,205,166312,6,0,P|61:176|53:117,1,110.000003356934,4|0,3:2|3:0,0:0:0:0:
73,85,166812,1,8,0:0:0:0:
164,23,167146,6,0,L|217:34,1,55.0000016784668,8|8,0:0|0:0,0:0:0:0:
258,72,167480,2,0,L|312:61,1,55.0000016784668,8|8,0:0|0:0,0:0:0:0:
365,46,167813,1,6,3:2:0:0:
475,78,168146,5,8,0:0:0:0:
475,78,168313,2,0,P|504:127|491:186,1,110.000003356934,0|0,3:0|3:0,0:0:0:0:
459,217,168813,2,0,L|396:207,1,55.0000016784668,8|0,0:0|0:0,0:0:0:0:
350,200,169146,5,2,3:2:0:0:
260,264,169480,1,8,0:0:0:0:
260,264,169646,2,0,L|197:274,1,55.0000016784668,0|2,3:0|3:2,0:0:0:0:
122,219,170146,1,8,0:0:0:0:
122,219,170313,1,0,0:0:0:0:
122,219,170480,6,0,P|112:170|146:117,1,110.000003356934,2|8,3:2|0:0,0:0:0:0:
227,52,171146,2,0,L|209:-18,2,55.0000016784668,2|0|8,3:2|3:0|0:0,0:0:0:0:
249,108,171646,1,0,0:0:0:0:
249,108,171813,6,0,P|305:119|356:132,1,110.000003356934,2|10,3:2|0:0,0:0:0:0:
449,73,172480,1,2,3:2:0:0:
510,163,172813,1,10,0:0:0:0:
421,227,173146,6,0,P|364:238|313:251,1,110.000003356934,2|8,3:2|0:0,0:0:0:0:
275,291,173646,2,0,P|244:283|208:276,1,55.0000016784668,0|2,3:0|3:2,0:0:0:0:
128,336,174146,2,0,L|113:269,1,55.0000016784668,8|0,0:0|0:0,0:0:0:0:
71,248,174480,6,0,P|58:194|94:138,1,110.000003356934,2|8,3:2|0:0,0:0:0:0:
139,137,174980,1,0,0:0:0:0:
139,137,175146,2,0,P|189:152|250:167,1,110.000003356934,2|8,3:2|0:0,0:0:0:0:
352,139,175813,5,2,3:2:0:0:
441,203,176146,1,8,0:0:0:0:
406,307,176480,2,0,L|464:320,2,55.0000016784668,2|0|8,3:2|3:0|0:0,0:0:0:0:
365,344,176980,6,0,P|318:374|264:367,1,110.000003356934,4|0,3:2|3:0,0:0:0:0:
220,337,177480,1,8,0:0:0:0:
120,290,177813,2,0,L|52:304,1,55.0000016784668,8|0,0:0|3:0,0:0:0:0:
21,268,178146,2,0,L|7:200,1,55.0000016784668,8|8,0:0|0:0,0:0:0:0:
38,166,178480,6,0,P|19:119|38:53,1,110.000003356934,4|8,3:2|0:0,0:0:0:0:
73,26,178980,2,0,L|137:38,1,55.0000016784668,0|2,3:0|3:2,0:0:0:0:
211,106,179479,2,0,L|275:94,1,55.0000016784668,8|0,0:0|0:0,0:0:0:0:
294,49,179813,6,0,P|357:53|395:103,1,110.000003356934,2|8,3:2|0:0,0:0:0:0:
424,125,180313,2,0,P|414:161|408:199,1,55.0000016784668,0|2,3:0|3:2,0:0:0:0:
343,265,180813,2,0,L|279:279,1,55.0000016784668,8|0,0:0|0:0,0:0:0:0:
235,286,181146,5,2,3:2:0:0:
146,351,181480,1,8,0:0:0:0:
53,291,181813,2,0,L|-1:301,2,55.0000016784668,2|0|8,3:2|3:0|0:0,0:0:0:0:
93,254,182313,6,0,P|118:203|96:141,1,110.000003356934,6|0,3:2|3:0,0:0:0:0:
60,122,182813,1,10,0:0:0:0:
130,37,183146,2,0,B|91:27|91:27|87:23|87:23|31:11,2,82.5000025177003,2|0|0,3:2|3:0|3:2,0:0:0:0:
175,68,183813,6,0,P|219:39|287:48,1,110.000003356934,6|10,3:2|0:0,0:0:0:0:
307,86,184313,2,0,L|296:141,1,55.0000016784668,0|10,3:0|0:0,0:0:0:0:
211,209,184813,1,10,0:0:0:0:
276,297,185146,6,0,P|335:302|370:267,1,110.000003356934,12|10,0:0|0:0,0:0:0:0:
421,253,185646,2,0,P|427:198|435:144,1,110.000003356934,0|0,3:0|3:0,0:0:0:0:
448,90,186146,1,10,0:0:0:0:
360,22,186480,5,10,0:0:0:0:
264,77,186813,1,10,0:0:0:0:
174,13,187146,2,0,L|114:26,1,55.0000016784668,2|8,3:2|0:0,0:0:0:0:
71,11,187480,1,8,0:0:0:0:
71,11,187646,6,0,P|38:65|43:109,1,110.000003356934,4|0,3:2|3:0,0:0:0:0:
82,147,188146,1,8,0:0:0:0:
175,205,188479,2,0,L|244:193,1,55.0000016784668,8|0,0:0|3:0,0:0:0:0:
276,223,188812,2,0,L|345:211,1,55.0000016784668,8|8,0:0|0:0,0:0:0:0:
384,201,189146,1,4,3:2:0:0:
