osu file format v14

[General]
AudioFilename: audio.mp3
AudioLeadIn: 0
PreviewTime: 56730
Countdown: 0
SampleSet: Soft
StackLeniency: 0.7
Mode: 0
LetterboxInBreaks: 0
WidescreenStoryboard: 1

[Editor]
DistanceSpacing: 1
BeatDivisor: 4
GridSize: 4
TimelineZoom: 1

[Metadata]
Title:Konpeitou Retrotica
TitleUnicode:金平糖レトロチカ
Artist:ABSOLUTE CASTAWAY
ArtistUnicode:ABSOLUTE CASTAWAY
Creator:Akito
Version:Easy
Source:
Tags:shikibe mayu shizuku- kazato asa konpeito confetti retrotica retorochika 中恵 光城 nakae mitsuki noah melty records japanese rock featured artist fa mappers' guild mpg
BeatmapID:3120959
BeatmapSetID:1522511

[Difficulty]
HPDrainRate:2
CircleSize:3
OverallDifficulty:2
ApproachRate:4
SliderMultiplier:0.8
SliderTickRate:1

[Events]
//Background and Video events
0,0,"konpeito.jpg",0,0
//Break Periods
2,79014,88494
2,120013,129159
//Storyboard Layer 0 (Background)
//Storyboard Layer 1 (Fail)
//Storyboard Layer 2 (Pass)
//Storyboard Layer 3 (Foreground)
//Storyboard Layer 4 (Overlay)
//Storyboard Sound Samples

[TimingPoints]
1481,333.333333333333,4,2,1,30,1,0
13814,-100,4,2,1,5,0,0
14147,-100,4,2,1,50,0,0
14814,-100,4,2,1,60,0,0
25814,-100,4,2,1,50,0,0
57480,-100,4,2,1,75,0,0
78814,-100,4,2,1,60,0,0
89480,-100,4,2,1,50,0,0
110814,333.333333333333,3,2,1,50,1,0
119813,333.333333333333,4,2,1,50,1,0
130479,-100,4,2,1,60,0,0
141146,-100,4,2,1,70,0,0
146479,-100,4,2,1,75,0,0
189146,-100,4,2,1,70,0,0

[Colours]
Combo1 : 247,147,147
Combo2 : 210,150,243
Combo3 : 193,249,153
Combo4 : 164,196,249

[HitObjects]
95,83,14147,6,0,L|180:71,1,80,8|8,0:0|0:0,0:0:0:0:
229,14,14814,6,0,P|318:14|350:81,1,160,4|2,3:2|3:2,0:0:0:0:
305,135,15814,1,10,0:0:0:0:
241,184,16147,2,0,P|255:262|274:343,1,160,2|2,3:2|3:2,0:0:0:0:
202,378,17147,2,0,P|159:375|125:344,1,80,8|2,0:0|3:2,0:0:0:0:
77,293,17814,6,0,L|-1:310,2,80,10|2|10,0:0|3:2|0:0,0:0:0:0:
97,215,18814,2,0,P|81:180|85:132,1,80,2|10,3:2|0:0,0:0:0:0:
145,89,19480,2,0,L|238:106,1,80,2|10,3:2|0:0,0:0:0:0:
276,163,20147,6,0,B|372:147|338:201|445:183,1,160,6|2,3:2|3:2,0:0:0:0:
492,133,21147,1,10,0:0:0:0:
454,62,21480,2,0,L|371:42,1,80,2|10,3:2|0:0,0:0:0:0:
310,88,22147,2,0,P|338:173|325:250,1,160,2|2,3:2|3:2,0:0:0:0:
354,317,23147,6,0,P|396:326|425:353,2,80,10|2|10,0:0|3:2|0:0,0:0:0:0:
297,373,24147,2,0,L|124:345,1,160,2|2,3:2|3:2,0:0:0:0:
59,337,25147,1,8,0:0:0:0:
59,337,25480,1,6,3:2:0:0:
31,98,26480,6,0,L|122:82,1,80,10|2,0:0|3:2,0:0:0:0:
249,279,27814,2,0,L|340:263,1,80,8|2,0:0|3:2,0:0:0:0:
469,71,29147,6,0,P|425:49|389:53,1,80,10|2,0:0|3:2,0:0:0:0:
299,180,30147,2,0,L|315:275,2,80,2|10|4,3:2|0:0|3:2,0:0:0:0:
83,74,31814,6,0,P|66:117|71:163,1,80,10|2,0:0|3:2,0:0:0:0:
174,365,33147,2,0,P|191:322|186:276,1,80,8|2,0:0|3:2,0:0:0:0:
274,64,34480,6,0,P|314:75|361:85,1,80,8|2,0:0|3:2,0:0:0:0:
412,231,35480,2,0,P|372:239|334:250,2,80,2|8|6,3:2|0:0|3:2,0:0:0:0:
465,171,36480,6,0,P|465:129|439:87,1,80,8|2,0:0|3:2,0:0:0:0:
379,54,37147,1,8,0:0:0:0:
299,35,37480,2,0,L|175:62,1,120,2|0,3:2|0:0,0:0:0:0:
116,106,38314,2,0,P|121:181|167:212,1,120,0|2,3:0|3:2,0:0:0:0:
230,189,39147,1,8,0:0:0:0:
286,245,39480,6,0,L|273:330,1,80,0|8,3:0|0:0,0:0:0:0:
331,379,40147,1,2,3:2:0:0:
415,243,40814,2,0,P|457:256|501:266,2,80,2|10|4,3:2|0:0|3:2,0:0:0:0:
344,204,41814,5,8,0:0:0:0:
287,147,42147,2,0,P|239:145|204:167,1,80,0|8,3:2|0:0,0:0:0:0:
170,228,42814,1,2,3:2:0:0:
30,305,43480,2,0,L|49:382,2,80,0|8|2,3:0|0:0|3:2,0:0:0:0:
66,233,44480,2,0,L|46:155,1,80,8|2,0:0|3:2,0:0:0:0:
23,78,45147,1,8,0:0:0:0:
78,20,45480,6,0,P|172:36|187:91,1,160,2|2,3:2|3:2,0:0:0:0:
175,167,46480,2,0,P|221:177|266:188,1,80,10|6,0:0|3:2,0:0:0:0:
331,200,47147,1,8,0:0:0:0:
378,264,47480,2,0,P|418:266|458:239,1,80,0|10,3:2|0:0,0:0:0:0:
476,170,48147,6,0,P|462:115|451:45,1,120,2|0,3:2|3:0,0:0:0:0:
380,15,48980,2,0,P|313:24|292:77,1,120,0|2,3:0|3:2,0:0:0:0:
238,126,49814,2,0,L|257:219,2,80,8|0|8,0:0|3:0|0:0,0:0:0:0:
190,61,50814,6,0,P|152:45|103:50,1,80,2|10,3:2|0:0,0:0:0:0:
44,86,51480,1,2,3:2:0:0:
67,244,52147,6,0,P|150:256|238:274,1,160,6|0,3:2|3:0,0:0:0:0:
294,310,53147,1,8,0:0:0:0:
344,371,53480,6,0,P|409:372|446:321,1,120,2|0,3:2|0:0,0:0:0:0:
512,291,54314,2,0,P|496:231|486:170,1,120,0|2,3:0|3:2,0:0:0:0:
466,96,55147,1,8,0:0:0:0:
389,72,55480,2,0,P|394:26|422:-10,2,80,2|8|0,3:2|0:0|3:0,0:0:0:0:
313,213,56814,6,0,L|221:194,1,80,8|8,0:3|0:0,0:0:0:0:
166,238,57480,6,0,P|108:277|56:267,1,120,6|0,3:2|3:0,0:0:0:0:
3,164,58480,1,8,0:0:0:0:
53,101,58814,2,0,P|119:86|176:70,1,120,2|0,3:2|3:0,0:0:0:0:
282,33,59814,1,8,0:0:0:0:
329,97,60147,6,0,L|314:183,1,80,2|8,3:2|0:0,0:0:0:0:
245,215,60814,2,0,P|173:218|130:251,2,120,2|0|10,3:2|0:0|0:0,0:0:0:0:
273,290,62147,2,0,P|316:302|356:317,1,80,2|10,3:2|0:0,0:0:0:0:
402,374,62814,6,0,P|438:351|441:263,1,120,2|0,3:2|3:0,0:0:0:0:
372,186,63814,1,8,0:0:0:0:
409,115,64147,1,2,3:2:0:0:
339,76,64480,2,0,P|326:42|325:-17,2,80,8|2|8,0:0|3:2|0:0,0:0:0:0:
278,128,65480,6,0,P|230:137|186:150,1,80,2|8,3:2|0:0,0:0:0:0:
150,82,66147,2,0,P|99:53|42:66,1,120,2|4,3:2|3:2,0:0:0:0:
7,181,67147,1,8,0:0:0:0:
73,224,67480,2,0,P|108:216|163:208,1,80,8|8,0:0|0:0,0:0:0:0:
205,272,68147,6,0,P|269:279|305:326,1,120,4|0,3:2|3:0,0:0:0:0:
406,258,69147,1,8,0:0:0:0:
361,191,69480,2,0,P|351:131|355:65,1,120,2|0,3:2|3:0,0:0:0:0:
452,3,70480,1,8,0:0:0:0:
508,59,70814,6,0,L|495:152,1,80,2|8,3:2|0:0,0:0:0:0:
428,178,71480,2,0,P|422:245|461:294,1,120,2|6,3:2|3:2,0:0:0:0:
373,379,72480,1,10,0:0:0:0:
316,322,72814,2,0,P|275:332|231:338,1,80,2|8,3:2|0:0,0:0:0:0:
170,294,73480,6,0,P|157:243|212:187,1,120,6|0,3:2|3:0,0:0:0:0:
317,214,74480,1,8,0:0:0:0:
317,214,74814,1,2,3:2:0:0:
424,159,75314,6,0,P|425:94|418:34,1,120,0|8,3:0|0:0,0:0:0:0:
345,7,76147,2,0,L|255:24,1,80,2|8,3:2|0:0,0:0:0:0:
187,37,76814,1,2,3:2:0:0:
87,103,77314,6,0,B|110:222|51:180|70:298,1,200,6|0,3:2|3:0,0:0:0:0:
144,340,78480,1,8,0:0:0:0:
144,340,78814,1,4,3:2:0:0:
241,384,89814,6,0,L|322:370,1,80,8|0,0:0|3:0,0:0:0:0:
398,354,90480,1,10,0:0:0:0:
453,296,90814,6,0,P|454:241|407:184,1,120,2|0,3:2|3:0,0:0:0:0:
401,111,91647,2,0,P|341:130|279:144,1,120,0|2,3:0|3:2,0:0:0:0:
213,107,92480,1,8,0:0:0:0:
171,175,92814,2,0,P|180:220|183:261,1,80,0|10,3:2|0:0,0:0:0:0:
140,321,93480,6,0,P|94:324|60:346,2,80,2|8|2,3:2|0:0|3:2,0:0:0:0:
290,375,94814,1,4,3:2:0:0:
353,326,95147,2,0,L|449:341,2,80,10|0|10,0:0|3:0|0:0,0:0:0:0:
299,265,96147,6,0,P|288:205|324:149,1,120,2|0,3:2|3:0,0:0:0:0:
393,135,96980,1,0,3:0:0:0:
376,16,97480,2,0,L|293:0,1,80,2|8,3:2|0:0,0:0:0:0:
247,63,98147,2,0,L|168:78,1,80,0|8,3:0|0:0,0:0:0:0:
113,136,98814,6,0,P|78:116|28:113,2,80,2|8|2,3:2|0:0|3:2,0:0:0:0:
147,214,99814,1,8,0:0:0:0:
147,214,100147,1,6,3:2:0:0:
80,257,100480,6,0,P|74:301|65:346,1,80,8|2,0:0|3:2,0:0:0:0:
133,380,101147,1,8,0:0:0:0:
196,331,101480,2,0,P|263:328|312:374,1,120,2|0,3:2|0:0,0:0:0:0:
375,324,102314,1,0,3:0:0:0:
477,261,102814,6,0,L|457:168,1,80,2|8,3:2|0:0,0:0:0:0:
392,139,103480,2,0,L|299:159,1,80,0|8,3:0|0:0,0:0:0:0:
242,118,104147,2,0,P|226:71|231:40,2,80,2|8|2,3:2|0:0|3:2,0:0:0:0:
217,194,105147,6,0,P|233:241|228:272,1,80,10|4,0:0|3:2,0:0:0:0:
181,335,105814,1,8,0:0:0:0:
106,305,106147,1,0,3:2:0:0:
2,233,106814,6,0,P|17:195|12:144,1,80,2|8,3:2|0:0,0:0:0:0:
2,77,107480,2,0,P|41:70|92:57,1,80,0|10,3:0|0:0,0:0:0:0:
155,32,108147,1,2,3:2:0:0:
219,79,108480,1,8,0:0:0:0:
185,151,108814,2,0,P|173:196|185:244,1,80,2|8,3:2|0:0,0:0:0:0:
237,281,109480,5,2,3:2:0:0:
306,240,109814,1,10,0:0:0:0:
374,280,110147,2,0,L|463:302,1,80,0|4,3:2|0:3,0:0:0:0:
508,242,110814,6,0,P|520:197|476:128,1,120,6|10,3:2|0:0,0:0:0:0:
493,14,111814,2,0,P|435:27|369:36,1,120,0|8,3:2|0:0,0:0:0:0:
331,147,112814,6,0,P|273:133|207:125,1,120,2|10,3:2|0:0,0:0:0:0:
107,67,113814,2,0,P|65:130|79:187,1,120,2|8,3:2|0:0,0:0:0:0:
140,268,114814,6,0,B|222:274|179:288|272:295,1,120,4|8,3:2|0:0,0:0:0:0:
345,213,115814,1,0,3:0:0:0:
444,280,116314,1,8,0:0:0:0:
491,169,116814,6,0,P|498:116|514:43,2,120,2|8|2,3:2|0:0|3:2,0:0:0:0:
331,175,118480,5,2,0:0:0:0:
257,143,118813,1,4,3:0:0:0:
185,179,119147,2,0,P|171:228|182:273,1,80,4|0,3:0|3:0,0:0:0:0:
226,317,119813,1,4,3:2:0:0:
86,64,130479,6,0,L|-9:46,2,80,4|8|2,3:2|0:0|3:2,0:0:0:0:
164,80,131479,1,10,0:0:0:0:
227,30,131813,2,0,P|290:84|280:166,1,160,2|2,3:2|3:2,0:0:0:0:
221,202,132813,1,10,0:0:0:0:
236,280,133146,6,0,L|317:296,1,80,2|8,3:2|0:0,0:0:0:0:
473,316,134146,1,10,0:0:0:0:
422,253,134479,2,0,B|396:165|461:188|436:92,1,160,2|8,3:2|0:0,0:0:0:0:
379,44,135479,1,8,0:0:0:0:
315,92,135812,6,0,L|221:78,1,80,6|8,3:2|0:0,0:0:0:0:
165,119,136479,1,2,3:2:0:0:
108,62,136812,1,8,0:0:0:0:
40,104,137146,2,0,P|32:155|37:197,1,80,2|8,3:2|0:0,0:0:0:0:
97,231,137812,2,0,P|105:282|100:324,1,80,2|8,3:2|0:0,0:0:0:0:
152,373,138479,5,2,3:2:0:0:
229,352,138812,1,8,0:0:0:0:
303,322,139146,2,0,P|303:273|286:242,1,80,2|8,3:2|0:0,0:0:0:0:
323,174,139812,2,0,P|362:167|401:158,1,80,2|12,3:2|0:0,0:0:0:0:
478,137,140479,1,8,0:0:0:0:
505,61,140812,1,8,0:0:0:0:
437,17,141146,6,0,B|366:18|394:40|320:42,1,120,14|10,0:0|0:0,0:0:0:0:
244,133,142146,2,0,L|269:254,1,120,10|2,0:0|3:2,0:0:0:0:
368,316,143146,1,0,3:0:0:0:
432,268,143479,1,10,0:0:0:0:
389,200,143812,6,0,P|378:165|377:111,1,80,12|8,0:0|0:0,0:0:0:0:
341,49,144479,2,0,P|295:51|261:80,1,80,8|4,0:3|0:3,0:0:0:0:
235,145,145146,1,8,0:3:0:0:
235,145,145479,2,0,P|201:166|162:165,1,80,12|8,0:0|0:0,0:0:0:0:
102,110,146146,1,8,0:0:0:0:
38,158,146479,6,0,L|61:284,1,120,6|0,3:2|3:0,0:0:0:0:
155,347,147479,1,8,0:0:0:0:
215,294,147812,2,2,P|293:301|325:344,1,120,2|2,3:2|3:0,0:0:0:0:
415,258,148812,1,8,0:0:0:0:
362,197,149146,6,0,P|366:155|373:116,1,80,2|8,3:2|0:0,0:0:0:0:
407,46,149812,2,0,P|483:45|517:83,2,120,2|0|10,3:2|0:0|0:0,0:0:0:0:
333,12,151146,2,0,P|290:24|249:31,1,80,2|10,3:2|0:0,0:0:0:0:
199,87,151812,6,0,B|186:163|228:132|215:216,1,120,2|0,3:2|3:0,0:0:0:0:
319,264,152812,1,8,0:0:0:0:
277,332,153146,2,0,L|190:350,1,80,2|8,3:2|0:0,0:0:0:0:
120,366,153812,1,2,3:2:0:0:
50,325,154146,1,8,0:0:0:0:
78,250,154479,6,0,P|77:207|68:156,1,80,2|8,3:2|0:0,0:0:0:0:
58,91,155146,1,2,3:2:0:0:
151,15,155646,2,0,P|228:26|252:73,1,120,4|8,3:2|0:0,0:0:0:0:
223,133,156479,1,8,0:0:0:0:
266,200,156812,1,8,0:0:0:0:
204,251,157146,6,0,P|198:295|260:343,1,120,4|0,3:2|3:0,0:0:0:0:
367,320,158146,1,8,0:0:0:0:
421,261,158479,2,0,P|408:205|399:129,1,120,2|0,3:2|3:0,0:0:0:0:
450,34,159479,1,8,0:0:0:0:
377,1,159812,6,0,P|332:5|300:35,1,80,2|8,3:2|0:0,0:0:0:0:
233,60,160479,2,0,B|222:136|252:103|242:186,1,120,2|6,3:2|3:2,0:0:0:0:
314,274,161479,1,10,0:0:0:0:
258,331,161812,2,0,B|193:342|193:342|158:372|101:365,1,160,2|6,3:2|3:2,0:0:0:0:
18,282,162979,6,0,P|7:226|41:175,1,120,0|8,3:0|0:0,0:0:0:0:
117,156,163812,1,2,3:2:0:0:
115,36,164312,2,0,P|180:52|243:62,1,120,0|8,3:0|0:0,0:0:0:0:
287,119,165146,6,0,P|327:107|377:98,1,80,2|8,3:2|0:0,0:0:0:0:
442,81,165812,1,2,3:2:0:0:
502,184,166312,2,0,P|515:234|503:301,1,120,4|8,3:2|0:0,0:0:0:0:
433,339,167146,1,8,0:0:0:0:
362,301,167479,1,8,0:0:0:0:
297,347,167812,6,0,L|171:368,1,120,6|0,3:2|3:0,0:0:0:0:
77,302,168812,1,8,0:0:0:0:
112,230,169146,2,0,L|230:210,1,120,2|0,3:2|3:0,0:0:0:0:
332,272,170146,1,8,0:0:0:0:
389,215,170479,6,0,P|424:207|478:201,1,80,2|8,3:2|0:0,0:0:0:0:
510,133,171146,2,0,P|495:71|434:45,2,120,2|0|10,3:2|0:0|0:0,0:0:0:0:
467,201,172479,2,0,L|482:289,1,80,2|10,3:2|0:0,0:0:0:0:
424,337,173146,6,0,P|363:314|292:300,1,120,2|0,3:2|3:0,0:0:0:0:
205,363,174146,1,8,0:0:0:0:
139,317,174479,2,0,L|123:229,1,80,2|8,3:2|0:0,0:0:0:0:
109,159,175146,1,2,3:2:0:0:
37,123,175479,1,8,0:0:0:0:
39,43,175812,6,0,P|72:23|122:25,1,80,2|8,3:2|0:0,0:0:0:0:
182,60,176479,1,2,3:2:0:0:
299,35,176979,2,0,P|286:106|282:162,1,120,4|8,3:2|0:0,0:0:0:0:
214,195,177812,2,0,P|224:242|231:291,1,80,8|8,0:0|0:0,0:0:0:0:
174,332,178479,6,0,P|98:316|81:274,1,120,4|0,3:2|3:0,0:0:0:0:
100,164,179479,1,8,0:0:0:0:
175,191,179812,2,0,L|299:166,1,120,2|0,3:2|3:0,0:0:0:0:
348,61,180812,1,8,0:0:0:0:
422,91,181146,6,0,L|438:181,1,80,2|8,3:2|0:0,0:0:0:0:
452,247,181812,1,2,3:2:0:0:
463,366,182312,2,0,P|415:335|348:348,1,120,6|10,3:2|0:0,0:0:0:0:
298,286,183146,2,0,B|236:293|236:293|215:321|215:321|136:330,1,160,2|6,3:2|3:2,0:0:0:0:
63,247,184312,5,0,3:0:0:0:
134,150,184812,2,0,L|224:166,1,80,10|12,0:0|0:0,0:0:0:0:
332,178,185646,2,0,P|364:129|351:58,1,120,0|10,3:0|0:0,0:0:0:0:
292,23,186479,6,0,L|208:39,1,80,10|10,0:0|0:0,0:0:0:0:
136,58,187146,1,2,3:2:0:0:
55,147,187646,2,0,P|69:210|80:278,1,120,4|8,3:2|0:0,0:0:0:0:
136,318,188479,2,0,P|175:304|221:293,1,80,8|8,0:0|0:0,0:0:0:0:
290,275,189146,1,4,3:2:0:0:
