osu file format v14

[General]
AudioFilename: audio.mp3
AudioLeadIn: 0
PreviewTime: 56730
Countdown: 0
SampleSet: Soft
StackLeniency: 0.7
Mode: 0
LetterboxInBreaks: 0
WidescreenStoryboard: 0

[Editor]
DistanceSpacing: 0.1
BeatDivisor: 4
GridSize: 4
TimelineZoom: 1

[Metadata]
Title:Konpeitou Retrotica
TitleUnicode:金平糖レトロチカ
Artist:ABSOLUTE CASTAWAY
ArtistUnicode:ABSOLUTE CASTAWAY
Creator:Akito
Version:Another
Source:
Tags:shikibe mayu shizuku- kazato asa konpeito confetti retrotica retorochika 中恵 光城 nakae mitsuki noah melty records japanese rock featured artist fa mappers' guild mpg
BeatmapID:3115751
BeatmapSetID:1522511

[Difficulty]
HPDrainRate:6
CircleSize:4
OverallDifficulty:8
ApproachRate:9
SliderMultiplier:1.4
SliderTickRate:1

[Events]
//Background and Video events
0,0,"konpeito.jpg",0,0
//Break Periods
2,79013,88880
2,120013,128879
//Storyboard Layer 0 (Background)
//Storyboard Layer 1 (Fail)
//Storyboard Layer 2 (Pass)
//Storyboard Layer 3 (Foreground)
//Storyboard Layer 4 (Overlay)
//Storyboard Sound Samples

[TimingPoints]
1481,333.333333333333,4,2,1,30,1,0
13814,-100,4,2,1,5,0,0
14147,-100,4,2,1,50,0,0
14814,-83.3333333333333,4,2,1,60,0,0
25814,-83.3333333333333,4,2,1,50,0,0
26480,-100,4,2,1,50,0,0
46814,-90.9090909090909,4,2,1,50,0,0
57480,-76.9230769230769,4,2,1,75,0,0
78814,-76.9230769230769,4,2,1,60,0,0
89480,-100,4,2,1,50,0,0
110814,333.333333333333,3,2,1,50,1,0
110814,-90.9090909090909,3,2,1,50,0,0
119813,333.333333333333,4,2,1,50,1,0
130479,-76.9230769230769,4,2,1,60,0,0
141146,-76.9230769230769,4,2,1,70,0,0
146479,-76.9230769230769,4,2,1,75,0,0
189146,-76.9230769230769,4,2,1,70,0,0

[Colours]
Combo1 : 247,147,147
Combo2 : 210,150,243
Combo3 : 193,249,153
Combo4 : 164,196,249

[HitObjects]
278,312,14147,5,8,0:0:0:0:
254,382,14314,1,8,0:0:0:0:
208,288,14480,1,8,0:0:0:0:
184,358,14647,1,8,0:0:0:0:
292,219,14814,6,0,P|362:199|419:187,1,125.999996154785,4|0,3:2|0:0,0:0:0:0:
414,187,15147,2,0,P|423:140|435:86,1,83.9999974365235,10|0,0:0|3:0,0:0:0:0:
498,293,15480,2,0,P|454:298|409:268,1,83.9999974365235,2|0,3:2|3:0,0:0:0:0:
352,25,15814,2,0,P|344:74|332:124,1,83.9999974365235,10|0,0:0|0:0,0:0:0:0:
200,163,16147,5,2,3:2:0:0:
133,113,16314,1,0,3:0:0:0:
167,40,16480,1,10,0:0:0:0:
233,88,16647,1,0,3:0:0:0:
138,236,16814,2,0,P|51:252|-11:268,1,125.999996154785,2|0,3:2|0:0,0:0:0:0:
14,260,17147,2,0,P|24:214|32:169,1,83.9999974365235,8|0,0:0|0:0,0:0:0:0:
206,307,17480,6,0,P|262:291|350:366,1,167.999994873047,2|10,3:2|0:0,0:0:0:0:
512,197,17980,1,0,3:0:0:0:
407,283,18147,1,2,3:2:0:0:
322,168,18314,1,0,3:0:0:0:
407,283,18480,2,0,P|457:290|504:300,1,83.9999974365235,10|0,0:0|0:0,0:0:0:0:
428,140,18814,5,2,3:2:0:0:
428,140,18980,1,0,3:0:0:0:
511,93,19147,2,0,P|516:51|500:13,1,83.9999974365235,10|0,0:0|0:0,0:0:0:0:
428,140,19480,1,2,3:2:0:0:
428,140,19647,1,0,3:0:0:0:
341,90,19814,2,0,P|299:97|232:111,1,83.9999974365235,10|0,0:0|0:0,0:0:0:0:
348,253,20147,6,0,P|432:235|531:219,1,167.999994873047,6|10,3:2|0:0,0:0:0:0:
289,331,20647,1,0,3:0:0:0:
173,195,20814,1,2,3:2:0:0:
264,172,20980,1,0,3:0:0:0:
195,311,21147,2,0,P|156:291|101:299,1,83.9999974365235,10|0,0:0|0:0,0:0:0:0:
41,359,21480,5,2,3:2:0:0:
41,359,21647,1,0,3:0:0:0:
195,311,21814,2,0,P|186:271|180:219,1,83.9999974365235,10|0,0:0|3:0,0:0:0:0:
66,53,22147,2,0,P|23:108|42:182,1,125.999996154785,2|0,3:2|0:0,0:0:0:0:
28,160,22480,2,0,P|37:200|42:242,1,83.9999974365235,8|0,0:0|0:0,0:0:0:0:
365,183,22814,6,0,B|270:132|291:191|181:134,1,167.999994873047,2|10,3:2|0:0,0:0:0:0:
157,69,23314,1,0,3:0:0:0:
100,227,23480,1,2,3:2:0:0:
178,263,23647,1,0,3:0:0:0:
239,201,23814,1,10,0:0:0:0:
512,124,24147,5,2,3:2:0:0:
448,87,24314,1,0,3:0:0:0:
383,121,24480,1,10,0:0:0:0:
376,195,24647,1,2,0:0:0:0:
443,230,24814,1,2,3:2:0:0:
451,305,24980,1,8,0:0:0:0:
387,342,25147,1,8,0:0:0:0:
325,301,25314,1,8,0:0:0:0:
262,339,25480,5,6,3:2:0:0:
44,153,26480,6,0,P|11:177|22:255,1,105,10|0,0:0|0:0,0:0:0:0:
7,237,26814,1,2,3:2:0:0:
187,360,27814,6,0,L|168:238,1,105,8|0,0:0|0:0,0:0:0:0:
170,256,28147,1,2,3:2:0:0:
307,38,29147,6,0,B|328:62|328:62|313:157,1,105,10|0,0:0|0:0,0:0:0:0:
316,134,29480,1,2,3:2:0:0:
473,340,30147,6,0,P|436:330|382:322,1,70,2|0,3:2|0:0,0:0:0:0:
356,245,30480,2,0,P|319:235|265:227,1,70,10|0,0:0|3:0,0:0:0:0:
232,153,30814,1,4,3:2:0:0:
460,146,31814,6,0,P|493:101|475:42,1,105,10|0,0:0|0:0,0:0:0:0:
485,55,32147,1,2,3:2:0:0:
327,232,33147,6,0,P|334:303|335:365,1,105,8|0,0:0|0:0,0:0:0:0:
335,336,33480,1,2,3:2:0:0:
172,127,34480,6,0,P|186:79|246:65,1,105,8|0,0:0|0:0,0:0:0:0:
234,62,34814,1,2,3:2:0:0:
72,370,35480,5,2,3:2:0:0:
133,292,35647,1,8,0:0:0:0:
133,292,35730,1,8,0:0:0:0:
133,292,35814,2,0,P|89:283|55:273,1,70,8|8,0:0|0:0,0:0:0:0:
275,332,36147,6,0,P|261:248|264:165,2,140,6|8|2,3:2|0:0|3:2,0:0:0:0:
173,218,36980,1,0,3:0:0:0:
343,156,37147,2,0,P|374:99|350:59,1,105,8|0,0:0|0:0,0:0:0:0:
359,66,37480,5,2,3:2:0:0:
268,91,37647,2,0,P|222:98|185:107,1,70,0|8,3:0|0:0,0:0:0:0:
108,184,37980,2,0,P|142:211|193:212,1,70,0|0,0:0|3:0,0:0:0:0:
248,182,38314,1,0,3:0:0:0:
369,281,38480,2,0,P|329:327|272:330,1,105,8|0,0:0|0:0,0:0:0:0:
287,333,38814,6,0,P|278:289|267:248,1,70,2|0,3:2|0:0,0:0:0:0:
193,320,39147,1,8,0:0:0:0:
193,320,39314,1,0,3:0:0:0:
360,188,39480,2,0,P|369:144|380:107,1,70,0|0,3:0|3:0,0:0:0:0:
411,41,39814,1,8,0:0:0:0:
411,41,39980,1,0,3:0:0:0:
251,104,40147,6,0,P|171:70|97:79,1,140,2|8,3:2|0:0,0:0:0:0:
336,62,40814,1,2,3:2:0:0:
251,104,40980,1,0,3:0:0:0:
301,186,41147,2,0,B|313:249|280:231|290:292,1,105,10|0,0:0|0:0,0:0:0:0:
289,288,41480,5,4,3:2:0:0:
71,355,41814,2,0,P|65:320|58:286,1,70,8|0,0:0|3:0,0:0:0:0:
181,187,42147,2,0,P|151:218|105:221,1,70,0|0,3:2|3:0,0:0:0:0:
0,106,42480,2,0,P|57:112|111:134,1,105,8|0,0:0|0:0,0:0:0:0:
101,128,42814,5,2,3:2:0:0:
335,65,43147,2,0,P|301:60|266:53,1,70,8|0,0:0|0:0,0:0:0:0:
186,28,43480,1,0,3:0:0:0:
186,28,43647,1,0,3:0:0:0:
294,179,43814,2,0,P|343:166|407:152,1,105,8|0,0:0|0:0,0:0:0:0:
396,154,44147,6,0,P|429:167|485:183,1,70,2|0,3:2|0:0,0:0:0:0:
512,260,44480,1,8,0:0:0:0:
512,260,44647,1,0,3:0:0:0:
379,249,44814,2,0,P|347:309|370:393,1,140,2|8,3:2|0:0,0:0:0:0:
446,366,45314,1,0,3:0:0:0:
258,296,45480,6,0,P|224:304|177:314,1,70,2|0,3:2|3:0,0:0:0:0:
239,146,45814,2,0,P|263:170|295:207,1,70,10|0,0:0|3:0,0:0:0:0:
115,236,46147,2,0,P|124:202|139:156,1,70,2|0,3:2|3:0,0:0:0:0:
135,169,46397,1,0,3:0:0:0:
135,169,46480,1,10,0:0:0:0:
2,24,46814,6,0,B|99:7|63:52|171:36,1,154.000004699707,6|8,3:2|0:0,0:0:0:0:
234,0,47314,1,0,3:0:0:0:
307,118,47480,2,0,P|274:141|234:145,1,77.0000023498536,0|0,3:2|3:0,0:0:0:0:
320,33,47814,1,10,0:0:0:0:
320,33,47980,1,0,0:0:0:0:
486,146,48147,5,2,3:2:0:0:
390,172,48314,2,0,P|397:135|399:87,1,77.0000023498536,0|8,3:0|0:0,0:0:0:0:
506,239,48647,2,0,P|459:244|410:273,1,77.0000023498536,0|0,3:0|0:0,0:0:0:0:
338,383,48980,1,0,3:0:0:0:
350,296,49147,1,10,0:0:0:0:
420,349,49314,1,0,0:0:0:0:
224,298,49480,6,0,P|234:221|229:133,1,154.000004699707,2|8,3:2|0:0,0:0:0:0:
317,123,49980,1,0,3:0:0:0:
179,68,50147,2,0,P|141:78|107:125,1,77.0000023498536,0|0,3:0|3:0,0:0:0:0:
145,189,50480,1,8,0:0:0:0:
145,189,50647,1,0,3:0:0:0:
305,218,50814,6,0,P|342:210|382:196,1,77.0000023498536,2|0,3:2|0:0,0:0:0:0:
330,366,51147,2,0,P|304:337|272:309,1,77.0000023498536,10|0,0:0|0:0,0:0:0:0:
453,266,51480,2,0,P|440:302|432:343,1,77.0000023498536,2|0,3:2|3:0,0:0:0:0:
379,197,51814,2,0,P|357:151|361:76,1,115.50000352478,8|0,0:0|0:0,0:0:0:0:
357,87,52147,6,0,B|448:37|428:103|521:47,1,154.000004699707,6|8,3:2|0:0,0:0:0:0:
283,30,52647,1,0,3:0:0:0:
253,170,52814,2,0,P|275:216|271:291,1,115.50000352478,0|0,3:0|0:0,0:0:0:0:
274,279,53147,2,0,P|235:285|186:296,1,77.0000023498536,8|0,0:0|3:0,0:0:0:0:
10,214,53480,5,2,3:2:0:0:
78,151,53647,2,0,P|115:159|153:164,1,77.0000023498536,0|8,3:0|0:0,0:0:0:0:
104,327,53980,2,0,P|109:283|103:240,1,77.0000023498536,0|0,0:0|3:0,0:0:0:0:
215,340,54314,1,0,3:0:0:0:
302,216,54480,1,10,0:0:0:0:
194,330,54647,1,0,0:0:0:0:
163,177,54814,6,0,P|158:133|164:90,1,77.0000023498536,2|0,3:2|0:0,0:0:0:0:
94,44,55147,1,8,0:0:0:0:
250,136,55314,1,0,3:0:0:0:
332,91,55480,2,0,P|392:102|415:161,1,115.50000352478,2|0,3:2|0:0,0:0:0:0:
250,136,55814,2,0,P|229:78|269:29,1,115.50000352478,8|0,0:0|0:0,0:0:0:0:
336,188,56147,5,0,3:0:0:0:
336,188,56314,1,0,3:0:0:0:
336,188,56480,1,12,0:0:0:0:
450,316,56814,5,8,0:3:0:0:
414,318,56897,1,0,3:0:0:0:
381,324,56980,1,0,3:0:0:0:
349,334,57064,1,0,3:0:0:0:
313,371,57147,5,8,0:0:0:0:
281,361,57231,1,8,0:0:0:0:
248,355,57314,1,8,0:0:0:0:
212,353,57397,1,8,0:0:0:0:
186,313,57480,6,0,P|204:226|219:132,1,181.999991668702,6|8,3:2|0:0,0:0:0:0:
50,16,57980,1,0,3:0:0:0:
50,16,58064,1,8,0:0:0:0:
50,16,58147,2,0,P|34:64|23:123,1,90.9999958343508,2|0,3:2|3:0,0:0:0:0:
231,34,58480,1,8,0:0:0:0:
106,155,58647,1,0,3:0:0:0:
287,233,58814,6,0,B|266:155|321:180|302:102,1,136.499993751526,2|0,3:2|0:0,0:0:0:0:
302,102,59147,1,8,0:0:0:0:
394,261,59314,2,0,P|313:272|180:299,1,181.999991668702,0|0,3:0|3:0,0:0:0:0:
26,194,59814,1,8,0:0:0:0:
154,361,59980,1,0,0:0:0:0:
231,159,60147,6,0,P|186:151|128:137,1,90.9999958343508,2|0,3:2|0:0,0:0:0:0:
470,55,60480,2,0,P|425:47|367:33,1,90.9999958343508,8|0,0:0|0:0,0:0:0:0:
483,279,60814,2,0,P|438:271|380:257,1,90.9999958343508,2|0,3:2|3:0,0:0:0:0:
359,149,61147,1,8,0:0:0:0:
210,312,61314,5,0,3:0:0:0:
295,366,61480,2,0,P|304:324|299:274,1,90.9999958343508,2|0,3:2|0:0,0:0:0:0:
299,276,61730,1,2,0:0:0:0:
299,276,61814,1,10,0:0:0:0:
231,159,61980,1,0,0:0:0:0:
27,272,62147,5,2,3:2:0:0:
107,290,62314,1,0,3:0:0:0:
125,210,62480,1,10,0:0:0:0:
45,192,62647,1,0,0:0:0:0:
231,159,62814,6,0,P|265:106|243:12,1,136.499993751526,2|0,3:2|0:0,0:0:0:0:
258,35,63147,1,8,0:0:0:0:
176,0,63314,1,0,3:0:0:0:
121,78,63480,1,2,3:2:0:0:
399,128,63814,5,8,0:0:0:0:
482,105,63980,1,0,0:0:0:0:
359,323,64147,6,0,P|315:309|271:299,1,90.9999958343508,2|0,3:2|3:0,0:0:0:0:
477,238,64480,1,8,0:0:0:0:
477,238,64564,1,0,3:0:0:0:
512,384,64730,1,0,1:0:0:0:
512,384,64814,1,2,3:2:0:0:
447,317,64980,1,0,3:0:0:0:
271,299,65147,2,0,P|227:312|183:322,1,90.9999958343508,8|0,0:0|0:0,0:0:0:0:
360,213,65480,6,0,P|368:167|362:115,1,90.9999958343508,2|0,3:2|0:0,0:0:0:0:
149,23,65814,2,0,P|141:69|147:121,1,90.9999958343508,8|0,0:0|0:0,0:0:0:0:
432,23,66147,2,0,B|317:-8|365:55|225:16,1,181.999991668702,2|8,3:2|0:0,0:0:0:0:
209,286,66647,5,4,3:2:0:0:
257,149,66814,1,0,0:0:0:0:
119,114,66980,1,0,3:0:0:0:
47,262,67147,5,8,0:0:0:0:
126,220,67314,1,0,3:0:0:0:
222,384,67480,2,0,P|180:370|115:355,1,90.9999958343508,8|0,0:0|3:0,0:0:0:0:
401,313,67814,5,8,0:0:0:0:
379,289,67897,1,8,0:0:0:0:
373,256,67980,1,8,0:0:0:0:
381,223,68064,1,8,0:0:0:0:
405,201,68147,2,0,P|436:140|344:84,1,181.999991668702,4|8,3:2|0:0,0:0:0:0:
137,134,68647,2,0,B|256:113|203:179|328:156,1,181.999991668702,0|0,3:0|3:0,0:0:0:0:
175,217,69147,5,8,0:0:0:0:
90,259,69314,1,0,0:0:0:0:
175,217,69480,2,0,P|225:272|209:336,1,136.499993751526,2|0,3:2|0:0,0:0:0:0:
215,328,69814,1,8,0:0:0:0:
125,356,69980,1,0,3:0:0:0:
125,356,70064,1,8,0:0:0:0:
125,356,70147,2,0,P|80:364|36:375,1,90.9999958343508,2|0,3:2|3:0,0:0:0:0:
219,332,70480,1,8,0:0:0:0:
90,259,70647,1,0,0:0:0:0:
255,152,70814,6,0,B|277:69|222:99|244:13,1,136.499993751526,2|0,3:2|0:0,0:0:0:0:
242,20,71147,2,0,P|217:78|125:49,1,136.499993751526,8|0,0:0|0:0,0:0:0:0:
117,12,71480,1,2,3:2:0:0:
251,148,71647,1,0,3:0:0:0:
278,149,71730,1,0,3:0:0:0:
302,158,71814,1,8,0:0:0:0:
415,65,71980,6,0,P|397:153|392:252,1,181.999991668702,6|0,3:2|3:0,0:0:0:0:
324,73,72480,1,10,0:0:0:0:
485,171,72647,1,2,0:0:0:0:
306,279,72814,5,2,3:2:0:0:
391,244,72980,1,2,3:2:0:0:
434,325,73147,1,10,0:0:0:0:
134,360,73480,6,0,P|140:297|137:207,1,136.499993751526,6|0,3:2|0:0,0:0:0:0:
139,224,73814,1,8,0:0:0:0:
91,155,73980,1,0,3:0:0:0:
5,181,74147,1,2,3:2:0:0:
55,256,74314,1,0,3:0:0:0:
91,155,74480,2,0,P|81:113|74:58,1,90.9999958343508,8|0,0:0|0:0,0:0:0:0:
233,251,74814,6,0,B|346:239|305:297|422:286,1,181.999991668702,2|8,3:2|0:0,0:0:0:0:
269,339,75314,1,0,3:0:0:0:
269,339,75397,1,8,0:0:0:0:
269,339,75480,1,2,3:2:0:0:
383,192,75647,1,0,3:0:0:0:
305,146,75814,2,0,P|294:79|330:6,1,136.499993751526,8|0,0:0|0:0,0:0:0:0:
319,17,76147,6,0,B|280:44|280:44|226:-4|146:-1,1,181.999991668702,2|8,3:2|0:0,0:0:0:0:
510,111,76814,5,2,3:2:0:0:
498,20,76980,1,0,3:0:0:0:
423,75,77147,1,8,0:0:0:0:
464,233,77314,6,0,P|416:239|347:252,1,90.9999958343508,6|0,3:2|0:0,0:0:0:0:
305,193,77647,1,0,3:0:0:0:
434,327,77814,1,8,0:0:0:0:
305,193,77980,1,0,3:0:0:0:
240,363,78147,1,8,0:0:0:0:
331,292,78314,1,8,2:0:0:0:
308,287,78397,1,8,0:0:0:0:
285,282,78480,1,8,0:0:0:0:
140,343,78647,1,8,0:0:0:0:
117,338,78730,1,8,0:0:0:0:
94,333,78813,1,4,3:2:0:0:
469,324,89480,6,0,P|401:337|329:357,2,140,6|8|0,3:2|0:0|3:0,0:0:0:0:
299,268,90313,1,0,3:0:0:0:
402,142,90480,2,0,P|438:190|433:242,1,105,10|0,0:0|0:0,0:0:0:0:
437,232,90813,5,2,3:2:0:0:
313,179,90980,2,0,P|267:172|230:163,1,70,0|8,3:0|0:0,0:0:0:0:
338,19,91314,2,0,P|330:53|325:87,1,70,0|0,3:0|0:0,0:0:0:0:
418,55,91647,1,0,3:0:0:0:
237,74,91814,2,0,P|185:90|121:104,1,105,8|0,0:0|0:0,0:0:0:0:
135,101,92147,6,0,P|143:134|150:169,1,70,2|0,3:2|0:0,0:0:0:0:
95,245,92480,1,8,0:0:0:0:
95,245,92647,1,0,3:0:0:0:
232,227,92814,2,0,P|225:261|216:295,1,70,0|0,3:2|3:0,0:0:0:0:
283,366,93147,1,10,0:0:0:0:
283,366,93313,1,0,0:0:0:0:
132,323,93480,6,0,P|48:340|26:404,1,140,2|8,3:2|0:0,0:0:0:0:
86,166,94147,1,2,3:2:0:0:
2,213,94313,1,0,3:0:0:0:
86,166,94480,2,0,B|148:172|129:187|196:191,1,105,10|0,0:0|0:0,0:0:0:0:
187,190,94813,5,4,3:2:0:0:
334,12,95147,2,0,P|368:6|402:0,1,70,10|0,0:0|0:0,0:0:0:0:
266,131,95480,2,0,P|255:100|256:52,1,70,0|0,3:0|3:0,0:0:0:0:
364,104,95813,2,0,P|363:165|341:219,1,105,10|0,0:0|0:0,0:0:0:0:
348,205,96147,5,2,3:2:0:0:
422,267,96314,2,0,P|461:258|509:251,1,70,0|8,3:0|0:0,0:0:0:0:
384,354,96647,2,0,P|351:337|299:343,1,70,0|0,3:0|3:0,0:0:0:0:
149,236,96980,1,0,3:0:0:0:
219,362,97147,2,0,P|230:310|243:260,1,105,8|0,0:0|0:0,0:0:0:0:
243,260,97480,6,0,P|237:224|234:166,1,70,2|0,3:2|0:0,0:0:0:0:
304,123,97813,1,8,0:0:0:0:
304,123,97980,1,0,3:0:0:0:
194,20,98147,2,0,P|148:78|171:162,1,140,0|8,3:0|0:0,0:0:0:0:
240,187,98647,1,0,0:0:0:0:
128,364,98813,6,0,P|90:372|50:382,1,70,2|8,3:2|0:0,0:0:0:0:
116,218,99147,2,0,P|138:246|172:279,1,70,8|0,0:0|0:0,0:0:0:0:
0,303,99480,2,0,P|12:271|24:223,1,70,2|8,3:2|0:0,0:0:0:0:
21,236,99730,1,8,0:0:0:0:
21,236,99813,1,8,0:0:0:0:
82,297,99980,1,8,0:0:0:0:
240,187,100147,5,6,3:2:0:0:
240,187,100480,2,0,P|317:199|388:215,1,140,8|2,0:0|3:2,0:0:0:0:
465,229,100980,1,0,3:0:0:0:
332,106,101147,2,0,B|321:47|357:64|344:5,1,105,8|0,0:0|0:0,0:0:0:0:
343,4,101480,5,2,3:2:0:0:
435,125,101647,2,0,P|469:115|502:108,1,70,0|8,3:0|0:0,0:0:0:0:
363,202,101980,2,0,P|365:243|358:272,1,70,0|0,0:0|3:0,0:0:0:0:
426,328,102314,1,0,3:0:0:0:
280,312,102480,2,0,P|212:311|183:336,1,105,8|0,0:0|0:0,0:0:0:0:
185,332,102814,6,0,P|176:288|165:247,1,70,2|0,3:2|0:0,0:0:0:0:
89,316,103147,1,8,0:0:0:0:
89,316,103314,1,0,3:0:0:0:
234,188,103480,2,0,P|225:154|218:119,1,70,0|0,3:0|3:0,0:0:0:0:
316,126,103814,1,8,0:0:0:0:
316,126,103980,1,0,3:0:0:0:
129,167,104147,6,0,P|83:128|104:52,1,140,2|8,3:2|0:0,0:0:0:0:
316,126,104814,1,2,3:2:0:0:
248,67,104980,1,0,3:0:0:0:
270,209,105147,2,0,B|282:272|249:254|259:315,1,105,10|0,0:0|0:0,0:0:0:0:
258,311,105480,5,4,3:2:0:0:
444,303,105814,2,0,P|478:308|512:315,1,70,8|0,0:0|3:0,0:0:0:0:
388,224,106147,2,0,P|395:189|400:155,1,70,0|0,3:2|3:0,0:0:0:0:
472,37,106480,2,0,P|501:75|491:140,1,105,8|0,0:0|0:0,0:0:0:0:
497,129,106814,5,2,3:2:0:0:
312,68,107147,2,0,P|276:82|237:90,1,70,8|0,0:0|3:0,0:0:0:0:
165,45,107480,1,0,3:0:0:0:
165,45,107647,1,0,3:0:0:0:
307,170,107814,2,0,B|317:228|286:217|296:275,1,105,10|0,0:0|0:0,0:0:0:0:
295,272,108147,6,0,P|332:282|384:301,1,70,2|0,3:2|0:0,0:0:0:0:
446,245,108480,1,8,0:0:0:0:
446,245,108647,1,0,3:0:0:0:
289,365,108814,2,0,B|216:351|232:393|145:377,1,140,2|8,3:2|0:0,0:0:0:0:
96,309,109314,1,0,3:0:0:0:
219,212,109480,6,0,P|225:180|234:143,1,70,2|0,3:2|3:0,0:0:0:0:
172,63,109814,1,10,0:0:0:0:
79,163,109980,1,8,0:3:0:0:
107,158,110064,1,8,0:3:0:0:
133,152,110147,1,0,3:2:0:0:
268,54,110314,1,0,3:0:0:0:
311,39,110397,1,0,3:0:0:0:
355,51,110480,1,4,0:3:0:0:
384,86,110563,1,4,0:3:0:0:
413,121,110647,1,4,3:3:0:0:
457,133,110730,1,4,0:3:0:0:
501,119,110814,6,0,P|451:161|469:253,1,154.000004699707,6|0,3:2|3:0,0:0:0:0:
312,368,111314,2,0,P|365:317|353:244,1,154.000004699707,10|2,0:0|3:2,0:0:0:0:
201,150,111814,5,0,3:2:0:0:
137,226,111980,2,0,P|174:233|211:246,1,77.0000023498536,0|0,3:0|0:0,0:0:0:0:
77,319,112314,2,0,P|47:252|58:144,1,154.000004699707,8|0,0:0|3:0,0:0:0:0:
216,34,112814,6,0,P|257:72|329:63,1,115.50000352478,2|0,3:2|0:0,0:0:0:0:
313,71,113147,1,0,3:0:0:0:
201,150,113314,2,0,P|184:186|193:238,1,77.0000023498536,10|0,0:0|0:0,0:0:0:0:
267,273,113647,1,0,3:0:0:0:
422,212,113814,5,2,3:2:0:0:
436,307,113980,2,0,P|400:296|342:287,1,77.0000023498536,8|0,0:0|3:0,0:0:0:0:
512,250,114314,2,0,P|517:178|471:93,1,154.000004699707,8|4,0:0|0:3,0:0:0:0:
297,183,114814,6,0,B|204:168|237:212|143:197,1,154.000004699707,4|0,3:2|3:0,0:0:0:0:
89,36,115314,2,0,P|170:44|175:117,1,154.000004699707,8|2,0:0|3:2,0:0:0:0:
0,263,115814,1,0,3:0:0:0:
82,215,115980,2,0,P|138:230|223:249,1,115.50000352478,8|0,0:0|0:0,0:0:0:0:
194,243,116314,2,0,P|212:279|202:333,1,77.0000023498536,8|0,0:0|0:0,0:0:0:0:
341,378,116647,5,0,3:0:0:0:
412,327,116814,2,0,B|435:229|368:278|392:164,1,154.000004699707,2|0,3:2|3:0,0:0:0:0:
512,45,117314,2,0,P|467:86|398:76,1,115.50000352478,8|0,0:0|0:0,0:0:0:0:
415,85,117647,1,8,0:0:0:0:
179,8,117814,5,2,3:2:0:0:
308,88,117980,1,8,0:0:0:0:
235,212,118147,1,0,3:0:0:0:
87,148,118313,5,8,0:3:0:0:
87,148,118397,1,4,0:3:0:0:
87,148,118480,1,4,0:3:0:0:
177,119,118647,1,4,0:3:0:0:
0,88,118813,5,4,3:0:0:0:
77,246,118980,2,0,P|68:288|61:332,1,77.0000023498536,4|4,3:0|3:0,0:0:0:0:
177,119,119313,1,8,0:3:0:0:
133,34,119480,1,0,3:0:0:0:
226,207,119813,5,4,3:2:0:0:
419,40,129479,5,0,3:0:0:0:
402,112,129812,1,8,0:3:0:0:
474,89,130146,1,4,0:3:0:0:
144,295,130479,6,0,P|127:202|135:97,2,181.999991668702,4|8|2,3:2|0:0|3:2,0:0:0:0:
86,343,131313,1,0,3:0:0:0:
199,192,131479,1,10,0:0:0:0:
20,170,131646,1,2,0:0:0:0:
218,315,131813,6,0,P|267:304|321:297,1,90.9999958343508,2|0,3:2|0:0,0:0:0:0:
379,66,132146,2,0,P|278:65|290:146,1,181.999991668702,8|2,0:0|3:2,0:0:0:0:
464,195,132646,1,0,3:0:0:0:
381,245,132813,2,0,B|370:200|370:200|380:135,1,90.9999958343508,10|0,0:0|0:0,0:0:0:0:
512,346,133146,6,0,B|383:329|462:382|316:365,1,181.999991668702,2|8,3:2|0:0,0:0:0:0:
262,307,133646,1,0,0:0:0:0:
468,199,133813,2,0,B|498:174|498:174|498:111|441:89,1,136.499993751526,2|0,3:2|0:0,0:0:0:0:
453,94,134146,2,0,P|408:102|363:108,1,90.9999958343508,10|0,0:0|0:0,0:0:0:0:
169,233,134479,6,0,P|257:218|368:206,1,181.999991668702,2|8,3:2|0:0,0:0:0:0:
132,150,134979,1,0,3:0:0:0:
41,299,135146,1,8,0:0:0:0:
132,150,135312,1,0,3:0:0:0:
42,96,135479,2,0,B|-6:106|-6:106|29:82,1,90.9999958343508,8|8,0:0|0:0,0:0:0:0:
253,29,135812,6,0,B|294:136|207:96|243:209,1,181.999991668702,6|8,3:2|0:0,0:0:0:0:
319,250,136312,1,0,0:0:0:0:
482,135,136479,2,0,B|434:124|434:124|410:96|410:96|357:83,1,136.499993751526,2|0,3:2|0:0,0:0:0:0:
361,83,136812,1,8,0:0:0:0:
409,217,136979,1,0,0:0:0:0:
229,354,137146,6,0,B|207:318|207:318|236:215,1,136.499993751526,2|0,3:2|0:0,0:0:0:0:
232,227,137479,2,0,B|272:236|272:236|275:240|275:240|338:254,1,90.9999958343508,8|0,0:0|0:0,0:0:0:0:
205,83,137812,2,0,P|122:124|147:216,1,181.999991668702,2|8,3:2|0:0,0:0:0:0:
284,143,138312,1,0,3:0:0:0:
335,61,138479,6,0,B|450:38|411:92|512:74,1,181.999991668702,2|8,3:2|0:0,0:0:0:0:
411,9,138979,1,0,0:0:0:0:
483,209,139146,2,0,P|498:142|404:125,1,181.999991668702,2|8,3:2|0:0,0:0:0:0:
501,304,139646,1,0,3:0:0:0:
336,210,139812,5,2,3:2:0:0:
365,304,139979,1,0,3:0:0:0:
222,345,140146,1,12,0:0:0:0:
193,251,140313,1,2,3:2:0:0:
307,379,140479,5,8,0:0:0:0:
99,247,140646,1,0,3:0:0:0:
99,247,140729,1,0,3:0:0:0:
99,247,140812,1,8,0:0:0:0:
317,132,140979,1,2,0:0:0:0:
279,276,141146,5,14,0:0:0:0:
193,251,141312,1,0,3:0:0:0:
190,161,141479,1,0,3:0:0:0:
84,83,141646,5,10,0:0:0:0:
0,60,141812,1,0,3:0:0:0:
0,60,141979,1,0,3:0:0:0:
202,32,142146,5,10,0:0:0:0:
286,55,142312,1,0,3:0:0:0:
403,118,142479,5,14,0:0:0:0:
487,95,142645,1,2,3:2:0:0:
510,179,142812,1,0,3:0:0:0:
426,202,142979,1,8,0:0:0:0:
512,333,143146,5,0,3:0:0:0:
428,310,143313,1,0,3:0:0:0:
344,333,143479,1,10,0:0:0:0:
260,310,143646,1,0,3:0:0:0:
326,201,143812,5,12,0:0:0:0:
258,141,143979,1,8,0:0:0:0:
213,136,144062,1,8,0:0:0:0:
171,152,144145,1,8,0:0:0:0:
140,185,144229,1,8,0:0:0:0:
128,229,144312,1,8,0:0:0:0:
176,301,144479,1,8,0:3:0:0:
240,225,144646,1,8,0:3:0:0:
160,63,144812,1,4,0:3:0:0:
0,152,144979,5,4,0:3:0:0:
0,152,145062,1,4,0:3:0:0:
0,152,145146,1,8,0:3:0:0:
512,95,145479,1,12,0:0:0:0:
469,338,145812,5,8,0:0:0:0:
439,303,145895,1,8,0:0:0:0:
397,290,145978,1,8,0:0:0:0:
353,301,146062,1,8,0:0:0:0:
330,348,146146,5,8,0:0:0:0:
286,358,146230,1,8,0:0:0:0:
243,345,146313,1,8,0:0:0:0:
214,311,146396,1,8,0:0:0:0:
238,262,146478,6,0,P|256:175|240:83,1,181.999991668702,6|8,3:2|0:0,0:0:0:0:
375,171,146978,1,0,3:0:0:0:
375,171,147062,1,8,0:0:0:0:
375,171,147145,2,0,P|325:187|271:180,1,90.9999958343508,2|0,3:2|3:0,0:0:0:0:
225,144,147478,1,8,0:0:0:0:
309,8,147645,1,0,3:0:0:0:
225,144,147812,6,0,P|170:141|129:71,1,136.499993751526,2|0,3:2|0:0,0:0:0:0:
129,77,148145,1,8,0:0:0:0:
34,271,148312,2,0,P|123:253|213:241,1,181.999991668702,0|0,3:0|3:0,0:0:0:0:
71,171,148812,1,8,0:0:0:0:
198,336,148978,1,0,0:0:0:0:
225,144,149145,6,0,P|233:99|247:41,1,90.9999958343508,2|0,3:2|0:0,0:0:0:0:
383,273,149479,2,0,P|338:262|293:254,1,90.9999958343508,8|0,0:0|0:0,0:0:0:0:
509,111,149812,2,0,P|498:155|490:200,1,90.9999958343508,2|0,3:2|3:0,0:0:0:0:
473,286,150145,1,8,0:0:0:0:
357,170,150312,5,0,0:0:0:0:
211,326,150479,2,0,P|195:285|202:234,1,90.9999958343508,2|0,3:2|0:0,0:0:0:0:
200,239,150728,1,2,0:0:0:0:
200,239,150812,1,10,0:0:0:0:
265,170,150978,1,0,0:0:0:0:
160,74,151145,5,2,3:2:0:0:
80,56,151312,1,0,3:0:0:0:
62,136,151478,1,10,0:0:0:0:
142,154,151645,1,0,0:0:0:0:
288,37,151812,6,0,B|364:34|343:60|421:56,1,136.499993751526,2|0,3:2|0:0,0:0:0:0:
421,55,152145,1,8,0:0:0:0:
311,126,152312,1,0,3:0:0:0:
203,0,152478,1,2,3:2:0:0:
440,261,152812,5,8,0:0:0:0:
417,178,152978,1,0,0:0:0:0:
368,316,153145,2,0,P|324:302|280:292,1,90.9999958343508,2|0,3:2|0:0,0:0:0:0:
196,282,153478,1,8,0:0:0:0:
196,282,153562,1,0,3:0:0:0:
341,227,153728,1,8,0:0:0:0:
341,227,153812,1,2,3:2:0:0:
132,148,153978,1,0,3:0:0:0:
216,100,154145,2,0,P|225:152|214:221,1,90.9999958343508,8|0,0:0|0:0,0:0:0:0:
4,269,154479,6,0,P|47:258|116:247,1,90.9999958343508,2|0,3:2|0:0,0:0:0:0:
304,119,154812,2,0,P|259:111|215:99,1,90.9999958343508,8|0,0:0|0:0,0:0:0:0:
256,290,155145,2,0,P|340:305|389:234,1,181.999991668702,2|8,3:2|0:0,0:0:0:0:
230,195,155645,5,4,3:2:0:0:
385,70,155812,1,0,0:0:0:0:
230,195,155978,1,0,3:0:0:0:
197,19,156145,5,8,0:0:0:0:
268,79,156312,1,0,3:0:0:0:
154,251,156479,5,8,0:0:0:0:
154,251,156646,2,0,L|172:317,1,45.4999979171754,0|0,3:0|3:0,0:0:0:0:
321,384,156812,5,8,0:0:0:0:
353,357,156895,1,8,0:0:0:0:
372,319,156978,1,8,0:0:0:0:
373,276,157062,1,8,0:0:0:0:
355,237,157146,2,0,B|328:129|411:164|382:54,1,181.999991668702,4|8,3:2|0:0,0:0:0:0:
466,179,157646,2,0,P|418:153|363:149,1,90.9999958343508,0|2,3:0|3:2,0:0:0:0:
305,159,157979,1,0,3:0:0:0:
56,52,158145,5,8,0:0:0:0:
124,0,158312,1,0,0:0:0:0:
194,50,158479,2,0,B|209:129|159:94|172:182,1,136.499993751526,2|0,3:2|0:0,0:0:0:0:
171,179,158812,1,8,0:0:0:0:
294,60,158978,1,0,3:0:0:0:
294,60,159062,1,8,0:0:0:0:
294,60,159145,2,0,P|338:71|382:78,1,90.9999958343508,2|0,3:2|3:0,0:0:0:0:
421,264,159478,1,8,0:0:0:0:
275,153,159645,1,0,0:0:0:0:
171,281,159812,6,0,P|240:263|308:251,1,136.499993751526,2|0,3:2|0:0,0:0:0:0:
304,251,160145,2,0,P|331:288|313:351,1,90.9999958343508,8|0,0:0|0:0,0:0:0:0:
248,354,160478,1,2,3:2:0:0:
377,181,160645,1,0,3:0:0:0:
400,174,160728,1,0,3:0:0:0:
425,167,160812,1,8,0:0:0:0:
465,77,160978,6,0,P|410:20|314:41,1,181.999991668702,6|0,3:2|3:0,0:0:0:0:
304,251,161478,1,10,0:0:0:0:
316,38,161645,1,0,0:0:0:0:
425,167,161812,5,2,3:2:0:0:
231,308,162062,1,10,0:0:0:0:
64,135,162312,1,10,0:2:0:0:
156,112,162479,6,0,B|232:109|211:135|289:131,1,136.499993751526,6|0,3:2|0:0,0:0:0:0:
289,130,162812,1,8,0:0:0:0:
377,96,162979,1,0,3:0:0:0:
507,205,163146,5,2,3:2:0:0:
439,328,163312,1,0,3:0:0:0:
316,260,163479,2,0,P|270:273|215:285,1,90.9999958343508,8|0,0:0|0:0,0:0:0:0:
401,192,163812,6,0,B|372:83|454:133|427:22,1,181.999991668702,2|8,3:2|0:0,0:0:0:0:
338,0,164312,1,0,3:0:0:0:
338,0,164395,1,8,0:0:0:0:
338,0,164478,1,2,3:2:0:0:
498,145,164645,1,0,3:0:0:0:
316,260,164812,2,0,P|245:245|167:235,1,136.499993751526,8|0,0:0|0:0,0:0:0:0:
181,236,165145,6,0,P|180:166|297:173,2,181.999991668702,2|8|2,3:2|0:0|3:2,0:0:0:0:
365,340,165978,1,0,3:0:0:0:
312,256,166145,1,8,0:0:0:0:
155,328,166312,6,0,P|107:334|38:347,1,90.9999958343508,4|0,3:2|0:0,0:0:0:0:
275,380,166645,1,0,3:0:0:0:
90,245,166812,1,8,0:0:0:0:
251,102,166979,5,0,3:0:0:0:
293,86,167062,1,0,3:0:0:0:
338,100,167145,1,8,0:0:0:0:
365,137,167229,1,8,0:0:0:0:
391,175,167313,1,8,0:0:0:0:
435,189,167396,1,8,0:0:0:0:
480,175,167479,5,8,0:0:0:0:
426,152,167562,1,8,0:0:0:0:
368,161,167645,1,8,0:0:0:0:
325,200,167729,1,8,0:0:0:0:
312,256,167812,6,0,P|380:271|459:293,1,136.499993751526,6|0,3:2|0:0,0:0:0:0:
444,288,168146,1,8,0:0:0:0:
324,360,168312,1,0,3:0:0:0:
324,360,168396,1,8,0:0:0:0:
324,360,168479,2,0,P|276:345|217:334,1,90.9999958343508,2|0,3:2|3:0,0:0:0:0:
148,322,168812,1,8,0:0:0:0:
327,202,168979,1,0,0:0:0:0:
197,84,169146,6,0,P|174:153|182:215,1,136.499993751526,2|0,3:2|0:0,0:0:0:0:
182,215,169479,1,8,0:0:0:0:
32,365,169646,2,0,P|40:270|13:182,1,181.999991668702,0|0,3:0|0:0,0:0:0:0:
73,110,170146,1,8,0:0:0:0:
73,110,170312,1,0,0:0:0:0:
186,219,170479,6,0,P|237:223|278:192,1,90.9999958343508,2|0,3:2|0:0,0:0:0:0:
373,9,170812,2,0,P|344:51|350:102,1,90.9999958343508,8|0,0:0|0:0,0:0:0:0:
466,273,171146,2,0,P|443:226|396:206,1,90.9999958343508,2|0,3:2|3:0,0:0:0:0:
332,254,171479,1,8,0:0:0:0:
490,147,171646,5,0,0:0:0:0:
414,91,171812,2,0,P|368:104|323:112,1,90.9999958343508,2|0,3:2|0:0,0:0:0:0:
325,111,172062,1,2,3:2:0:0:
325,111,172146,1,10,0:0:0:0:
345,16,172312,1,0,0:0:0:0:
408,194,172479,5,2,3:2:0:0:
218,129,172646,1,0,3:0:0:0:
408,194,172812,1,10,0:0:0:0:
243,317,172979,1,0,0:0:0:0:
180,250,173146,6,0,B|87:240|132:272|36:262,1,136.499993751526,2|0,3:2|0:0,0:0:0:0:
46,262,173479,1,8,0:0:0:0:
0,190,173646,1,0,3:0:0:0:
67,131,173812,1,2,3:2:0:0:
269,11,174146,5,8,0:0:0:0:
230,93,174312,1,0,0:0:0:0:
301,150,174479,2,0,P|344:136|388:126,1,90.9999958343508,2|0,3:2|0:0,0:0:0:0:
474,170,174812,1,8,0:0:0:0:
474,170,174896,1,0,3:0:0:0:
425,252,175062,1,8,0:0:0:0:
425,252,175146,1,2,3:2:0:0:
333,235,175312,1,0,3:0:0:0:
266,296,175479,2,0,P|222:282|178:272,1,90.9999958343508,8|0,0:0|0:0,0:0:0:0:
339,26,175812,6,0,P|351:72|345:124,1,90.9999958343508,2|0,3:2|0:0,0:0:0:0:
133,183,176146,2,0,P|121:139|124:94,1,90.9999958343508,8|0,0:0|0:0,0:0:0:0:
234,72,176479,1,2,3:2:0:0:
234,72,176646,1,0,3:0:0:0:
234,72,176812,1,8,0:0:0:0:
81,256,176979,5,4,3:2:0:0:
221,160,177146,1,0,0:0:0:0:
68,87,177312,1,0,3:0:0:0:
179,250,177479,5,8,0:0:0:0:
309,129,177646,1,0,3:0:0:0:
357,297,177812,2,0,P|315:283|250:268,1,90.9999958343508,8|0,0:0|3:0,0:0:0:0:
442,120,178146,5,8,0:0:0:0:
458,90,178229,1,8,0:0:0:0:
458,56,178312,1,8,0:0:0:0:
443,26,178396,1,8,0:0:0:0:
416,7,178479,2,0,B|300:-13|352:43|239:22,1,181.999991668702,4|8,3:2|0:0,0:0:0:0:
337,190,178979,2,0,P|421:209|535:245,1,181.999991668702,0|0,3:0|3:0,0:0:0:0:
266,250,179479,5,8,0:0:0:0:
156,121,179646,1,0,0:0:0:0:
51,272,179812,2,0,P|109:282|190:302,1,136.499993751526,2|0,3:2|0:0,0:0:0:0:
184,300,180146,1,8,0:0:0:0:
82,178,180312,1,0,3:0:0:0:
82,178,180396,1,8,0:0:0:0:
82,178,180479,2,0,P|64:137|74:77,1,90.9999958343508,2|0,3:2|3:0,0:0:0:0:
132,34,180812,1,8,0:0:0:0:
247,125,180979,1,0,0:0:0:0:
354,18,181146,6,0,B|275:5|302:45|218:33,1,136.499993751526,2|0,3:2|0:0,0:0:0:0:
221,33,181479,1,8,0:0:0:0:
399,97,181646,1,0,0:0:0:0:
462,32,181812,1,2,3:2:0:0:
512,237,182146,5,8,0:0:0:0:
439,295,182312,2,0,P|352:274|249:257,1,181.999991668702,6|0,3:2|3:0,0:0:0:0:
221,33,182812,1,10,0:0:0:0:
364,182,182979,1,0,0:0:0:0:
191,317,183146,6,0,P|149:326|97:344,1,90.9999958343508,2|0,3:2|2:0,0:0:0:0:
15,271,183396,2,0,P|57:262|109:244,1,90.9999958343508,2|0,3:2|0:0,0:0:0:0:
164,181,183646,1,0,3:2:0:0:
325,268,183812,6,0,B|357:156|282:199|312:93,1,181.999991668702,6|10,3:2|0:0,0:0:0:0:
383,42,184312,1,0,3:0:0:0:
268,178,184479,1,10,0:0:0:0:
425,263,184646,1,0,3:0:0:0:
493,135,184812,5,10,0:0:0:0:
405,152,184979,1,0,3:0:0:0:
290,61,185146,6,0,P|249:32|167:122,1,181.999991668702,12|10,0:0|0:0,0:0:0:0:
301,324,185646,1,0,3:0:0:0:
235,163,185812,1,10,0:0:0:0:
102,257,185979,5,0,3:0:0:0:
142,317,186146,1,10,0:0:0:0:
213,298,186312,1,0,0:0:0:0:
380,167,186479,6,0,P|365:108|351:18,1,136.499993751526,10|0,0:0|0:0,0:0:0:0:
352,33,186812,2,0,P|302:71|232:57,1,136.499993751526,10|0,0:0|0:0,0:0:0:0:
233,58,187146,1,2,3:2:0:0:
164,0,187312,1,8,0:0:0:0:
75,44,187479,1,8,0:0:0:0:
206,151,187646,6,0,B|235:262|159:213|186:323,1,181.999991668702,4|0,3:2|3:0,0:0:0:0:
268,371,188146,1,8,0:0:0:0:
103,217,188312,1,0,3:0:0:0:
268,371,188479,1,8,0:0:0:0:
339,304,188646,5,0,3:0:0:0:
371,291,188729,1,8,0:0:0:0:
404,302,188812,1,8,0:0:0:0:
421,333,188896,1,8,0:0:0:0:
439,363,188979,1,8,0:0:0:0:
471,375,189062,1,8,0:0:0:0:
504,362,189145,1,4,3:2:0:0:
