osu file format v14

[General]
AudioFilename: audio.mp3
AudioLeadIn: 0
PreviewTime: 108808
Countdown: 0
SampleSet: Soft
StackLeniency: 0.7
Mode: 0
LetterboxInBreaks: 0
WidescreenStoryboard: 0

[Editor]
Bookmarks: 44938,52933,84933,88183,108808,134933,176933,216933,242933,270933,282933,320933,340933,357433
DistanceSpacing: 2.3
BeatDivisor: 12
GridSize: 16
TimelineZoom: 2.3

[Metadata]
Title:Halloween Night Parade
TitleUnicode:Halloween Night Parade
Artist:ABSOLUTE CASTAWAY
ArtistUnicode:ABSOLUTE CASTAWAY
Creator:Hey lululu
Version:Halloween Party!
Source:
Tags:中恵光城 Mitsuki Nakae 未羽 Miu japanese pop hip-hop hip hop lu^3
BeatmapID:2204892
BeatmapSetID:1055224

[Difficulty]
HPDrainRate:6
CircleSize:4.2
OverallDifficulty:8.5
ApproachRate:9
SliderMultiplier:3.2
SliderTickRate:1

[Events]
//Background and Video events
0,0,"BG.jpg",0,0
//Break Periods
2,37123,39423
2,41373,44323
2,135123,150923
//Storyboard Layer 0 (Background)
//Storyboard Layer 1 (Fail)
//Storyboard Layer 2 (Pass)
//Storyboard Layer 3 (Foreground)
//Storyboard Layer 4 (Overlay)
//Storyboard Sound Samples

[TimingPoints]
20923,500,4,2,1,60,1,0
21423,-125,4,2,1,60,0,0
21923,-100,4,2,1,60,0,0
23423,-125,4,2,1,60,0,0
23923,-66.6666666666667,4,2,1,60,0,0
24923,-100,4,2,1,60,0,0
25423,-125,4,2,1,60,0,0
25923,-100,4,2,1,60,0,0
27923,-66.6666666666667,4,2,1,60,0,0
28923,-100,4,2,1,60,0,0
29423,-125,4,2,1,60,0,0
29923,-100,4,2,1,60,0,0
31423,-125,4,2,1,60,0,0
31923,-66.6666666666667,4,2,1,60,0,0
32923,-100,4,2,1,60,0,0
33423,-125,4,2,1,60,0,0
33923,-100,4,2,1,60,0,0
35923,-66.6666666666667,4,2,1,60,0,0
44923,-125,4,2,2,60,0,0
50923,-125,4,2,1,60,0,0
51923,-66.6666666666667,4,2,1,60,0,0
52923,-100,4,2,1,60,0,0
53923,-83.3333333333333,4,2,1,60,0,0
54423,-200,4,2,1,60,0,0
54923,-100,4,2,2,60,0,0
55923,-66.6666666666667,4,2,1,60,0,0
56923,-83.3333333333333,4,2,1,60,0,0
57923,-66.6666666666667,4,2,1,60,0,0
58423,-200,4,2,1,60,0,0
58923,-66.6666666666667,4,2,1,60,0,0
60923,-125,4,2,1,60,0,0
63423,-250,4,2,1,60,0,0
63923,-100,4,2,1,60,0,0
64923,-100,4,2,1,60,0,0
67923,-83.3333333333333,4,2,1,60,0,0
68923,-133.333333333333,4,2,1,60,0,0
69923,-100,4,2,1,60,0,0
70423,-250,4,2,1,60,0,0
70923,-100,4,2,2,60,0,0
71923,-66.6666666666667,4,2,1,60,0,0
72423,-125,4,2,1,60,0,0
72923,-100,4,2,1,60,0,0
73923,-83.3333333333333,4,2,1,60,0,0
76923,-100,4,2,1,60,0,0
78423,-200,4,2,1,60,0,0
78923,-100,4,2,1,60,0,0
79923,-66.6666666666667,4,2,1,60,0,0
80423,-200,4,2,1,60,0,0
80923,-125,4,2,1,60,0,0
82923,-100,4,2,1,60,0,0
83923,-66.6666666666667,4,2,1,60,0,0
84423,-200,4,2,1,60,0,0
100923,-400,4,2,1,60,0,0
101423,-200,4,2,1,60,0,0
101923,-400,4,2,1,60,0,0
102423,-200,4,2,1,60,0,0
102923,-400,4,2,1,60,0,0
103423,-200,4,2,1,60,0,0
104923,-125,4,2,1,60,0,0
107923,-125,4,2,1,60,0,0
108423,-100,4,2,1,60,0,0
108923,-100,4,2,1,70,0,1
109173,-66.6666666666667,4,2,1,70,0,1
109923,-83.3333333333333,4,2,1,70,0,1
110923,-58.8235294117647,4,2,1,70,0,1
111423,-142.857142857143,4,2,1,70,0,1
112423,-100,4,2,1,70,0,1
112923,-200,4,2,1,70,0,1
114923,-125,4,2,1,70,0,1
116923,-55.5555555555556,4,2,2,70,0,1
117173,-55.5555555555556,4,2,1,70,0,1
118173,-111.111111111111,4,2,1,70,0,1
118423,-55.5555555555556,4,2,1,70,0,1
120173,-111.111111111111,4,2,1,70,0,1
120423,-55.5555555555556,4,2,1,70,0,1
120920,-100,4,2,1,70,0,1
121923,-66.6666666666667,4,2,1,70,0,1
122423,-100,4,2,1,70,0,1
122923,-66.6666666666667,4,2,1,70,0,1
124423,-100,4,2,1,70,0,1
127923,-66.6666666666667,4,2,1,70,0,1
128922,-200,4,2,2,70,0,1
129922,-66.6666666666667,4,2,1,70,0,1
134923,-66.6666666666667,4,2,1,60,0,0
152923,-125,4,2,2,60,0,0
154923,-125,4,2,1,60,0,0
155110,-125,4,2,1,5,0,0
155173,-100,4,2,1,60,0,0
155360,-125,4,2,1,5,0,0
155423,-125,4,2,1,60,0,0
155610,-125,4,2,1,5,0,0
155673,-100,4,2,1,60,0,0
155860,-125,4,2,1,5,0,0
155923,-125,4,2,1,60,0,0
156110,-125,4,2,1,5,0,0
156173,-100,4,2,1,60,0,0
156360,-125,4,2,1,5,0,0
156423,-125,4,2,1,60,0,0
156610,-125,4,2,1,5,0,0
156673,-125,4,2,1,60,0,0
159923,-66.6666666666667,4,2,1,60,0,0
160423,-200,4,2,1,60,0,0
160923,-125,4,2,1,60,0,0
161923,-83.3333333333333,4,2,1,60,0,0
162423,-250,4,2,1,60,0,0
162923,-100,4,2,2,60,0,0
163923,-66.6666666666667,4,2,1,60,0,0
164423,-125,4,2,1,60,0,0
164923,-100,4,2,1,60,0,0
165923,-83.3333333333333,4,2,1,60,0,0
168923,-100,4,2,1,60,0,0
170423,-200,4,2,1,60,0,0
170923,-100,4,2,1,60,0,0
171923,-66.6666666666667,4,2,1,60,0,0
172423,-200,4,2,1,60,0,0
172923,-125,4,2,1,60,0,0
174923,-100,4,2,1,60,0,0
175923,-83.3333333333333,4,2,1,60,0,0
176923,-33.3333333333333,4,2,1,60,0,0
177423,-100,4,2,1,60,0,0
178423,-250,4,2,1,60,0,0
178923,-100,4,2,2,60,0,0
179923,-66.6666666666667,4,2,1,60,0,0
180423,-125,4,2,1,60,0,0
180923,-100,4,2,1,60,0,0
181923,-83.3333333333333,4,2,1,60,0,0
184923,-100,4,2,1,60,0,0
186423,-200,4,2,1,60,0,0
186923,-100,4,2,1,60,0,0
187923,-66.6666666666667,4,2,1,60,0,0
188923,-125,4,2,1,60,0,0
190923,-100,4,2,1,60,0,0
191923,-66.6666666666667,4,2,1,60,0,0
192423,-200,4,2,1,60,0,0
206110,-200,4,2,1,5,0,0
206173,-142.857142857143,4,2,1,60,0,0
206360,-200,4,2,1,5,0,0
206423,-111.111111111111,4,2,1,60,0,0
206610,-200,4,2,1,5,0,0
206673,-90.9090909090909,4,2,1,60,0,0
206860,-200,4,2,1,5,0,0
206923,-200,4,2,1,60,0,0
208923,-400,4,2,1,60,0,0
209423,-200,4,2,1,60,0,0
209923,-400,4,2,1,60,0,0
210423,-200,4,2,1,60,0,0
210923,-400,4,2,1,60,0,0
211423,-200,4,2,1,60,0,0
212923,-125,4,2,1,60,0,0
216423,-100,4,2,1,60,0,0
216923,-100,4,2,1,70,0,1
217173,-66.6666666666667,4,2,1,70,0,1
217923,-83.3333333333333,4,2,1,70,0,1
218923,-58.8235294117647,4,2,1,70,0,1
219423,-142.857142857143,4,2,1,70,0,1
220423,-100,4,2,1,70,0,1
220923,-200,4,2,1,70,0,1
221923,-66.6666666666667,4,2,1,70,0,1
222923,-125,4,2,1,70,0,1
224923,-55.5555555555556,4,2,2,70,0,1
225173,-55.5555555555556,4,2,1,70,0,1
226173,-111.111111111111,4,2,1,70,0,1
226423,-55.5555555555556,4,2,1,70,0,1
228173,-111.111111111111,4,2,1,70,0,1
228423,-55.5555555555556,4,2,1,70,0,1
228920,-100,4,2,1,70,0,1
229923,-66.6666666666667,4,2,1,70,0,1
230423,-100,4,2,1,70,0,1
230923,-66.6666666666667,4,2,1,70,0,1
232423,-100,4,2,1,70,0,1
235923,-66.6666666666667,4,2,1,70,0,1
236922,-200,4,2,2,70,0,1
237922,-66.6666666666667,4,2,1,70,0,1
242923,-200,4,2,1,30,0,0
258917,500,4,2,1,35,1,0
258917,-142.857142857143,4,2,1,35,0,0
264167,-142.857142857143,4,2,1,20,0,0
264917,-142.857142857143,4,2,1,35,0,0
266917,-333.333333333334,4,2,1,40,0,0
269917,-166.666666666667,4,2,1,60,0,0
270927,500,4,2,1,60,1,0
270927,-166.666666666667,4,2,1,60,0,0
278927,-55.5555555555556,4,2,2,60,0,0
279177,-55.5555555555556,4,2,1,60,0,0
280177,-111.111111111111,4,2,1,60,0,0
280427,-55.5555555555556,4,2,1,60,0,0
282177,-111.111111111111,4,2,1,60,0,0
282427,-55.5555555555556,4,2,1,60,0,0
282927,-55.5555555555556,4,2,1,70,0,1
283927,-83.3333333333333,4,2,1,70,0,1
284927,-58.8235294117647,4,2,1,70,0,1
286927,-200,4,2,1,70,0,1
288925,-125,4,2,1,70,0,1
289927,-66.6666666666667,4,2,1,70,0,1
290927,-125,4,2,2,70,0,1
291427,-125,4,2,1,70,0,1
294176,-100,4,2,1,70,0,1
294427,-83.3333333333333,4,2,1,70,0,1
294677,-71.4285714285714,4,2,1,70,0,1
294924,-100,4,2,1,70,0,1
295927,-66.6666666666667,4,2,1,70,0,1
296428,-100,4,2,1,70,0,1
296927,-66.6666666666667,4,2,1,70,0,1
298427,-100,4,2,1,70,0,1
301928,-66.6666666666667,4,2,1,70,0,1
302927,-55.5555555555556,4,2,2,70,0,1
303177,-55.5555555555556,4,2,1,70,0,1
304177,-111.111111111111,4,2,1,70,0,1
304427,-55.5555555555556,4,2,1,70,0,1
306177,-111.111111111111,4,2,1,70,0,1
306427,-55.5555555555556,4,2,1,70,0,1
306924,-100,4,2,1,70,0,1
307926,-66.6666666666667,4,2,1,70,0,1
308427,-100,4,2,1,70,0,1
308927,-66.6666666666667,4,2,1,70,0,1
310427,-100,4,2,1,70,0,1
313927,-66.6666666666667,4,2,1,70,0,1
314926,-200,4,2,2,70,0,1
315926,-66.6666666666667,4,2,1,70,0,1
316927,-100,4,2,1,70,0,1
318927,-76.9230769230769,4,2,1,70,0,1
319927,-47.6190476190476,4,2,1,70,0,1
320927,-66.6666666666667,4,2,1,60,0,0
321177,-66.6666666666667,4,2,1,30,0,0
321927,-66.6666666666667,4,2,1,40,0,0
322427,-66.6666666666667,4,2,1,50,0,0
322927,-66.6666666666667,4,2,1,60,0,0
323177,-66.6666666666667,4,2,1,30,0,0
323927,-66.6666666666667,4,2,1,40,0,0
324427,-66.6666666666667,4,2,1,50,0,0
324927,-100,4,2,2,60,0,0
325177,-100,4,2,1,60,0,0
325927,-83.3333333333333,4,2,1,60,0,0
326427,-200,4,2,1,60,0,0
326927,-100,4,2,2,60,0,0
327927,-66.6666666666667,4,2,1,60,0,0
328927,-83.3333333333333,4,2,1,60,0,0
329927,-66.6666666666667,4,2,1,60,0,0
330427,-200,4,2,1,60,0,0
330927,-66.6666666666667,4,2,1,60,0,0
332427,-200,4,2,1,60,0,0
332927,-100,4,2,1,60,0,0
333927,-83.3333333333333,4,2,1,60,0,0
334427,-200,4,2,1,60,0,0
334927,-100,4,2,2,60,0,0
335927,-66.6666666666667,4,2,1,60,0,0
336927,-83.3333333333333,4,2,1,60,0,0
337927,-66.6666666666667,4,2,1,60,0,0
338427,-200,4,2,1,60,0,0
338927,-66.6666666666667,4,2,1,60,0,0
340427,-200,4,2,1,60,0,0
340927,-125,4,2,2,60,0,0
341177,-125,4,2,3,60,0,0
357427,-125,4,2,1,60,0,0

[Colours]
Combo1 : 0,128,64
Combo2 : 128,255,128
Combo3 : 128,128,192
Combo4 : 108,108,108

[HitObjects]
54,114,20923,6,0,P|152:78|213:185,1,240,4|0,3:3|0:0,0:0:0:0:
296,220,21423,2,0,P|221:201|168:288,1,192,0|0,3:2|0:0,0:0:0:0:
167,384,21923,2,0,P|139:357|71:349,1,80,0|0,3:2|0:0,0:0:0:0:
4,261,22173,2,0,P|42:256|84:218,1,80,8|0,3:2|0:0,0:0:0:0:
64,109,22423,1,8,3:2:0:0:
200,45,22589,1,0,0:0:0:0:
193,82,22673,1,0,0:0:0:0:
277,225,22839,1,0,0:0:0:0:
234,298,22923,6,0,P|270:234|433:238,1,240,0|0,3:2|0:0,0:0:0:0:
462,287,23423,2,0,B|455:172|407:246|398:80,1,192,0|0,3:2|0:0,0:0:0:0:
398,0,23923,2,0,P|369:48|285:78,1,120.000004577637,4|0,3:2|0:0,0:0:0:0:
139,70,24173,2,0,P|212:98|239:141,1,120.000004577637,0|0,3:2|0:0,0:0:0:0:
281,223,24423,5,4,3:2:0:0:
330,352,24589,1,0,0:0:0:0:
330,352,24673,2,0,P|330:309|369:266,1,80.0000030517579
421,259,24839,1,0,0:0:0:0:
409,336,24923,6,0,P|296:363|147:367,1,240,4|0,3:2|0:0,0:0:0:0:
51,293,25423,2,0,B|60:188|109:249|109:114,1,192,0|0,3:2|0:0,0:0:0:0:
179,79,25923,2,0,P|146:101|76:119,1,80,0|0,3:2|0:0,0:0:0:0:
19,8,26173,2,0,P|77:21|105:49,1,80,8|0,3:2|0:0,0:0:0:0:
189,224,26423,2,0,P|200:189|248:147,1,80,8|0,3:2|0:0,0:0:0:0:
321,114,26673,5,0,0:0:0:0:
396,158,26798,1,0,0:0:0:0:
378,244,26923,1,0,3:2:0:0:
103,379,27173,5,8,0:0:0:0:
85,293,27298,1,0,0:0:0:0:
160,249,27423,1,0,3:2:0:0:
3,23,27673,5,8,0:0:0:0:
25,108,27798,1,0,0:0:0:0:
47,193,27923,2,0,P|106:193|165:138,1,120.000004577637,4|0,3:2|0:0,0:0:0:0:
328,70,28173,2,0,P|288:21|212:24,1,120.000004577637,0|0,3:2|0:0,0:0:0:0:
140,72,28423,2,0,L|178:217,1,120.000004577637,4|0,3:2|0:0,0:0:0:0:
205,310,28673,1,0,3:0:0:0:
511,274,28923,6,0,B|360:286|448:371|295:379,1,240,4|0,3:2|0:0,0:0:0:0:
292,214,29423,2,0,B|339:170|339:170|307:295,1,192,0|0,3:2|0:0,0:0:0:0:
218,173,29923,2,0,P|198:125|165:89,1,80,0|0,3:2|0:0,0:0:0:0:
274,93,30173,2,0,P|294:44|317:20,1,80,8|0,3:2|0:0,0:0:0:0:
480,236,30423,2,0,P|511:162|373:136,1,240,8|0,3:2|0:0,0:0:0:0:
249,312,30923,6,0,P|218:238|354:222,1,240,0|0,3:2|0:0,0:0:0:0:
263,341,31423,2,0,P|192:328|115:240,1,192,0|0,3:2|0:0,0:0:0:0:
121,93,31923,6,0,P|43:105|14:172,1,120.000004577637,4|0,3:2|0:0,0:0:0:0:
179,153,32172,2,0,P|205:84|163:29,1,120.000004577637,0|0,3:2|0:0,0:0:0:0:
57,240,32422,2,0,B|105:222|105:222|134:258|188:253,1,120.000004577637,4|0,3:2|0:0,0:0:0:0:
258,239,32672,1,0,3:0:0:0:
305,355,32798,1,0,3:0:0:0:
394,254,32923,6,0,P|293:184|306:66,1,240,4|0,3:2|0:0,0:0:0:0:
427,0,33423,2,0,P|404:61|274:88,1,192,0|0,3:2|0:0,0:0:0:0:
180,17,33923,2,0,L|203:106,1,80,0|0,3:2|0:0,0:0:0:0:
130,163,34173,2,0,L|107:252,1,80,8|0,3:2|0:0,0:0:0:0:
24,337,34423,2,0,P|62:316|120:337,1,80,8|0,3:2|0:0,0:0:0:0:
189,369,34673,5,2,0:0:0:0:
324,340,34798,1,2,0:0:0:0:
189,369,34923,1,0,3:2:0:0:
321,243,35173,5,2,0:0:0:0:
186,214,35298,1,2,0:0:0:0:
321,243,35423,1,0,3:2:0:0:
166,93,35673,5,10,0:0:0:0:
301,64,35798,1,2,0:0:0:0:
166,93,35923,6,0,P|119:49|11:39,1,120.000004577637,4|0,3:2|0:0,0:0:0:0:
355,191,36173,2,0,P|402:147|510:137,1,120.000004577637,0|0,3:2|0:0,0:0:0:0:
240,0,36423,2,0,B|216:107|285:58|254:180,1,180.000006866455,4|0,3:2|0:0,0:0:0:0:
211,253,36673,1,0,3:2:0:0:
329,378,36923,5,4,3:3:0:0:
329,378,40923,5,0,3:0:0:0:
329,378,41173,1,0,3:0:0:0:
183,6,44923,5,4,3:1:0:0:
183,6,45048,1,0,0:0:0:0:
183,6,45173,2,0,P|169:37|134:61,1,64,0|0,3:2|0:0,0:0:0:0:
59,88,45423,2,0,L|188:111,1,128,2|0,3:2|0:0,0:0:0:0:
268,59,45798,1,0,0:0:0:0:
268,59,45923,2,0,P|219:108|213:200,1,128,2|0,3:2|0:0,0:0:0:0:
276,258,46298,1,0,0:0:0:0:
276,258,46423,2,0,P|233:200|164:185,1,128,2|0,3:2|0:0,0:0:0:0:
106,242,46798,1,0,3:2:0:0:
19,188,46923,5,2,3:2:0:0:
19,188,47173,1,0,3:2:0:0:
107,155,47423,1,2,3:2:0:0:
184,227,47798,1,0,3:2:0:0:
184,227,47923,1,2,3:2:0:0:
154,317,48298,1,0,3:2:0:0:
154,317,48423,1,2,3:2:0:0:
285,384,48798,1,0,3:2:0:0:
285,384,48923,6,0,L|308:229,1,128,2|0,3:2|3:2,0:0:0:0:
411,203,49298,1,0,0:0:0:0:
411,203,49423,2,0,P|377:205|345:188,1,64,0|0,3:2|0:0,0:0:0:0:
252,92,49673,2,0,P|286:90|318:107,1,64,0|0,0:0|0:0,0:0:0:0:
423,69,49923,2,0,L|444:-1,2,64,2|0|0,3:2|0:0|0:0,0:0:0:0:
512,178,50423,2,0,P|483:156|433:151,1,64,0|0,3:2|0:0,0:0:0:0:
398,266,50673,2,0,P|427:253|451:217,1,64,0|0,0:0|0:0,0:0:0:0:
355,105,50923,5,4,3:2:0:0:
298,27,51048,1,0,0:0:0:0:
207,56,51173,1,0,0:0:0:0:
207,152,51298,1,0,0:0:0:0:
298,182,51423,1,0,3:2:0:0:
298,182,51673,1,0,0:0:0:0:
79,139,51923,6,0,P|124:187|145:245,1,120.000004577637,4|0,3:2|0:0,0:0:0:0:
426,209,52173,2,0,P|381:257|349:333,1,120.000004577637,0|0,3:2|0:0,0:0:0:0:
258,384,52423,2,0,B|245:357|245:357|272:316|272:316|230:265|230:265|276:198|276:198|214:128|214:128|263:37,1,420.000016021729,0|0,3:2|0:0,0:0:0:0:
157,67,52923,6,0,P|137:34|78:20,1,80,4|0,3:2|0:0,0:0:0:0:
2,63,53173,1,2,0:0:0:0:
109,208,53423,2,0,P|129:175|184:159,1,80,0|0,3:2|0:0,0:0:0:0:
264,204,53673,1,2,0:0:0:0:
474,93,53923,6,0,P|450:163|464:237,1,143.999995605469,2|0,3:2|0:0,0:0:0:0:
364,365,54173,2,0,P|374:294|351:227,1,143.999995605469,2|0,3:2|0:0,0:0:0:0:
243,218,54423,2,0,L|115:246,1,120,2|0,0:0|0:0,0:0:0:0:
51,207,54923,6,0,L|27:114,1,80,2|0,3:2|0:0,0:0:0:0:
15,55,55173,1,2,0:0:0:0:
15,55,55298,1,2,0:0:0:0:
158,163,55423,6,0,L|134:256,1,80,2|0,3:2|0:0,0:0:0:0:
117,315,55673,1,2,0:0:0:0:
117,315,55798,1,2,0:0:0:0:
288,373,55923,6,0,P|346:314|420:306,1,120.000004577637,0|0,3:2|0:0,0:0:0:0:
501,355,56173,2,0,P|423:339|389:298,1,120.000004577637,8|0,3:2|0:0,0:0:0:0:
506,154,56423,2,0,B|548:183|537:235|537:235|495:272,1,120.000004577637,8|0,3:2|0:0,0:0:0:0:
424,205,56673,1,8,3:2:0:0:
467,38,56798,1,8,3:2:0:0:
297,77,56923,6,0,L|196:50,1,95.9999970703126,0|0,3:2|0:0,0:0:0:0:
121,29,57173,1,2,0:2:0:0:
121,29,57298,1,0,0:0:0:0:
0,190,57423,6,0,L|101:163,1,95.9999970703126,0|0,3:2|0:0,0:0:0:0:
176,142,57673,1,2,0:2:0:0:
176,142,57798,1,0,0:0:0:0:
181,325,57923,6,0,P|184:266|246:221,1,120.000004577637,0|0,3:2|0:0,0:0:0:0:
411,209,58173,2,0,P|358:189|337:116,1,120.000004577637,2|0,3:2|0:0,0:0:0:0:
193,0,58423,2,0,L|228:124,1,120,0|0,3:2|0:0,0:0:0:0:
350,251,58923,6,0,B|381:245|406:264|406:264|415:233|465:206,1,120.000004577637,0|0,3:2|0:0,0:0:0:0:
417,133,59173,2,0,B|385:138|360:119|360:119|351:150|301:177,1,120.000004577637,10|0,0:0|0:0,0:0:0:0:
137,280,59423,2,0,B|105:274|80:293|80:293|71:262|21:235,1,120.000004577637,0|0,3:2|0:0,0:0:0:0:
70,166,59673,2,0,B|101:171|126:152|126:152|135:183|185:210,1,120.000004577637,10|0,0:0|0:0,0:0:0:0:
252,335,59923,6,0,P|255:263|328:231,1,120.000004577637,0|0,3:2|0:0,0:0:0:0:
265,0,60173,2,0,P|261:71|188:103,1,120.000004577637,2|0,3:2|0:0,0:0:0:0:
81,84,60423,1,0,3:2:0:0:
411,163,60673,1,2,3:2:0:0:
197,278,60923,6,0,L|80:316,1,106.666666666667,4|0,3:2|0:0,0:0:0:0:
29,273,61173,1,8,0:0:0:0:
29,273,61298,1,0,0:0:0:0:
128,188,61423,2,0,L|161:49,1,128,2|2,3:2|0:0,0:0:0:0:
37,64,61923,6,0,L|55:118,1,32,0|0,3:2|0:0,0:0:0:0:
197,278,62173,2,0,L|210:237,1,32,8|0,3:2|0:0,0:0:0:0:
157,63,62423,2,0,L|128:188,1,128,8|0,3:2|3:2,0:0:0:0:
63,360,62923,6,0,L|54:326,1,32,0|0,3:2|0:2,3:2:0:0:
206,247,63173,2,0,L|197:277,1,32,8|0,3:2|0:2,3:2:0:0:
286,337,63423,2,0,L|355:355,1,64,2|0,3:2|0:0,0:0:0:0:
506,188,63923,6,0,P|457:201|405:233,1,80,0|0,3:2|0:0,0:0:0:0:
356,80,64172,2,0,P|307:67|263:30,1,80,8|0,3:2|0:0,0:0:0:0:
138,4,64423,5,8,3:2:0:0:
153,82,64548,1,0,0:0:0:0:
55,160,64673,1,0,0:0:0:0:
70,238,64798,1,0,0:0:0:0:
158,355,64923,5,0,3:2:0:0:
158,355,65173,1,2,0:0:0:0:
78,333,65298,1,2,0:0:0:0:
158,355,65423,1,0,3:2:0:0:
328,291,65673,1,2,0:0:0:0:
408,269,65798,1,2,0:0:0:0:
328,291,65923,1,0,3:2:0:0:
178,129,66173,1,0,3:2:0:0:
98,107,66298,1,0,0:0:0:0:
178,129,66423,6,0,P|184:86|162:20,1,80,0|0,3:2|0:0,0:0:0:0:
334,50,66673,2,0,P|327:89|334:129,1,80,0|0,3:2|0:0,0:0:0:0:
370,239,66923,5,4,3:2:0:0:
256,144,67048,1,0,0:0:0:0:
142,239,67173,1,0,0:0:0:0:
257,119,67423,2,0,B|237:214|298:180|270:302,1,160,0|0,3:2|0:0,0:0:0:0:
256,348,67798,1,0,0:0:0:0:
137,256,67923,6,0,P|84:221|0:213,1,143.999995605469,0|0,3:2|0:0,0:0:0:0:
102,136,68173,2,0,P|135:133|165:110,1,47.9999985351563,8|0,3:2|0:0,0:0:0:0:
363,174,68423,6,0,P|416:139|500:131,1,143.999995605469,4|0,3:2|0:0,0:0:0:0:
398,54,68673,2,0,P|365:51|335:28,1,47.9999985351563,8|0,3:2|0:0,0:0:0:0:
243,0,68923,6,0,P|250:45|257:120,1,120.000004577637,4|0,3:2|0:0,0:0:0:0:
256,196,69423,1,0,3:2:0:0:
256,196,69673,1,0,0:0:0:0:
0,347,69923,6,0,P|49:323|134:327,1,120,2|0,3:2|0:0,0:0:0:0:
176,257,70173,2,0,P|225:281|320:277,1,120,2|0,3:2|0:0,0:0:0:0:
387,369,70423,6,0,L|405:270,1,96,2|0,0:0|0:0,0:0:0:0:
497,190,70923,5,2,3:2:0:0:
482,111,71048,1,0,0:0:0:0:
404,92,71173,1,2,0:0:0:0:
389,13,71298,1,2,0:0:0:0:
460,35,71423,5,2,3:2:0:0:
404,92,71548,1,0,0:0:0:0:
324,81,71673,1,2,0:0:0:0:
268,138,71798,1,2,0:0:0:0:
149,53,71923,6,0,P|187:101|173:200,1,120.000004577637,0|0,3:2|0:0,0:0:0:0:
331,220,72173,2,0,P|323:279|244:340,1,120.000004577637,8|0,3:2|0:0,0:0:0:0:
152,374,72423,2,0,P|142:334|161:297,1,64,8|0,3:2|0:0,0:0:0:0:
239,252,72673,5,8,3:2:0:0:
397,317,72798,1,8,3:2:0:0:
512,133,72923,6,0,P|471:178|408:185,1,120,0|0,3:2|0:0,0:0:0:0:
369,120,73173,1,2,0:2:0:0:
191,20,73423,2,0,P|172:78|197:136,1,120,0|0,3:2|0:0,0:0:0:0:
273,137,73673,1,2,0:2:0:0:
122,225,73923,6,0,L|16:253,1,95.9999970703126,0|0,3:2|0:0,0:0:0:0:
215,262,74173,2,0,L|271:365,1,95.9999970703126,2|0,3:2|0:0,0:0:0:0:
145,306,74423,2,0,L|200:164,1,143.999995605469,0|0,3:2|0:0,0:0:0:0:
233,92,74673,1,2,0:0:0:0:
40,32,74923,6,0,P|27:96|88:154,1,143.999995605469,0|0,3:2|0:0,0:0:0:0:
164,55,75173,2,0,L|83:81,1,47.9999985351563,10|0,0:0|0:0,0:0:0:0:
315,163,75423,2,0,P|328:227|267:285,1,143.999995605469,0|0,3:2|0:0,0:0:0:0:
191,186,75673,2,0,L|272:212,1,47.9999985351563,10|0,0:0|0:0,0:0:0:0:
512,161,75923,6,0,P|456:189|433:246,1,95.9999970703126,0|0,3:2|0:0,0:0:0:0:
374,365,76173,2,0,P|427:344|447:278,1,95.9999970703126,2|0,3:2|0:0,0:0:0:0:
274,111,76423,2,0,P|267:173|290:214,1,95.9999970703126,0|0,3:2|0:0,0:0:0:0:
366,280,76673,1,2,3:2:0:0:
509,24,76923,5,4,3:2:0:0:
509,24,77173,2,0,P|442:34|370:105,2,160,0|2|2,0:0|3:2|0:0,0:0:0:0:
353,227,77923,2,0,P|320:139|247:69,1,160,0|8,3:2|3:2,0:0:0:0:
434,252,78298,1,0,0:0:0:0:
397,336,78423,6,0,P|360:314|270:307,1,120,8|0,3:2|0:0,0:0:0:0:
142,361,78923,6,0,P|165:326|157:264,1,80,0|0,3:2|0:0,0:0:0:0:
107,229,79173,1,8,3:2:0:0:
265,162,79423,2,0,P|242:127|250:65,1,80,2|0,3:2|0:0,0:0:0:0:
300,30,79673,1,0,0:0:0:0:
441,61,79798,1,0,0:0:0:0:
503,10,79923,6,0,P|465:63|460:150,1,120.000004577637,0|0,3:2|0:0,0:0:0:0:
415,232,80173,2,0,P|359:175|354:114,1,120.000004577637,8|0,3:2|0:0,0:0:0:0:
220,271,80423,2,0,P|254:290|293:290,1,80,4|0,3:2|0:0,0:0:0:0:
415,232,80798,1,0,0:0:0:0:
488,322,80923,6,0,P|403:341|381:397,1,128,4|0,3:2|3:0,0:0:0:0:
71,167,81423,2,0,P|188:193|216:265,1,192,0|0,3:0|0:0,0:0:0:0:
184,353,81923,5,4,3:2:0:0:
283,330,82048,1,0,0:0:0:0:
383,309,82173,1,0,0:0:0:0:
383,309,82423,2,0,L|404:232,2,64,0|0|2,3:0|0:0|3:2,0:0:0:0:
305,204,82798,1,2,0:0:0:0:
430,94,82923,6,0,P|349:130|273:75,1,160,4|0,3:2|0:0,0:0:0:0:
130,6,83423,2,0,P|162:28|182:63,1,80,0|0,3:2|0:0,0:0:0:0:
144,173,83673,1,2,0:0:0:0:
40,362,83923,6,0,P|81:312|181:306,1,120.000004577637,8|0,3:2|0:0,0:0:0:0:
448,314,84173,2,0,P|382:301|332:234,1,120.000004577637,8|0,3:2|0:0,0:0:0:0:
288,60,84423,2,0,P|342:63|362:122,1,120,4|0,3:2|0:0,0:0:0:0:
246,191,84923,5,4,3:0:0:0:
246,191,85173,1,0,3:2:0:0:
155,110,85423,2,0,L|177:24,1,80,2|0,3:2|0:0,0:0:0:0:
0,122,85923,2,0,P|30:165|75:180,1,80,0|0,3:2|3:2,0:0:0:0:
178,210,86423,2,0,P|148:253|103:268,1,80,2|0,3:2|0:0,0:0:0:0:
47,256,86766,1,0,0:0:0:0:
167,373,86923,6,0,P|211:339|281:337,1,120,0|0,3:2|0:0,0:0:0:0:
395,344,87423,2,0,P|370:299|372:266,1,80,2|0,3:2|0:0,0:0:0:0:
440,244,87756,1,0,0:0:0:0:
466,74,87923,2,0,P|438:93|405:106,1,66.6666666666667,0|0,3:2|0:0,0:0:0:0:
378,78,88173,2,0,P|350:59|329:51,1,53.3333333333333,0|0,3:2|0:0,0:0:0:0:
246,92,88423,2,0,L|160:111,1,80,2|0,3:2|0:0,0:0:0:0:
19,71,88923,5,8,3:3:0:0:
19,71,89173,2,0,P|27:102|25:143,1,60,0|0,3:2|0:0,0:0:0:0:
101,170,89423,2,0,P|83:198|52:227,1,60,2|0,3:2|0:0,0:0:0:0:
87,304,89673,2,0,P|54:312|12:314,1,60,0|0,0:0|0:0,0:0:0:0:
5,343,89923,6,0,L|101:365,1,80,0|0,3:2|3:2,0:0:0:0:
209,384,90423,2,0,P|186:350|181:287,1,80,2|0,3:2|0:0,0:0:0:0:
253,247,90766,1,0,0:0:0:0:
285,156,90923,6,0,P|221:202|131:196,1,160,0|2,3:2|3:2,0:0:0:0:
88,29,91798,1,0,0:0:0:0:
181,11,91923,2,0,P|162:54|163:80,1,60,0|0,3:2|0:0,0:0:0:0:
87,120,92173,2,0,P|112:162|112:183,1,60,0|0,3:2|0:0,0:0:0:0:
71,274,92423,2,0,L|196:238,1,120,2|0,3:2|0:0,0:0:0:0:
300,206,92923,5,0,3:0:0:0:
300,206,93048,1,0,3:0:0:0:
300,206,93173,1,0,3:0:0:0:
343,345,93423,1,2,0:0:0:0:
421,144,93673,1,2,0:0:0:0:
415,279,93923,6,0,L|381:267,1,20,2|0,2:3|0:0,0:0:0:0:
277,111,94173,2,0,L|296:117,1,20,2|0,2:3|0:0,0:0:0:0:
507,17,94423,1,0,3:0:0:0:
433,34,94548,1,0,3:0:0:0:
359,51,94673,1,0,3:0:0:0:
185,20,94923,6,0,P|201:51|205:92,1,60,0|0,3:0|0:0,0:0:0:0:
212,144,95173,2,0,P|218:118|242:94,1,60,0|0,3:0|0:0,0:0:0:0:
262,212,95423,1,2,0:0:0:0:
262,212,95673,2,0,L|164:231,1,80,2|2,0:0|2:3,0:0:0:0:
333,293,96173,1,2,2:3:0:0:
333,293,96423,1,0,3:0:0:0:
352,219,96548,1,0,3:0:0:0:
371,145,96673,1,0,3:0:0:0:
152,14,96923,5,0,3:0:0:0:
94,63,97048,1,0,0:0:0:0:
165,90,97173,1,0,3:0:0:0:
346,64,97423,2,0,P|323:77|306:93,1,40,2|0,0:0|0:0,0:0:0:0:
158,188,97673,2,0,P|177:206|195:217,1,40,2|0,0:0|0:0,0:0:0:0:
344,236,97923,6,0,L|325:264,1,20,2|0,2:3|0:0,0:0:0:0:
380,371,98173,2,0,L|345:376,1,20,2|0,2:3|0:0,0:0:0:0:
129,276,98423,5,0,3:0:0:0:
253,121,98673,1,0,3:0:0:0:
38,33,98923,6,0,P|34:90|84:141,1,120,0|0,3:0|0:0,0:0:0:0:
154,93,99423,1,0,3:0:0:0:
449,117,99923,2,0,P|453:174|404:222,1,120,2|0,3:0|0:0,0:0:0:0:
334,177,100423,1,0,3:0:0:0:
283,233,100548,1,0,0:0:0:0:
330,297,100673,2,0,L|341:358,1,40
409,358,100923,6,0,P|438:343|475:344,1,70,2|0,3:0|0:0,0:0:0:0:
494,351,101423,2,0,L|513:217,1,120,0|0,3:0|0:0,0:0:0:0:
416,137,101923,6,0,P|387:122|350:123,1,70,2|0,3:0|0:0,0:0:0:0:
331,130,102423,2,0,L|312:-4,1,120,0|0,3:0|0:0,0:0:0:0:
172,91,102923,6,0,L|97:108,1,70,0|0,3:0|0:0,0:0:0:0:
9,90,103423,2,0,B|40:95|40:95|73:125|69:176,1,120,0|0,3:0|0:0,0:0:0:0:
19,282,103923,5,2,0:0:0:0:
246,240,104173,1,2,0:3:0:0:
152,168,104423,1,2,0:0:0:0:
249,368,104673,1,2,0:3:0:0:
414,256,104923,6,0,P|381:182|436:148,1,149.333333333333,0|0,3:0|0:0,0:0:0:0:
509,204,105423,1,4,3:2:0:0:
394,363,105673,1,0,0:0:0:0:
98,256,105923,6,0,P|131:182|76:148,1,149.333333333333,0|0,3:0|0:0,0:0:0:0:
3,204,106423,1,4,3:2:0:0:
118,363,106673,1,0,0:0:0:0:
284,259,106923,6,0,B|280:164|230:227|224:111,1,149.333333333333,0|0,3:0|0:0,0:0:0:0:
264,26,107423,1,4,3:2:0:0:
256,355,107673,1,0,0:0:0:0:
165,207,107923,6,0,P|121:168|58:153,1,96,0|0,3:0|0:0,0:0:0:0:
9,157,108173,2,0,L|22:215,1,32,0|0,0:0|0:0,0:0:0:0:
334,150,108423,6,0,P|378:111|441:96,1,120,4|0,3:2|0:0,0:0:0:0:
512,124,108673,2,0,L|499:182,1,40,0|0,0:0|0:0,0:0:0:0:
237,118,108923,6,0,B|166:93|221:75|148:44,1,120,4|0,3:0|0:0,0:0:0:0:
144,59,109173,2,0,L|120:242,1,180.000006866455,2|0,0:0|0:0,0:0:0:0:
102,285,109423,2,0,P|14:279|113:229,1,240.000009155274,2|2,3:2|0:0,0:0:0:0:
220,223,109798,1,0,0:0:0:0:
276,384,109923,6,0,P|302:326|350:303,1,95.9999970703126,8|0,3:2|0:0,0:0:0:0:
485,274,110173,2,0,P|430:241|416:195,1,95.9999970703126,8|0,3:2|0:0,0:0:0:0:
496,108,110423,1,2,0:0:0:0:
509,22,110548,1,2,0:0:0:0:
424,5,110673,1,8,3:2:0:0:
129,142,110923,6,0,P|65:100|70:6,1,136.000002593994,8|0,3:0|0:0,0:0:0:0:
278,147,111173,2,0,P|220:185|225:271,1,136.000002593994,8|0,3:0|0:0,0:0:0:0:
188,379,111423,2,0,P|228:347|297:351,1,111.999996582031,2|0,3:0|3:2,0:0:0:0:
410,381,111923,5,8,3:2:0:0:
368,247,112048,1,0,0:0:0:0:
512,253,112173,2,0,P|487:274|443:286,1,55.9999982910157,8|0,3:2|0:0,0:0:0:0:
322,164,112423,2,0,P|413:174|440:305,1,240,0|0,3:0|0:0,0:0:0:0:
233,212,112923,6,0,P|239:141|263:79,1,120,4|0,3:2|0:0,0:0:0:0:
142,46,113423,2,0,P|136:117|112:179,1,120,0|0,3:0|3:0,0:0:0:0:
4,216,113923,5,8,3:2:0:0:
161,238,114173,1,8,3:2:0:0:
34,331,114423,5,2,3:2:0:0:
131,317,114548,1,2,0:2:0:0:
34,331,114673,1,2,3:2:0:0:
131,317,114798,1,2,0:2:0:0:
238,363,114923,6,0,P|217:330|218:285,1,64,0|0,3:0|0:0,0:0:0:0:
311,237,115173,2,0,P|331:204|330:159,1,64,0|0,3:0|0:0,0:0:0:0:
185,37,115423,2,0,L|231:246,1,192,8|0,3:0|0:0,0:0:0:0:
413,304,115923,5,8,3:2:0:0:
413,304,116173,2,0,P|423:265|453:237,1,64,0|0,3:2|3:2,0:0:0:0:
317,150,116423,2,0,P|345:178|355:218,1,64,0|0,3:2|0:0,0:0:0:0:
505,133,116673,2,0,P|466:143|426:131,1,64,0|0,3:2|0:0,0:0:0:0:
475,0,116923,6,0,L|144:70,1,287.999991210938,4|0,3:1|3:2,0:0:0:0:
1,98,117423,2,0,L|109:124,1,71.9999978027344,4|0,3:2|0:0,0:0:0:0:
245,246,118173,6,0,P|230:321|251:363,1,107.999996704102,0|0,3:2|0:0,0:0:0:0:
263,384,118423,2,0,P|273:337|256:307,1,71.9999978027344,4|0,3:2|0:0,0:0:0:0:
0,201,118923,6,0,L|331:131,1,287.999991210938,4|0,3:2|0:0,0:0:0:0:
512,247,119423,2,0,L|406:273,1,71.9999978027344,4|0,3:2|0:0,0:0:0:0:
267,138,120173,6,0,P|282:63|266:28,1,107.999996704102,0|0,3:2|0:0,0:0:0:0:
249,0,120423,2,0,P|238:46|496:76,1,431.999986816407,4|0,3:2|0:0,0:0:0:0:
475,0,120923,6,0,B|439:140|543:103|482:264,1,240,4|0,3:2|0:0,0:0:0:0:
356,384,121423,2,0,B|391:242|287:280|340:122,1,240,2|2,3:2|0:0,0:0:0:0:
233,103,121923,6,0,P|213:181|259:189,1,120.000004577637,8|0,3:2|0:0,0:0:0:0:
412,188,122173,2,0,P|431:109|385:101,1,120.000004577637,8|0,3:2|0:0,0:0:0:0:
328,77,122423,2,0,L|305:-8,2,80,2|2|8,0:0|0:0|3:2,0:0:0:0:
252,290,122923,6,0,P|200:230|134:206,1,120.000004577637,8|0,3:0|0:0,0:0:0:0:
0,324,123173,2,0,P|74:297|104:255,1,120.000004577637,8|0,3:0|0:0,0:0:0:0:
132,96,123423,2,0,P|25:19|90:158,1,360.000013732911,2|0,3:0|3:2,0:0:0:0:
132,185,123923,5,8,3:2:0:0:
236,156,124048,1,0,0:0:0:0:
340,127,124173,1,8,3:2:0:0:
340,127,124423,2,0,B|396:168|380:243|380:243|329:285|355:366,1,240,0|0,3:0|0:0,0:0:0:0:
512,381,124923,6,0,P|487:316|332:265,1,240,4|0,3:2|0:0,0:0:0:0:
164,244,125423,2,0,P|189:179|344:128,1,240,0|0,3:0|3:0,0:0:0:0:
461,191,125923,2,0,L|437:128,1,40,8|0,3:2|0:0,0:0:0:0:
403,0,126173,2,0,L|385:38,1,40,8|0,3:2|0:0,0:0:0:0:
201,109,126423,5,2,3:2:0:0:
169,35,126548,1,2,0:2:0:0:
243,4,126673,1,2,3:2:0:0:
274,77,126798,1,2,0:2:0:0:
63,91,126923,6,0,P|124:98|224:243,1,240,4|0,3:2|0:0,0:0:0:0:
421,236,127423,2,0,P|346:243|261:374,1,240,8|0,3:0|0:0,0:0:0:0:
256,384,127923,6,0,B|240:316|218:354|201:270,1,120.000004577637,12|0,3:2|0:0,0:0:0:0:
328,257,128173,2,0,B|343:189|366:227|383:143,1,120.000004577637,0|0,3:2|0:0,0:0:0:0:
439,24,128422,2,0,P|387:62|320:46,1,120.000004577637,4|0,3:2|0:0,0:0:0:0:
109,6,128673,2,0,P|167:1|212:38,1,120.000004577637,0|0,3:2|0:0,0:0:0:0:
262,131,128923,6,0,L|251:299,1,160,4|0,3:1|3:0,0:0:0:0:
120,251,129923,6,0,B|94:231|94:231|209:269,1,120.000004577637,8|0,3:2|0:0,0:0:0:0:
397,177,130173,2,0,B|422:157|422:157|307:195,1,120.000004577637,8|0,3:2|0:0,0:0:0:0:
113,58,130422,2,0,B|159:-6|159:-6|246:24|246:24|268:125|268:125|183:158,1,360.000013732911,0|0,3:0|0:0,0:0:0:0:
93,163,130922,5,4,3:2:0:0:
256,192,130985,12,0,132673,3:0:0:0:
256,192,132923,5,4,3:2:0:0:
256,192,134173,1,0,3:0:0:0:
238,112,134423,1,0,3:0:0:0:
211,1,134673,1,0,3:0:0:0:
281,284,134923,5,4,3:0:0:0:
423,80,152923,5,0,3:0:0:0:
423,80,153048,1,0,0:0:0:0:
423,80,153173,2,0,L|323:60,1,64,0|0,3:2|0:0,0:0:0:0:
286,19,153423,2,0,P|324:78|310:162,1,128,2|0,3:2|0:0,0:0:0:0:
265,214,153798,1,0,0:0:0:0:
265,214,153923,2,0,P|328:214|379:250,1,128,2|0,3:2|0:0,0:0:0:0:
472,291,154298,1,0,0:0:0:0:
472,291,154423,2,0,P|408:291|357:327,1,128,2|0,3:2|0:0,0:0:0:0:
301,384,154798,1,0,3:2:0:0:
301,384,154923,6,0,P|288:335|255:298,1,96,2|0,3:2|0:0,0:0:0:0:
333,258,155173,2,0,P|345:202|402:158,1,120,0|0,3:2|0:0,0:0:0:0:
287,123,155423,6,0,L|183:95,1,96,2|0,3:2|0:0,0:0:0:0:
202,11,155673,2,0,L|319:42,1,120,0|0,3:2|0:0,0:0:0:0:
486,125,155923,6,0,P|514:83|503:22,1,96,2|0,3:2|0:0,0:0:0:0:
419,4,156173,2,0,P|387:50|400:117,1,120,0|0,3:2|0:0,0:0:0:0:
377,264,156423,6,0,P|378:222|335:184,1,96,2|0,3:2|0:0,0:0:0:0:
268,233,156673,1,2,3:2:0:0:
205,158,156798,1,2,3:2:0:0:
146,243,156923,6,0,P|222:186|234:158,1,128,2|0,3:2|3:2,0:0:0:0:
336,109,157298,1,0,0:0:0:0:
336,109,157423,2,0,P|305:19|282:0,1,128,0|2,3:2|0:0,0:0:0:0:
126,62,157923,2,0,L|-5:83,1,128,2|2,3:2|0:0,0:0:0:0:
153,159,158423,1,0,3:2:0:0:
209,44,158673,1,2,0:0:0:0:
30,154,158923,5,4,3:2:0:0:
4,274,159173,1,2,0:0:0:0:
117,381,159423,2,0,P|128:321|200:314,1,128,0|0,3:2|0:0,0:0:0:0:
309,356,159923,6,0,P|277:314|301:210,1,120.000004577637,4|0,3:2|0:0,0:0:0:0:
232,146,160173,2,0,P|284:88|356:98,1,120.000004577637,0|0,3:2|0:0,0:0:0:0:
505,148,160423,2,0,L|411:168,1,80,0|0,3:2|0:0,0:0:0:0:
487,368,160923,6,0,P|470:341|432:324,1,64,4|0,3:2|0:0,0:0:0:0:
342,348,161173,1,2,0:0:0:0:
399,136,161423,2,0,P|369:173|327:188,1,64,0|0,3:2|0:0,0:0:0:0:
253,157,161673,1,2,0:0:0:0:
93,16,161923,6,0,P|133:93|109:155,1,143.999995605469,2|0,3:2|0:0,0:0:0:0:
142,228,162173,2,0,P|115:217|40:211,1,95.9999970703126,2|0,3:2|0:0,0:0:0:0:
10,291,162423,2,0,L|35:392,1,96,2|0,0:0|0:0,0:0:0:0:
227,339,162923,6,0,P|266:313|312:305,1,80,2|0,3:2|0:0,0:0:0:0:
373,356,163173,1,2,0:0:0:0:
373,356,163298,1,2,0:0:0:0:
293,214,163423,6,0,P|253:188|207:180,1,80,2|0,3:2|0:0,0:0:0:0:
147,231,163673,1,2,0:0:0:0:
147,231,163798,1,2,0:0:0:0:
292,294,163923,6,0,P|366:286|409:230,1,120.000004577637,0|0,3:2|0:0,0:0:0:0:
230,171,164173,2,0,P|175:114|123:112,1,120.000004577637,8|0,3:2|0:0,0:0:0:0:
297,0,164423,2,0,P|269:22|257:69,1,64,8|0,3:2|0:0,0:0:0:0:
307,119,164673,1,8,3:2:0:0:
423,50,164798,1,8,3:2:0:0:
424,220,164923,6,0,L|341:197,1,80,0|0,3:2|0:0,0:0:0:0:
230,171,165173,1,2,0:2:0:0:
76,361,165423,2,0,L|161:340,1,80,0|0,3:2|0:0,0:0:0:0:
270,312,165673,1,2,0:2:0:0:
192,87,165923,6,0,P|156:123|154:183,1,95.9999970703126,0|0,3:2|0:0,0:0:0:0:
270,312,166173,2,0,P|266:249|236:213,1,95.9999970703126,2|0,3:2|0:0,0:0:0:0:
6,342,166423,2,0,B|67:321|67:321|89:302|89:302|115:303|115:303|190:282,1,191.999994140625,0|2,3:2|0:0,0:0:0:0:
387,373,166923,6,0,B|375:320|375:320|386:293|386:293|373:231,1,143.999995605469,0|0,3:2|0:0,0:0:0:0:
327,176,167173,2,0,L|345:257,1,47.9999985351563,10|0,0:0|0:0,0:0:0:0:
130,207,167423,2,0,B|142:154|142:154|130:127|130:127|143:65,1,143.999995605469,0|0,3:2|0:0,0:0:0:0:
190,10,167673,2,0,L|172:91,1,47.9999985351563,10|0,0:0|0:0,0:0:0:0:
408,128,167923,6,0,P|361:123|319:145,1,95.9999970703126,0|0,3:2|0:0,0:0:0:0:
130,206,168173,2,0,P|176:201|218:224,1,95.9999970703126,2|0,3:2|0:0,0:0:0:0:
343,384,168423,2,0,P|364:332|349:268,1,95.9999970703126,0|0,3:2|0:0,0:0:0:0:
302,229,168673,1,2,3:2:0:0:
500,15,168923,6,0,L|472:129,1,106.666666666667,4|0,3:2|0:0,0:0:0:0:
456,202,169173,1,8,0:0:0:0:
456,202,169298,1,0,0:0:0:0:
382,100,169423,2,0,P|328:59|239:95,1,160,2|2,3:2|0:0,0:0:0:0:
262,214,169923,2,0,L|309:184,1,40,0|0,3:2|0:0,0:0:0:0:
433,287,170173,2,0,L|385:253,1,40,8|0,3:2|0:0,0:0:0:0:
292,310,170423,2,0,P|310:345|319:384,1,80,8|0,3:2|3:2,0:0:0:0:
129,361,170923,6,0,P|117:282|173:200,1,160,0|8,3:2|3:2,0:0:0:0:
211,137,171298,1,0,0:0:0:0:
127,99,171423,2,0,L|114:56,1,40,2|0,3:2|0:0,0:0:0:0:
306,169,171673,2,0,L|290:215,1,40
165,281,171923,1,0,3:2:0:0:
165,281,172173,1,8,3:2:0:0:
0,241,172423,5,8,3:2:0:0:
76,220,172548,1,0,0:0:0:0:
103,98,172673,1,0,0:0:0:0:
180,77,172798,1,0,0:0:0:0:
336,168,172923,5,0,3:2:0:0:
336,168,173173,1,2,0:0:0:0:
421,144,173298,1,2,0:0:0:0:
336,168,173423,1,0,3:2:0:0:
236,273,173673,1,2,0:0:0:0:
215,358,173798,1,2,0:0:0:0:
236,273,173923,1,0,3:2:0:0:
195,134,174173,1,0,3:2:0:0:
131,73,174298,1,0,0:0:0:0:
195,134,174423,6,0,P|220:106|223:60,1,64,0|0,3:2|0:0,0:0:0:0:
299,0,174673,2,0,P|304:31|328:61,1,64,0|0,3:2|0:0,0:0:0:0:
419,26,174923,5,4,3:2:0:0:
444,118,175048,1,0,0:0:0:0:
510,49,175173,1,0,0:0:0:0:
475,240,175423,2,0,P|414:152|282:131,1,240,0|0,3:2|0:0,0:0:0:0:
103,336,175923,6,0,P|165:345|218:278,1,143.999995605469,0|0,3:2|0:0,0:0:0:0:
161,216,176173,2,0,P|138:242|139:272,1,47.9999985351563,8|0,3:2|0:0,0:0:0:0:
454,252,176423,2,0,P|392:261|339:194,1,143.999995605469,4|0,3:2|0:0,0:0:0:0:
396,132,176673,2,0,P|419:158|418:188,1,47.9999985351563,8|0,3:2|0:0,0:0:0:0:
256,192,176923,6,0,B|215:176|233:114|282:113|336:166|340:213|311:305|212:301|174:286|91:196|48:149|194:-20|274:-61|478:86|422:309|229:351,1,840.000032043458,8|0,3:0|0:0,0:0:0:0:
161,354,177423,6,0,P|36:326|24:220,1,240,4|0,3:2|0:0,0:0:0:0:
136,160,177923,2,0,P|118:191|94:204,1,40,2|0,3:2|0:0,0:0:0:0:
0,43,178173,2,0,P|11:19|25:9,1,40,2|0,3:2|0:0,0:0:0:0:
200,63,178423,6,0,L|304:39,1,96,2|0,0:0|0:0,0:0:0:0:
435,28,178923,6,0,P|412:77|415:120,1,80,2|0,3:2|0:0,0:0:0:0:
482,185,179173,1,2,0:0:0:0:
482,185,179298,1,2,0:0:0:0:
317,118,179423,6,0,P|335:168|367:197,1,80,2|0,3:2|0:0,0:0:0:0:
482,185,179673,1,2,0:0:0:0:
482,185,179798,1,2,0:0:0:0:
456,368,179923,6,0,P|434:315|346:273,1,120.000004577637,0|0,3:2|0:0,0:0:0:0:
282,211,180173,2,0,P|260:264|172:306,1,120.000004577637,8|0,3:2|0:0,0:0:0:0:
46,218,180423,2,0,L|67:138,1,64,8|0,3:2|0:0,0:0:0:0:
87,73,180673,1,8,3:2:0:0:
261,25,180798,1,8,3:2:0:0:
161,1,180923,6,0,P|166:47|201:108,1,80,0|0,3:2|0:0,0:0:0:0:
275,134,181173,1,2,0:2:0:0:
512,212,181423,2,0,P|507:258|471:308,1,80,0|0,3:2|0:0,0:0:0:0:
398,345,181673,1,2,0:2:0:0:
165,277,181923,6,0,P|206:247|271:235,1,95.9999970703126,0|0,3:2|0:0,0:0:0:0:
349,283,182173,2,0,P|296:277|243:250,1,95.9999970703126,2|0,3:2|0:0,0:0:0:0:
162,96,182423,2,0,P|211:187|233:382,1,287.999991210938,0|0,3:2|0:0,0:0:0:0:
446,232,182923,5,0,3:2:0:0:
377,164,183048,1,0,0:0:0:0:
431,84,183173,1,10,0:0:0:0:
269,0,183423,2,0,P|295:69|300:110,1,95.9999970703126,0|0,3:2|0:0,0:0:0:0:
78,242,183673,2,0,P|88:195|107:151,1,95.9999970703126,10|0,0:0|0:0,0:0:0:0:
245,267,183923,6,0,P|221:267|189:281,1,47.9999985351563,0|0,3:2|0:0,0:0:0:0:
94,75,184173,2,0,P|118:75|150:89,1,47.9999985351563,2|0,3:2|0:0,0:0:0:0:
385,35,184423,2,0,P|338:54|310:126,1,95.9999970703126,0|0,3:2|0:0,0:0:0:0:
318,202,184673,1,2,3:2:0:0:
219,40,184798,1,0,0:0:0:0:
81,205,184923,6,0,P|176:172|222:115,1,160,4|0,3:2|0:0,0:0:0:0:
139,37,185423,1,2,3:2:0:0:
219,278,185673,1,2,0:0:0:0:
357,132,185923,2,0,P|341:113|322:102,1,40,0|0,3:2|0:0,0:0:0:0:
144,228,186173,2,0,P|160:209|181:197,1,40,8|0,3:2|0:0,0:0:0:0:
333,275,186423,2,0,L|318:367,1,80,8|0,3:2|0:0,0:0:0:0:
197,289,186923,6,0,P|164:224|173:173,1,120,0|0,3:2|0:0,0:0:0:0:
252,142,187173,2,0,L|236:80,1,40,8|0,3:2|0:0,0:0:0:0:
456,193,187423,2,0,P|489:128|480:77,1,120,2|0,3:2|0:0,0:0:0:0:
401,46,187673,2,0,L|417:-16,1,40,8|0,3:2|0:0,0:0:0:0:
114,2,187923,6,0,P|212:40|241:104,1,180.000006866455,0|0,3:2|0:0,0:0:0:0:
384,164,188173,2,0,P|285:202|256:266,1,180.000006866455,8|0,3:2|0:0,0:0:0:0:
323,384,188423,1,4,3:2:0:0:
171,180,188673,1,0,0:0:0:0:
413,86,188923,5,4,3:2:0:0:
284,45,189173,1,0,3:0:0:0:
164,11,189423,1,0,3:0:0:0:
164,11,189923,6,0,L|105:53,2,64,4|0|0,3:2|0:0|0:0,0:0:0:0:
192,158,190423,2,0,L|163:214,2,64,0|0|2,3:0|0:0|3:2,0:0:0:0:
100,133,190798,1,2,0:0:0:0:
100,133,190923,6,0,P|149:208|160:318,1,160,4|0,3:2|0:0,0:0:0:0:
17,364,191423,2,0,P|87:328|166:319,1,160,0|2,3:2|0:0,0:0:0:0:
325,377,191923,6,0,P|280:326|364:352,1,180.000006866455,8|0,3:2|0:0,0:0:0:0:
462,283,192173,2,0,P|507:232|427:261,1,180.000006866455,8|0,3:2|0:0,0:0:0:0:
383,77,192423,2,0,P|380:141|323:185,1,140,4|0,3:2|0:0,0:0:0:0:
249,186,192923,5,4,3:0:0:0:
249,186,193173,1,0,3:2:0:0:
302,85,193423,2,0,L|280:-1,1,80,2|0,3:2|0:0,0:0:0:0:
512,122,193923,2,0,P|482:165|437:180,1,80,0|0,3:2|3:2,0:0:0:0:
334,210,194423,2,0,P|364:253|409:268,1,80,2|0,3:2|0:0,0:0:0:0:
465,256,194798,1,0,0:0:0:0:
345,373,194923,6,0,P|301:339|235:331,1,120,0|0,3:2|0:0,0:0:0:0:
117,344,195423,2,0,P|142:299|133:249,1,80,2|0,3:2|0:0,0:0:0:0:
82,215,195798,1,0,0:0:0:0:
27,113,195923,2,0,P|55:132|93:141,1,60,0|0,3:2|0:0,0:0:0:0:
131,78,196173,2,0,P|159:59|198:49,1,60,0|0,3:2|0:0,0:0:0:0:
266,92,196423,2,0,L|354:106,1,80,2|0,3:2|0:0,0:0:0:0:
493,71,196923,5,8,3:3:0:0:
493,71,197173,2,0,P|484:102|486:143,1,60,0|0,3:2|0:0,0:0:0:0:
411,170,197423,2,0,P|428:198|459:227,1,60,2|0,3:2|0:0,0:0:0:0:
425,304,197673,2,0,P|457:312|499:314,1,60,0|0,0:0|0:0,0:0:0:0:
506,343,197923,6,0,L|413:366,1,80,0|0,3:2|3:2,0:0:0:0:
303,383,198423,2,0,P|326:349|338:304,1,80,2|0,3:2|0:0,0:0:0:0:
259,247,198766,1,0,0:0:0:0:
227,156,198923,6,0,P|291:202|381:196,1,160,0|2,3:2|3:2,0:0:0:0:
424,29,199766,1,0,0:0:0:0:
330,11,199923,2,0,P|349:54|356:77,1,60,0|0,3:2|0:0,0:0:0:0:
431,118,200173,2,0,P|412:161|407:185,1,60,0|0,3:2|0:0,0:0:0:0:
441,274,200423,2,0,L|313:234,1,120,2|0,3:2|0:0,0:0:0:0:
252,165,200923,5,0,3:0:0:0:
176,124,201048,1,0,3:0:0:0:
106,170,201173,1,0,3:0:0:0:
106,170,201423,1,2,0:0:0:0:
324,125,201673,1,2,0:0:0:0:
241,14,201923,6,0,L|233:52,1,20,2|0,2:3|0:0,0:0:0:0:
204,256,202173,2,0,L|208:234,1,20,2|0,2:3|0:0,0:0:0:0:
176,124,202423,5,0,3:0:0:0:
196,206,202548,1,0,3:0:0:0:
215,288,202673,1,0,3:0:0:0:
91,264,202923,5,0,3:0:0:0:
297,141,203173,1,0,3:0:0:0:
95,234,203423,2,0,L|97:214,1,20,2|0,0:0|0:0,0:0:0:0:
293,163,203673,2,0,L|289:190,1,20,2|0,0:0|0:0,0:0:0:0:
378,328,203923,5,2,2:3:0:0:
378,328,204173,1,2,2:3:0:0:
512,211,204423,5,0,3:0:0:0:
430,231,204548,1,0,3:0:0:0:
348,250,204673,1,0,3:0:0:0:
512,182,204923,5,0,3:0:0:0:
410,206,205048,1,0,0:0:0:0:
308,230,205173,1,0,3:0:0:0:
49,275,205423,5,2,0:0:0:0:
49,275,205673,1,2,0:0:0:0:
223,384,205923,6,0,P|207:352|181:327,1,60,2|0,2:3|0:0,0:0:0:0:
250,261,206173,6,0,P|212:247|168:249,1,83.9999974365235,2|0,2:3|0:0,0:0:0:0:
178,139,206423,6,0,P|134:160|95:208,1,107.999996704102,0|0,3:0|0:0,0:0:0:0:
33,84,206673,6,0,P|12:143|14:212,1,132.00000402832,0|0,3:0|0:0,0:0:0:0:
0,358,206923,6,0,L|130:331,1,120,0|0,3:0|0:0,0:0:0:0:
204,314,207423,1,0,3:0:0:0:
119,90,207923,2,0,L|252:118,1,120,2|0,3:0|0:0,0:0:0:0:
290,30,208423,1,0,3:0:0:0:
363,47,208548,1,0,0:0:0:0:
360,127,208673,2,0,L|384:183,1,40
468,165,208923,6,0,L|445:236,1,70,2|0,3:0|0:0,0:0:0:0:
493,280,209423,2,0,L|366:242,1,120,0|0,3:0|0:0,0:0:0:0:
198,57,209923,6,0,L|219:126,1,70,2|0,3:0|0:0,0:0:0:0:
173,172,210423,2,0,L|300:134,1,120,0|0,3:0|0:0,0:0:0:0:
508,3,210923,6,0,P|465:30|443:36,1,70,0|0,3:0|0:0,0:0:0:0:
411,117,211423,2,0,P|352:67|299:49,1,120,0|0,3:0|0:0,0:0:0:0:
176,19,211923,5,2,0:0:0:0:
253,156,212173,1,2,0:3:0:0:
110,290,212423,2,0,P|134:257|205:277,1,120,2|0,0:0|0:0,0:0:0:0:
159,362,212923,6,0,P|75:359|16:305,1,149.333333333333,0|0,3:0|0:0,0:0:0:0:
39,164,213423,1,4,3:2:0:0:
256,200,213673,1,0,0:0:0:0:
353,362,213923,6,0,P|437:359|496:305,1,149.333333333333,0|0,3:0|0:0,0:0:0:0:
473,164,214423,1,4,3:2:0:0:
256,199,214673,1,0,0:0:0:0:
225,116,214923,6,0,P|244:67|284:127,1,149.333333333333,0|0,3:0|0:0,0:0:0:0:
256,199,215423,1,4,3:2:0:0:
256,368,215673,1,0,0:0:0:0:
116,250,215923,6,0,L|87:131,1,96,0|0,3:0|0:0,0:0:0:0:
22,96,216173,2,0,L|4:139,1,32,0|0,0:0|0:0,0:0:0:0:
371,167,216423,6,0,L|399:49,1,120,4|0,3:2|0:0,0:0:0:0:
467,0,216673,2,0,L|488:42,1,40,0|0,0:0|0:0,0:0:0:0:
427,314,216923,6,0,P|390:336|439:333,1,120,4|0,3:0|0:0,0:0:0:0:
301,278,217173,2,0,P|245:300|305:288,1,180.000006866455,2|0,0:0|0:0,0:0:0:0:
444,297,217423,2,0,B|466:182|466:182|323:150|323:150|300:262,1,360.000013732911,2|0,3:2|0:0,0:0:0:0:
151,289,217923,6,0,P|121:222|140:176,1,95.9999970703126,8|0,3:2|0:0,0:0:0:0:
214,44,218173,2,0,P|240:82|240:130,1,95.9999970703126,8|0,3:2|0:0,0:0:0:0:
200,224,218423,5,2,0:0:0:0:
325,204,218548,1,2,0:0:0:0:
450,184,218673,1,8,3:2:0:0:
450,184,218798,1,0,0:0:0:0:
460,375,218923,6,0,P|426:319|319:295,1,136.000002593994,8|0,3:0|0:0,0:0:0:0:
250,127,219173,2,0,P|216:183|109:207,1,136.000002593994,8|0,3:0|0:0,0:0:0:0:
7,69,219423,2,0,P|33:102|44:129,1,55.9999982910157,2|0,3:0|0:0,0:0:0:0:
1,214,219673,1,0,3:2:0:0:
1,214,219798,1,0,3:2:0:0:
53,322,219923,5,8,3:2:0:0:
138,246,220048,1,0,0:0:0:0:
208,384,220173,1,8,3:2:0:0:
208,384,220423,2,0,P|181:306|206:149,1,240,0|0,3:0|0:0,0:0:0:0:
317,85,220923,6,0,P|262:92|232:29,1,120,4|0,3:2|0:0,0:0:0:0:
109,0,221423,2,0,P|135:49|141:87,1,80,0|0,3:0|3:0,0:0:0:0:
56,163,221798,1,0,3:0:0:0:
2,109,221923,6,0,L|193:170,1,180.000006866455,8|0,3:2|0:0,0:0:0:0:
227,318,222173,2,0,L|409:261,1,180.000006866455,8|0,3:2|0:0,0:0:0:0:
486,238,222423,1,2,3:2:0:0:
486,238,222548,1,2,0:2:0:0:
394,146,222673,1,2,3:2:0:0:
394,146,222798,1,2,0:2:0:0:
496,72,222923,6,0,P|488:157|449:213,2,128,0|0|8,3:0|3:0|3:0,0:0:0:0:
394,146,223673,1,0,0:0:0:0:
322,1,223923,1,8,3:2:0:0:
244,39,224048,1,8,3:2:0:0:
292,104,224173,1,0,3:2:0:0:
273,128,224298,1,0,3:2:0:0:
170,183,224423,2,0,P|206:189|245:220,1,64,0|0,3:2|0:0,0:0:0:0:
346,284,224673,2,0,P|310:290|271:321,1,64,0|0,3:2|0:0,0:0:0:0:
156,312,224923,6,0,B|131:277|131:277|319:339|319:339|285:302,1,287.999991210938,4|0,3:1|3:2,0:0:0:0:
255,224,225423,2,0,P|222:241|203:284,1,71.9999978027344,4|0,3:2|0:0,0:0:0:0:
88,79,226173,6,0,P|51:51|-18:54,1,107.999996704102,0|0,3:2|0:0,0:0:0:0:
90,164,226423,2,0,P|97:120|117:83,1,71.9999978027344,4|0,3:2|0:0,0:0:0:0:
438,88,226923,6,0,B|463:53|463:53|275:115|275:115|309:78,1,287.999991210938,4|0,3:2|0:0,0:0:0:0:
339,0,227423,2,0,P|371:17|390:60,1,71.9999978027344,4|0,3:2|0:0,0:0:0:0:
413,239,228173,6,0,P|450:211|519:214,1,107.999996704102,0|0,3:2|0:0,0:0:0:0:
411,324,228423,2,0,P|404:280|384:243,1,71.9999978027344,4|0,3:2|0:0,0:0:0:0:
42,11,228923,6,0,B|85:18|85:18|60:31|60:31|39:159|39:159|13:168|13:168|69:179,1,280,4|0,3:2|0:0,0:0:0:0:
257,138,229423,2,0,P|215:62|205:180,1,280,2|0,3:2|0:0,0:0:0:0:
321,301,229923,6,0,L|348:166,1,120.000004577637,8|0,3:2|0:0,0:0:0:0:
490,213,230173,2,0,L|457:355,1,120.000004577637,8|0,3:2|0:0,0:0:0:0:
365,243,230423,2,0,L|443:260,1,80,2|0,0:0|0:0,0:0:0:0:
386,340,230673,1,8,3:2:0:0:
386,340,230798,1,0,0:0:0:0:
243,311,230923,6,0,P|226:261|286:181,1,120.000004577637,8|0,3:0|0:0,0:0:0:0:
166,16,231173,2,0,P|183:66|123:146,1,120.000004577637,8|0,3:0|0:0,0:0:0:0:
14,252,231423,2,0,P|-17:181|68:234,1,240.000009155274,2|0,3:0|3:2,0:0:0:0:
128,372,231923,5,8,3:2:0:0:
252,349,232048,1,0,0:0:0:0:
173,250,232173,1,8,3:2:0:0:
173,250,232423,2,0,P|260:202|406:234,1,240,0|0,3:0|0:0,0:0:0:0:
508,289,232923,6,0,P|433:245|496:121,1,240,4|0,3:2|0:0,0:0:0:0:
266,0,233423,2,0,P|341:44|278:168,1,240,0|0,3:0|3:0,0:0:0:0:
137,95,233923,2,0,L|117:36,1,40,8|0,3:2|0:0,0:0:0:0:
204,225,234173,2,0,L|224:166,1,40,8|0,3:2|0:0,0:0:0:0:
112,320,234423,5,2,3:2:0:0:
83,245,234548,1,2,0:2:0:0:
8,273,234673,1,2,3:2:0:0:
37,348,234798,1,2,0:2:0:0:
246,364,234923,6,0,B|217:221|178:324|143:145,1,240,4|0,3:2|0:0,0:0:0:0:
160,25,235423,2,0,B|208:68|208:68|145:144|48:76,1,240,8|0,3:0|0:0,0:0:0:0:
0,251,235923,6,0,P|44:206|126:196,1,120.000004577637,12|0,3:2|0:0,0:0:0:0:
253,360,236173,2,0,P|191:344|139:276,1,120.000004577637,0|0,3:2|0:0,0:0:0:0:
240,115,236423,2,0,L|291:264,1,120.000004577637,4|0,3:2|0:0,0:0:0:0:
423,382,236673,2,0,L|469:245,1,120.000004577637,0|0,3:2|0:0,0:0:0:0:
510,139,236923,5,4,3:1:0:0:
510,139,237173,1,0,0:0:0:0:
370,184,237423,1,0,3:0:0:0:
220,7,237673,1,0,0:0:0:0:
52,177,237923,6,0,P|100:121|170:114,1,120.000004577637,8|0,3:2|0:0,0:0:0:0:
240,295,238173,2,0,P|192:239|105:230,1,120.000004577637,8|0,3:2|0:0,0:0:0:0:
105,4,238423,2,0,L|188:362,1,360.000013732911,0|0,3:0|0:0,0:0:0:0:
256,192,238923,5,4,3:2:0:0:
256,192,238985,12,0,240673,3:0:0:0:
256,192,240923,5,4,3:2:0:0:
256,192,242173,1,0,3:0:0:0:
274,112,242423,1,0,3:0:0:0:
301,1,242673,1,0,3:0:0:0:
231,284,242923,6,0,P|193:273|148:252,1,80,4|0,3:0|0:0,0:0:0:0:
35,329,243423,2,0,P|72:339|118:361,1,80,2|0,3:0|0:0,0:0:0:0:
239,266,243923,2,0,P|233:234|209:178,1,80,0|0,3:0|0:0,0:0:0:0:
134,92,244423,2,0,P|140:60|164:4,1,80,2|0,3:0|0:0,0:0:0:0:
340,69,244923,6,0,P|392:73|479:4,1,160,0|2,3:0|3:0,0:0:0:0:
172,179,245923,2,0,P|120:183|33:114,1,160,0|2,3:0|3:0,0:0:0:0:
427,384,246923,6,0,P|454:346|458:289,1,80,12|0,3:1|0:0,0:0:0:0:
331,194,247423,2,0,P|340:232|364:264,1,80,2|0,3:0|0:0,0:0:0:0:
503,181,247923,2,0,L|405:203,1,80,0|0,3:0|0:0,0:0:0:0:
301,331,248423,2,0,L|379:313,1,80,2|0,3:0|0:0,0:0:0:0:
346,146,248923,6,0,P|303:98|320:-19,1,160,0|2,3:0|3:0,0:0:0:0:
317,13,249673,1,0,0:0:0:0:
198,128,249923,2,0,P|122:118|56:54,1,160,0|2,3:0|3:0,0:0:0:0:
3,335,250923,6,0,P|26:241|86:190,1,160,0|2,3:0|3:0,0:0:0:0:
192,149,251923,2,0,P|209:198|305:239,1,160,0|2,3:0|3:0,0:0:0:0:
450,193,252923,5,0,3:0:0:0:
373,76,253423,1,2,3:0:0:0:
490,11,253923,1,0,3:0:0:0:
373,76,254173,1,0,0:0:0:0:
450,193,254423,1,2,3:0:0:0:
326,261,254673,1,0,0:0:0:0:
469,349,254923,6,0,B|514:248|442:194|312:114|256:223|270:307|341:370|401:313|439:261|436:227|382:182|334:79|228:163,1,600,0|0,3:0|0:0,0:0:0:0:
127,139,256923,6,0,P|80:85|83:-21,1,160,0|2,3:0|3:0,0:0:0:0:
219,190,257923,2,0,P|169:251|167:330,1,160,0|2,3:0|3:0,0:0:0:0:
256,368,258918,5,0,3:0:0:0:
256,368,259167,1,2,0:0:0:0:
307,316,259292,2,0,L|317:269,2,27.9999991455078
202,185,259667,1,2,0:0:0:0:
348,80,259917,2,0,P|402:83|439:43,1,111.999996582031,0|0,3:0|3:0,0:0:0:0:
511,234,260417,2,0,P|474:194|419:197,1,111.999996582031,0|0,3:0|3:0,0:0:0:0:
344,307,260917,5,0,3:0:0:0:
344,307,261167,2,0,L|294:324,2,37.3333321940105,2|2|2,0:0|0:0|0:0,0:0:0:0:
295,242,261417,1,2,0:0:0:0:
173,352,261667,1,2,0:0:0:0:
45,235,261917,5,0,3:0:0:0:
198,96,262125,2,0,P|201:132|187:180,1,74.6666643880209
130,264,262418,2,0,L|94:90,1,167.999994873047,0|0,3:0|0:0,0:0:0:0:
68,2,262918,5,0,3:0:0:0:
68,2,263168,1,2,0:0:0:0:
57,37,263251,1,2,0:0:0:0:
46,73,263334,1,2,0:0:0:0:
35,109,263417,1,2,0:0:0:0:
13,198,263668,1,2,0:0:0:0:
287,323,263918,5,2,0:0:0:0:
287,323,264168,1,0,0:0:0:0:
280,303,264251,1,0,0:0:0:0:
274,283,264334,1,0,0:0:0:0:
268,263,264417,1,0,0:0:0:0:
256,214,264668,1,0,0:0:0:0:
68,2,264918,5,0,3:0:0:0:
68,2,265168,1,2,0:0:0:0:
57,37,265251,1,2,0:0:0:0:
46,73,265334,1,2,0:0:0:0:
35,109,265417,1,2,0:0:0:0:
13,198,265667,1,2,0:0:0:0:
287,323,265917,5,2,0:0:0:0:
287,323,266167,1,0,0:0:0:0:
280,303,266250,1,0,0:0:0:0:
274,283,266333,1,0,0:0:0:0:
268,263,266417,1,0,0:0:0:0:
386,169,266667,1,0,0:0:0:0:
240,18,266917,6,0,P|256:60|305:85,1,95.9999970703126,0|2,0:0|0:3,0:0:0:0:
478,52,267917,1,2,0:3:0:0:
508,169,268417,1,2,3:3:0:0:
486,295,268917,6,0,L|409:310,1,71.9999978027344,2|0,3:3|0:0,0:0:0:0:
404,167,269417,2,0,L|329:151,1,71.9999978027344,2|0,3:3|0:0,0:0:0:0:
248,285,269917,6,0,L|98:312,1,143.999995605469,2|0,3:3|0:0,0:0:0:0:
141,109,270417,2,0,L|-19:81,1,143.999995605469,2|0,3:3|0:0,0:0:0:0:
19,290,270927,5,4,0:3:0:0:
136,252,271177,1,0,0:0:0:0:
280,376,271427,1,8,0:0:0:0:
280,376,271802,1,8,0:0:0:0:
280,376,271927,1,8,0:0:0:0:
351,257,272177,1,8,0:0:0:0:
253,156,272427,1,0,0:0:0:0:
248,132,272552,1,8,0:0:0:0:
243,108,272677,1,0,0:0:0:0:
238,85,272802,1,8,0:0:0:0:
234,61,272927,5,8,0:0:0:0:
502,169,273177,1,8,0:0:0:0:
311,368,273427,1,8,0:0:0:0:
311,368,273677,1,8,0:0:0:0:
349,341,273802,1,8,0:0:0:0:
396,343,273927,5,8,0:0:0:0:
326,384,274052,1,8,0:0:0:0:
265,294,274177,1,8,0:0:0:0:
265,294,274427,2,0,P|298:237|279:150,1,143.999995605469,8|0,0:0|0:0,0:0:0:0:
178,78,274927,6,0,L|74:102,2,95.9999970703126,12|8|8,0:0|0:0|0:0,0:0:0:0:
269,62,275677,1,0,0:0:0:0:
216,149,275802,1,8,0:0:0:0:
216,149,275927,5,8,0:0:0:0:
339,211,276177,1,8,0:0:0:0:
290,361,276427,1,8,0:0:0:0:
282,338,276552,1,8,0:0:0:0:
267,319,276677,1,8,0:0:0:0:
247,306,276802,1,8,0:0:0:0:
224,301,276927,5,8,0:0:0:0:
102,361,277177,1,8,0:0:0:0:
1,192,277427,2,0,L|10:162,6,23.9999992675781,10|0|0|0|0|0|0,0:0|0:0|0:0|0:0|0:0|0:0|0:0,0:0:0:0:
97,154,277927,1,8,0:0:0:0:
97,154,278052,1,0,0:0:0:0:
49,74,278177,1,8,0:0:0:0:
49,74,278302,1,8,0:0:0:0:
130,23,278426,2,0,L|122:-6,6,23.9999992675781,2|0|0|0|0|0|0,0:0|0:0|0:0|0:0|0:0|0:0|0:0,0:0:0:0:
16,181,278927,6,0,P|182:218|249:390,1,287.999991210938,4|0,3:1|3:2,0:0:0:0:
218,384,279427,2,0,P|228:340|264:305,1,71.9999978027344,4|0,3:2|0:0,0:0:0:0:
505,33,280177,6,0,L|390:64,1,107.999996704102,0|0,3:2|0:0,0:0:0:0:
360,129,280427,2,0,L|273:104,1,71.9999978027344,4|0,3:2|0:0,0:0:0:0:
512,346,280927,6,0,P|346:309|279:137,1,287.999991210938,4|0,3:2|0:0,0:0:0:0:
310,143,281427,2,0,P|302:181|270:218,1,71.9999978027344,4|0,3:2|0:0,0:0:0:0:
0,228,282177,6,0,L|109:260,1,107.999996704102,0|0,3:2|0:0,0:0:0:0:
148,334,282427,2,0,P|253:347|180:113,1,431.999986816407,4|0,3:2|0:0,0:0:0:0:
188,25,282927,6,0,B|168:9|168:9|160:-21|160:-21|132:2|132:2|122:8|122:8|114:29|114:29|101:29|101:29|102:55|102:55|37:80|31:202|31:202|-1:210|-24:225|-24:225|13:258|70:252,1,431.999986816407,4|0,3:2|0:0,0:0:0:0:
46,252,283427,2,0,B|137:260|234:189|234:189|201:171|168:170|168:170|144:126|109:80|109:80|81:54|63:91,1,431.999986816407,2|0,3:2|0:0,0:0:0:0:
88,108,283927,6,0,P|168:96|196:67,1,95.9999970703126,8|0,3:2|0:0,0:0:0:0:
291,0,284177,2,0,P|296:54|328:108,1,95.9999970703126,8|0,3:2|0:0,0:0:0:0:
510,259,284427,1,2,0:0:0:0:
460,156,284552,1,2,0:0:0:0:
344,194,284677,1,8,3:2:0:0:
78,59,284927,6,0,P|140:80|150:144,1,136.000002593994,8|0,3:0|0:0,0:0:0:0:
0,347,285177,2,0,P|10:283|72:263,1,136.000002593994,8|0,3:0|0:0,0:0:0:0:
224,311,285427,2,0,L|383:273,1,136.000002593994,2|0,3:0|0:0,0:0:0:0:
429,202,285677,1,0,3:2:0:0:
360,94,285802,1,0,3:2:0:0:
424,6,285927,6,0,P|426:93|376:134,1,136.000002593994,8|0,3:2|0:0,0:0:0:0:
214,0,286177,2,0,P|276:60|270:124,1,136.000002593994,8|0,3:2|0:0,0:0:0:0:
20,227,286427,2,0,P|58:182|147:185,1,136.000002593994,0|0,3:0|0:0,0:0:0:0:
131,384,286677,1,0,0:0:0:0:
65,330,286802,1,0,0:0:0:0:
113,256,286927,6,0,P|201:261|227:283,1,120,4|0,3:2|0:0,0:0:0:0:
371,173,287427,2,0,P|315:208|258:204,1,120,0|0,3:0|3:0,0:0:0:0:
198,129,287927,1,8,3:2:0:0:
198,129,288177,1,8,3:2:0:0:
50,20,288427,5,2,3:2:0:0:
10,93,288552,1,2,0:2:0:0:
34,173,288677,1,2,3:2:0:0:
113,199,288802,1,2,0:2:0:0:
198,129,288927,6,0,P|137:181|153:298,1,192,4|0,3:2|0:0,0:0:0:0:
45,331,289427,2,0,B|113:313|113:313|153:333|153:333|250:313,1,192,8|0,3:0|0:0,0:0:0:0:
429,345,289927,6,0,P|372:294|399:204,1,180.000006866455,12|0,3:2|0:0,0:0:0:0:
502,182,290177,1,0,3:2:0:0:
261,186,290427,2,0,P|318:135|293:38,1,180.000006866455,4|0,3:2|0:0,0:0:0:0:
189,23,290677,1,0,3:2:0:0:
472,0,290927,6,0,P|418:83|462:231,1,256,4|0,3:1|3:0,0:0:0:0:
457,226,291677,1,0,0:0:0:0:
457,226,291927,2,0,P|421:211|380:206,1,64,8|0,3:2|0:0,0:0:0:0:
340,113,292176,2,0,P|304:128|263:133,1,64,8|0,3:2|0:0,0:0:0:0:
123,109,292427,2,0,L|170:260,1,128,0|0,3:0|0:0,0:0:0:0:
49,364,292927,5,4,3:2:0:0:
245,277,293177,1,8,0:0:0:0:
3,259,293427,1,0,3:2:0:0:
258,309,293677,1,8,0:0:0:0:
90,271,293927,6,0,P|72:218|29:172,1,96,0|0,3:2|0:0,0:0:0:0:
214,215,294177,6,0,P|232:162|274:111,1,120,0|0,3:2|0:0,0:0:0:0:
75,183,294427,6,0,P|52:117|-1:57,1,143.999995605469,0|0,3:2|0:0,0:0:0:0:
206,153,294677,6,0,P|233:70|293:-3,1,167.999994873047,0|0,3:0|0:0,0:0:0:0:
412,184,294927,6,0,B|440:166|478:199|470:230|443:310|364:314|298:250|320:201|335:178,1,280,4|0,3:0|0:0,0:0:0:0:
337,167,295427,2,0,B|355:102|400:133|440:92|437:45|408:8|357:-6|357:-6|336:22|333:64,1,280,2|0,3:2|0:0,0:0:0:0:
348,70,295927,2,0,L|412:252,1,180.000006866455,8|0,3:2|0:0,0:0:0:0:
411,254,296177,2,0,B|442:346|442:346|443:357|413:378|390:364|387:337|416:310,1,180.000006866455,8|0,3:2|0:0,0:0:0:0:
271,248,296427,5,2,0:0:0:0:
161,228,296552,1,2,0:0:0:0:
51,208,296677,1,8,3:2:0:0:
159,308,296927,6,0,B|184:327|184:327|156:230,1,120.000004577637,8|0,3:0|0:0,0:0:0:0:
159,83,297177,2,0,B|133:63|133:63|161:160,1,120.000004577637,8|0,3:0|0:0,0:0:0:0:
298,264,297427,2,0,B|370:242|343:288|425:265,1,120.000004577637,2|0,3:0|0:0,0:0:0:0:
502,201,297677,1,0,3:2:0:0:
407,88,297802,1,0,3:2:0:0:
510,1,297927,6,0,P|466:72|421:91,1,120.000004577637,8|0,3:2|0:0,0:0:0:0:
306,153,298177,2,0,P|232:123|198:70,1,120.000004577637,8|0,3:2|0:0,0:0:0:0:
40,7,298427,2,0,P|84:44|83:93,1,80,0|0,3:0|0:0,0:0:0:0:
152,168,298677,2,0,P|108:205|110:250,1,80,8|0,3:0|0:0,0:0:0:0:
211,344,298927,6,0,B|253:363|282:260|219:234|117:256|95:332,1,240,4|0,3:2|0:0,0:0:0:0:
17,362,299427,2,0,B|-12:236|48:275|13:119,1,240,0|0,3:0|3:0,0:0:0:0:
80,10,299927,2,0,L|100:57,1,40,8|0,3:2|0:0,0:0:0:0:
189,176,300177,2,0,L|202:136,1,40,8|0,3:2|0:0,0:0:0:0:
368,35,300427,5,2,3:2:0:0:
480,149,300552,1,2,0:2:0:0:
370,5,300677,1,2,3:2:0:0:
337,249,300802,1,2,0:2:0:0:
207,124,300927,6,0,P|246:123|281:141,1,80,0|0,3:0|0:0,0:0:0:0:
408,233,301177,2,0,P|369:227|336:248,1,80,0|0,3:0|0:0,0:0:0:0:
374,372,301427,2,0,B|271:351|271:351|239:313|239:313|133:286,1,240,8|0,3:0|0:0,0:0:0:0:
45,322,301927,5,8,3:2:0:0:
178,221,302052,1,8,3:2:0:0:
0,180,302177,1,0,3:2:0:0:
0,180,302302,1,0,3:0:0:0:
94,16,302427,6,0,P|82:70|118:128,1,120.000004577637,0|0,3:2|0:0,0:0:0:0:
210,108,302677,2,0,P|222:54|186:-3,1,120.000004577637,0|0,3:2|0:0,0:0:0:0:
357,85,302927,6,0,P|284:82|368:217,1,287.999991210938,4|0,3:1|3:2,0:0:0:0:
392,194,303427,2,0,P|399:147|376:101,1,71.9999978027344,4|0,3:2|0:0,0:0:0:0:
64,337,304177,6,0,P|27:285|52:218,1,107.999996704102,0|0,3:2|0:0,0:0:0:0:
127,226,304427,2,0,P|150:259|139:315,1,71.9999978027344,4|0,3:2|0:0,0:0:0:0:
408,210,304927,6,0,P|481:207|397:342,1,287.999991210938,4|0,3:2|0:0,0:0:0:0:
373,319,305426,2,0,P|366:272|389:226,1,71.9999978027344,4|0,3:2|0:0,0:0:0:0:
229,127,306177,6,0,P|262:99|258:31,1,107.999996704102,0|0,3:2|0:0,0:0:0:0:
161,0,306427,2,0,P|124:52|220:-9,1,431.999986816407,4|0,3:2|0:0,0:0:0:0:
155,228,306927,6,0,P|174:166|346:129,1,240,4|0,3:2|0:0,0:0:0:0:
502,370,307427,2,0,P|483:308|318:266,1,240,2|2,3:2|0:0,0:0:0:0:
259,358,307927,2,0,B|254:283|217:319|213:244,1,120.000004577637,8|0,3:2|0:0,0:0:0:0:
180,32,308177,2,0,B|184:106|221:70|225:145,1,120.000004577637,8|0,3:2|0:0,0:0:0:0:
123,270,308427,5,2,0:0:0:0:
228,231,308552,1,2,0:0:0:0:
333,193,308677,1,8,3:2:0:0:
469,349,308927,6,0,P|445:296|394:266,1,120.000004577637,8|0,3:0|0:0,0:0:0:0:
244,157,309177,2,0,P|186:163|151:209,1,120.000004577637,8|0,3:0|0:0,0:0:0:0:
179,381,309427,2,0,B|134:191|35:319|-1:77,1,360.000013732911,2|0,3:0|3:2,0:0:0:0:
109,91,309927,6,0,P|148:73|115:105,1,120.000004577637,8|0,3:2|0:0,0:0:0:0:
263,193,310177,2,0,P|223:175|256:207,1,120.000004577637,8|0,3:2|0:0,0:0:0:0:
439,117,310427,2,0,P|432:78|453:13,1,80,0|0,3:0|0:0,0:0:0:0:
330,25,310676,2,0,P|336:63|315:128,1,80,0|0,0:0|0:0,0:0:0:0:
447,239,310927,6,0,P|357:196|293:322,1,240,4|0,3:2|0:0,0:0:0:0:
15,144,311426,2,0,P|104:101|168:227,1,240,0|0,3:0|3:0,0:0:0:0:
269,66,311927,2,0,L|213:88,1,40,8|0,3:2|0:0,0:0:0:0:
142,306,312176,2,0,L|179:291,1,40,8|0,3:2|0:0,0:0:0:0:
408,376,312427,5,2,3:2:0:0:
457,299,312552,1,2,0:2:0:0:
381,250,312677,1,2,3:2:0:0:
331,326,312802,1,2,0:2:0:0:
506,290,312927,6,0,B|550:132|458:217|519:20,1,240,4|0,3:2|0:0,0:0:0:0:
377,220,313427,2,0,B|254:111|377:132|219:0,1,240,8|0,3:0|0:0,0:0:0:0:
8,74,313927,6,0,P|85:144|162:134,1,180.000006866455,12|0,3:2|0:0,0:0:0:0:
226,120,314177,2,0,P|224:163|197:208,1,60.0000022888184,0|0,3:2|0:0,0:0:0:0:
511,263,314426,2,0,P|434:333|357:323,1,180.000006866455,4|0,3:2|0:0,0:0:0:0:
293,309,314676,2,0,P|295:352|322:397,1,60.0000022888184,0|0,3:2|0:0,0:0:0:0:
373,204,314927,6,0,L|362:152,1,40,4|0,3:1|0:0,0:0:0:0:
349,89,315177,1,0,0:0:0:0:
331,6,315427,1,0,3:0:0:0:
349,89,315677,1,0,0:0:0:0:
200,156,315927,6,0,P|137:152|102:106,1,120.000004577637,8|0,3:2|0:0,0:0:0:0:
326,232,316176,2,0,P|364:188|422:186,1,120.000004577637,8|0,3:2|0:0,0:0:0:0:
299,368,316427,2,0,P|246:300|314:6,1,360.000013732911,0|0,3:0|0:0,0:0:0:0:
512,39,316927,6,0,P|476:78|420:97,1,80,4|0,3:2|0:0,0:0:0:0:
286,120,317177,2,0,P|335:137|366:172,1,80,0|0,0:0|0:0,0:0:0:0:
300,364,317427,2,0,P|386:361|305:284,1,240,8|0,3:1|0:0,0:0:0:0:
228,275,317927,6,0,P|199:244|145:229,1,80,0|0,3:0|0:0,0:0:0:0:
1,126,318177,2,0,P|50:108|86:69,1,80,0|0,0:0|0:0,0:0:0:0:
167,0,318427,2,0,L|194:130,1,120,8|0,3:3|0:0,0:0:0:0:
208,185,318677,1,0,0:0:0:0:
290,44,318802,1,0,0:0:0:0:
401,76,318927,6,0,B|412:57|426:22|426:22|394:6|362:-6|362:-6|285:72|285:72|368:74,1,311.999985717774,4|0,3:2|0:0,0:0:0:0:
78,161,319427,2,0,B|58:150|28:128|28:128|47:97|66:70|66:70|174:98|174:98|104:142,1,311.999985717774,0|0,3:3|0:0,0:0:0:0:
338,331,319927,6,0,B|407:313|407:313|432:289|432:289|452:275|452:275|469:229|456:135|456:135|413:191|369:210|369:210|372:249|372:249|341:228|341:228|287:247,1,503.999984619141,4|0,3:2|0:0,0:0:0:0:
235,360,320427,2,0,B|165:378|165:378|132:369|132:369|107:366|107:366|70:335|36:246|36:246|101:273|148:269|148:269|165:305|165:305|182:272|182:272|221:265,1,503.999984619141,4|0,3:2|0:0,0:0:0:0:
293,158,320927,6,0,B|230:83|230:83|206:182|206:182|294:157,1,240.000009155274,4|0,3:2|3:0,0:0:0:0:
398,222,321427,1,0,3:0:0:0:
405,199,321677,1,0,3:0:0:0:
412,176,321927,1,0,3:0:0:0:
419,153,322177,1,0,3:0:0:0:
427,130,322427,1,0,3:0:0:0:
434,107,322677,1,0,3:0:0:0:
408,330,322927,6,0,B|463:304|436:221|363:198|257:259,1,240.000009155274,4|0,3:0|3:0,0:0:0:0:
154,318,323427,1,0,3:0:0:0:
131,311,323677,1,0,3:0:0:0:
108,303,323927,1,0,3:0:0:0:
85,296,324177,1,0,3:0:0:0:
62,289,324427,1,0,3:0:0:0:
39,282,324677,1,0,3:0:0:0:
12,39,324927,6,0,P|77:61|102:126,1,120,4|0,3:1|0:0,0:0:0:0:
101,184,325177,1,2,0:0:0:0:
310,172,325427,2,0,P|237:190|212:255,1,120,0|0,3:2|0:0,0:0:0:0:
210,304,325677,1,2,0:0:0:0:
381,356,325927,6,0,P|349:305|365:226,1,127.99999609375,2|0,3:2|0:0,0:0:0:0:
511,312,326177,2,0,P|506:252|456:209,1,127.99999609375,2|0,3:2|0:0,0:0:0:0:
359,65,326427,2,0,P|383:99|466:95,1,130,2|0,0:0|0:0,0:0:0:0:
509,29,326927,6,0,P|466:68|463:109,1,80,2|0,3:2|0:0,0:0:0:0:
503,198,327177,1,2,0:0:0:0:
503,198,327302,1,2,0:0:0:0:
296,145,327427,6,0,P|339:184|342:225,1,80,2|0,3:2|0:0,0:0:0:0:
302,314,327677,1,2,0:0:0:0:
302,314,327802,1,2,0:0:0:0:
109,275,327927,6,0,B|125:250|124:219|124:219|145:242|199:243,1,120.000004577637,0|0,3:2|0:0,0:0:0:0:
296,145,328176,2,0,B|279:120|280:89|280:89|259:112|205:113,1,120.000004577637,8|0,3:2|0:0,0:0:0:0:
12,0,328427,2,0,P|5:84|76:97,1,120.000004577637,8|0,3:2|0:0,0:0:0:0:
137,50,328677,1,8,3:2:0:0:
42,189,328802,1,8,3:2:0:0:
180,259,328927,6,0,P|185:184|265:155,1,143.999995605469,4|0,3:2|0:0,0:0:0:0:
322,153,329177,1,2,0:2:0:0:
436,376,329427,2,0,P|431:301|352:275,1,143.999995605469,0|0,3:2|0:0,0:0:0:0:
293,271,329677,1,2,0:2:0:0:
79,311,329927,6,0,P|154:289|189:237,1,120.000004577637,0|0,3:2|0:0,0:0:0:0:
207,64,330177,2,0,P|249:105|307:116,1,120.000004577637,2|0,3:2|0:0,0:0:0:0:
512,5,330427,2,0,P|462:37|452:104,1,120,0|0,3:2|0:0,0:0:0:0:
512,322,330927,5,0,3:2:0:0:
462,213,331052,1,0,0:0:0:0:
344,252,331177,1,10,0:0:0:0:
215,66,331427,2,0,P|269:124|341:131,1,120.000004577637,0|0,3:2|0:0,0:0:0:0:
202,207,331677,2,0,P|148:149|60:140,1,120.000004577637,10|0,0:0|0:0,0:0:0:0:
0,241,331927,5,0,3:2:0:0:
81,220,332052,1,0,0:0:0:0:
230,369,332177,1,2,3:2:0:0:
149,348,332302,1,0,0:0:0:0:
56,324,332427,2,0,L|184:282,1,120,0|0,3:2|0:0,0:0:0:0:
336,292,332927,6,0,B|303:252|303:252|334:154,1,120,4|0,3:2|0:0,0:0:0:0:
353,111,333177,1,2,0:0:0:0:
206,0,333427,2,0,B|239:40|239:40|206:137,1,120,0|0,3:2|0:0,0:0:0:0:
189,181,333677,1,2,0:0:0:0:
27,60,333927,6,0,P|96:83|126:122,1,95.9999970703126,2|0,3:2|0:0,0:0:0:0:
280,234,334177,2,0,P|211:257|177:306,1,95.9999970703126,2|0,3:2|0:0,0:0:0:0:
149,384,334427,2,0,P|140:323|198:323,1,130,2|0,0:0|0:0,0:0:0:0:
256,384,334927,6,0,B|235:366|235:366|262:314,1,80,2|0,3:2|0:0,0:0:0:0:
353,296,335177,1,2,0:0:0:0:
353,296,335302,1,2,0:0:0:0:
220,196,335427,6,0,B|241:178|241:178|214:126,1,80,2|0,3:2|0:0,0:0:0:0:
123,108,335677,1,2,0:0:0:0:
123,108,335802,1,2,0:0:0:0:
230,16,335927,6,0,P|303:28|323:73,1,120.000004577637,0|0,3:2|0:0,0:0:0:0:
472,110,336176,2,0,P|399:122|379:167,1,120.000004577637,8|0,3:2|0:0,0:0:0:0:
322,329,336427,2,0,B|337:346|354:348|380:316|351:264|293:253,1,120.000004577637,8|0,3:2|0:0,0:0:0:0:
224,217,336677,1,8,3:2:0:0:
344,71,336802,1,8,3:2:0:0:
398,186,336927,6,0,P|305:178|194:6,1,287.999991210938,4|0,3:2|0:0,0:0:0:0:
43,55,337427,2,0,P|6:144|157:136,1,287.999991210938,0|0,3:2|0:0,0:0:0:0:
301,271,337927,2,0,P|265:245|231:238,1,60.0000022888184,0|0,3:2|0:0,0:0:0:0:
152,371,338177,2,0,P|188:345|221:336,1,60.0000022888184,2|0,3:2|0:0,0:0:0:0:
442,360,338427,2,0,L|413:230,1,120,0|0,3:2|0:0,0:0:0:0:
475,90,338927,5,0,3:2:0:0:
361,158,339052,1,0,0:0:0:0:
273,14,339177,1,10,0:0:0:0:
273,14,339427,2,0,P|189:67|129:66,1,120.000004577637,0|0,3:2|0:0,0:0:0:0:
4,96,339677,2,0,P|82:105|134:152,1,120.000004577637,10|0,0:0|0:0,0:0:0:0:
265,229,339927,6,0,P|268:191|282:160,1,60.0000022888184,0|0,3:2|0:0,0:0:0:0:
145,303,340177,2,0,P|158:332|161:371,1,60.0000022888184,2|0,3:2|0:0,0:0:0:0:
0,219,340427,2,0,L|129:182,1,120,0|0,3:2|0:0,0:0:0:0:
221,76,340927,5,4,3:1:0:0:
119,25,341177,1,2,0:0:0:0:
233,64,341427,1,8,0:0:0:0:
113,40,341677,1,0,0:0:0:0:
331,178,341927,6,0,P|370:157|396:71,1,128,8|2,0:0|0:0,0:0:0:0:
333,31,342302,1,0,0:0:0:0:
333,31,342427,2,0,P|282:110|322:206,1,192,8|0,0:0|0:0,0:0:0:0:
400,275,342927,5,8,0:0:0:0:
502,224,343177,1,2,0:0:0:0:
388,263,343427,1,8,0:0:0:0:
508,239,343677,1,2,0:0:0:0:
283,180,343927,6,0,P|304:216|309:251,1,64,8|0,0:0|0:0,0:0:0:0:
214,384,344177,2,0,P|217:341|237:314,1,64,2|0,0:0|0:0,0:0:0:0:
204,219,344427,2,0,L|79:186,1,128,8|8,0:0|0:0,0:0:0:0:
14,249,344802,1,8,0:0:0:0:
14,249,344927,6,0,P|61:214|76:138,1,128,10|2,0:1|0:0,0:0:0:0:
6,36,345302,1,2,0:1:0:0:
6,36,345427,2,0,P|12:94|71:145,1,128,10|0,0:1|0:0,0:0:0:0:
198,140,345802,1,10,0:1:0:0:
204,234,345927,6,0,P|239:209|282:195,1,64,2|0,0:1|0:0,0:0:0:0:
348,116,346177,2,0,P|383:140|418:155,1,64
512,105,346427,2,0,P|494:232|456:309,1,192,2|0,0:1|0:0,0:0:0:0:
352,366,346927,5,10,0:1:0:0:
385,254,347052,1,2,0:1:0:0:
282,178,347177,1,10,0:1:0:0:
424,93,347427,2,0,P|466:33|465:1,1,96,8|0,0:1|0:0,0:0:0:0:
335,71,347677,2,0,P|335:102|352:129,1,64,2|0,0:0|0:0,0:0:0:0:
502,245,347927,5,2,0:1:0:0:
420,225,348052,1,8,0:1:0:0:
357,320,348177,1,2,0:1:0:0:
275,340,348302,1,8,0:1:0:0:
133,384,348427,2,0,P|171:339|166:260,1,128,2|0,0:1|0:0,0:0:0:0:
79,228,348802,1,8,0:0:0:0:
79,228,348927,5,8,0:0:0:0:
106,133,349177,1,2,0:0:0:0:
248,96,349427,1,8,0:0:0:0:
221,1,349677,1,0,0:0:0:0:
361,177,349927,6,0,P|419:168|434:144,1,64,8|0,0:0|0:0,0:0:0:0:
460,291,350176,2,0,P|431:276|400:280,1,64,2|0,0:0|0:0,0:0:0:0:
300,258,350427,2,0,P|256:326|125:334,1,192,8|0,0:0|0:0,0:0:0:0:
3,249,350927,5,8,0:0:0:0:
45,170,351177,1,2,0:0:0:0:
122,214,351427,1,8,0:0:0:0:
80,293,351677,1,2,0:0:0:0:
235,228,351927,6,0,P|218:192|212:144,1,64,8|0,0:0|0:0,0:0:0:0:
103,93,352177,2,0,P|120:57|126:9,1,64,2|0,0:0|0:0,0:0:0:0:
293,139,352427,2,0,P|369:129|417:92,1,128,8|8,0:0|0:0,0:0:0:0:
502,3,352802,1,8,0:0:0:0:
502,3,352927,5,10,0:1:0:0:
403,27,353177,1,2,0:0:0:0:
510,223,353427,1,10,0:1:0:0:
411,199,353677,1,0,0:0:0:0:
411,199,353802,6,0,P|434:165|450:105,1,64,8|2,0:1|0:1,0:1:0:0:
285,199,354052,2,0,P|297:228|316:254,1,64,8|0,0:1|0:1,0:1:0:0:
271,366,354302,1,8,0:1:0:0:
271,366,354427,2,0,P|285:313|164:276,1,192,2|0,0:1|0:0,0:0:0:0:
0,338,354927,5,10,0:1:0:0:
87,316,355177,1,10,0:1:0:0:
0,152,355427,1,10,0:1:0:0:
87,174,355677,1,2,0:0:0:0:
87,174,355802,6,0,P|64:140|67:95,1,64,8|2,0:1|0:1,0:1:0:0:
199,168,356052,2,0,P|222:134|219:89,1,64,8|0,0:1|0:1,0:1:0:0:
186,5,356302,1,8,0:1:0:0:
186,5,356427,2,0,P|220:58|298:68,1,128,2|0,0:1|0:0,0:0:0:0:
403,40,356802,1,8,0:1:0:0:
446,174,356927,1,2,0:0:0:0:
446,174,357427,5,2,3:2:0:0:
