osu file format v14

[General]
AudioFilename: audio.mp3
AudioLeadIn: 0
PreviewTime: 48106
Countdown: 0
SampleSet: Normal
StackLeniency: 0.7
Mode: 0
LetterboxInBreaks: 0
WidescreenStoryboard: 1

[Editor]
Bookmarks: 744,10344,19944,39144,48744,58344,67944,72744,82344,91944,101544,111144,120744,130344,139944,144744,154344,163944,181944,183144,192744,202344,207144,216744,226344,229750
DistanceSpacing: 1
BeatDivisor: 4
GridSize: 32
TimelineZoom: 1.9

[Metadata]
Title:Don no Koe
TitleUnicode:鈍の聲
Artist:ABSOLUTE CASTAWAY
ArtistUnicode:ABSOLUTE CASTAWAY
Creator:Lasse
Version:Normal
Source:
Tags:mpg mappers' guild featured artist 中恵光城 mitsuki nakae meis clauson doujin japanese rock カレイドパレヱド Kaleido Parade impurepug
BeatmapID:3106035
BeatmapSetID:1516142

[Difficulty]
HPDrainRate:3
CircleSize:3.4
OverallDifficulty:5
ApproachRate:6
SliderMultiplier:2
SliderTickRate:1

[Events]
//Background and Video events
0,0,"bgbgbg.jpg",0,0
//Break Periods
2,164144,180894
//Storyboard Layer 0 (Background)
//Storyboard Layer 1 (Fail)
//Storyboard Layer 2 (Pass)
//Storyboard Layer 3 (Foreground)
//Storyboard Layer 4 (Overlay)
//Storyboard Sound Samples

[TimingPoints]
744,600,4,2,11,30,1,0
744,-142.857142857143,4,2,11,30,0,0
7944,-142.857142857143,4,2,11,35,0,0
10344,-117.647058823529,4,2,2,45,0,0
10944,-117.647058823529,4,2,11,45,0,0
19944,-111.111111111111,4,2,2,50,0,0
20394,-111.111111111111,4,2,11,50,0,0
29544,-111.111111111111,4,2,2,50,0,0
29994,-111.111111111111,4,2,11,50,0,0
38394,-111.111111111111,4,2,11,55,0,0
38544,-111.111111111111,4,2,11,60,0,0
38994,-111.111111111111,4,2,11,55,0,0
39144,-100,4,2,2,60,0,0
39444,-100,4,2,1,60,0,0
41544,-100,4,2,11,60,0,0
41844,-100,4,2,1,60,0,0
43944,-100,4,2,11,60,0,0
44394,-100,4,2,1,60,0,0
46344,-100,4,2,11,62,0,0
46644,-100,4,2,11,64,0,0
46944,-100,4,2,11,66,0,0
47244,-100,4,2,11,68,0,0
47544,-100,4,2,1,70,0,0
48144,-100,4,2,11,40,0,0
48444,-100,4,2,11,30,0,0
48744,-90.9090909090909,4,1,2,70,0,1
49044,-90.9090909090909,4,1,1,70,0,0
49569,-90.9090909090909,4,2,99,30,0,0
49644,-90.9090909090909,4,1,1,70,0,0
50244,-90.9090909090909,4,1,11,70,0,0
50394,-90.9090909090909,4,1,1,70,0,0
55044,-90.9090909090909,4,1,11,70,0,0
55269,-90.9090909090909,4,2,99,30,0,0
55344,-90.9090909090909,4,1,1,70,0,0
58044,-90.9090909090909,4,1,2,70,0,0
58344,-90.9090909090909,4,1,2,70,0,1
58644,-90.9090909090909,4,1,2,70,0,0
58794,-90.9090909090909,4,1,1,70,0,0
59169,-90.9090909090909,4,2,99,30,0,0
59244,-90.9090909090909,4,1,1,70,0,0
59844,-90.9090909090909,4,1,11,70,0,0
59994,-90.9090909090909,4,1,1,70,0,0
60969,-90.9090909090909,4,2,99,30,0,0
61044,-90.9090909090909,4,1,1,70,0,0
64644,-90.9090909090909,4,1,11,70,0,0
64794,-90.9090909090909,4,1,1,70,0,0
66369,-90.9090909090909,4,2,99,30,0,0
66444,-90.9090909090909,4,1,1,70,0,0
67944,-90.9090909090909,4,1,2,70,0,1
68244,-90.9090909090909,4,1,1,70,0,0
68769,-90.9090909090909,4,2,99,30,0,0
68844,-90.9090909090909,4,1,1,70,0,0
69444,-90.9090909090909,4,1,11,70,0,0
69594,-90.9090909090909,4,1,1,70,0,0
71169,-90.9090909090909,4,2,99,30,0,0
71244,-90.9090909090909,4,1,1,70,0,0
72744,-100,4,1,2,68,0,0
73044,-100,4,1,1,68,0,0
73194,-100,4,1,11,68,0,0
73344,-100,4,1,1,68,0,0
75144,-100,4,1,11,68,0,0
75744,-100,4,1,1,68,0,0
76044,-100,4,1,11,68,0,0
76194,-100,4,1,1,68,0,0
77544,-100,4,1,11,68,0,0
78144,-100,4,1,1,68,0,0
78369,-100,4,2,99,30,0,0
78444,-100,4,1,11,68,0,0
79344,-100,4,1,1,68,0,0
79944,-100,4,1,11,68,0,0
80544,-100,4,1,1,68,0,0
80844,-100,4,1,11,68,0,0
81294,-100,4,1,1,68,0,0
81744,-100,4,1,1,70,0,0
82344,-100,4,1,2,68,0,0
82644,-100,4,1,1,68,0,0
82794,-100,4,1,11,68,0,0
82944,-100,4,1,1,68,0,0
84744,-100,4,1,11,68,0,0
85344,-100,4,1,1,68,0,0
85644,-100,4,1,11,68,0,0
85794,-100,4,1,1,68,0,0
87144,-100,4,1,11,68,0,0
87744,-100,4,1,1,68,0,0
87969,-100,4,2,99,30,0,0
88044,-100,4,1,11,68,0,0
88944,-100,4,1,1,68,0,0
89544,-100,4,1,11,68,0,0
90144,-100,4,1,1,68,0,0
90444,-100,4,1,11,68,0,0
90894,-100,4,1,1,68,0,0
91344,-100,4,1,1,70,0,0
91644,-100,4,1,11,70,0,0
91944,-111.111111111111,4,2,2,55,0,0
92244,-111.111111111111,4,2,11,55,0,0
101544,-111.111111111111,4,2,2,55,0,0
101844,-111.111111111111,4,2,11,55,0,0
110544,-111.111111111111,4,2,11,60,0,0
110994,-111.111111111111,4,2,11,55,0,0
111144,-100,4,2,2,60,0,0
111444,-100,4,2,1,60,0,0
113544,-100,4,2,11,60,0,0
113844,-100,4,2,1,60,0,0
115944,-100,4,2,11,60,0,0
116394,-100,4,2,1,60,0,0
118344,-100,4,2,11,62,0,0
118644,-100,4,2,11,64,0,0
118944,-100,4,2,11,66,0,0
119244,-100,4,2,11,68,0,0
120144,-100,4,2,1,70,0,0
120744,-90.9090909090909,4,1,2,70,0,1
121044,-90.9090909090909,4,1,1,70,0,0
121569,-90.9090909090909,4,2,99,30,0,0
121644,-90.9090909090909,4,1,1,70,0,0
122244,-90.9090909090909,4,1,11,70,0,0
122394,-90.9090909090909,4,1,1,70,0,0
127044,-90.9090909090909,4,1,11,70,0,0
127269,-90.9090909090909,4,2,99,30,0,0
127344,-90.9090909090909,4,1,1,70,0,0
130044,-90.9090909090909,4,1,2,70,0,0
130344,-90.9090909090909,4,1,2,70,0,1
130644,-90.9090909090909,4,1,2,70,0,0
130794,-90.9090909090909,4,1,1,70,0,0
131169,-90.9090909090909,4,2,99,30,0,0
131244,-90.9090909090909,4,1,1,70,0,0
131844,-90.9090909090909,4,1,11,70,0,0
131994,-90.9090909090909,4,1,1,70,0,0
132969,-90.9090909090909,4,2,99,30,0,0
133044,-90.9090909090909,4,1,1,70,0,0
135969,-90.9090909090909,4,2,99,30,0,0
136044,-90.9090909090909,4,1,1,70,0,0
136644,-90.9090909090909,4,1,11,70,0,0
136794,-90.9090909090909,4,1,1,70,0,0
138369,-90.9090909090909,4,2,99,30,0,0
138444,-90.9090909090909,4,1,1,70,0,0
139944,-90.9090909090909,4,1,2,70,0,1
140244,-90.9090909090909,4,1,1,70,0,0
140769,-90.9090909090909,4,2,99,30,0,0
140844,-90.9090909090909,4,1,1,70,0,0
141444,-90.9090909090909,4,1,11,70,0,0
141594,-90.9090909090909,4,1,1,70,0,0
143169,-90.9090909090909,4,2,99,30,0,0
143244,-90.9090909090909,4,1,1,70,0,0
143644,-90.9090909090909,4,1,1,68,0,0
143744,-90.9090909090909,4,1,2,66,0,0
143844,-90.9090909090909,4,1,2,64,0,0
143944,-90.9090909090909,4,1,4,63,0,0
144044,-90.9090909090909,4,1,4,62,0,0
144144,-90.9090909090909,4,1,2,60,0,0
144444,-90.9090909090909,4,1,1,50,0,0
144744,-90.9090909090908,4,1,2,70,0,1
145344,-90.9090909090908,4,1,1,70,0,0
145569,-90.9090909090908,4,2,99,30,0,0
145644,-90.9090909090908,4,1,11,70,0,0
146544,-90.9090909090908,4,1,1,70,0,0
148044,-90.9090909090908,4,1,11,70,0,0
148494,-90.9090909090908,4,1,1,70,0,0
149244,-90.9090909090908,4,1,11,70,0,0
149544,-90.9090909090908,4,1,2,70,0,0
149844,-90.9090909090908,4,1,1,70,0,0
150369,-90.9090909090908,4,2,99,30,0,0
150444,-90.9090909090908,4,1,11,70,0,0
151044,-90.9090909090908,4,1,1,70,0,0
152844,-90.9090909090908,4,1,11,70,0,0
153294,-90.9090909090908,4,1,1,70,0,0
154344,-90.9090909090908,4,1,2,70,0,1
154944,-90.9090909090908,4,1,1,70,0,0
155169,-90.9090909090908,4,2,99,30,0,0
155244,-90.9090909090908,4,1,11,70,0,0
156144,-90.9090909090908,4,1,1,70,0,0
157644,-90.9090909090908,4,1,11,70,0,0
158094,-90.9090909090908,4,1,1,70,0,0
158844,-90.9090909090908,4,1,11,70,0,0
159144,-90.9090909090908,4,1,2,70,0,0
159444,-90.9090909090908,4,1,1,70,0,0
159969,-90.9090909090908,4,2,99,30,0,0
160044,-90.9090909090908,4,1,11,70,0,0
160644,-90.9090909090908,4,1,1,70,0,0
162444,-90.9090909090908,4,1,11,70,0,0
162894,-90.9090909090908,4,1,1,70,0,0
163494,-90.9090909090908,4,1,1,68,0,0
163644,-90.9090909090908,4,1,4,66,0,0
163794,-90.9090909090908,4,1,4,64,0,0
163944,-90.9090909090908,4,2,99,50,0,0
166344,-90.9090909090908,4,2,11,30,0,0
173544,-90.9090909090908,4,2,11,32,0,0
181944,-111.111111111111,4,2,11,40,0,0
182244,-100,4,2,1,55,0,0
182319,-100,4,2,11,7,0,0
182394,-100,4,2,2,9,0,0
182469,-100,4,2,11,12,0,0
182544,-100,4,2,2,16,0,0
182619,-100,4,2,11,22,0,0
182694,-100,4,2,2,29,0,0
182769,-100,4,2,11,40,0,0
182844,-100,4,2,2,60,0,0
183144,-90.9090909090909,4,1,2,70,0,1
183444,-90.9090909090909,4,1,1,70,0,0
183969,-90.9090909090909,4,2,99,30,0,0
184044,-90.9090909090909,4,1,1,70,0,0
184644,-90.9090909090909,4,1,11,70,0,0
184794,-90.9090909090909,4,1,1,70,0,0
189444,-90.9090909090909,4,1,11,70,0,0
189669,-90.9090909090909,4,2,99,30,0,0
189744,-90.9090909090909,4,1,1,70,0,0
192444,-90.9090909090909,4,1,2,70,0,0
192744,-90.9090909090909,4,1,2,70,0,1
193044,-90.9090909090909,4,1,2,70,0,0
193194,-90.9090909090909,4,1,1,70,0,0
193569,-90.9090909090909,4,2,99,30,0,0
193644,-90.9090909090909,4,1,1,70,0,0
194244,-90.9090909090909,4,1,11,70,0,0
194394,-90.9090909090909,4,1,1,70,0,0
195369,-90.9090909090909,4,2,99,30,0,0
195444,-90.9090909090909,4,1,1,70,0,0
199044,-90.9090909090909,4,1,11,70,0,0
199194,-90.9090909090909,4,1,1,70,0,0
200769,-90.9090909090909,4,2,99,30,0,0
200844,-90.9090909090909,4,1,1,70,0,0
202344,-90.9090909090909,4,1,2,70,0,1
202644,-90.9090909090909,4,1,1,70,0,0
203169,-90.9090909090909,4,2,99,30,0,0
203244,-90.9090909090909,4,1,1,70,0,0
203844,-90.9090909090909,4,1,11,70,0,0
203994,-90.9090909090909,4,1,1,70,0,0
205569,-90.9090909090909,4,2,99,30,0,0
205644,-90.9090909090909,4,1,1,70,0,0
207144,-100,4,1,2,68,0,0
207444,-100,4,1,1,68,0,0
207594,-100,4,1,11,68,0,0
207744,-100,4,1,1,68,0,0
209544,-100,4,1,11,68,0,0
210144,-100,4,1,1,68,0,0
210444,-100,4,1,11,68,0,0
210594,-100,4,1,1,68,0,0
211944,-100,4,1,11,68,0,0
212544,-100,4,1,1,68,0,0
212769,-100,4,2,99,30,0,0
212844,-100,4,1,11,68,0,0
213744,-100,4,1,1,68,0,0
214344,-100,4,1,11,68,0,0
214944,-100,4,1,1,68,0,0
215244,-100,4,1,11,68,0,0
215694,-100,4,1,1,68,0,0
216144,-100,4,1,1,70,0,0
216744,-100,4,1,2,68,0,0
217044,-100,4,1,1,68,0,0
217194,-100,4,1,11,68,0,0
217344,-100,4,1,1,68,0,0
217569,-100,4,2,99,30,0,0
217644,-100,4,1,1,68,0,0
219144,-100,4,1,11,68,0,0
219744,-100,4,1,1,68,0,0
220044,-100,4,1,11,68,0,0
220194,-100,4,1,1,68,0,0
221544,-100,4,1,11,68,0,0
222144,-100,4,1,1,68,0,0
222369,-100,4,2,99,30,0,0
222444,-100,4,1,11,68,0,0
223344,-100,4,1,1,68,0,0
223944,-100,4,1,11,68,0,0
224544,-100,4,1,1,68,0,0
224844,-100,4,1,11,68,0,0
225294,-100,4,1,1,68,0,0
225744,-100,4,1,1,70,0,0
226044,-100,4,1,4,70,0,0
226344,1153.84615384615,4,2,11,30,1,0
226993,-100,4,2,11,20,0,0
227497,1039.37498917318,4,2,11,30,1,0
228536,1500,4,2,11,22,1,0
228911,1621.62162162162,4,2,11,24,1,0
229316,1739.13043478261,4,2,11,26,1,0
229750,-100,4,2,99,24,0,0

[Colours]
Combo1 : 200,135,250
Combo2 : 220,220,220
Combo3 : 255,150,150
Combo4 : 250,180,240
Combo5 : 210,180,255
Combo6 : 165,165,165
Combo7 : 255,50,50
Combo8 : 250,130,230

[HitObjects]
202,26,744,70,0,B|81:7|124:98|5:75,2,210,8|0|0,0:0|0:0|0:0,0:0:0:0:
315,80,3144,2,0,B|436:61|393:152|512:129,2,210,2|0|0,0:0|0:0|0:0,0:0:0:0:
213,155,5544,2,0,B|92:136|135:227|16:204,2,210,8|0|0,0:0|0:0|0:0,0:0:0:0:
304,241,7944,2,0,B|425:222|382:313|501:290,2,210,2|2|2,0:0|0:0|0:0,0:0:0:0:
182,317,10344,86,0,P|115:340|28:293,1,170.000003242493,6|8,0:0|3:1,0:0:0:0:
6,215,11244,1,2,0:0:0:0:
6,215,11394,2,0,L|37:68,1,127.50000243187,8|8,2:3|0:3,0:0:0:0:
99,37,12144,1,10,3:1:0:0:
207,124,12744,6,0,B|310:132|267:81|366:82,1,170.000003242493,10|8,0:3|3:1,0:0:0:0:
452,107,13644,1,2,0:0:0:0:
452,107,13794,2,0,P|472:160|464:250,1,127.50000243187,8|8,0:3|0:3,0:0:0:0:
420,299,14544,2,0,L|414:359,2,42.5000008106232,10|0|0,3:1|3:0|3:0,0:0:0:0:
356,241,15144,102,0,B|315:274|261:260|261:260|210:181,1,170.000003242493,10|8,0:3|3:1,0:0:0:0:
159,144,16044,1,2,0:0:0:0:
159,144,16194,2,0,P|81:143|36:195,1,127.50000243187,8|8,0:3|2:3,0:0:0:0:
2,246,16944,1,10,3:1:0:0:
127,322,17544,6,0,L|306:303,1,170.000003242493,10|8,2:3|3:1,0:0:0:0:
372,352,18444,1,2,0:0:0:0:
372,352,18594,2,0,B|416:363|416:363|452:333|434:265,1,127.50000243187,8|8,0:3|0:3,0:0:0:0:
416,205,19344,2,0,L|434:155,2,42.5000008106232,10|0|0,3:1|3:0|3:0,0:0:0:0:
343,258,19944,86,0,B|256:276|256:276|167:238,1,179.999994506836,6|8,2:0|3:1,0:0:0:0:
106,187,20844,1,2,2:2:0:0:
106,187,20994,2,0,P|103:114|153:44,1,134.999995880127,8|8,0:3|0:3,0:0:0:0:
210,16,21744,1,10,3:1:0:0:
246,98,22044,2,0,P|285:106|342:92,1,89.9999972534181,0|8,3:0|0:3,0:0:0:0:
409,46,22644,1,2,3:0:0:0:
491,81,22944,1,8,3:1:0:0:
502,174,23244,1,2,2:2:0:0:
502,174,23394,2,0,B|495:222|495:222|502:252|502:252|488:317,1,134.999995880127,8|8,0:3|2:3,0:0:0:0:
422,365,24144,21,10,3:1:0:0:
353,306,24444,2,0,P|340:263|343:212,1,89.9999972534181,0|8,3:0|0:3,0:0:0:0:
384,138,25044,2,0,P|385:93|372:50,1,89.9999972534181,2|8,3:0|3:1,0:0:0:0:
290,13,25644,1,2,2:0:0:0:
290,13,25794,2,0,B|270:45|251:54|251:54|153:36,1,134.999995880127,8|8,0:3|0:3,0:0:0:0:
90,8,26544,85,10,3:1:0:0:
20,65,26844,2,0,P|8:105|19:171,1,89.9999972534181,0|8,3:0|0:3,0:0:0:0:
59,229,27444,1,2,3:0:0:0:
146,206,27744,1,8,3:1:0:0:
198,278,28044,1,2,0:0:0:0:
198,278,28194,2,0,B|228:304|264:297|264:297|287:274|322:271,1,134.999995880127,8|8,0:3|0:3,0:0:0:0:
398,317,28944,2,0,L|394:374,2,44.999998626709,10|0|0,3:1|3:0|3:0,0:0:0:0:
468,260,29544,22,0,P|487:194|447:75,1,179.999994506836,6|8,0:2|3:1,0:0:0:0:
387,33,30444,1,2,0:0:0:0:
387,33,30594,2,0,B|354:67|354:67|308:69|249:45,1,134.999995880127,8|8,0:3|0:3,0:0:0:0:
187,12,31344,1,10,3:1:0:0:
116,68,31644,2,0,P|104:108|120:171,1,89.9999972534181,0|8,3:0|0:3,0:0:0:0:
185,206,32244,1,2,3:0:0:0:
268,172,32544,1,8,3:1:0:0:
354,211,32844,1,2,0:0:0:0:
354,211,32994,2,0,P|369:298|344:344,1,134.999995880127,8|8,0:3|0:3,0:0:0:0:
270,379,33744,85,10,3:1:0:0:
193,331,34044,2,0,P|149:318|101:320,1,89.9999972534181,0|8,3:0|0:3,0:0:0:0:
16,331,34644,2,0,P|10:287|24:239,1,89.9999972534181,2|8,3:3|3:1,0:0:0:0:
83,177,35244,1,2,0:0:0:0:
83,177,35394,2,0,B|137:169|137:169|158:151|158:151|229:138,1,134.999995880127,8|8,0:3|0:3,0:0:0:0:
270,207,36144,21,10,3:1:0:0:
346,159,36444,1,0,3:0:0:0:
420,209,36744,2,0,L|442:315,2,89.9999972534181,10|0|8,3:0|3:0|3:1,0:0:0:0:
465,132,37644,1,2,0:0:0:0:
465,132,37794,2,8,B|481:89|452:43|452:43|391:31,1,134.999995880127,8|8,0:3|0:3,0:3:0:0:
339,100,38544,2,0,L|341:155,2,44.999998626709,8|8|8,1:0|1:0|3:3,0:0:0:0:
259,39,39144,38,0,B|222:37|222:37|203:26|203:26|156:23,1,100,6|0,3:2|2:0,0:0:0:0:
67,56,39744,2,0,P|46:113|55:166,1,100,8|0,0:0|0:0,0:0:0:0:
128,213,40344,1,2,2:0:0:0:
217,167,40644,1,8,3:0:0:0:
299,223,40944,2,0,L|309:336,1,100,10|0,2:2|2:0,2:0:0:0:
388,381,41544,53,10,3:0:0:0:
478,337,41844,1,0,0:0:0:0:
510,242,42144,1,8,0:0:0:0:
465,152,42444,1,2,0:0:0:0:
465,152,42594,2,0,L|351:129,1,100,8|8,3:0|0:0,0:0:0:0:
325,103,43044,2,0,L|313:-17,2,100,8|8|0,3:0|0:0|3:0,0:0:0:0:
263,182,43944,54,0,L|275:302,1,100,10|0,3:0|0:0,0:0:0:0:
208,357,44544,2,0,B|164:369|164:369|98:354,1,100,8|0,0:0|0:0,0:0:0:0:
35,290,45144,1,2,0:0:0:0:
111,225,45444,1,8,3:0:0:0:
47,147,45744,2,0,B|34:98|34:98|64:40,1,100,10|8,0:0|3:0,0:0:0:0:
154,12,46344,101,10,1:3:0:0:
202,99,46644,1,10,1:3:0:0:
289,145,46944,1,10,1:3:0:0:
388,136,47244,1,10,1:3:0:0:
465,75,47544,1,10,1:2:0:0:
512,302,48744,22,0,P|460:288|400:287,1,110.000003356934,4|2,3:1|0:1,0:0:0:0:
308,340,49344,1,10,0:2:0:0:
258,242,49644,1,0,0:0:0:0:
258,242,49794,2,0,B|272:116,1,110.000003356934,2|8,3:1|3:0,0:0:0:0:
254,79,50244,1,10,3:0:0:0:
164,14,50544,1,10,0:0:0:0:
58,46,50844,54,0,P|42:98|50:152,1,110.000003356934,2|8,0:2|3:3,0:0:0:0:
81,252,51444,1,2,0:0:0:0:
185,214,51744,1,10,0:2:0:0:
152,110,52044,1,2,0:1:0:0:
152,110,52194,2,0,L|317:68,1,165.000005035401,8|10,3:3|3:3,0:0:0:0:
400,3,52944,53,10,0:0:0:0:
471,86,53244,2,0,P|495:134|495:190,1,110.000003356934,2|8,0:2|3:3,0:0:0:0:
432,283,53844,2,0,L|309:262,1,110.000003356934,2|8,0:0|0:0,0:0:0:0:
239,343,54444,1,2,0:0:0:0:
239,343,54594,2,0,L|131:361,1,110.000003356934,8|8,3:0|3:0,0:0:0:0:
80,381,55044,1,10,3:0:0:0:
4,302,55344,1,10,0:1:0:0:
81,223,55644,54,0,L|189:205,1,110.000003356934,2|8,0:3|3:0,0:0:0:0:
282,266,56244,2,0,L|390:248,1,110.000003356934,2|8,0:0|0:2,0:0:0:0:
490,291,56844,1,2,0:0:0:0:
490,291,56994,2,0,P|482:191|444:142,1,165.000005035401,8|8,3:3|3:3,0:0:0:0:
353,80,57744,1,10,1:0:0:0:
275,156,58044,1,10,1:3:0:0:
173,114,58344,54,0,B|120:98|120:98|53:115,1,110.000003356934,4|2,3:1|0:0,0:0:0:0:
11,205,58944,1,10,0:2:0:0:
51,310,59244,1,2,0:0:0:0:
51,310,59394,2,0,B|104:326|104:326|171:309,1,110.000003356934,8|8,3:0|3:0,0:0:0:0:
212,306,59844,1,10,3:0:0:0:
300,372,60144,1,10,0:0:0:0:
370,287,60444,54,0,P|368:228|348:174,1,110.000003356934,2|8,0:2|3:0,0:0:0:0:
254,129,61044,1,2,0:1:0:0:
186,215,61344,1,10,0:2:0:0:
77,205,61644,1,2,0:1:0:0:
77,205,61794,2,0,P|51:122|98:19,1,165.000005035401,8|10,3:0|3:3,0:0:0:0:
173,2,62544,53,10,0:0:0:0:
268,58,62844,2,0,L|382:62,1,110.000003356934,2|8,0:2|3:0,0:0:0:0:
466,129,63444,2,0,P|479:165|461:250,1,110.000003356934,2|8,0:0|0:0,0:0:0:0:
385,312,64044,1,2,0:0:0:0:
385,312,64194,2,0,L|271:308,1,110.000003356934,8|8,3:0|3:0,0:0:0:0:
246,355,64644,2,0,L|132:351,1,110.000003356934,10|10,3:0|0:1,0:0:0:0:
40,297,65244,54,0,P|29:243|44:191,1,110.000003356934,2|8,0:2|3:0,0:0:0:0:
132,124,65844,2,0,L|251:133,1,110.000003356934,2|10,0:0|0:2,0:0:0:0:
332,193,66444,1,2,0:0:0:0:
332,193,66594,2,0,B|383:211|383:211|445:190|441:118,1,165.000005035401,8|2,3:0|0:3,0:0:0:0:
392,27,67344,1,10,0:0:0:0:
290,67,67644,1,10,0:0:0:0:
187,29,67944,54,0,P|124:17|72:25,1,110.000003356934,4|2,3:1|0:0,0:0:0:0:
19,115,68544,1,10,0:2:0:0:
57,220,68844,1,2,0:0:0:0:
57,220,68994,2,0,P|120:232|172:224,1,110.000003356934,8|8,3:0|3:0,0:0:0:0:
219,212,69444,1,10,3:0:0:0:
313,154,69744,1,10,0:0:0:0:
410,205,70044,54,0,P|435:255|436:309,1,110.000003356934,2|8,0:2|3:0,0:0:0:0:
341,365,70644,1,2,0:0:0:0:
235,337,70944,1,10,0:2:0:0:
136,383,71244,1,2,0:0:0:0:
136,383,71394,2,0,P|121:328|157:209,1,165.000005035401,8|8,1:3|1:3,0:0:0:0:
237,166,72144,1,8,1:2:0:0:
341,203,72444,1,8,1:0:0:0:
447,159,72744,22,0,B|463:111|463:111|448:40,1,100,4|0,3:1|0:0,0:0:0:0:
411,33,73194,2,0,L|343:23,1,50,10|8,3:0|0:0,0:0:0:0:
285,89,73644,1,2,0:2:0:0:
285,89,73794,2,0,L|149:69,1,100,8|8,3:0|3:0,0:0:0:0:
151,110,74244,1,2,0:2:0:0:
56,81,74544,1,10,0:2:0:0:
27,176,74844,1,2,0:3:0:0:
122,205,75144,54,0,L|237:188,1,100,10|0,3:0|0:0,0:0:0:0:
265,213,75594,2,0,P|275:230|275:269,1,50,10|8,3:0|0:0,0:0:0:0:
229,349,76044,1,10,3:3:0:0:
229,349,76194,2,0,L|114:366,1,100,8|10,3:0|0:2,0:0:0:0:
81,375,76644,1,8,3:0:0:0:
0,316,76944,1,10,0:2:0:0:
72,246,77244,1,8,3:3:0:0:
14,164,77544,54,0,P|10:119|34:58,1,100,10|0,3:0|0:0,0:0:0:0:
67,38,77994,2,0,L|131:32,1,50,8|8,3:0|0:0,0:0:0:0:
191,104,78444,1,10,3:3:0:0:
191,104,78594,2,0,L|290:94,1,100,8|8,3:0|3:0,0:0:0:0:
333,119,79044,1,10,3:0:0:0:
415,62,79344,1,10,0:2:0:0:
501,112,79644,1,2,0:3:0:0:
493,211,79944,54,0,B|486:248|486:248|492:265|492:265|484:308,1,100,10|0,3:0|0:0,0:0:0:0:
458,352,80394,2,0,P|431:351|388:337,1,50,10|8,3:0|0:0,0:0:0:0:
342,277,80844,1,10,3:0:0:0:
342,277,80994,2,0,B|335:240|335:240|341:223|341:223|333:179,1,100,8|10,3:0|0:2,0:0:0:0:
318,131,81444,1,8,3:3:0:0:
245,62,81744,2,0,L|169:65,1,50,10|8,0:1|3:3,0:0:0:0:
150,86,82044,2,0,L|74:89,1,50,10|8,0:0|0:0,0:0:0:0:
51,77,82344,54,0,B|20:105|20:105|31:171,1,100,4|0,3:1|0:0,0:0:0:0:
63,199,82794,2,0,L|139:196,1,50,10|8,3:0|0:0,0:0:0:0:
211,232,83244,1,2,0:2:0:0:
211,232,83394,2,0,B|261:242|261:242|307:221,1,100,8|8,3:0|3:0,0:0:0:0:
345,190,83844,1,2,0:2:0:0:
441,162,84144,1,10,0:2:0:0:
503,239,84444,1,2,0:3:0:0:
466,332,84744,54,0,P|424:344|351:315,1,100,10|0,3:0|0:0,0:0:0:0:
323,312,85194,2,0,L|315:254,1,50,10|8,3:0|0:0,0:0:0:0:
250,186,85644,1,10,3:3:0:0:
250,186,85794,2,0,L|268:73,1,100,8|10,3:0|0:2,0:0:0:0:
238,45,86244,1,8,3:0:0:0:
145,6,86544,1,10,0:2:0:0:
50,37,86844,1,8,3:3:0:0:
13,134,87144,54,0,L|31:247,1,100,10|0,3:0|0:0,0:0:0:0:
57,274,87594,2,0,P|93:269|117:258,1,50,8|8,3:0|0:0,0:0:0:0:
184,202,88044,1,10,3:3:0:0:
184,202,88194,2,0,P|230:184|285:187,1,100,8|8,3:0|3:0,0:0:0:0:
323,209,88644,1,10,3:0:0:0:
325,308,88944,1,10,0:2:0:0:
405,367,89244,1,2,0:3:0:0:
494,322,89544,54,0,B|513:280|513:280|503:225,1,100,10|0,3:0|0:0,0:0:0:0:
478,183,89994,2,0,L|404:171,1,50,10|8,3:0|0:0,0:0:0:0:
341,219,90444,1,10,3:0:0:0:
341,219,90594,2,0,B|304:212|304:212|287:218|287:218|243:210,1,100,8|10,3:0|0:2,0:0:0:0:
208,246,91044,1,8,3:3:0:0:
115,208,91344,2,0,L|121:123,1,50,10|8,0:1|1:2,0:0:0:0:
98,112,91644,2,0,L|104:27,1,50,10|8,3:3|3:3,0:0:0:0:
143,34,91944,22,0,P|212:23|332:46,1,179.999994506836,6|8,2:2|0:1,0:0:0:0:
375,111,92844,2,0,L|351:304,1,179.999994506836,2|0,3:0|0:0,0:0:0:0:
308,368,93744,1,10,2:1:0:0:
231,320,94044,2,0,L|217:230,1,89.9999972534181,0|8,3:0|0:3,0:0:0:0:
166,157,94644,1,2,0:0:0:0:
222,86,94944,1,8,0:1:0:0:
152,28,95244,2,0,P|68:45|32:141,1,179.999994506836,10|8,0:3|0:3,0:0:0:0:
29,214,96144,85,10,3:1:0:0:
92,277,96444,2,0,L|209:263,1,89.9999972534181,0|8,3:0|0:3,0:0:0:0:
245,203,97044,2,0,L|267:96,1,89.9999972534181,2|8,0:0|0:1,0:0:0:0:
335,61,97644,2,0,P|419:78|455:174,1,179.999994506836,10|8,0:3|0:3,0:0:0:0:
419,239,98544,1,10,0:1:0:0:
475,309,98844,1,0,0:0:0:0:
416,377,99144,22,0,P|373:382|324:363,1,89.9999972534181,10|0,0:3|0:0,0:0:0:0:
262,306,99744,1,8,0:1:0:0:
301,225,100044,2,0,P|317:129|271:39,1,179.999994506836,10|8,0:3|0:3,0:0:0:0:
204,15,100944,1,10,3:1:0:0:
148,86,101244,1,8,3:3:0:0:
71,38,101544,86,0,B|45:38|16:46|16:46|-29:105|15:177,1,179.999994506836,6|8,2:2|0:1,0:0:0:0:
63,233,102444,2,0,P|163:199|251:222,1,179.999994506836,2|0,3:0|0:0,0:0:0:0:
290,283,103344,1,10,2:1:0:0:
350,349,103644,2,0,P|389:355|452:331,1,89.9999972534181,0|8,3:0|0:3,0:0:0:0:
501,278,104244,2,0,L|491:179,1,89.9999972534181,2|8,0:0|0:1,0:0:0:0:
475,99,104844,2,0,B|378:77|405:152|303:123,1,179.999994506836,10|8,0:3|0:3,0:0:0:0:
223,84,105744,21,10,3:1:0:0:
203,171,106044,2,0,L|213:270,1,89.9999972534181,0|8,3:0|0:3,0:0:0:0:
173,340,106644,2,0,P|130:356|87:345,1,89.9999972534181,2|8,0:0|0:1,0:0:0:0:
18,287,107244,2,0,L|-2:89,1,179.999994506836,10|8,0:3|0:3,0:0:0:0:
51,34,108144,1,10,0:1:0:0:
140,40,108444,1,0,0:0:0:0:
175,122,108744,86,0,L|165:211,1,89.9999972534181,10|0,0:3|0:0,0:0:0:0:
194,297,109344,1,8,0:1:0:0:
270,344,109644,2,0,P|384:362|436:301,1,179.999994506836,10|8,0:3|0:3,0:0:0:0:
468,244,110544,2,0,L|522:256,2,44.999998626709,8|8|8,1:0|1:0|3:3,0:0:0:0:
402,168,111144,70,0,B|395:130|395:130|398:112|398:112|391:67,1,100,6|0,3:2|2:0,0:0:0:0:
291,67,111744,2,0,B|284:109|284:109|287:127|287:127|280:165,1,100,8|0,0:0|0:0,0:0:0:0:
253,262,112344,1,2,2:0:0:0:
157,292,112644,1,8,3:0:0:0:
63,255,112944,2,0,P|48:198|60:143,1,100,10|0,2:2|2:0,2:0:0:0:
97,65,113544,53,10,3:0:0:0:
184,112,113844,1,0,0:0:0:0:
262,49,114144,1,8,0:0:0:0:
348,108,114444,1,2,0:0:0:0:
348,108,114594,2,0,L|461:92,1,100,8|8,3:0|0:0,0:0:0:0:
491,117,115044,2,0,P|510:173|497:226,2,100,8|8|0,3:0|0:0|3:0,0:0:0:0:
404,66,115944,54,0,L|304:80,1,100,10|0,3:0|0:0,0:0:0:0:
236,152,116544,2,0,L|136:166,1,100,8|0,0:0|0:0,0:0:0:0:
37,158,117144,1,2,0:0:0:0:
6,253,117444,1,8,3:0:0:0:
61,331,117744,2,0,L|161:317,1,100,10|8,0:0|3:0,0:0:0:0:
255,346,118344,102,0,B|261:306|261:306|253:287|253:287|258:242,1,100,8|8,1:3|1:3,0:0:0:0:
296,156,118944,2,0,B|302:116|302:116|294:97|294:97|299:52,1,100,8|8,1:3|1:3,0:0:0:0:
330,20,119394,1,0,1:0:0:0:
330,20,119544,2,0,B|379:10|379:10|431:25,1,100,8|8,1:3|1:3,0:0:0:0:
478,108,120144,2,0,L|475:164,1,50,8|8,1:2|1:2,0:0:0:0:
490,205,120444,2,0,L|487:261,1,50,8|8,1:2|1:2,0:0:0:0:
492,309,120744,22,0,B|452:300|452:300|433:310|433:310|381:302,1,110.000003356934,4|2,3:1|0:1,0:0:0:0:
291,358,121344,1,10,0:2:0:0:
203,301,121644,1,0,0:0:0:0:
203,301,121794,2,0,B|163:292|163:292|144:302|144:302|92:294,1,110.000003356934,2|8,3:1|3:0,0:0:0:0:
46,315,122244,1,10,3:0:0:0:
1,214,122544,1,10,0:0:0:0:
55,118,122844,54,0,B|95:109|95:109|114:119|114:119|166:111,1,110.000003356934,2|8,0:2|3:3,0:0:0:0:
259,63,123444,1,2,0:0:0:0:
311,159,123744,1,10,0:2:0:0:
212,207,124044,1,2,0:1:0:0:
212,207,124194,2,0,B|169:247|169:247|158:308|221:344,1,165.000005035401,8|10,3:3|0:3,0:0:0:0:
312,378,124944,53,10,0:0:0:0:
411,330,125244,2,0,P|418:285|400:222,1,110.000003356934,2|8,0:2|3:3,0:0:0:0:
297,185,125844,2,0,B|256:181|256:181|239:192|239:192|181:187,1,110.000003356934,2|8,0:0|0:0,0:0:0:0:
87,164,126444,1,2,0:0:0:0:
87,164,126594,2,0,P|80:109|97:57,1,110.000003356934,8|8,3:0|3:0,0:0:0:0:
141,25,127044,1,10,3:0:0:0:
241,70,127344,1,10,0:1:0:0:
344,31,127644,54,0,B|397:18|397:18|454:36,1,110.000003356934,2|8,0:3|3:0,0:0:0:0:
511,126,128244,2,0,L|507:244,1,110.000003356934,2|8,0:0|0:2,0:0:0:0:
459,337,128844,1,2,0:0:0:0:
459,337,128994,2,0,P|386:355|298:324,1,165.000005035401,8|8,3:3|3:3,0:0:0:0:
213,262,129744,1,10,1:0:0:0:
260,162,130044,1,10,1:3:0:0:
205,66,130344,54,0,P|155:40|85:46,1,110.000003356934,4|2,3:1|0:0,0:0:0:0:
17,110,130944,1,10,0:2:0:0:
59,216,131244,1,2,0:0:0:0:
59,216,131394,2,0,P|107:241|161:241,1,110.000003356934,8|8,3:0|3:0,0:0:0:0:
212,218,131844,2,0,P|266:217|314:242,1,110.000003356934,10|10,3:0|0:0,0:0:0:0:
326,352,132444,54,0,P|374:377|428:377,1,110.000003356934,2|8,0:2|3:0,0:0:0:0:
503,295,133044,2,0,L|487:180,1,110.000003356934,2|10,0:1|0:2,0:0:0:0:
404,113,133644,1,2,0:1:0:0:
404,113,133794,2,0,B|299:128|353:57|221:74,1,165.000005035401,8|10,3:0|3:3,0:0:0:0:
156,14,134544,53,10,0:0:0:0:
71,84,134844,2,0,P|59:134|88:207,1,110.000003356934,2|8,0:2|3:0,0:0:0:0:
183,209,135444,2,0,L|321:191,1,110.000003356934,2|8,0:0|0:0,0:0:0:0:
402,225,136044,1,2,0:0:0:0:
402,225,136194,2,0,P|417:277|405:330,1,110.000003356934,8|8,3:0|3:0,0:0:0:0:
359,362,136644,2,0,L|221:380,1,110.000003356934,10|10,3:0|0:1,0:0:0:0:
145,340,137244,54,0,P|130:288|142:235,1,110.000003356934,2|8,0:2|3:0,0:0:0:0:
206,145,137844,2,0,L|344:127,1,110.000003356934,2|10,0:0|0:2,0:0:0:0:
420,178,138444,1,2,0:0:0:0:
420,178,138594,2,0,B|450:197|478:191|478:191|517:142|509:76,1,165.000005035401,8|2,3:0|0:3,0:0:0:0:
432,16,139344,1,10,0:0:0:0:
322,3,139644,1,10,0:0:0:0:
249,85,139944,54,0,L|260:213,1,110.000003356934,4|2,3:1|0:0,0:0:0:0:
224,299,140544,1,10,0:2:0:0:
124,264,140844,1,2,0:0:0:0:
124,264,140994,2,0,L|113:136,1,110.000003356934,8|8,3:0|3:0,0:0:0:0:
78,112,141444,1,10,3:0:0:0:
146,26,141744,1,10,0:0:0:0:
234,91,142044,54,0,B|287:101|287:101|354:74,1,110.000003356934,2|8,0:2|3:0,0:0:0:0:
434,26,142644,1,2,0:0:0:0:
495,117,142944,1,10,0:2:0:0:
493,226,143244,1,2,0:0:0:0:
418,306,143544,2,0,B|337:288|337:288|290:310|290:310|174:286,1,220.000006713867,8|4,3:1|0:2,0:0:0:0:
0,365,144744,22,0,P|-6:281|45:143,1,220.000006713867,4|0,3:1|0:0,0:0:0:0:
114,75,145644,1,10,3:3:0:0:
114,75,145794,2,0,B|191:105|191:105|269:61,1,165.000005035401,8|0,3:3|0:0,0:0:0:0:
357,8,146544,1,10,0:1:0:0:
451,63,146844,2,0,P|473:116|462:174,1,110.000003356934,2|0,0:2|0:0,0:0:0:0:
375,230,147444,2,0,B|331:219|331:219|307:228|307:228|248:212,1,110.000003356934,2|0,0:1|0:0,0:0:0:0:
169,186,148044,1,10,3:3:0:0:
169,186,148194,2,0,B|131:159|131:159|59:152|35:219,1,165.000005035401,8|0,3:3|0:0,0:0:0:0:
6,319,148944,53,10,0:1:0:0:
105,366,149244,2,0,L|230:349,1,110.000003356934,10|0,3:3|0:0,0:0:0:0:
320,381,149844,2,0,L|443:359,1,110.000003356934,2|0,0:1|0:0,0:0:0:0:
486,268,150444,1,10,3:3:0:0:
486,268,150594,2,0,P|487:183|443:93,1,165.000005035401,8|0,3:0|0:0,0:0:0:0:
367,45,151344,53,10,0:1:0:0:
270,97,151644,2,0,P|244:142|240:229,1,110.000003356934,2|0,0:2|0:0,0:0:0:0:
286,294,152244,2,0,B|234:314|234:314|182:297,1,110.000003356934,2|0,0:1|0:0,0:0:0:0:
105,225,152844,1,10,3:0:0:0:
105,225,152994,2,0,B|121:167|121:167|111:129|111:129|132:48,1,165.000005035401,8|0,3:0|0:0,0:0:0:0:
219,4,153744,1,10,0:0:0:0:
294,83,154044,1,10,0:0:0:0:
393,35,154344,54,0,B|459:24|459:24|523:77|487:168,1,220.000006713867,4|0,3:1|0:0,0:0:0:0:
389,204,155244,1,10,3:3:0:0:
389,204,155394,2,0,B|352:197|352:197|325:209|325:209|270:200,1,110.000003356934,8|0,3:3|0:0,0:0:0:0:
238,169,155844,2,0,B|201:162|201:162|174:174|174:174|119:165,1,110.000003356934,10|0,3:3|0:0,0:0:0:0:
24,192,156444,2,0,P|-2:248|14:313,1,110.000003356934,2|0,0:2|0:0,0:0:0:0:
89,363,157044,2,0,B|206:350,1,110.000003356934,2|0,0:1|0:0,0:0:0:0:
311,373,157644,1,10,3:3:0:0:
311,373,157794,2,0,B|350:346|350:346|368:284|328:230,1,165.000005035401,8|0,3:3|0:0,0:0:0:0:
261,148,158544,53,10,0:1:0:0:
184,226,158844,2,0,B|132:240|132:240|67:212,1,110.000003356934,10|0,3:3|0:0,0:0:0:0:
4,138,159444,2,0,B|5:83|5:83|46:34,1,110.000003356934,2|0,0:1|0:0,0:0:0:0:
147,16,160044,1,10,3:3:0:0:
147,16,160194,2,0,B|157:70|223:79|223:79|309:45,1,165.000005035401,8|0,3:0|0:0,0:0:0:0:
377,10,160944,53,10,0:1:0:0:
463,78,161244,2,0,P|475:133|441:199,1,110.000003356934,2|0,0:2|0:0,0:0:0:0:
349,208,161844,2,0,B|305:197|305:197|285:204|285:204|230:191,1,110.000003356934,2|0,0:1|0:0,0:0:0:0:
144,156,162444,1,10,3:0:0:0:
144,156,162594,2,0,B|97:153|74:196|74:196|102:296,1,165.000005035401,8|0,3:0|0:0,0:0:0:0:
161,360,163344,53,10,0:0:0:0:
256,305,163644,1,10,1:3:0:0:
351,360,163944,1,6,0:2:0:0:
377,75,181944,54,0,L|320:61,1,44.999998626709,2|0,0:0|0:0,0:0:0:0:
288,86,182244,2,2,B|181:100|222:25|101:33,1,200,8|0,1:2|0:0,0:1:0:0:
5,84,183144,86,0,L|17:209,1,110.000003356934,4|2,3:1|0:1,0:0:0:0:
27,303,183744,1,10,0:2:0:0:
129,356,184044,1,0,0:0:0:0:
129,356,184194,2,0,B|174:349|174:349|187:354|187:354|255:343,1,110.000003356934,2|8,3:1|3:0,0:0:0:0:
288,364,184644,1,10,3:0:0:0:
357,278,184944,1,10,0:0:0:0:
283,196,185244,54,0,P|272:155|293:77,1,110.000003356934,2|8,0:2|3:3,0:0:0:0:
359,8,185844,1,2,0:0:0:0:
468,22,186144,1,10,0:2:0:0:
510,129,186444,1,2,0:1:0:0:
510,129,186594,2,0,L|489:310,1,165.000005035401,8|10,3:3|3:3,0:0:0:0:
419,376,187344,53,10,0:0:0:0:
340,299,187644,2,0,L|324:169,1,110.000003356934,2|8,0:2|3:3,0:0:0:0:
279,89,188244,2,0,P|223:71|158:80,1,110.000003356934,2|8,0:0|0:0,0:0:0:0:
84,140,188844,1,2,0:0:0:0:
84,140,188994,2,0,L|68:270,1,110.000003356934,8|8,3:0|3:0,0:0:0:0:
63,304,189444,1,10,3:0:0:0:
151,369,189744,1,10,0:1:0:0:
240,305,190044,54,0,B|247:264|247:264|242:248|242:248|254:174,1,110.000003356934,2|8,0:3|3:0,0:0:0:0:
303,100,190644,2,0,B|355:82|355:82|416:98,1,110.000003356934,2|8,0:0|0:2,0:0:0:0:
496,170,191244,1,2,0:0:0:0:
496,170,191394,2,0,L|510:356,1,165.000005035401,8|8,3:3|3:3,0:0:0:0:
406,375,192144,1,10,1:0:0:0:
317,311,192444,1,10,1:3:0:0:
218,359,192744,54,0,B|164:369|164:369|104:344,1,110.000003356934,4|2,3:1|0:0,0:0:0:0:
13,300,193344,1,10,0:2:0:0:
30,194,193644,1,2,0:0:0:0:
30,194,193794,2,0,L|51:72,1,110.000003356934,8|8,3:0|3:0,0:0:0:0:
69,34,194244,1,10,3:0:0:0:
174,3,194544,1,10,0:0:0:0:
237,92,194844,54,0,L|216:214,1,110.000003356934,2|8,0:2|3:0,0:0:0:0:
232,309,195444,1,2,0:1:0:0:
324,368,195744,1,10,0:2:0:0:
434,347,196044,1,2,0:1:0:0:
434,347,196194,2,0,B|470:323|470:323|487:250|431:210,1,165.000005035401,8|10,3:0|3:3,0:0:0:0:
334,169,196944,53,10,0:0:0:0:
253,243,197244,2,0,B|198:260|198:260|139:247,1,110.000003356934,2|8,0:2|3:0,0:0:0:0:
49,196,197844,2,0,B|32:148|32:148|45:82,1,110.000003356934,2|8,0:0|0:0,0:0:0:0:
129,21,198444,1,2,0:0:0:0:
129,21,198594,2,0,L|252:32,1,110.000003356934,8|8,3:0|3:0,0:0:0:0:
280,66,199044,2,0,L|403:77,1,110.000003356934,10|10,3:0|0:1,0:0:0:0:
474,145,199644,54,0,P|486:197|470:256,1,110.000003356934,2|8,0:2|3:0,0:0:0:0:
392,325,200244,2,0,L|269:314,1,110.000003356934,2|10,0:0|0:2,0:0:0:0:
219,231,200844,1,2,0:0:0:0:
219,231,200994,2,0,B|208:176|208:176|235:131|235:131|220:50,1,165.000005035401,8|2,3:0|0:3,0:0:0:0:
140,4,201744,1,10,0:0:0:0:
35,38,202044,1,10,0:0:0:0:
1,142,202344,54,0,L|25:266,1,110.000003356934,4|2,3:1|0:0,0:0:0:0:
47,356,202944,1,10,0:2:0:0:
154,333,203244,1,2,0:0:0:0:
154,333,203394,2,0,B|195:328|195:328|212:338|212:338|266:332,1,110.000003356934,8|8,3:0|3:0,0:0:0:0:
307,303,203844,1,10,3:0:0:0:
392,372,204144,1,10,0:0:0:0:
486,315,204444,54,0,P|499:257|471:193,1,110.000003356934,2|8,0:2|3:0,0:0:0:0:
383,164,205044,2,0,L|262:180,1,110.000003356934,2|10,0:0|0:2,0:0:0:0:
222,278,205644,1,2,0:0:0:0:
222,278,205794,2,0,B|153:319|153:319|48:293,1,165.000005035401,8|8,1:3|1:3,0:0:0:0:
0,215,206544,1,8,1:2:0:0:
22,107,206844,1,8,1:0:0:0:
115,47,207144,22,0,P|163:38|211:50,1,100,4|0,3:1|0:0,0:0:0:0:
236,94,207594,2,0,L|238:156,1,50,10|8,3:0|0:0,0:0:0:0:
281,239,208044,1,2,0:2:0:0:
281,239,208194,2,0,P|329:251|377:242,1,100,8|8,3:0|3:0,0:0:0:0:
425,225,208644,1,2,0:2:0:0:
496,155,208944,1,10,0:2:0:0:
476,56,209244,1,2,0:3:0:0:
383,17,209544,54,0,L|264:24,1,100,10|0,3:0|0:0,0:0:0:0:
253,62,209994,2,0,L|193:65,1,50,10|8,3:0|0:0,0:0:0:0:
114,31,210444,1,10,3:3:0:0:
114,31,210594,2,0,B|61:27|61:27|11:69,1,100,8|10,3:0|0:2,0:0:0:0:
11,105,211044,1,8,3:0:0:0:
51,196,211344,1,10,0:2:0:0:
142,156,211644,1,8,3:3:0:0:
213,226,211944,54,0,L|197:339,1,100,10|0,3:0|0:0,0:0:0:0:
230,364,212394,2,0,P|260:370|307:355,1,50,8|8,3:0|0:0,0:0:0:0:
364,313,212844,1,10,3:3:0:0:
364,313,212994,2,0,L|349:213,1,100,8|8,3:0|3:0,0:0:0:0:
334,165,213444,1,10,3:0:0:0:
263,235,213744,1,10,0:2:0:0:
163,238,214044,1,2,0:3:0:0:
87,171,214344,54,0,P|86:122|108:74,1,100,10|0,3:0|0:0,0:0:0:0:
144,43,214794,2,0,L|212:42,1,50,10|8,3:0|0:0,0:0:0:0:
285,82,215244,1,10,3:0:0:0:
285,82,215394,2,0,L|428:79,1,100,8|10,3:0|0:2,0:0:0:0:
428,54,215844,1,8,3:3:0:0:
492,130,216144,2,0,P|496:166|490:195,1,50,10|8,0:1|3:3,0:0:0:0:
468,222,216444,2,0,P|444:228|413:228,1,50,10|8,0:0|0:0,0:0:0:0:
370,242,216744,54,0,B|334:234|334:234|312:241|312:241|261:232,1,100,4|0,3:1|0:0,0:0:0:0:
233,202,217194,2,0,L|230:149,1,50,10|8,3:0|0:0,0:0:0:0:
171,77,217644,1,2,0:2:0:0:
171,77,217794,2,0,B|121:66|121:66|67:86,1,100,8|8,3:0|3:0,0:0:0:0:
33,109,218244,1,2,0:2:0:0:
2,204,218544,1,10,0:2:0:0:
31,299,218844,1,2,0:3:0:0:
112,356,219144,54,0,L|229:339,1,100,10|0,3:0|0:0,0:0:0:0:
253,368,219594,2,0,L|311:359,1,50,10|8,3:0|0:0,0:0:0:0:
398,326,220044,1,10,3:3:0:0:
398,326,220194,2,0,P|402:276|376:214,1,100,8|10,3:0|0:2,0:0:0:0:
353,191,220644,1,8,3:0:0:0:
268,244,220944,1,10,0:2:0:0:
168,237,221244,1,8,3:3:0:0:
99,164,221544,54,0,P|92:111|121:52,1,100,10|0,3:0|0:0,0:0:0:0:
145,34,221994,2,0,L|208:32,1,50,8|8,3:0|0:0,0:0:0:0:
284,88,222444,1,10,3:3:0:0:
284,88,222594,2,0,L|410:84,1,100,8|8,3:0|3:0,0:0:0:0:
426,58,223044,1,10,3:0:0:0:
505,118,223344,1,10,0:2:0:0:
502,217,223644,1,2,0:3:0:0:
436,292,223944,54,0,P|391:301|321:279,1,100,10|0,3:0|0:0,0:0:0:0:
303,253,224394,2,0,L|296:192,1,50,10|8,3:0|0:0,0:0:0:0:
243,125,224844,1,10,3:0:0:0:
243,125,224994,2,0,P|191:112|143:126,1,100,8|10,3:0|0:2,0:0:0:0:
108,154,225444,1,8,3:3:0:0:
70,246,225744,2,0,L|77:307,1,50,10|8,0:1|1:2,0:0:0:0:
105,336,226044,2,0,P|134:336|171:321,1,50,10|4,3:3|3:3,0:0:0:0:
