osu file format v14

[General]
AudioFilename: audio.mp3
AudioLeadIn: 0
PreviewTime: 87279
Countdown: 0
SampleSet: Soft
StackLeniency: 0.7
Mode: 0
LetterboxInBreaks: 0
WidescreenStoryboard: 1

[Editor]
Bookmarks: 16328,30175,44021,57867,71713,87334,101180,115026,121949,135795,149641,156564,291620
DistanceSpacing: 1.08
BeatDivisor: 4
GridSize: 32
TimelineZoom: 1.4

[Metadata]
Title:Alrescha no Seizu (Cut Ver.)
TitleUnicode:アルリシャの星図 (Cut Ver.)
Artist:ABSOLUTE CASTAWAY
ArtistUnicode:ABSOLUTE CASTAWAY
Creator:Lasse
Version:Easy
Source:
Tags:mbc november 2023 monthly beatmapping contest featured artist mappers' guild japanese folk mpg HIR 中恵光城 nakae mitsuki ASTRO=GRAPH astro graph
BeatmapID:4493020
BeatmapSetID:2135285

[Difficulty]
HPDrainRate:2
CircleSize:3
OverallDifficulty:3.7
ApproachRate:5
SliderMultiplier:0.84
SliderTickRate:1

[Events]
//Background and Video events
0,0,"a1.jpg",0,0
//Break Periods
//Storyboard Layer 0 (Background)
//Storyboard Layer 1 (Fail)
//Storyboard Layer 2 (Pass)
//Storyboard Layer 3 (Foreground)
//Storyboard Layer 4 (Overlay)
//Storyboard Sound Samples

[TimingPoints]
752,288.461538461538,6,2,1,50,1,0
752,-111.111111111111,6,2,1,50,0,0
14598,-111.111111111111,6,2,1,50,0,0
15175,-111.111111111111,6,2,1,55,0,0
15463,-111.111111111111,6,2,1,60,0,0
16328,-100,6,2,1,65,0,0
21449,-100,6,2,1,35,0,0
21521,-100,6,2,1,65,0,0
28444,-100,6,2,1,65,0,0
28876,-100,6,2,1,60,0,0
29165,-100,6,2,1,55,0,0
29309,-100,6,2,1,55,0,0
29598,-100,6,2,1,50,0,0
29886,-100,6,2,1,45,0,0
30175,-125,6,2,1,40,0,0
44021,-117.647058823529,6,2,2,48,0,0
57867,-111.111111111111,6,2,2,54,0,0
62771,-111.111111111111,6,2,1,54,0,0
63059,-111.111111111111,6,2,2,54,0,0
69694,-111.111111111111,6,2,1,54,0,0
69982,-111.111111111111,6,2,2,54,0,0
71713,-105.263157894737,6,2,2,57,0,0
82098,-105.263157894737,6,2,2,60,0,0
83540,-105.263157894737,6,2,1,60,0,0
83828,-105.263157894737,6,2,1,62,0,0
84117,-105.263157894737,6,2,2,60,0,0
85271,-105.263157894737,6,2,1,60,0,0
85559,297.029702970297,6,2,1,63,1,0
85596,-100,6,2,1,45,0,0
86004,-100,6,2,1,65,0,0
86041,-100,6,2,1,45,0,0
86301,-100,6,2,1,50,0,0
86450,294.840294840294,6,2,1,55,1,0
86450,-100,6,2,1,55,0,0
86597,-100,6,2,1,45,0,0
86744,-100,6,2,1,60,0,0
86892,-100,6,2,1,50,0,0
87039,-100,6,2,1,65,0,0
87187,-100,6,2,1,55,0,0
87334,288.461538461538,6,2,1,70,1,0
87334,-90.9090909090909,6,2,1,70,0,1
87550,-90.9090909090909,6,2,1,35,0,1
87622,-90.9090909090909,6,2,1,70,0,1
88992,-90.9090909090909,6,2,1,35,0,1
89064,-90.9090909090909,6,2,1,70,0,1
92454,-90.9090909090909,6,2,1,35,0,1
92526,-90.9090909090909,6,2,1,70,0,1
93319,-90.9090909090909,6,2,1,35,0,1
93391,-90.9090909090909,6,2,1,70,0,1
94184,-90.9090909090909,6,2,1,35,0,1
94257,-90.9090909090909,6,2,1,70,0,1
95915,-90.9090909090909,6,2,1,35,0,1
95987,-90.9090909090909,6,2,1,70,0,1
96781,-90.9090909090909,6,2,1,35,0,1
96853,-90.9090909090909,6,2,1,70,0,1
97718,-90.9090909090909,6,2,1,70,0,1
97934,-90.9090909090909,6,2,1,35,0,1
98007,-90.9090909090909,6,2,1,70,0,1
99449,-90.9090909090909,6,2,1,70,0,1
100314,-90.9090909090909,6,2,1,70,0,1
100458,-90.9090909090909,6,2,1,60,0,1
100603,-90.9090909090909,6,2,1,65,0,1
100747,-90.9090909090909,6,2,1,55,0,1
100891,-90.9090909090909,6,2,1,60,0,1
101035,-90.9090909090909,6,2,1,50,0,1
101108,-90.9090909090909,6,2,1,50,0,0
101180,-90.9090909090909,6,2,1,70,0,1
101396,-90.9090909090909,6,2,1,35,0,1
101468,-90.9090909090909,6,2,1,70,0,1
102838,-90.9090909090909,6,2,1,35,0,1
102910,-90.9090909090909,6,2,1,70,0,1
103704,-90.9090909090909,6,2,1,35,0,1
103776,-90.9090909090909,6,2,1,70,0,1
106300,-90.9090909090909,6,2,1,35,0,1
106372,-90.9090909090909,6,2,1,70,0,1
107165,-90.9090909090909,6,2,1,35,0,1
107237,-90.9090909090909,6,2,1,70,0,1
108031,-90.9090909090909,6,2,1,35,0,1
108103,-90.9090909090909,6,2,1,70,0,1
109761,-90.9090909090909,6,2,1,35,0,1
109833,-90.9090909090909,6,2,1,70,0,1
110627,-90.9090909090909,6,2,1,35,0,1
110699,-90.9090909090909,6,2,1,70,0,1
112646,-90.9090909090909,6,2,1,35,0,1
112718,-90.9090909090909,6,2,1,70,0,1
114377,-90.9090909090909,6,2,1,35,0,1
114449,-90.9090909090909,6,2,1,70,0,1
114990,-90.9090909090909,6,2,1,70,0,0
115026,-90.9090909090909,6,2,1,70,0,1
116396,-90.9090909090909,6,2,1,35,0,1
116468,-90.9090909090909,6,2,1,70,0,1
118487,-90.9090909090909,6,2,1,70,0,1
119064,-90.9090909090909,6,2,1,70,0,1
120218,-90.9090909090909,6,2,1,70,0,1
120651,-90.9090909090909,6,2,1,70,0,1
121083,-90.9090909090909,6,2,1,70,0,1
121372,-90.9090909090909,6,2,2,65,0,1
121660,-90.9090909090909,6,2,2,60,0,1
121949,-100,6,2,1,65,0,0
127069,-100,6,2,1,35,0,0
127141,-100,6,2,1,65,0,0
134064,-100,6,2,1,65,0,0
134497,-100,6,2,1,60,0,0
134785,-100,6,2,1,55,0,0
134930,-100,6,2,1,55,0,0
135218,-100,6,2,1,53,0,0
135507,-100,6,2,1,50,0,0
135795,-95.2380952380952,6,2,1,68,0,0
140915,-95.2380952380952,6,2,1,35,0,0
140987,-95.2380952380952,6,2,1,68,0,0
147910,-95.2380952380952,6,2,1,68,0,0
148342,-95.2380952380952,6,2,1,65,0,0
148632,-95.2380952380952,6,2,1,60,0,0
148775,-95.2380952380952,6,2,1,60,0,0
149064,-95.2380952380952,6,2,1,55,0,0
149352,-95.2380952380952,6,2,1,50,0,0
149641,-111.111111111111,6,2,2,50,0,0
151372,-111.111111111111,6,2,2,52,0,0
153103,-111.111111111111,6,2,2,54,0,0
154833,-111.111111111111,6,2,2,56,0,0
156276,-111.111111111111,6,2,2,58,0,0
156564,-111.111111111111,6,2,2,44,0,0

[Colours]
Combo1 : 143,1,70
Combo2 : 200,180,220
Combo3 : 104,172,113
Combo4 : 150,185,220
Combo5 : 255,170,225
Combo6 : 188,67,124
Combo7 : 61,118,88
Combo8 : 47,107,130

[HitObjects]
255,39,14598,6,0,P|187:36|91:29,1,151.199995385742,2|8,0:2|0:1,0:2:0:0:
28,60,15463,2,0,P|20:93|26:141,1,75.5999976928712,8|8,0:3|0:2,0:0:0:0:
81,198,16040,1,2,1:2:0:0:
170,199,16328,54,0,L|155:340,2,126,6|8|8,3:1|0:3|0:2,0:2:0:0:
225,132,17482,1,2,0:2:0:0:
310,145,17771,1,0,1:2:0:0:
359,216,18059,2,0,P|410:242|468:214,1,126,2|8,3:1|2:3,0:2:0:0:
501,88,18925,2,0,P|457:75|417:71,1,84,8|2,0:2|0:2,0:2:0:0:
344,28,19501,1,0,1:2:0:0:
281,87,19790,70,0,L|293:225,1,126,2|8,3:1|0:3,0:2:0:0:
303,341,20655,1,8,0:2:0:0:
219,363,20944,2,0,P|179:361|136:345,1,84,2|0,0:2|1:2,0:2:0:0:
75,286,21521,2,0,P|64:235|82:152,1,126,2|8,3:1|0:3,0:2:0:0:
173,76,22386,1,8,0:2:0:0:
256,100,22675,1,2,0:2:0:0:
339,76,22963,1,0,1:2:0:0:
416,114,23251,38,0,P|428:175|417:236,2,126,6|8|8,3:2|0:3|0:2,0:2:0:0:
339,76,24405,1,2,2:2:0:0:
256,100,24694,1,0,1:2:0:0:
173,76,24982,2,0,P|160:137|171:198,1,126,2|8,3:1|2:3,0:2:0:0:
297,231,25848,2,0,P|355:223|399:226,1,84,8|2,0:2|0:2,0:2:0:0:
453,270,26425,1,0,1:2:0:0:
410,345,26713,70,0,P|379:357|271:343,1,126,2|8,3:1|0:1,0:2:0:0:
175,286,27578,1,12,0:2:0:0:
223,214,27867,1,2,0:2:0:0:
203,129,28155,1,4,0:3:0:0:
256,61,28444,2,0,P|317:50|377:67,1,126,4|4,3:2|0:3,0:2:0:0:
467,161,29309,2,0,L|461:254,2,84,4|8|8,1:2|0:1|0:3,0:2:0:0:
512,88,30175,22,0,B|396:82|443:158|308:136,1,201.6,6|2,3:1|0:2,0:0:0:0:
170,268,31905,2,0,B|286:262|239:338|374:316,1,201.6,2|2,0:1|0:2,0:2:0:0:
503,195,33636,70,0,P|460:190|347:75,1,201.6,2|2,0:1|0:2,0:0:0:0:
162,85,35367,2,0,P|103:165|9:195,1,201.6,2|2,0:1|0:2,0:2:0:0:
151,337,37098,38,0,L|353:361,1,201.6,2|2,0:1|0:2,0:2:0:0:
503,228,38828,2,0,L|302:204,1,201.6,2|2,0:1|0:2,0:2:0:0:
103,235,40559,70,0,P|75:184|136:58,1,201.6,2|2,0:1|0:2,0:2:0:0:
328,87,42290,2,0,P|356:138|295:264,1,201.6,2|2,0:1|0:2,0:2:0:0:
131,147,44021,22,0,P|71:141|25:213,1,142.800002723694,10|8,2:1|0:1,0:2:0:0:
16,283,44886,1,8,0:3:0:0:
155,370,45463,1,8,0:2:0:0:
155,370,45751,2,0,P|202:345|294:353,1,142.800002723694,10|8,0:1|0:1,0:2:0:0:
370,334,46617,2,0,P|398:347|449:349,2,71.4000013618469,8|2|8,0:3|0:3|0:2,0:2:0:0:
315,272,47482,85,10,2:1:0:0:
462,198,48059,1,8,0:1:0:0:
462,198,48348,1,8,0:3:0:0:
388,51,48925,1,8,0:2:0:0:
388,51,49213,1,10,2:1:0:0:
236,121,49790,1,8,0:3:0:0:
236,121,50078,2,0,P|202:153|120:117,1,142.800002723694,2|8,0:3|0:1,0:2:0:0:
66,59,50944,22,0,L|79:203,1,142.800002723694,10|8,0:1|0:1,0:2:0:0:
44,276,51809,1,8,0:3:0:0:
89,344,52098,2,0,P|124:343|160:332,1,71.4000013618469,2|8,0:3|0:2,0:0:0:0:
228,288,52675,2,0,P|262:308|333:311,2,107.10000204277,10|2|8,0:1|0:2|0:3,0:2:0:0:
175,225,53828,2,0,L|161:146,1,71.4000013618469,2|8,0:2|0:2,0:0:0:0:
196,79,54405,85,10,0:1:0:0:
329,175,54982,1,8,0:1:0:0:
329,175,55271,1,8,0:3:0:0:
479,109,55848,1,8,0:2:0:0:
479,109,56136,2,0,P|500:148|413:282,1,214.200004085541,10|2,0:3|0:3,0:2:0:0:
199,297,57867,54,0,L|192:383,2,75.5999976928712,4|2|8,3:2|0:2|0:1,0:0:0:0:
129,255,58732,1,8,0:3:0:0:
64,205,59021,2,0,P|65:167|77:131,1,75.5999976928712,2|2,0:3|0:2,0:2:0:0:
122,63,59598,2,0,P|146:85|259:84,1,151.199995385742,2|8,0:1|0:2,0:2:0:0:
329,125,60463,2,0,P|402:114|463:163,1,151.199995385742,8|2,0:3|0:2,0:2:0:0:
468,243,61328,102,0,B|420:332|194:268|268:164|258:107|210:60|128:71,1,453.599986157227,2|2,3:1|3:1,0:0:0:0:
34,272,63925,1,8,0:3:0:0:
102,319,64213,2,0,P|143:318|180:298,1,75.5999976928712,2|2,0:3|0:2,0:2:0:0:
245,257,64790,6,0,L|260:99,1,151.199995385742,4|0,3:2|0:2,0:0:0:0:
331,69,65655,1,8,0:3:0:0:
406,99,65944,2,0,L|411:191,1,75.5999976928712,2|2,0:3|0:2,0:2:0:0:
463,235,66521,2,0,P|468:265|458:310,1,75.5999976928712,2|8,3:1|0:1,0:2:0:0:
397,363,67098,1,8,0:2:0:0:
326,321,67386,2,0,P|316:279|320:232,1,75.5999976928712,8|2,0:3|0:3,0:2:0:0:
359,176,67963,1,2,0:2:0:0:
319,104,68251,102,0,P|280:87|232:87,1,75.5999976928712,2|2,3:1|0:2,0:0:0:0:
185,137,68828,2,0,P|133:215|57:87,2,302.399990771485,8|2|2,0:1|3:1|0:2,0:0:0:0:
303,263,71713,6,0,P|330:314|430:323,1,159.59999573822,6|8,3:2|0:2,0:2:0:0:
473,256,72578,2,0,P|456:152|452:94,1,159.59999573822,8|2,0:3|0:2,0:2:0:0:
404,29,73444,1,2,3:1:0:0:
276,135,74021,1,8,0:1:0:0:
219,74,74309,2,0,P|176:63|126:64,2,79.7999978691102,8|2|8,0:3|0:3|0:2,0:2:0:0:
276,135,75175,102,0,P|282:162|258:252,1,119.699996803665,2|2,3:1|0:2,0:2:0:0:
148,305,76040,2,0,L|138:399,2,79.7999978691102,8|2|2,0:3|0:3|0:2,0:2:0:0:
157,222,76905,1,2,3:1:0:0:
31,122,77482,1,8,0:2:0:0:
31,122,77771,1,8,0:3:0:0:
163,23,78348,1,8,0:1:0:0:
232,68,78636,6,0,P|290:86|360:70,1,119.699996803665,6|2,3:2|0:2,0:2:0:0:
457,18,79501,1,8,0:3:0:0:
483,96,79790,2,0,P|489:134|471:188,1,79.7999978691102,2|2,0:3|0:2,0:2:0:0:
419,231,80367,1,2,3:1:0:0:
256,195,80944,1,2,0:2:0:0:
194,251,81232,2,0,P|184:288|193:342,2,79.7999978691102,8|2|2,0:3|0:3|0:2,0:2:0:0:
256,195,82098,102,0,P|325:209|407:162,1,159.59999573822,6|8,3:2|0:2,0:2:0:0:
383,87,82963,2,0,P|314:73|232:120,1,159.59999573822,8|8,0:3|0:3,0:2:0:0:
160,143,83828,2,0,P|129:130|79:130,2,79.7999978691102,6|8|2,3:1|0:3|0:3,0:2:0:0:
191,220,84694,1,8,0:1:0:0:
210,300,84982,2,0,P|241:313|291:313,1,79.7999978691102,2|0,0:3|1:2,0:0:0:0:
368,356,85559,86,0,B|380:315|380:315|404:295|404:295|420:234,1,126,8|4,0:3|0:3,0:0:0:0:
495,144,86450,1,8,2:3:0:0:
426,87,86744,1,4,2:3:0:0:
340,105,87039,1,8,2:2:0:0:
272,43,87334,86,0,P|242:31|181:28,2,92.4000028198243,6|2|0,3:1|0:2|1:2,0:2:0:0:
340,105,88199,2,0,P|336:144|350:203,1,92.4000028198243,8|2,0:2|2:2,0:0:0:0:
403,268,88776,1,0,1:2:0:0:
346,341,89064,2,0,P|303:354|247:358,1,92.4000028198243,2|2,3:1|0:2,0:2:0:0:
165,340,89641,1,0,1:2:0:0:
94,279,89930,2,0,P|86:220|76:182,1,92.4000028198243,8|2,0:2|0:2,0:0:0:0:
141,120,90507,1,0,1:2:0:0:
221,165,90795,102,0,P|228:223|238:261,1,92.4000028198243,2|2,3:1|0:2,0:2:0:0:
300,322,91372,2,0,P|398:332|475:287,1,184.800005639649,0|2,1:2|0:2,0:2:0:0:
506,206,92237,1,0,1:2:0:0:
436,145,92526,2,0,L|451:52,1,92.4000028198243,2|2,3:1|0:2,0:2:0:0:
364,20,93103,2,0,L|349:113,1,92.4000028198243,0|8,1:2|0:2,0:2:0:0:
279,171,93680,1,2,0:2:0:0:
192,139,93968,1,0,1:2:0:0:
103,167,94257,6,0,P|58:222|75:334,1,184.800005639649,6|0,3:2|1:2,0:2:0:0:
152,373,95122,2,0,P|219:363|252:363,1,92.4000028198243,8|2,0:2|0:2,0:0:0:0:
319,309,95699,1,0,1:2:0:0:
261,237,95987,2,0,P|242:149|292:74,1,184.800005639649,2|0,3:1|1:2,0:2:0:0:
379,42,96853,1,8,0:2:0:0:
463,77,97141,1,2,0:2:0:0:
493,164,97430,1,0,1:2:0:0:
451,246,97718,102,0,L|461:351,2,92.4000028198243,6|2|2,3:1|0:2|1:1,0:2:0:0:
392,174,98583,2,0,B|280:177|337:233|216:229,1,184.800005639649,12|4,0:2|0:3,0:0:0:0:
156,295,99449,2,0,P|99:293|48:230,1,138.600004229736,6|8,3:1|0:3,0:2:0:0:
20,98,100314,1,2,1:2:0:0:
96,45,100603,1,8,0:2:0:0:
170,99,100891,1,8,0:3:0:0:
261,83,101180,86,0,L|256:183,2,92.4000028198243,6|2|0,3:1|0:2|1:2,0:2:0:0:
337,30,102045,2,0,P|370:27|433:46,1,92.4000028198243,8|2,0:2|2:2,0:0:0:0:
466,125,102622,1,0,1:2:0:0:
416,202,102910,2,0,P|383:205|320:186,1,92.4000028198243,2|2,3:1|0:2,0:2:0:0:
237,162,103487,2,0,L|241:257,1,92.4000028198243,2|8,1:2|0:2,0:2:0:0:
211,342,104064,1,2,0:2:0:0:
123,371,104353,1,0,1:2:0:0:
44,322,104641,22,0,P|24:241|53:140,1,184.800005639649,6|0,3:2|1:2,0:2:0:0:
130,99,105507,2,0,P|179:116|223:111,1,92.4000028198243,8|2,0:2|0:2,0:2:0:0:
297,64,106083,1,0,1:2:0:0:
348,141,106372,2,0,L|353:246,1,92.4000028198243,2|2,3:1|0:2,0:2:0:0:
430,282,106949,2,0,L|435:387,2,92.4000028198243,0|8|2,1:2|0:2|0:2,0:2:0:0:
494,215,107814,1,0,1:2:0:0:
460,127,108103,6,0,P|378:92|290:133,1,184.800005639649,6|0,3:2|1:2,0:2:0:0:
259,212,108968,2,0,P|271:254|279:316,1,92.4000028198243,8|2,0:2|0:2,0:0:0:0:
224,377,109545,1,0,1:2:0:0:
138,342,109833,2,0,P|113:285|133:71,1,277.200008459473,6|8,3:2|0:2,0:2:0:0:
211,32,110987,1,2,0:2:0:0:
293,74,111276,1,0,1:2:0:0:
377,37,111564,102,0,P|430:38|481:146,1,184.800005639649,6|0,3:2|1:3,0:2:0:0:
417,211,112430,1,12,0:2:0:0:
344,153,112718,2,0,P|297:131|255:127,1,92.4000028198243,2|8,0:2|0:3,0:2:0:0:
174,168,113295,2,0,P|139:230|143:307,1,138.600004229736,6|8,3:1|0:3,0:2:0:0:
250,378,114160,1,12,0:2:0:0:
335,342,114449,1,8,0:1:0:0:
424,362,114737,1,8,0:3:0:0:
485,292,115026,6,0,P|489:193|457:100,1,184.800005639649,6|0,3:1|1:2,0:2:0:0:
386,61,115891,1,8,0:2:0:0:
304,104,116180,2,0,P|258:98|207:81,1,92.4000028198243,2|0,0:2|1:2,0:2:0:0:
131,42,116757,2,0,P|102:72|88:312,1,277.200008459473,6|8,3:2|0:2,0:2:0:0:
155,344,117910,1,2,0:2:0:0:
238,303,118199,1,0,1:2:0:0:
322,340,118487,102,0,P|374:364|456:348,1,138.600004229736,6|8,3:1|0:3,0:2:0:0:
490,216,119353,2,0,P|476:164|474:104,1,92.4000028198243,4|2,0:3|0:2,0:0:0:0:
409,58,119930,1,8,0:3:0:0:
323,92,120218,2,0,L|175:66,2,138.600004229736,6|2|2,3:1|1:2|1:3,0:2:0:0:
391,324,121949,86,0,P|452:349|517:323,2,126,6|8|8,3:1|0:3|0:2,0:2:0:0:
314,284,123103,1,2,0:2:0:0:
240,329,123391,1,0,1:2:0:0:
171,275,123680,2,0,P|111:292|55:267,1,126,2|8,3:1|2:3,0:2:0:0:
20,141,124545,2,0,P|36:107|47:59,1,84,8|2,0:2|0:2,0:2:0:0:
123,22,125122,1,0,1:2:0:0:
179,88,125410,70,0,P|158:146|147:218,1,126,2|8,3:1|0:3,0:2:0:0:
189,332,126276,1,8,0:2:0:0:
268,366,126564,2,0,P|308:364|351:348,1,84,2|0,0:2|1:2,0:2:0:0:
404,282,127141,2,0,L|416:144,1,126,2|8,3:1|0:3,0:2:0:0:
422,26,128007,1,8,0:2:0:0:
335,30,128295,1,2,0:2:0:0:
305,111,128583,1,0,1:2:0:0:
219,126,128872,38,0,P|160:105|88:100,2,126,6|8|8,3:2|0:3|0:2,0:2:0:0:
290,175,130026,1,2,2:2:0:0:
290,261,130314,1,0,1:2:0:0:
230,324,130603,2,0,P|167:318|108:297,1,126,2|8,3:1|2:3,0:2:0:0:
21,200,131468,2,0,P|32:165|42:115,1,84,8|2,0:2|0:2,0:2:0:0:
113,70,132045,1,0,1:2:0:0:
176,128,132333,70,0,P|235:149|297:154,1,126,2|8,3:1|0:1,0:2:0:0:
419,109,133199,1,12,0:2:0:0:
495,148,133487,1,2,0:2:0:0:
492,234,133776,1,4,0:3:0:0:
426,289,134064,2,0,P|363:283|304:262,1,126,4|4,3:2|0:3,0:2:0:0:
196,189,134930,2,0,P|159:203|103:201,2,84,4|8|8,1:2|0:1|0:3,0:2:0:0:
262,130,135795,86,0,L|244:264,2,132.299995962525,6|8|8,3:1|0:3|0:2,0:2:0:0:
329,72,136949,1,2,0:2:0:0:
416,87,137237,1,0,1:2:0:0:
465,159,137526,2,0,L|447:293,1,132.299995962525,2|8,3:1|2:3,0:2:0:0:
337,363,138391,2,0,P|304:363|248:339,1,88.1999973083497,8|2,0:2|0:2,0:2:0:0:
190,280,138968,1,0,1:2:0:0:
248,213,139257,86,0,P|274:157|273:73,1,132.299995962525,2|8,3:1|0:3,0:2:0:0:
162,19,140122,1,8,0:2:0:0:
80,51,140410,2,0,P|52:92|49:138,1,88.1999973083497,2|0,0:2|1:2,0:2:0:0:
82,210,140987,2,0,P|126:216|217:250,1,132.299995962525,2|8,3:1|0:3,0:2:0:0:
301,340,141853,1,8,0:2:0:0:
380,378,142141,1,2,0:2:0:0:
460,342,142430,1,0,1:2:0:0:
453,254,142718,22,0,P|459:183|485:107,2,132.299995962525,6|8|8,3:2|0:3|0:2,0:2:0:0:
460,342,143872,1,2,2:2:0:0:
380,378,144160,1,0,1:2:0:0:
301,340,144449,2,0,P|243:320|169:320,1,132.299995962525,2|8,3:1|2:3,0:2:0:0:
40,307,145314,2,0,P|33:271|34:219,1,88.1999973083497,8|2,0:2|0:2,0:2:0:0:
83,146,145891,1,0,1:2:0:0:
154,197,146180,86,0,P|216:217|282:217,1,132.299995962525,2|8,3:1|0:1,0:2:0:0:
402,272,147045,1,12,0:2:0:0:
477,226,147333,1,2,0:2:0:0:
498,140,147622,1,4,0:3:0:0:
453,63,147910,2,0,P|390:42|324:42,1,132.299995962525,4|4,3:2|0:3,0:2:0:0:
216,119,148776,2,0,L|223:218,2,88.1999973083497,4|8|8,1:2|0:1|0:3,0:2:0:0:
256,192,149641,12,2,151372,3:1:0:0:
256,192,151444,12,2,153103,3:1:0:0:
256,192,153175,12,2,154833,3:1:0:0:
256,192,154906,12,2,156564,1:2:0:0:
