osu file format v14

[General]
AudioFilename: audio.mp3
AudioLeadIn: 0
PreviewTime: 64351
Countdown: 0
SampleSet: Normal
StackLeniency: 0.7
Mode: 1
LetterboxInBreaks: 0
WidescreenStoryboard: 1

[Editor]
Bookmarks: 10044,19549,102718,124104,208460
DistanceSpacing: 0.7
BeatDivisor: 2
GridSize: 32
TimelineZoom: 1.199999

[Metadata]
Title:Xrocus
TitleUnicode:Xrocus
Artist:AAAA vs. Morimori Atsushi
ArtistUnicode:ああああ vs. モリモリあつし
Creator:Cychloryn
Version:Kantan
Source:
Tags:genjuro electronic instrumental 非可逆リズム hikagyaku rhythm rizumu NNRR-0011 Ayatsugu_Otowa 梅干茶漬け 影虎。 cosMo@暴走P xac s-don hapi⇒ polysha 黄泉路テヂーモ umeboshi chazuke kagetora. cosMo@bousouP yomiji tejiimo
BeatmapID:2509226
BeatmapSetID:1183776

[Difficulty]
HPDrainRate:8
CircleSize:2
OverallDifficulty:3
ApproachRate:10
SliderMultiplier:1.4
SliderTickRate:1

[Events]
//Background and Video events
0,0,"bg.jpg",0,0
//Break Periods
2,124104,133159
//Storyboard Layer 0 (Background)
//Storyboard Layer 1 (Fail)
//Storyboard Layer 2 (Pass)
//Storyboard Layer 3 (Foreground)
//Storyboard Layer 4 (Overlay)
//Storyboard Sound Samples

[TimingPoints]
540,297.029702970297,4,1,0,35,1,0
540,-111.111111111111,4,1,0,35,0,0
5292,-111.111111111111,4,1,0,40,0,0
7817,-111.111111111111,4,1,0,45,0,0
8819,-105.263157894737,4,1,0,85,0,0
19549,-105.263157894737,4,1,0,70,0,0
19846,-111.111111111111,4,1,0,70,0,0
31431,-105.263157894737,4,1,0,85,0,0
33807,-105.263157894737,4,1,0,85,0,0
40936,-105.263157894737,4,1,0,85,0,0
41233,-111.111111111111,4,1,0,70,0,0
47470,-107.52688172043,4,1,0,70,0,0
47767,-106.382978723404,4,1,0,70,0,0
48027,-105.263157894737,4,1,0,85,0,0
64698,-102.040816326531,4,1,0,85,0,0
64995,-100,4,1,0,100,0,1
74203,-100,4,1,0,100,0,0
74500,-100,4,1,0,100,0,1
81332,-100,4,1,0,85,0,0
82520,-100,4,1,0,100,0,1
83708,-105.263157894737,4,1,0,90,0,0
93176,-106.382978723404,4,1,0,75,0,0
93510,-111.111111111111,4,1,0,75,0,0
97928,-105.263157894737,4,1,0,85,0,0
119500,-111.111111111111,4,1,0,75,0,0
123473,-117.647058823529,4,1,0,30,0,0
133609,-111.111111111111,4,1,0,60,0,0
137767,-108.695652173913,4,1,0,70,0,0
138324,-105.263157894737,4,1,0,85,0,0
145490,-104.166666666667,4,1,0,85,0,0
145787,-103.092783505155,4,1,0,85,0,0
146084,-102.040816326531,4,1,0,85,0,0
146381,-101.010101010101,4,1,0,85,0,0
146678,-100,4,1,0,100,0,1
165688,-100,4,1,0,100,0,0
166579,-111.111111111111,4,1,0,70,0,0
170403,-108.695652173913,4,1,0,80,0,0
171629,-106.382978723404,4,1,0,80,0,0
172817,-104.166666666667,4,1,0,85,0,0
173411,-102.040816326531,4,1,0,85,0,0
173708,-100,4,1,0,85,0,0
174896,-100,4,1,0,85,0,0
175787,-105.263157894737,4,1,0,85,0,0
178757,-104.166666666667,4,1,0,85,0,0
179054,-103.092783505155,4,1,0,85,0,0
179351,-102.040816326531,4,1,0,85,0,0
179648,-101.010101010101,4,1,0,85,0,0
179945,-100,4,1,0,100,0,1
182322,-100,4,1,0,85,0,0
183510,-105.263157894737,4,1,0,100,0,1
184698,-102.040816326531,4,1,0,100,0,0
184995,-100,4,1,0,100,0,1
194203,-100,4,1,0,100,0,0
194500,-100,4,1,0,100,0,1
206084,-100,4,1,0,85,0,0
207272,-102.040816326531,4,1,0,100,0,1
208460,-105.263157894737,4,1,0,90,0,0
217927,-106.382978723404,4,1,0,75,0,0
218262,-111.111111111111,4,1,0,75,0,0
222680,-105.263157894737,4,1,0,85,0,0
227470,-104.166666666667,4,1,0,85,0,0
227767,-102.040816326531,4,1,0,85,0,0
228064,-100,4,1,0,85,0,0
228657,-95.2380952380952,4,1,0,85,0,0
229845,-90.9090909090909,4,1,0,85,0,0

[HitObjects]
256,192,540,5,8,0:0:0:0:
256,192,1728,1,0,0:0:0:0:
256,192,2322,1,8,0:0:0:0:
256,192,2916,1,0,0:0:0:0:
256,192,4104,1,0,0:0:0:0:
256,192,5292,1,0,0:0:0:0:
256,192,5886,1,8,0:0:0:0:
256,192,6480,1,8,0:0:0:0:
256,192,7074,1,8,0:0:0:0:
256,192,7668,1,0,0:0:0:0:
256,192,8856,5,8,0:0:0:0:
256,192,9302,1,8,0:0:0:0:
256,192,10044,1,4,0:0:0:0:
256,192,10490,1,8,0:0:0:0:
256,192,10936,1,8,0:0:0:0:
256,192,11381,1,0,0:0:0:0:
256,192,11827,1,8,0:0:0:0:
256,192,12124,1,8,0:0:0:0:
256,192,12421,1,0,0:0:0:0:
256,192,13460,1,0,0:0:0:0:
256,192,13757,1,0,0:0:0:0:
256,192,14054,1,0,0:0:0:0:
256,192,14351,1,0,0:0:0:0:
256,192,15094,5,12,0:0:0:0:
256,192,15688,1,0,0:0:0:0:
256,192,16134,1,8,0:0:0:0:
256,192,16579,1,8,0:0:0:0:
256,192,16876,1,8,0:0:0:0:
256,192,17173,1,0,0:0:0:0:
256,192,18361,5,8,0:0:0:0:
256,192,18807,1,0,0:0:0:0:
256,192,19549,1,12,0:0:0:0:
288,192,21035,1,8,0:0:0:0:
288,192,21332,1,8,0:0:0:0:
288,192,21926,1,0,0:0:0:0:
288,192,23114,1,8,0:0:0:0:
288,192,23708,1,0,0:0:0:0:
288,192,24302,1,8,0:0:0:0:
288,192,25490,1,8,0:0:0:0:
288,192,26084,1,8,0:0:0:0:
288,192,26678,1,0,0:0:0:0:
256,192,27866,1,8,0:0:0:0:
256,192,29054,1,8,0:0:0:0:
256,192,29648,1,0,0:0:0:0:
256,192,30242,1,8,0:0:0:0:
256,192,30837,1,0,0:0:0:0:
256,192,31431,1,12,0:0:0:0:
256,192,31876,1,12,0:0:0:0:
256,192,32322,1,4,0:0:0:0:
256,192,33807,1,8,0:0:0:0:
256,192,34401,1,8,0:0:0:0:
256,192,34995,1,8,0:0:0:0:
256,192,35292,1,0,0:0:0:0:
256,192,35589,1,8,0:0:0:0:
256,192,35886,1,8,0:0:0:0:
256,192,36183,1,4,0:0:0:0:
256,192,36777,1,8,0:0:0:0:
256,192,37371,1,0,0:0:0:0:
256,192,37965,1,8,0:0:0:0:
256,192,38262,1,8,0:0:0:0:
256,192,38559,1,0,0:0:0:0:
256,192,39747,1,0,0:0:0:0:
256,192,40044,1,8,0:0:0:0:
256,192,40341,1,8,0:0:0:0:
256,192,40639,1,8,0:0:0:0:
256,192,40936,1,4,0:0:0:0:
256,192,41530,1,8,0:0:0:0:
256,192,42124,1,8,0:0:0:0:
256,192,42718,1,8,0:0:0:0:
256,192,43015,1,8,0:0:0:0:
256,192,43312,1,0,0:0:0:0:
256,192,43906,1,8,0:0:0:0:
256,192,44500,1,8,0:0:0:0:
256,192,45688,1,0,0:0:0:0:
256,192,46282,1,0,0:0:0:0:
256,192,46876,1,8,0:0:0:0:
256,192,47470,1,0,0:0:0:0:
256,192,47767,1,0,0:0:0:0:
256,192,48064,1,12,0:0:0:0:
256,192,48658,1,12,0:0:0:0:
256,192,49252,1,12,0:0:0:0:
256,192,49846,1,12,0:0:0:0:
256,192,50738,1,0,0:0:0:0:
256,192,51629,1,8,0:0:0:0:
256,192,52074,1,8,0:0:0:0:
256,192,52520,1,0,0:0:0:0:
256,192,52817,1,8,0:0:0:0:
256,192,53262,1,8,0:0:0:0:
256,192,54005,1,8,0:0:0:0:
256,192,54450,1,8,0:0:0:0:
256,192,54896,1,0,0:0:0:0:
256,192,55193,1,12,0:0:0:0:
256,192,56084,1,8,0:0:0:0:
256,192,56678,1,0,0:0:0:0:
256,192,56975,1,8,0:0:0:0:
256,192,57569,1,8,0:0:0:0:
256,192,58015,1,8,0:0:0:0:
256,192,58460,1,8,0:0:0:0:
256,192,59351,1,8,0:0:0:0:
256,192,59648,1,8,0:0:0:0:
256,192,59945,1,0,0:0:0:0:
256,192,60391,1,0,0:0:0:0:
256,192,60837,1,0,0:0:0:0:
256,192,61282,1,0,0:0:0:0:
256,192,61728,1,8,0:0:0:0:
256,192,62322,1,4,0:0:0:0:
256,192,63510,1,8,0:0:0:0:
256,192,63955,1,0,0:0:0:0:
256,192,64698,1,0,0:0:0:0:
256,192,64995,1,12,0:0:0:0:
256,192,65589,1,8,0:0:0:0:
256,192,65886,1,0,0:0:0:0:
256,192,66332,1,8,0:0:0:0:
256,192,66777,1,8,0:0:0:0:
256,192,67074,1,0,0:0:0:0:
256,192,67371,1,8,0:0:0:0:
256,192,67668,1,0,0:0:0:0:
256,192,68262,1,0,0:0:0:0:
256,192,69153,1,0,0:0:0:0:
256,192,69450,1,8,0:0:0:0:
256,192,70044,1,8,0:0:0:0:
256,192,70639,1,8,0:0:0:0:
256,192,70936,1,0,0:0:0:0:
256,192,71233,1,8,0:0:0:0:
256,192,71827,1,0,0:0:0:0:
256,192,72124,1,0,0:0:0:0:
256,192,72421,1,8,0:0:0:0:
256,192,72718,1,8,0:0:0:0:
256,192,73015,1,0,0:0:0:0:
256,192,73609,5,8,0:0:0:0:
256,192,74500,1,12,0:0:0:0:
256,192,75094,1,0,0:0:0:0:
256,192,75391,1,8,0:0:0:0:
256,192,75837,1,0,0:0:0:0:
256,192,76282,1,0,0:0:0:0:
256,192,76579,1,8,0:0:0:0:
256,192,76876,1,8,0:0:0:0:
256,192,77173,1,0,0:0:0:0:
256,192,77767,1,8,0:0:0:0:
256,192,78064,1,8,0:0:0:0:
256,192,78361,1,0,0:0:0:0:
256,192,78658,1,8,0:0:0:0:
256,192,78955,1,4,0:0:0:0:
256,192,79549,1,0,0:0:0:0:
256,192,80143,1,8,0:0:0:0:
256,192,80738,1,8,0:0:0:0:
256,192,81332,1,4,0:0:0:0:
256,192,82520,1,8,0:0:0:0:
256,192,82965,1,0,0:0:0:0:
256,192,83708,1,4,0:0:0:0:
256,192,84154,1,8,0:0:0:0:
256,192,84600,1,8,0:0:0:0:
256,192,85045,1,0,0:0:0:0:
256,192,85491,1,8,0:0:0:0:
256,192,85788,1,8,0:0:0:0:
256,192,86085,1,0,0:0:0:0:
256,192,86530,1,8,0:0:0:0:
256,192,86975,1,8,0:0:0:0:
256,192,87421,1,0,0:0:0:0:
256,192,87866,1,8,0:0:0:0:
256,192,88757,1,8,0:0:0:0:
256,192,89351,1,8,0:0:0:0:
256,192,89797,1,0,0:0:0:0:
256,192,90242,1,8,0:0:0:0:
256,192,90540,1,8,0:0:0:0:
256,192,90837,1,0,0:0:0:0:
256,192,91282,1,8,0:0:0:0:
256,192,91876,1,8,0:0:0:0:
256,192,92470,1,8,0:0:0:0:
256,192,92767,1,8,0:0:0:0:
256,192,93213,1,0,0:0:0:0:
256,192,94104,1,8,0:0:0:0:
256,192,94698,1,8,0:0:0:0:
256,192,95292,1,8,0:0:0:0:
256,192,95589,1,0,0:0:0:0:
256,192,95886,1,8,0:0:0:0:
256,192,96480,1,8,0:0:0:0:
256,192,96777,1,0,0:0:0:0:
256,192,97074,1,8,0:0:0:0:
256,192,97965,1,12,0:0:0:0:
256,192,98559,1,8,0:0:0:0:
256,192,99153,1,8,0:0:0:0:
256,192,99450,1,8,0:0:0:0:
256,192,99747,1,8,0:0:0:0:
256,192,100044,1,8,0:0:0:0:
256,192,100341,1,4,0:0:0:0:
256,192,101233,1,0,0:0:0:0:
256,192,101530,1,12,0:0:0:0:
256,192,102124,1,12,0:0:0:0:
256,192,102718,1,4,0:0:0:0:
256,192,103906,1,0,0:0:0:0:
256,192,104203,1,8,0:0:0:0:
256,192,104500,1,8,0:0:0:0:
256,192,105094,1,0,0:0:0:0:
256,192,105688,1,0,0:0:0:0:
256,192,106282,1,8,0:0:0:0:
256,192,106728,1,8,0:0:0:0:
256,192,107470,1,0,0:0:0:0:
256,192,108064,1,8,0:0:0:0:
256,192,108361,1,8,0:0:0:0:
256,192,108658,1,0,0:0:0:0:
256,192,109252,1,8,0:0:0:0:
256,192,109846,1,0,0:0:0:0:
256,192,111035,1,0,0:0:0:0:
256,192,111629,1,8,0:0:0:0:
256,192,111926,1,8,0:0:0:0:
256,192,112223,1,0,0:0:0:0:
256,192,112817,1,8,0:0:0:0:
256,192,113411,1,0,0:0:0:0:
256,192,113708,1,0,0:0:0:0:
256,192,114005,1,8,0:0:0:0:
256,192,114599,5,8,0:0:0:0:
256,192,115044,1,8,0:0:0:0:
256,192,115490,1,4,0:0:0:0:
256,192,116975,1,12,0:0:0:0:
256,192,117569,1,0,0:0:0:0:
256,192,118163,1,8,0:0:0:0:
256,192,118460,1,0,0:0:0:0:
256,192,118757,1,8,0:0:0:0:
256,192,119054,1,8,0:0:0:0:
256,192,119351,1,0,0:0:0:0:
256,192,121728,5,0,0:0:0:0:
256,192,133609,5,8,0:0:0:0:
256,192,134797,1,0,0:0:0:0:
256,192,135391,1,8,0:0:0:0:
256,192,135985,1,0,0:0:0:0:
256,192,137173,1,0,0:0:0:0:
256,192,137767,1,0,0:0:0:0:
256,192,138361,1,12,0:0:0:0:
256,192,138955,1,12,0:0:0:0:
256,192,139549,1,12,0:0:0:0:
256,192,140143,1,12,0:0:0:0:
256,192,140738,1,4,0:0:0:0:
256,192,141777,1,12,0:0:0:0:
256,192,142520,1,0,0:0:0:0:
256,192,143114,1,0,0:0:0:0:
256,192,143708,1,0,0:0:0:0:
256,192,144302,1,8,0:0:0:0:
256,192,144599,1,8,0:0:0:0:
256,192,144896,1,8,0:0:0:0:
256,192,145490,1,8,0:0:0:0:
256,192,145787,1,0,0:0:0:0:
256,192,146084,1,0,0:0:0:0:
256,192,146381,1,8,0:0:0:0:
256,192,146678,1,4,0:0:0:0:
256,192,147569,1,8,0:0:0:0:
256,192,147866,1,0,0:0:0:0:
256,192,148163,1,0,0:0:0:0:
256,192,148460,1,8,0:0:0:0:
256,192,149054,1,8,0:0:0:0:
256,192,149500,1,8,0:0:0:0:
256,192,150094,1,0,0:0:0:0:
256,192,150391,1,0,0:0:0:0:
256,192,150688,1,8,0:0:0:0:
256,192,151431,1,8,0:0:0:0:
256,192,151728,1,8,0:0:0:0:
256,192,152025,1,0,0:0:0:0:
256,192,152322,1,8,0:0:0:0:
256,192,152619,1,0,0:0:0:0:
256,192,153807,1,12,0:0:0:0:
256,192,154401,1,0,0:0:0:0:
256,192,154698,1,0,0:0:0:0:
256,192,154995,1,12,0:0:0:0:
256,192,155589,1,8,0:0:0:0:
256,192,155886,1,8,0:0:0:0:
256,192,156183,1,4,0:0:0:0:
256,192,156777,1,0,0:0:0:0:
256,192,157074,1,0,0:0:0:0:
256,192,157371,1,8,0:0:0:0:
256,192,157965,1,0,0:0:0:0:
256,192,158262,1,0,0:0:0:0:
256,192,158559,1,8,0:0:0:0:
256,192,158856,1,0,0:0:0:0:
256,192,159153,1,8,0:0:0:0:
256,192,159747,1,8,0:0:0:0:
256,192,160936,1,0,0:0:0:0:
256,192,161530,1,8,0:0:0:0:
256,192,162124,1,0,0:0:0:0:
256,192,162421,1,0,0:0:0:0:
256,192,162718,1,8,0:0:0:0:
256,192,163312,1,0,0:0:0:0:
256,192,163609,1,8,0:0:0:0:
256,192,163906,1,8,0:0:0:0:
256,192,164203,1,0,0:0:0:0:
256,192,164500,1,8,0:0:0:0:
256,192,164945,1,0,0:0:0:0:
256,192,165688,1,4,0:0:0:0:
256,192,166876,1,0,0:0:0:0:
256,192,167470,1,0,0:0:0:0:
256,192,168064,1,0,0:0:0:0:
256,192,169252,1,0,0:0:0:0:
256,192,169846,1,8,0:0:0:0:
256,192,170440,1,4,0:0:0:0:
256,192,171629,1,4,0:0:0:0:
256,192,172817,1,4,0:0:0:0:
256,192,173411,1,4,0:0:0:0:
256,192,174005,1,0,0:0:0:0:
256,192,174302,1,8,0:0:0:0:
256,192,174599,1,0,0:0:0:0:
256,192,174896,1,12,0:0:0:0:
256,192,175490,1,8,0:0:0:0:
256,192,176381,1,8,0:0:0:0:
256,192,176975,1,8,0:0:0:0:
256,192,177569,1,8,0:0:0:0:
256,192,177866,1,8,0:0:0:0:
256,192,178163,1,8,0:0:0:0:
256,192,178757,1,0,0:0:0:0:
256,192,179054,1,0,0:0:0:0:
256,192,179351,1,8,0:0:0:0:
256,192,179648,1,8,0:0:0:0:
256,192,179945,1,4,0:0:0:0:
256,192,180540,1,0,0:0:0:0:
256,192,181134,1,8,0:0:0:0:
256,192,181728,1,8,0:0:0:0:
256,192,182322,1,4,0:0:0:0:
256,192,183510,1,8,0:0:0:0:
256,192,183955,1,0,0:0:0:0:
256,192,184698,1,0,0:0:0:0:
256,192,184995,1,12,0:0:0:0:
256,192,185589,1,8,0:0:0:0:
256,192,185886,1,0,0:0:0:0:
256,192,186332,1,8,0:0:0:0:
256,192,186777,1,8,0:0:0:0:
256,192,187074,1,0,0:0:0:0:
256,192,187371,1,8,0:0:0:0:
256,192,187668,1,0,0:0:0:0:
256,192,188262,1,0,0:0:0:0:
256,192,189153,1,0,0:0:0:0:
256,192,189450,1,8,0:0:0:0:
256,192,190044,1,8,0:0:0:0:
256,192,190639,1,8,0:0:0:0:
256,192,190936,1,0,0:0:0:0:
256,192,191233,1,8,0:0:0:0:
256,192,191827,1,0,0:0:0:0:
256,192,192124,1,0,0:0:0:0:
256,192,192421,1,8,0:0:0:0:
256,192,192718,1,8,0:0:0:0:
256,192,193015,1,0,0:0:0:0:
256,192,193609,5,8,0:0:0:0:
256,192,194500,1,12,0:0:0:0:
256,192,195094,1,0,0:0:0:0:
256,192,195540,1,0,0:0:0:0:
256,192,195985,1,0,0:0:0:0:
256,192,196282,1,0,0:0:0:0:
256,192,196579,1,8,0:0:0:0:
256,192,196876,1,0,0:0:0:0:
256,192,197173,1,8,0:0:0:0:
256,192,197767,1,8,0:0:0:0:
256,192,198064,1,8,0:0:0:0:
256,192,198361,1,0,0:0:0:0:
256,192,198658,1,8,0:0:0:0:
256,192,198955,1,4,0:0:0:0:
256,192,200143,1,8,0:0:0:0:
256,192,200738,1,0,0:0:0:0:
256,192,201035,1,8,0:0:0:0:
256,192,201332,1,0,0:0:0:0:
256,192,201926,1,8,0:0:0:0:
256,192,202520,1,8,0:0:0:0:
256,192,202817,1,0,0:0:0:0:
256,192,203114,1,8,0:0:0:0:
256,192,203411,1,8,0:0:0:0:
256,192,203708,1,4,0:0:0:0:
256,192,204302,1,0,0:0:0:0:
256,192,204896,1,8,0:0:0:0:
256,192,205490,1,8,0:0:0:0:
256,192,206084,1,4,0:0:0:0:
256,192,207272,1,8,0:0:0:0:
256,192,207718,1,0,0:0:0:0:
256,192,208460,1,4,0:0:0:0:
256,192,208906,1,8,0:0:0:0:
256,192,209352,1,8,0:0:0:0:
256,192,209797,1,0,0:0:0:0:
256,192,210243,1,8,0:0:0:0:
256,192,210540,1,8,0:0:0:0:
256,192,210837,1,0,0:0:0:0:
256,192,211282,1,8,0:0:0:0:
256,192,211727,1,8,0:0:0:0:
256,192,212173,1,0,0:0:0:0:
256,192,212618,1,8,0:0:0:0:
256,192,213509,1,8,0:0:0:0:
256,192,214103,1,8,0:0:0:0:
256,192,214549,1,0,0:0:0:0:
256,192,214994,1,8,0:0:0:0:
256,192,215292,1,8,0:0:0:0:
256,192,215589,1,0,0:0:0:0:
256,192,216034,1,8,0:0:0:0:
256,192,216628,1,8,0:0:0:0:
256,192,217222,1,8,0:0:0:0:
256,192,217519,1,8,0:0:0:0:
256,192,217965,1,0,0:0:0:0:
256,192,218856,1,8,0:0:0:0:
256,192,219450,1,8,0:0:0:0:
256,192,220044,1,8,0:0:0:0:
256,192,220341,1,0,0:0:0:0:
256,192,220638,1,8,0:0:0:0:
256,192,221232,1,8,0:0:0:0:
256,192,221529,1,0,0:0:0:0:
256,192,221826,1,8,0:0:0:0:
256,192,222717,1,12,0:0:0:0:
256,192,223311,1,8,0:0:0:0:
256,192,223905,1,8,0:0:0:0:
256,192,224202,1,8,0:0:0:0:
256,192,224499,1,8,0:0:0:0:
256,192,224796,1,8,0:0:0:0:
256,192,225093,1,4,0:0:0:0:
256,192,225985,1,0,0:0:0:0:
256,192,226282,1,12,0:0:0:0:
256,192,226876,1,12,0:0:0:0:
256,192,227470,5,0,0:0:0:0:
256,192,227767,1,12,0:0:0:0:
256,192,228064,12,0,229846,0:0:0:0:
