osu file format v14

[General]
AudioFilename: audio.mp3
AudioLeadIn: 0
PreviewTime: 64351
Countdown: 0
SampleSet: Normal
StackLeniency: 0.7
Mode: 1
LetterboxInBreaks: 0
WidescreenStoryboard: 0

[Editor]
Bookmarks: 10044,19549,102718,124104
DistanceSpacing: 0.7
BeatDivisor: 4
GridSize: 32
TimelineZoom: 2.4

[Metadata]
Title:Xrocus
TitleUnicode:Xrocus
Artist:AAAA vs. Morimori Atsushi
ArtistUnicode:ああああ vs. モリモリあつし
Creator:Cychloryn
Version:Hell Oni
Source:
Tags:genjuro electronic instrumental 非可逆リズム hikagyaku rhythm rizumu NNRR-0011 Ayatsugu_Otowa 梅干茶漬け 影虎。 cosMo@暴走P xac s-don hapi⇒ polysha 黄泉路テヂーモ umeboshi chazuke kagetora. cosMo@bousouP yomiji tejiimo
BeatmapID:2467771
BeatmapSetID:1183776

[Difficulty]
HPDrainRate:6
CircleSize:2
OverallDifficulty:7
ApproachRate:10
SliderMultiplier:1.4
SliderTickRate:1

[Events]
//Background and Video events
0,0,"bg.jpg",0,0
//Break Periods
2,124104,133159
//Storyboard Layer 0 (Background)
//Storyboard Layer 1 (Fail)
//Storyboard Layer 2 (Pass)
//Storyboard Layer 3 (Foreground)
//Storyboard Layer 4 (Overlay)
//Storyboard Sound Samples

[TimingPoints]
540,297.029702970297,4,1,0,35,1,0
540,-133.333333333333,4,1,0,35,0,0
5292,-129.87012987013,4,1,0,40,0,0
5738,-127.388535031847,4,1,0,40,0,0
5812,-126.984126984127,4,1,0,40,0,0
5886,-126.582278481013,4,1,0,40,0,0
6332,-124.223602484472,4,1,0,40,0,0
6406,-123.839009287926,4,1,0,40,0,0
6480,-123.456790123457,4,1,0,40,0,0
6703,-122.324159021407,4,1,0,40,0,0
6926,-121.212121212121,4,1,0,40,0,0
7074,-120.481927710843,4,1,0,40,0,0
7297,-119.402985074627,4,1,0,40,0,0
7520,-118.343195266272,4,1,0,40,0,0
7668,-117.647058823529,4,1,0,40,0,0
7817,-113.636363636364,4,1,0,45,0,0
8856,-95.2380952380952,4,1,0,85,0,0
9005,-93.4579439252336,4,1,0,85,0,0
9153,-92.5925925925926,4,1,0,85,0,0
9302,-90.9090909090909,4,1,0,85,0,0
9450,-94.3396226415094,4,1,0,85,0,0
9525,-95.2380952380952,4,1,0,85,0,0
9599,-96.1538461538461,4,1,0,85,0,0
9673,-97.0873786407767,4,1,0,85,0,0
9747,-98.0392156862745,4,1,0,85,0,0
9896,-100,4,1,0,85,0,0
10044,-86.9565217391304,4,1,0,85,0,0
10193,-90.9090909090909,4,1,0,85,0,0
13460,-88.4955752212389,4,1,0,85,0,0
13609,-90.9090909090909,4,1,0,85,0,0
13757,-88.4955752212389,4,1,0,85,0,0
13906,-90.9090909090909,4,1,0,85,0,0
14054,-88.4955752212389,4,1,0,85,0,0
14203,-90.9090909090909,4,1,0,85,0,0
14351,-88.4955752212389,4,1,0,85,0,0
14500,-90.9090909090909,4,1,0,85,0,0
14574,-89.2857142857143,4,1,0,85,0,0
14648,-87.719298245614,4,1,0,85,0,0
14723,-86.2068965517241,4,1,0,85,0,0
14797,-89.2857142857143,4,1,0,85,0,0
14945,-88.4955752212389,4,1,0,85,0,0
15020,-86.9565217391304,4,1,0,85,0,0
15094,-84.7457627118644,4,1,0,85,0,0
15168,-90.0900900900901,4,1,0,85,0,0
15317,-90.9090909090909,4,1,0,85,0,0
16678,-89.2857142857143,4,1,0,85,0,0
16777,-87.719298245614,4,1,0,85,0,0
16876,-86.2068965517241,4,1,0,85,0,0
16975,-84.7457627118644,4,1,0,85,0,0
17074,-83.3333333333333,4,1,0,85,0,0
17173,-81.3008130081301,4,1,0,85,0,0
17272,-90.9090909090909,4,1,0,85,0,0
18361,-92.5925925925926,4,1,0,85,0,0
18436,-91.743119266055,4,1,0,85,0,0
18510,-90.9090909090909,4,1,0,85,0,0
18584,-90.0900900900901,4,1,0,85,0,0
18658,-89.2857142857143,4,1,0,85,0,0
18807,-92.5925925925926,4,1,0,85,0,0
18881,-91.743119266055,4,1,0,85,0,0
18955,-90.9090909090909,4,1,0,85,0,0
19030,-90.0900900900901,4,1,0,85,0,0
19104,-89.2857142857143,4,1,0,85,0,0
19252,-87.719298245614,4,1,0,85,0,0
19302,-89.2857142857143,4,1,0,85,0,0
19351,-90.9090909090909,4,1,0,85,0,0
19401,-92.5925925925926,4,1,0,85,0,0
19549,-83.3333333333333,4,1,0,85,0,0
19995,-112.359550561798,4,1,0,70,0,0
20143,-113.636363636364,4,1,0,70,0,0
20292,-114.942528735632,4,1,0,70,0,0
20440,-116.279069767442,4,1,0,70,0,0
20589,-117.647058823529,4,1,0,70,0,0
30391,-116.279069767442,4,1,0,70,0,0
30539,-113.636363636364,4,1,0,70,0,0
30688,-111.111111111111,4,1,0,70,0,0
30837,-108.695652173913,4,1,0,70,0,0
30985,-105.263157894737,4,1,0,70,0,0
31134,-102.040816326531,4,1,0,70,0,0
31282,-96.1538461538461,4,1,0,80,0,0
31332,-93.4579439252336,4,1,0,81,0,0
31381,-90.9090909090909,4,1,0,83,0,0
31431,-86.9565217391304,4,1,0,85,0,0
31579,-90.9090909090909,4,1,0,85,0,0
31728,-94.3396226415094,4,1,0,85,0,0
31876,-86.9565217391304,4,1,0,85,0,0
32025,-90.9090909090909,4,1,0,85,0,0
32173,-94.3396226415094,4,1,0,85,0,0
32322,-83.3333333333333,4,1,0,85,0,0
32396,-90.9090909090909,4,1,0,85,0,0
32767,-90.9090909090909,4,1,0,85,0,0
32841,-91.4997634731114,4,1,0,85,0,0
32916,-92.0980770842486,4,1,0,85,0,0
33064,-93.3185765557606,4,1,0,85,0,0
33139,-93.9410820321711,4,1,0,85,0,0
33213,-94.5719484469395,4,1,0,85,0,0
33361,-95.8593551541179,4,1,0,85,0,0
33436,-96.5162460971243,4,1,0,85,0,0
33510,-97.182296495412,4,1,0,85,0,0
33584,-97.8576034868621,4,1,0,85,0,0
33658,-98.5422642844403,4,1,0,85,0,0
33733,-99.2366715226478,4,1,0,85,0,0
33807,-99.9408350256648,4,1,0,85,0,0
34104,-102.040816326531,4,1,0,85,0,0
34401,-104.166666666667,4,1,0,85,0,0
34698,-106.382978723404,4,1,0,85,0,0
34995,-99.9408350256648,4,1,0,85,0,0
35143,-97.0873786407767,4,1,0,85,0,0
35292,-94.3396226415094,4,1,0,85,0,0
35440,-91.743119266055,4,1,0,85,0,0
35589,-89.2857142857143,4,1,0,85,0,0
35663,-87.719298245614,4,1,0,85,0,0
35738,-86.2068965517241,4,1,0,85,0,0
35812,-84.7457627118644,4,1,0,85,0,0
35886,-83.3333333333333,4,1,0,85,0,0
35936,-81.9672131147541,4,1,0,85,0,0
35985,-80.6451612903226,4,1,0,85,0,0
36035,-79.3650793650794,4,1,0,85,0,0
36084,-78.125,4,1,0,85,0,0
36134,-76.9230769230769,4,1,0,85,0,0
36183,-74.0740740740741,4,1,0,85,0,0
36332,-81.9672131147541,4,1,0,85,0,0
36406,-82.6446280991736,4,1,0,85,0,0
36480,-83.3333333333333,4,1,0,85,0,0
36629,-84.7457627118644,4,1,0,85,0,0
36703,-85.4700854700855,4,1,0,85,0,0
36777,-86.2068965517241,4,1,0,85,0,0
36926,-86.9565217391304,4,1,0,85,0,0
39599,-86.9565217391304,4,1,0,85,0,0
39673,-85.4700854700855,4,1,0,85,0,0
39747,-83.3333333333333,4,1,0,85,0,0
39797,-84.0336134453781,4,1,0,85,0,0
39846,-84.7457627118644,4,1,0,85,0,0
39896,-85.4700854700855,4,1,0,85,0,0
39970,-86.9565217391304,4,1,0,85,0,0
40044,-81.9672131147541,4,1,0,85,0,0
40341,-84.7457627118644,4,1,0,85,0,0
40639,-87.719298245614,4,1,0,85,0,0
41381,-117.647058823529,4,1,0,70,0,0
43609,-116.279069767442,4,1,0,70,0,0
43757,-113.636363636364,4,1,0,70,0,0
43906,-109.89010989011,4,1,0,70,0,0
44005,-111.111111111111,4,1,0,70,0,0
44104,-112.359550561798,4,1,0,70,0,0
44203,-113.636363636364,4,1,0,70,0,0
44302,-114.942528735632,4,1,0,70,0,0
44401,-116.279069767442,4,1,0,70,0,0
44500,-117.647058823529,4,1,0,70,0,0
47025,-114.942528735632,4,1,0,70,0,0
47173,-112.359550561798,4,1,0,70,0,0
47322,-109.89010989011,4,1,0,70,0,0
47470,-107.52688172043,4,1,0,70,0,0
47619,-105.263157894737,4,1,0,70,0,0
47767,-102.040816326531,4,1,0,70,0,0
47916,-98.0392156862745,4,1,0,75,0,0
48064,-90.9090909090909,4,1,0,85,0,0
48510,-93.4579439252336,4,1,0,85,0,0
48584,-90.9090909090909,4,1,0,85,0,0
48658,-86.9565217391304,4,1,0,85,0,0
49104,-89.2857142857143,4,1,0,85,0,0
49178,-86.9565217391304,4,1,0,85,0,0
49252,-83.3333333333333,4,1,0,85,0,0
49698,-85.4700854700855,4,1,0,85,0,0
49772,-83.3333333333333,4,1,0,85,0,0
49846,-80,4,1,0,85,0,0
50044,-83.3333333333333,4,1,0,85,0,0
50242,-86.9565217391304,4,1,0,85,0,0
50366,-90.9090909090909,4,1,0,85,0,0
50738,-89.2857142857143,4,1,0,85,0,0
50886,-86.9565217391304,4,1,0,85,0,0
51109,-97.0873786407767,4,1,0,85,0,0
51332,-96.1538461538461,4,1,0,85,0,0
51480,-95.2380952380952,4,1,0,85,0,0
51629,-90.9090909090909,4,1,0,85,0,0
51777,-93.4579439252336,4,1,0,85,0,0
51851,-94.3396226415094,4,1,0,85,0,0
51926,-95.2380952380952,4,1,0,85,0,0
52074,-89.2857142857143,4,1,0,85,0,0
52223,-93.4579439252336,4,1,0,85,0,0
52297,-94.3396226415094,4,1,0,85,0,0
52445,-91.743119266055,4,1,0,85,0,0
52520,-90.9090909090909,4,1,0,85,0,0
52594,-90.0900900900901,4,1,0,85,0,0
52668,-89.2857142857143,4,1,0,85,0,0
52742,-88.4955752212389,4,1,0,85,0,0
52817,-85.4700854700855,4,1,0,85,0,0
53114,-94.3396226415094,4,1,0,85,0,0
53262,-89.2857142857143,4,1,0,85,0,0
53559,-97.0873786407767,4,1,0,85,0,0
53708,-96.1538461538461,4,1,0,85,0,0
53856,-95.2380952380952,4,1,0,85,0,0
54005,-90.9090909090909,4,1,0,85,0,0
54153,-93.4579439252336,4,1,0,85,0,0
54228,-94.3396226415094,4,1,0,85,0,0
54302,-95.2380952380952,4,1,0,85,0,0
54450,-90.9090909090909,4,1,0,85,0,0
54599,-93.4579439252336,4,1,0,85,0,0
54673,-94.3396226415094,4,1,0,85,0,0
54822,-91.743119266055,4,1,0,85,0,0
54896,-90.0900900900901,4,1,0,85,0,0
54970,-88.4955752212389,4,1,0,85,0,0
55044,-86.9565217391304,4,1,0,85,0,0
55119,-85.4700854700855,4,1,0,85,0,0
55193,-80.6451612903226,4,1,0,85,0,0
55490,-111.111111111111,4,1,0,75,0,0
56678,-105.263157894737,4,1,0,75,0,0
56975,-100,4,1,0,75,0,0
57272,-95.2380952380952,4,1,0,75,0,0
57569,-90.9090909090909,4,1,0,90,0,0
62099,-90.0900900900901,4,1,0,90,0,0
62173,-89.2857142857143,4,1,0,90,0,0
62247,-88.4955752212389,4,1,0,90,0,0
62322,-85.4700854700855,4,1,0,90,0,0
63510,-92.5925925925926,4,1,0,90,0,0
63584,-91.743119266055,4,1,0,90,0,0
63658,-90.9090909090909,4,1,0,90,0,0
63733,-90.0900900900901,4,1,0,90,0,0
63807,-89.2857142857143,4,1,0,90,0,0
63955,-92.5925925925926,4,1,0,90,0,0
64030,-91.743119266055,4,1,0,90,0,0
64104,-90.9090909090909,4,1,0,90,0,0
64178,-90.0900900900901,4,1,0,90,0,0
64252,-89.2857142857143,4,1,0,90,0,0
64401,-93.4579439252336,4,1,0,90,0,0
64475,-92.5925925925926,4,1,0,90,0,0
64549,-91.743119266055,4,1,0,90,0,0
64624,-90.9090909090909,4,1,0,90,0,0
64698,-90.0900900900901,4,1,0,90,0,0
64747,-89.2857142857143,4,1,0,90,0,0
64797,-88.4955752212389,4,1,0,90,0,0
64846,-87.719298245614,4,1,0,90,0,0
64896,-86.9565217391304,4,1,0,90,0,0
64945,-86.2068965517241,4,1,0,90,0,0
64995,-83.3333333333333,4,1,0,100,0,1
65143,-87.719298245614,4,1,0,100,0,1
65292,-89.2857142857143,4,1,0,100,0,1
65440,-90.9090909090909,4,1,0,100,0,1
69153,-90.0900900900901,4,1,0,100,0,1
69228,-89.2857142857143,4,1,0,100,0,1
69302,-88.4955752212389,4,1,0,100,0,1
69376,-87.719298245614,4,1,0,100,0,1
69450,-84.7457627118644,4,1,0,100,0,1
69599,-89.2857142857143,4,1,0,100,0,1
69673,-90.0900900900901,4,1,0,100,0,1
69747,-90.9090909090909,4,1,0,100,0,1
69822,-91.743119266055,4,1,0,100,0,1
69896,-92.5925925925926,4,1,0,100,0,1
70044,-84.7457627118644,4,1,0,100,0,1
70193,-89.2857142857143,4,1,0,100,0,1
70267,-90.0900900900901,4,1,0,100,0,1
70341,-90.9090909090909,4,1,0,100,0,1
70416,-91.743119266055,4,1,0,100,0,1
70490,-92.5925925925926,4,1,0,100,0,1
70639,-84.7457627118644,4,1,0,100,0,1
70787,-90.9090909090909,4,1,0,100,0,1
71827,-90.9090909090909,4,1,0,100,0,1
71901,-90.0900900900901,4,1,0,100,0,1
71975,-89.2857142857143,4,1,0,100,0,1
72049,-88.4955752212389,4,1,0,100,0,1
72124,-87.719298245614,4,1,0,100,0,1
72198,-86.9565217391304,4,1,0,100,0,1
72272,-86.2068965517241,4,1,0,100,0,1
72346,-85.4700854700855,4,1,0,100,0,1
72421,-84.7457627118644,4,1,0,100,0,1
72569,-80.6451612903226,4,1,0,100,0,1
72619,-81.3008130081301,4,1,0,100,0,1
72668,-81.9672131147541,4,1,0,100,0,1
72718,-82.6446280991736,4,1,0,100,0,1
72866,-78.125,4,1,0,100,0,1
72916,-78.7401574803149,4,1,0,100,0,1
72965,-79.3650793650794,4,1,0,100,0,1
73015,-80,4,1,0,100,0,1
73609,-80,4,1,0,100,0,1
73658,-79.3650793650794,4,1,0,100,0,1
73708,-78.7401574803149,4,1,0,100,0,1
73757,-78.125,4,1,0,100,0,1
73832,-76.9230769230769,4,1,0,100,0,1
73906,-74.0740740740741,4,1,0,100,0,1
74203,-90.0900900900901,4,1,0,100,0,0
74252,-89.2857142857143,4,1,0,100,0,0
74302,-88.4955752212389,4,1,0,100,0,0
74351,-87.719298245614,4,1,0,100,0,0
74401,-86.9565217391304,4,1,0,100,0,0
74450,-86.2068965517241,4,1,0,100,0,0
74500,-83.3333333333333,4,1,0,100,0,1
74648,-87.719298245614,4,1,0,100,0,1
74797,-89.2857142857143,4,1,0,100,0,1
74945,-90.9090909090909,4,1,0,100,0,1
76579,-90.9090909090909,4,1,0,100,0,1
76653,-90.5364101226949,4,1,0,100,0,1
76728,-90.1666911619511,4,1,0,100,0,1
76802,-89.8000601660403,4,1,0,100,0,1
76876,-89.4363986466484,4,1,0,100,0,1
76950,-89.075591328313,4,1,0,100,0,1
77025,-88.7177621831667,4,1,0,100,0,1
77099,-88.3627964350913,4,1,0,100,0,1
77173,-88.0106598511212,4,1,0,100,0,1
77247,-87.6612418968139,4,1,0,100,0,1
77322,-87.3146637119384,4,1,0,100,0,1
77396,-86.9708152035422,4,1,0,100,0,1
77470,-86.629589202488,4,1,0,100,0,1
77544,-86.2911047677561,4,1,0,100,0,1
77619,-85.9552551323883,4,1,0,100,0,1
77693,-85.6219363400903,4,1,0,100,0,1
77767,-85.291265406801,4,1,0,100,0,1
77841,-84.9631387422567,4,1,0,100,0,1
77916,-84.6375270945884,4,1,0,100,0,1
77990,-84.3143305695096,4,1,0,100,0,1
78064,-83.9936635180242,4,1,0,100,0,1
78139,-83.675426368135,4,1,0,100,0,1
78213,-83.3595221165316,4,1,0,100,0,1
78262,-82.6446280991736,4,1,0,100,0,1
78312,-81.9672131147541,4,1,0,100,0,1
78361,-81.3008130081301,4,1,0,100,0,1
78436,-80,4,1,0,100,0,1
78584,-81.3008130081301,4,1,0,100,0,1
78658,-82.6446280991736,4,1,0,100,0,1
78807,-78.125,4,1,0,100,0,1
78856,-79.3650793650794,4,1,0,100,0,1
78906,-80.6451612903226,4,1,0,100,0,1
78955,-81.9672131147541,4,1,0,100,0,1
79054,-86.9565217391304,4,1,0,100,0,1
81134,-86.2068965517241,4,1,0,100,0,1
81233,-84.7457627118644,4,1,0,100,0,1
81332,-80,4,1,0,85,0,0
81629,-100,4,1,0,85,0,0
82074,-95.2380952380952,4,1,0,85,0,0
82520,-90.9090909090909,4,1,0,100,0,1
82594,-90.0900900900901,4,1,0,100,0,1
82668,-89.2857142857143,4,1,0,100,0,1
82742,-88.4955752212389,4,1,0,100,0,1
82817,-87.719298245614,4,1,0,100,0,1
82965,-90.9090909090909,4,1,0,100,0,1
83040,-90.0900900900901,4,1,0,100,0,1
83114,-89.2857142857143,4,1,0,100,0,1
83188,-88.4955752212389,4,1,0,100,0,1
83262,-87.719298245614,4,1,0,100,0,1
83411,-89.2857142857143,4,1,0,100,0,1
83708,-83.3333333333333,4,1,0,90,0,0
83856,-87.719298245614,4,1,0,90,0,0
83931,-88.4955752212389,4,1,0,90,0,0
84005,-89.2857142857143,4,1,0,90,0,0
84153,-90.9090909090909,4,1,0,90,0,0
87866,-90.0900900900901,4,1,0,90,0,0
87940,-89.2857142857143,4,1,0,90,0,0
88015,-88.4955752212389,4,1,0,90,0,0
88089,-87.719298245614,4,1,0,90,0,0
88163,-86.9565217391304,4,1,0,90,0,0
88238,-86.2068965517241,4,1,0,90,0,0
88312,-85.4700854700855,4,1,0,90,0,0
88460,-76.9230769230769,4,1,0,90,0,0
88757,-90.9090909090909,4,1,0,90,0,0
90688,-89.2857142857143,4,1,0,90,0,0
90837,-83.3333333333333,4,1,0,90,0,0
90985,-87.719298245614,4,1,0,90,0,0
91059,-89.2857142857143,4,1,0,90,0,0
91134,-90.9090909090909,4,1,0,90,0,0
91282,-83.3333333333333,4,1,0,90,0,0
91579,-87.719298245614,4,1,0,90,0,0
91653,-89.2857142857143,4,1,0,90,0,0
91728,-90.9090909090909,4,1,0,90,0,0
91876,-83.3333333333333,4,1,0,90,0,0
92025,-90.9090909090909,4,1,0,90,0,0
92173,-87.719298245614,4,1,0,90,0,0
92247,-89.2857142857143,4,1,0,90,0,0
92322,-90.9090909090909,4,1,0,90,0,0
92470,-81.9672131147541,4,1,0,90,0,0
92619,-86.2068965517241,4,1,0,90,0,0
92767,-80.6451612903226,4,1,0,90,0,0
93064,-94.3396226415094,4,1,0,90,0,0
93139,-97.0873786407767,4,1,0,90,0,0
93213,-100,4,1,0,90,0,0
93361,-100,4,1,0,75,0,0
93510,-106.382978723404,4,1,0,75,0,0
93658,-109.89010989011,4,1,0,75,0,0
93955,-114.942528735632,4,1,0,75,0,0
94104,-117.647058823529,4,1,0,75,0,0
96777,-114.942528735632,4,1,0,75,0,0
97074,-110.262944042659,4,1,0,75,0,0
97223,-108.063130480827,4,1,0,75,0,0
97371,-105.949487522329,4,1,0,75,0,0
97520,-103.916833279989,4,1,0,75,0,0
97668,-101.960808304504,4,1,0,75,0,0
97817,-100.076959181611,4,1,0,75,0,0
97965,-92.5925925925926,4,1,0,85,0,0
98114,-96.1538461538461,4,1,0,85,0,0
99153,-94.3396226415094,4,1,0,85,0,0
99228,-93.5206989362956,4,1,0,85,0,0
99302,-92.7158703609614,4,1,0,85,0,0
99376,-91.9248606189301,4,1,0,85,0,0
99450,-91.1471506944957,4,1,0,85,0,0
99525,-90.3824896579836,4,1,0,85,0,0
99599,-89.6305518284184,4,1,0,85,0,0
99673,-88.8911012896321,4,1,0,85,0,0
99747,-88.1636740976889,4,1,0,85,0,0
99822,-87.4480558548222,4,1,0,85,0,0
99896,-86.7439613191328,4,1,0,85,0,0
99970,-86.0511884099375,4,1,0,85,0,0
100044,-85.3693204858197,4,1,0,85,0,0
100119,-84.0336134453781,4,1,0,85,0,0
100193,-82.6446280991736,4,1,0,85,0,0
100267,-81.3008130081301,4,1,0,85,0,0
100341,-78.125,4,1,0,85,0,0
101233,-89.2857142857143,4,1,0,85,0,0
101307,-87.719298245614,4,1,0,85,0,0
101381,-86.2068965517241,4,1,0,85,0,0
101455,-84.7457627118644,4,1,0,85,0,0
101530,-80,4,1,0,85,0,0
101728,-81.9672131147541,4,1,0,85,0,0
101926,-84.0336134453781,4,1,0,85,0,0
102124,-86.2068965517241,4,1,0,85,0,0
102322,-88.4955752212389,4,1,0,85,0,0
102520,-90.9090909090909,4,1,0,85,0,0
102718,-80,4,1,0,85,0,0
102817,-95.2380952380952,4,1,0,85,0,0
114450,-93.4579439252336,4,1,0,85,0,0
114500,-91.743119266055,4,1,0,85,0,0
114549,-90.0900900900901,4,1,0,85,0,0
114599,-86.9565217391304,4,1,0,85,0,0
114896,-84.7457627118644,4,1,0,85,0,0
115044,-87.719298245614,4,1,0,85,0,0
115341,-85.4700854700855,4,1,0,85,0,0
115490,-88.4955752212389,4,1,0,85,0,0
115564,-95.2380952380952,4,1,0,85,0,0
116233,-95.2380952380952,4,1,0,85,0,0
116307,-94.7368022160833,4,1,0,85,0,0
116381,-94.2408475644867,4,1,0,85,0,0
116455,-93.7499707031342,4,1,0,85,0,0
116530,-93.2642680340452,4,1,0,85,0,0
116604,-92.7834860240235,4,1,0,85,0,0
116678,-92.3077207100679,4,1,0,85,0,0
116752,-91.8367253227831,4,1,0,85,0,0
116827,-91.3705954804449,4,1,0,85,0,0
116901,-90.9090909090909,4,1,0,85,0,0
116975,-88.4955752212389,4,1,0,85,0,0
117124,-90.9090909090909,4,1,0,85,0,0
118163,-90.0900900900901,4,1,0,85,0,0
118238,-89.2857142857143,4,1,0,85,0,0
118312,-88.4955752212389,4,1,0,85,0,0
118386,-87.719298245614,4,1,0,85,0,0
118460,-86.9565217391304,4,1,0,85,0,0
118535,-86.2068965517241,4,1,0,85,0,0
118609,-85.4700854700855,4,1,0,85,0,0
118683,-84.7457627118644,4,1,0,85,0,0
118757,-84.0336134453781,4,1,0,85,0,0
118906,-80.6451612903226,4,1,0,85,0,0
118955,-81.3008130081301,4,1,0,85,0,0
119005,-81.9672131147541,4,1,0,85,0,0
119054,-82.6446280991736,4,1,0,85,0,0
119129,-80.6451612903226,4,1,0,85,0,0
119203,-78.125,4,1,0,85,0,0
119252,-78.7401574803149,4,1,0,85,0,0
119302,-79.3650793650794,4,1,0,85,0,0
119351,-80,4,1,0,85,0,0
119500,-111.111111111111,4,1,0,75,0,0
121579,-114.942528735632,4,1,0,75,0,0
121653,-116.279069767442,4,1,0,75,0,0
121728,-117.647058823529,4,1,0,75,0,0
122841,-133.333333333333,4,1,0,60,0,0
124104,-142.857142857143,4,1,0,30,0,0
133312,-142.857142857143,4,1,0,60,0,0
133609,-125,4,1,0,60,0,0
137173,-117.647058823529,4,1,0,60,0,0
137767,-105.263157894737,4,1,0,70,0,0
138361,-95.2380952380952,4,1,0,85,0,0
138807,-98.0392156862745,4,1,0,85,0,0
138881,-95.2380952380952,4,1,0,85,0,0
138955,-90.9090909090909,4,1,0,85,0,0
139401,-93.4579439252336,4,1,0,85,0,0
139475,-90.9090909090909,4,1,0,85,0,0
139549,-86.9565217391304,4,1,0,85,0,0
139747,-85.4700854700855,4,1,0,85,0,0
139945,-84.0336134453781,4,1,0,85,0,0
140143,-82.6446280991736,4,1,0,85,0,0
140341,-81.3008130081301,4,1,0,85,0,0
140540,-80,4,1,0,85,0,0
140738,-78.125,4,1,0,85,0,0
141035,-90.9090909090909,4,1,0,85,0,0
141777,-86.9565217391304,4,1,0,85,0,0
141926,-100,4,1,0,90,0,0
142074,-100,4,1,0,75,0,0
142223,-99.3395904030009,4,1,0,75,0,0
142371,-98.6878463943409,4,1,0,75,0,0
142520,-98.0445023996392,4,1,0,75,0,0
142668,-97.4095868567193,4,1,0,75,0,0
142817,-96.7828415635849,4,1,0,75,0,0
142965,-96.16410982326,4,1,0,75,0,0
143114,-95.5532389203631,4,1,0,75,0,0
143262,-94.9499898403511,4,1,0,75,0,0
143411,-94.354398896431,4,1,0,75,0,0
143559,-93.7662332791365,4,1,0,75,0,0
143708,-93.1853549896098,4,1,0,75,0,0
143856,-92.6116294275305,4,1,0,75,0,0
144005,-92.0448405645294,4,1,0,75,0,0
144153,-91.4850307618416,4,1,0,75,0,0
144302,-90.9319892372898,4,1,0,85,0,0
144450,-89.7435667324188,4,1,0,85,0,0
144525,-89.1719404438444,4,1,0,85,0,0
144599,-88.6076285851754,4,1,0,85,0,0
144747,-87.5000109375014,4,1,0,85,0,0
144896,-86.4197424173157,4,1,0,85,0,0
145044,-85.3658224271381,4,1,0,85,0,0
145119,-84.8485157024906,4,1,0,85,0,0
145193,-84.3373697198481,4,1,0,85,0,0
145341,-83.3333333333333,4,1,0,85,0,0
145490,-80.6451612903226,4,1,0,90,0,0
145540,-81.3008130081301,4,1,0,90,0,0
145589,-81.9672131147541,4,1,0,90,0,0
145639,-82.6446280991736,4,1,0,90,0,0
145713,-84.0336134453781,4,1,0,90,0,0
145787,-80,4,1,0,90,0,0
145936,-83.3333333333333,4,1,0,90,0,0
146084,-78.7401574803149,4,1,0,90,0,0
146233,-83.3333333333333,4,1,0,90,0,0
146307,-81.3008130081301,4,1,0,90,0,0
146381,-77.5193798449612,4,1,0,90,0,0
146530,-81.9672131147541,4,1,0,90,0,0
146678,-75.187969924812,4,1,0,100,0,1
146827,-86.9565217391304,4,1,0,100,0,1
153658,-86.2068965517241,4,1,0,100,0,1
153733,-85.4700854700855,4,1,0,100,0,1
153807,-84.0336134453781,4,1,0,100,0,1
153955,-86.9565217391304,4,1,0,100,0,1
154846,-86.2068965517241,4,1,0,100,0,1
154921,-85.4700854700855,4,1,0,100,0,1
154995,-84.0336134453781,4,1,0,100,0,1
155143,-86.9565217391304,4,1,0,100,0,1
156035,-85.4700854700855,4,1,0,100,0,1
156183,-81.9672131147541,4,1,0,100,0,1
156332,-85.4700854700855,4,1,0,100,0,1
156480,-86.9565217391304,4,1,0,100,0,1
158411,-86.2068965517241,4,1,0,100,0,1
158485,-85.4700854700855,4,1,0,100,0,1
158559,-84.0336134453781,4,1,0,100,0,1
158708,-86.9565217391304,4,1,0,100,0,1
159599,-86.2068965517241,4,1,0,100,0,1
159673,-85.4700854700855,4,1,0,100,0,1
159747,-84.0336134453781,4,1,0,100,0,1
159896,-86.9565217391304,4,1,0,100,0,1
160341,-84.0336134453781,4,1,0,100,0,1
160490,-86.9565217391304,4,1,0,100,0,1
160787,-86.2068965517241,4,1,0,100,0,1
160837,-85.4700854700855,4,1,0,100,0,1
160886,-84.7457627118644,4,1,0,100,0,1
160936,-82.6446280991736,4,1,0,100,0,1
161084,-85.4700854700855,4,1,0,100,0,1
161975,-84.7457627118644,4,1,0,100,0,1
162049,-84.0336134453781,4,1,0,100,0,1
162124,-81.9672131147541,4,1,0,100,0,1
162272,-84.0336134453781,4,1,0,100,0,1
162718,-83.3333333333333,4,1,0,100,0,1
162767,-82.6446280991736,4,1,0,100,0,1
162817,-81.9672131147541,4,1,0,100,0,1
162866,-81.3008130081301,4,1,0,100,0,1
162940,-80.6451612903226,4,1,0,100,0,1
163015,-80,4,1,0,100,0,1
163163,-78.125,4,1,0,100,0,1
163213,-77.5193798449612,4,1,0,100,0,1
163262,-76.9230769230769,4,1,0,100,0,1
163312,-76.3358778625954,4,1,0,100,0,1
163460,-76.9230769230769,4,1,0,100,0,1
163510,-78.125,4,1,0,100,0,1
163559,-79.3650793650794,4,1,0,100,0,1
163609,-80.6451612903226,4,1,0,100,0,1
163683,-78.7401574803149,4,1,0,100,0,1
163757,-76.9230769230769,4,1,0,100,0,1
163807,-78.125,4,1,0,100,0,1
163856,-79.3650793650794,4,1,0,100,0,1
163906,-80.6451612903226,4,1,0,100,0,1
163980,-78.7401574803149,4,1,0,100,0,1
164054,-76.9230769230769,4,1,0,100,0,1
164104,-78.125,4,1,0,100,0,1
164153,-79.3650793650794,4,1,0,100,0,1
164203,-80.6451612903226,4,1,0,100,0,1
164277,-79.3650793650794,4,1,0,100,0,1
164351,-78.125,4,1,0,100,0,1
164500,-84.0336134453781,4,1,0,100,0,1
164574,-83.3333333333333,4,1,0,100,0,1
164648,-82.6446280991736,4,1,0,100,0,1
164723,-81.9672131147541,4,1,0,100,0,1
164797,-81.3008130081301,4,1,0,100,0,1
164945,-84.0336134453781,4,1,0,100,0,1
165020,-83.3333333333333,4,1,0,100,0,1
165094,-82.6446280991736,4,1,0,100,0,1
165168,-81.9672131147541,4,1,0,100,0,1
165242,-81.3008130081301,4,1,0,100,0,1
165391,-81.9672131147541,4,1,0,100,0,1
165440,-83.3333333333333,4,1,0,100,0,1
165490,-84.7457627118644,4,1,0,100,0,1
165540,-86.2068965517241,4,1,0,100,0,1
165688,-81.3008130081301,4,1,0,75,0,0
165837,-108.695652173913,4,1,0,70,0,0
166431,-113.636363636364,4,1,0,70,0,0
166579,-116.279069767442,4,1,0,70,0,0
166876,-117.647058823529,4,1,0,70,0,0
170292,-113.636363636364,4,1,0,70,0,0
170440,-106.382978723404,4,1,0,80,0,0
170589,-111.111111111111,4,1,0,80,0,0
171480,-108.695652173913,4,1,0,80,0,0
171554,-106.382978723404,4,1,0,80,0,0
171629,-102.040816326531,4,1,0,80,0,0
171703,-105.263157894737,4,1,0,80,0,0
172668,-103.092783505155,4,1,0,80,0,0
172742,-101.010101010101,4,1,0,80,0,0
172817,-97.0873786407767,4,1,0,85,0,0
172965,-93.4579439252336,4,1,0,85,0,0
173114,-92.5925925925926,4,1,0,85,0,0
173262,-90.9090909090909,4,1,0,85,0,0
173337,-89.2857142857143,4,1,0,85,0,0
173411,-86.2068965517241,4,1,0,85,0,0
173559,-83.3333333333333,4,1,0,85,0,0
173708,-82.6446280991736,4,1,0,85,0,0
173856,-82.6446280991736,4,1,0,85,0,0
173931,-83.3333333333333,4,1,0,85,0,0
174005,-84.0336134453781,4,1,0,85,0,0
174599,-84.0336134453781,4,1,0,85,0,0
174648,-83.3333333333333,4,1,0,85,0,0
174698,-82.6446280991736,4,1,0,85,0,0
174747,-81.9672131147541,4,1,0,85,0,0
174822,-80,4,1,0,85,0,0
174896,-76.9230769230769,4,1,0,85,0,0
175193,-83.3333333333333,4,1,0,85,0,0
175242,-84.7457627118644,4,1,0,85,0,0
175292,-86.2068965517241,4,1,0,85,0,0
175341,-87.719298245614,4,1,0,85,0,0
175490,-78.125,4,1,0,85,0,0
175787,-86.9565217391304,4,1,0,80,0,0
176084,-90.9090909090909,4,1,0,80,0,0
176381,-95.2380952380952,4,1,0,80,0,0
176678,-100,4,1,0,80,0,0
176975,-104.166666666667,4,1,0,80,0,0
177272,-108.695652173913,4,1,0,80,0,0
177421,-111.111111111111,4,1,0,80,0,0
177495,-112.359550561798,4,1,0,80,0,0
177569,-113.636363636364,4,1,0,80,0,0
177718,-111.317295479516,4,1,0,80,0,0
177866,-109.090869421502,4,1,0,80,0,0
178015,-106.951871657754,4,1,0,80,0,0
178089,-105.913466579535,4,1,0,80,0,0
178163,-104.895141571728,4,1,0,80,0,0
178312,-102.915916666924,4,1,0,80,0,0
178460,-101.010101010101,4,1,0,80,0,0
178609,-99.173586503665,4,1,0,80,0,0
178683,-98.2800982800983,4,1,0,80,0,0
178757,-97.4025657783877,4,1,0,80,0,0
178832,-96.5406585810647,4,1,0,80,0,0
178906,-95.6937799043062,4,1,0,80,0,0
178980,-94.861630083279,4,1,0,80,0,0
179054,-94.043916628187,4,1,0,80,0,0
179129,-93.2400932400932,4,1,0,80,0,0
179203,-92.4498944684455,4,1,0,80,0,0
179277,-91.6730608626618,4,1,0,80,0,0
179351,-90.9090909090909,4,1,0,85,0,0
179401,-90.0900900900901,4,1,0,85,0,0
179450,-89.2857142857143,4,1,0,85,0,0
179500,-88.4955752212389,4,1,0,85,0,0
179574,-86.2068965517241,4,1,0,85,0,0
179648,-84.0336134453781,4,1,0,85,0,0
179698,-82.6446280991736,4,1,0,85,0,0
179747,-81.3008130081301,4,1,0,85,0,0
179797,-80,4,1,0,85,0,0
179846,-78.7401574803149,4,1,0,85,0,0
179896,-77.5193798449612,4,1,0,85,0,0
179945,-75.187969924812,4,1,0,100,0,1
180094,-86.9565217391304,4,1,0,100,0,1
182124,-86.2068965517241,4,1,0,100,0,1
182223,-84.7457627118644,4,1,0,100,0,1
182322,-80,4,1,0,85,0,0
182619,-100,4,1,0,85,0,0
183064,-95.2380952380952,4,1,0,85,0,0
183510,-90.9090909090909,4,1,0,100,0,1
183584,-90.0900900900901,4,1,0,100,0,1
183658,-89.2857142857143,4,1,0,100,0,1
183733,-88.4955752212389,4,1,0,100,0,1
183807,-87.719298245614,4,1,0,100,0,1
183955,-90.9090909090909,4,1,0,100,0,1
184030,-90.0900900900901,4,1,0,100,0,1
184104,-89.2857142857143,4,1,0,100,0,1
184178,-88.4955752212389,4,1,0,100,0,1
184252,-87.719298245614,4,1,0,100,0,1
184401,-91.743119266055,4,1,0,100,0,1
184475,-90.9090909090909,4,1,0,100,0,1
184549,-90.0900900900901,4,1,0,100,0,1
184624,-89.2857142857143,4,1,0,100,0,1
184698,-88.4955752212389,4,1,0,100,0,0
184747,-87.719298245614,4,1,0,100,0,0
184797,-86.9565217391304,4,1,0,100,0,0
184846,-86.2068965517241,4,1,0,100,0,0
184896,-85.4700854700855,4,1,0,100,0,0
184945,-84.7457627118644,4,1,0,100,0,0
184995,-81.9672131147541,4,1,0,100,0,1
185044,-87.719298245614,4,1,0,100,0,1
185292,-89.2857142857143,4,1,0,100,0,1
189153,-88.4955752212389,4,1,0,100,0,1
189228,-87.719298245614,4,1,0,100,0,1
189302,-86.9565217391304,4,1,0,100,0,1
189376,-86.2068965517241,4,1,0,100,0,1
189450,-83.3333333333333,4,1,0,100,0,1
189599,-87.719298245614,4,1,0,100,0,1
189673,-88.4955752212389,4,1,0,100,0,1
189747,-89.2857142857143,4,1,0,100,0,1
189822,-90.0900900900901,4,1,0,100,0,1
189896,-90.9090909090909,4,1,0,100,0,1
190044,-83.3333333333333,4,1,0,100,0,1
190193,-87.719298245614,4,1,0,100,0,1
190267,-88.4955752212389,4,1,0,100,0,1
190341,-89.2857142857143,4,1,0,100,0,1
190416,-90.0900900900901,4,1,0,100,0,1
190490,-90.9090909090909,4,1,0,100,0,1
190639,-83.3333333333333,4,1,0,100,0,1
190787,-89.2857142857143,4,1,0,100,0,1
191827,-88.4955752212389,4,1,0,100,0,1
191901,-87.719298245614,4,1,0,100,0,1
191975,-86.9565217391304,4,1,0,100,0,1
192049,-86.2068965517241,4,1,0,100,0,1
192124,-85.4700854700855,4,1,0,100,0,1
192198,-84.7457627118644,4,1,0,100,0,1
192272,-84.0336134453781,4,1,0,100,0,1
192346,-83.3333333333333,4,1,0,100,0,1
192421,-82.6446280991736,4,1,0,100,0,1
192569,-79.3650793650794,4,1,0,100,0,1
192619,-80,4,1,0,100,0,1
192668,-80.6451612903226,4,1,0,100,0,1
192718,-81.3008130081301,4,1,0,100,0,1
192866,-78.125,4,1,0,100,0,1
192916,-78.7401574803149,4,1,0,100,0,1
192965,-79.3650793650794,4,1,0,100,0,1
193015,-80,4,1,0,100,0,1
193609,-80,4,1,0,100,0,1
193658,-79.3650793650794,4,1,0,100,0,1
193708,-78.7401574803149,4,1,0,100,0,1
193757,-78.125,4,1,0,100,0,1
193832,-76.9230769230769,4,1,0,100,0,1
193906,-74.0740740740741,4,1,0,100,0,1
194203,-88.4955752212389,4,1,0,100,0,0
194252,-87.719298245614,4,1,0,100,0,0
194302,-86.9565217391304,4,1,0,100,0,0
194351,-86.2068965517241,4,1,0,100,0,0
194401,-85.4700854700855,4,1,0,100,0,0
194450,-84.7457627118644,4,1,0,100,0,0
194500,-81.9672131147541,4,1,0,100,0,1
194648,-78.7401574803149,4,1,0,100,0,1
194945,-86.9565217391304,4,1,0,100,0,1
195020,-85.4700854700855,4,1,0,100,0,1
195094,-81.9672131147541,4,1,0,100,0,1
195242,-85.4700854700855,4,1,0,100,0,1
195317,-86.9565217391304,4,1,0,100,0,1
195391,-88.4955752212389,4,1,0,100,0,1
195540,-81.9672131147541,4,1,0,100,0,1
195688,-85.4700854700855,4,1,0,100,0,1
195762,-86.9565217391304,4,1,0,100,0,1
195837,-88.4955752212389,4,1,0,100,0,1
195985,-81.3008130081301,4,1,0,100,0,1
196134,-86.2068965517241,4,1,0,100,0,1
196208,-84.7457627118644,4,1,0,100,0,1
196282,-81.9672131147541,4,1,0,100,0,1
196431,-88.495575221239,4,1,0,100,0,1
196505,-88.0758509228147,4,1,0,100,0,1
196579,-87.6601660809507,4,1,0,100,0,1
196653,-87.2483104364684,4,1,0,100,0,1
196728,-86.8403821671538,4,1,0,100,0,1
196802,-86.4361759598521,4,1,0,100,0,1
196876,-86.0357151460714,4,1,0,100,0,1
196950,-85.639021248754,4,1,0,100,0,1
197025,-85.2458960494494,4,1,0,100,0,1
197099,-84.856363633278,4,1,0,100,0,1
197173,-84.4704463249443,4,1,0,100,0,1
197247,-84.087952634938,4,1,0,100,0,1
197322,-83.708977369278,4,1,0,100,0,1
197396,-83.3333333333333,4,1,0,100,0,1
197470,-82.6446280991736,4,1,0,100,0,1
197520,-81.9672131147541,4,1,0,100,0,1
197569,-81.3008130081301,4,1,0,100,0,1
197619,-80.6451612903226,4,1,0,100,0,1
198510,-78.125,4,1,0,100,0,1
198559,-78.7401574803149,4,1,0,100,0,1
198609,-79.3650793650794,4,1,0,100,0,1
198658,-80,4,1,0,100,0,1
198733,-78.125,4,1,0,100,0,1
198807,-75.7575757575758,4,1,0,100,0,1
198856,-76.3358778625954,4,1,0,100,0,1
198906,-76.9230769230769,4,1,0,100,0,1
198955,-77.5193798449612,4,1,0,100,0,1
199104,-83.3333333333333,4,1,0,100,0,1
199178,-83.7209613845438,4,1,0,100,0,1
199327,-84.5070660583285,4,1,0,100,0,1
199401,-84.9056443574256,4,1,0,100,0,1
199475,-85.3080730441845,4,1,0,100,0,1
199549,-85.7142612244968,4,1,0,100,0,1
199624,-86.1244101554459,4,1,0,100,0,1
199698,-86.5384282544507,4,1,0,100,0,1
199772,-86.9565217391304,4,1,0,100,0,1
201183,-86.2068965517241,4,1,0,100,0,1
201257,-85.4700854700855,4,1,0,100,0,1
201332,-83.3333333333333,4,1,0,100,0,1
201480,-86.9565217391304,4,1,0,100,0,1
203559,-84.7457627118644,4,1,0,100,0,1
203609,-85.4700854700855,4,1,0,100,0,1
203658,-86.2068965517241,4,1,0,100,0,1
203708,-86.9565217391304,4,1,0,100,0,1
205886,-86.2068965517241,4,1,0,100,0,1
205985,-84.7457627118644,4,1,0,100,0,1
206084,-80,4,1,0,85,0,0
206381,-100,4,1,0,85,0,0
206827,-94.3396226415094,4,1,0,85,0,0
207272,-88.4955752212389,4,1,0,100,0,1
207346,-87.719298245614,4,1,0,100,0,1
207421,-86.9565217391304,4,1,0,100,0,1
207495,-86.2068965517241,4,1,0,100,0,1
207569,-85.4700854700855,4,1,0,100,0,1
207718,-88.4955752212389,4,1,0,100,0,1
207792,-87.719298245614,4,1,0,100,0,1
207866,-86.9565217391304,4,1,0,100,0,1
207940,-86.2068965517241,4,1,0,100,0,1
208015,-85.4700854700855,4,1,0,100,0,1
208163,-86.9565217391304,4,1,0,100,0,1
208460,-76.9230769230769,4,1,0,90,0,0
208609,-80,4,1,0,90,0,0
208683,-80.6451612903226,4,1,0,90,0,0
208757,-81.3008130081301,4,1,0,90,0,0
208906,-83.3333333333333,4,1,0,90,0,0
209054,-85.4700854700855,4,1,0,90,0,0
209129,-86.2068965517241,4,1,0,90,0,0
209203,-86.9565217391304,4,1,0,90,0,0
209351,-89.2857142857143,4,1,0,90,0,0
212619,-88.4955752212389,4,1,0,90,0,0
212693,-87.719298245614,4,1,0,90,0,0
212767,-86.9565217391304,4,1,0,90,0,0
212841,-86.2068965517241,4,1,0,90,0,0
212916,-85.4700854700855,4,1,0,90,0,0
212990,-84.7457627118644,4,1,0,90,0,0
213064,-84.0336134453781,4,1,0,90,0,0
213213,-75.7575757575758,4,1,0,90,0,0
213510,-89.2857142857143,4,1,0,90,0,0
215440,-87.719298245614,4,1,0,90,0,0
215589,-83.3333333333333,4,1,0,90,0,0
215737,-87.719298245614,4,1,0,90,0,0
215811,-89.2857142857143,4,1,0,90,0,0
215886,-90.9090909090909,4,1,0,90,0,0
216034,-83.3333333333333,4,1,0,90,0,0
216331,-87.719298245614,4,1,0,90,0,0
216405,-89.2857142857143,4,1,0,90,0,0
216480,-90.9090909090909,4,1,0,90,0,0
216628,-83.3333333333333,4,1,0,90,0,0
216777,-90.9090909090909,4,1,0,90,0,0
216925,-87.719298245614,4,1,0,90,0,0
216999,-89.2857142857143,4,1,0,90,0,0
217074,-90.9090909090909,4,1,0,90,0,0
217222,-81.9672131147541,4,1,0,90,0,0
217371,-86.2068965517241,4,1,0,90,0,0
217519,-80.6451612903226,4,1,0,90,0,0
217816,-94.3396226415094,4,1,0,90,0,0
217891,-97.0873786407767,4,1,0,90,0,0
217965,-100,4,1,0,90,0,0
218113,-100,4,1,0,75,0,0
218262,-106.382978723404,4,1,0,75,0,0
218410,-109.89010989011,4,1,0,75,0,0
218707,-114.942528735632,4,1,0,75,0,0
218856,-117.647058823529,4,1,0,75,0,0
221529,-114.942528735632,4,1,0,75,0,0
221826,-110.262944042659,4,1,0,75,0,0
221975,-108.063130480827,4,1,0,75,0,0
222123,-105.949487522329,4,1,0,75,0,0
222272,-103.916833279989,4,1,0,75,0,0
222420,-101.960808304504,4,1,0,75,0,0
222569,-100.076959181611,4,1,0,75,0,0
222717,-92.5925925925926,4,1,0,80,0,0
222866,-96.1538461538461,4,1,0,80,0,0
223905,-94.3396226415094,4,1,0,85,0,0
223980,-93.5206989362956,4,1,0,85,0,0
224054,-92.7158703609614,4,1,0,85,0,0
224128,-91.9248606189301,4,1,0,85,0,0
224202,-91.1471506944957,4,1,0,85,0,0
224277,-90.3824896579836,4,1,0,85,0,0
224351,-89.6305518284184,4,1,0,85,0,0
224425,-88.8911012896321,4,1,0,85,0,0
224499,-88.1636740976889,4,1,0,85,0,0
224574,-87.4480558548222,4,1,0,85,0,0
224648,-86.7439613191328,4,1,0,85,0,0
224722,-86.0511884099375,4,1,0,85,0,0
224796,-85.3693204858197,4,1,0,85,0,0
224871,-84.0336134453781,4,1,0,85,0,0
224945,-82.6446280991736,4,1,0,85,0,0
225019,-81.3008130081301,4,1,0,85,0,0
225093,-78.125,4,1,0,85,0,0
225985,-89.2857142857143,4,1,0,85,0,0
226059,-87.719298245614,4,1,0,85,0,0
226133,-86.2068965517241,4,1,0,85,0,0
226207,-84.7457627118644,4,1,0,85,0,0
226282,-80,4,1,0,85,0,0
226480,-81.9672131147541,4,1,0,85,0,0
226678,-84.0336134453781,4,1,0,85,0,0
226876,-86.2068965517241,4,1,0,85,0,0
227074,-88.4955752212389,4,1,0,85,0,0
227272,-90.9090909090909,4,1,0,85,0,0
227470,-98.0392156862745,4,1,0,70,0,0
227767,-80,4,1,0,90,0,0
228064,-89.2857142857143,4,1,0,75,0,0
228250,-87.719298245614,4,1,0,75,0,0
228510,-83.3333333333333,4,1,0,75,0,0
228695,-81.9672131147541,4,1,0,75,0,0
228955,-76.9230769230769,4,1,0,75,0,0
229141,-75.7575757575758,4,1,0,75,0,0
229252,-71.4285714285714,4,1,0,75,0,0
229846,-66.6666666666667,4,1,0,75,0,0

[HitObjects]
256,192,540,5,8,0:0:0:0:
256,192,1134,1,0,0:0:0:0:
256,192,1282,1,0,0:0:0:0:
256,192,1431,1,8,0:0:0:0:
256,192,1579,1,8,0:0:0:0:
256,192,1728,1,0,0:0:0:0:
256,192,2025,1,0,0:0:0:0:
256,192,2322,1,8,0:0:0:0:
256,192,2619,1,8,0:0:0:0:
256,192,2916,1,0,0:0:0:0:
256,192,3361,1,8,0:0:0:0:
256,192,4104,1,0,0:0:0:0:
256,192,4698,1,8,0:0:0:0:
256,192,5292,1,0,0:0:0:0:
256,192,5738,1,0,0:0:0:0:
256,192,5812,1,0,0:0:0:0:
256,192,5886,1,8,0:0:0:0:
256,192,6332,1,0,0:0:0:0:
256,192,6406,1,8,0:0:0:0:
256,192,6480,1,8,0:0:0:0:
256,192,6703,1,0,0:0:0:0:
256,192,6926,1,8,0:0:0:0:
256,192,7074,1,8,0:0:0:0:
256,192,7297,1,0,0:0:0:0:
256,192,7520,1,8,0:0:0:0:
256,192,7668,1,0,0:0:0:0:
256,192,7817,12,0,8708,0:0:0:0:
256,192,8856,5,12,0:0:0:0:
256,192,9005,1,4,0:0:0:0:
256,192,9153,1,4,0:0:0:0:
256,192,9302,1,12,0:0:0:0:
256,192,9450,1,0,0:0:0:0:
256,192,9525,1,0,0:0:0:0:
256,192,9599,1,0,0:0:0:0:
256,192,9673,1,0,0:0:0:0:
256,192,9747,1,8,0:0:0:0:
256,192,9896,1,0,0:0:0:0:
256,192,10044,1,12,0:0:0:0:
256,192,10193,1,0,0:0:0:0:
256,192,10267,1,8,0:0:0:0:
256,192,10341,1,0,0:0:0:0:
256,192,10490,1,8,0:0:0:0:
256,192,10639,1,0,0:0:0:0:
256,192,10713,1,0,0:0:0:0:
256,192,10787,1,8,0:0:0:0:
256,192,10936,1,0,0:0:0:0:
256,192,11084,1,8,0:0:0:0:
256,192,11158,1,8,0:0:0:0:
256,192,11233,1,0,0:0:0:0:
256,192,11381,1,8,0:0:0:0:
256,192,11455,1,0,0:0:0:0:
256,192,11530,1,8,0:0:0:0:
256,192,11604,1,8,0:0:0:0:
256,192,11678,1,0,0:0:0:0:
256,192,11827,1,8,0:0:0:0:
256,192,11901,1,8,0:0:0:0:
256,192,11975,1,0,0:0:0:0:
256,192,12049,1,0,0:0:0:0:
256,192,12124,1,8,0:0:0:0:
256,192,12272,1,0,0:0:0:0:
256,192,12421,1,8,0:0:0:0:
256,192,12569,1,0,0:0:0:0:
256,192,12643,1,8,0:0:0:0:
256,192,12718,1,0,0:0:0:0:
256,192,12866,1,8,0:0:0:0:
256,192,13015,1,0,0:0:0:0:
256,192,13089,1,8,0:0:0:0:
256,192,13163,1,0,0:0:0:0:
256,192,13238,1,0,0:0:0:0:
256,192,13312,1,8,0:0:0:0:
256,192,13460,1,0,0:0:0:0:
256,192,13609,1,0,0:0:0:0:
256,192,13757,1,8,0:0:0:0:
256,192,13906,1,0,0:0:0:0:
256,192,14054,1,8,0:0:0:0:
256,192,14203,1,0,0:0:0:0:
256,192,14351,1,8,0:0:0:0:
256,192,14500,1,8,0:0:0:0:
256,192,14574,1,8,0:0:0:0:
256,192,14648,1,8,0:0:0:0:
256,192,14723,1,8,0:0:0:0:
256,192,14945,1,0,0:0:0:0:
256,192,15020,1,0,0:0:0:0:
256,192,15094,1,12,0:0:0:0:
256,192,15242,1,0,0:0:0:0:
256,192,15391,1,8,0:0:0:0:
256,192,15490,1,8,0:0:0:0:
256,192,15589,1,0,0:0:0:0:
256,192,15688,1,8,0:0:0:0:
256,192,15837,1,0,0:0:0:0:
256,192,15985,1,8,0:0:0:0:
256,192,16059,1,8,0:0:0:0:
256,192,16134,1,0,0:0:0:0:
256,192,16282,1,8,0:0:0:0:
256,192,16356,1,0,0:0:0:0:
256,192,16431,1,8,0:0:0:0:
256,192,16505,1,8,0:0:0:0:
256,192,16579,1,0,0:0:0:0:
256,192,16678,1,0,0:0:0:0:
256,192,16777,1,8,0:0:0:0:
256,192,16876,1,0,0:0:0:0:
256,192,16975,1,8,0:0:0:0:
256,192,17074,1,8,0:0:0:0:
256,192,17173,1,0,0:0:0:0:
256,192,18361,5,8,0:0:0:0:
256,192,18436,1,8,0:0:0:0:
256,192,18510,1,8,0:0:0:0:
256,192,18584,1,8,0:0:0:0:
256,192,18658,1,8,0:0:0:0:
256,192,18807,1,0,0:0:0:0:
256,192,18881,1,0,0:0:0:0:
256,192,18955,1,0,0:0:0:0:
256,192,19030,1,0,0:0:0:0:
256,192,19104,1,0,0:0:0:0:
256,192,19252,1,8,0:0:0:0:
256,192,19302,1,8,0:0:0:0:
256,192,19351,1,0,0:0:0:0:
256,192,19401,1,0,0:0:0:0:
256,192,19549,1,12,0:0:0:0:
256,192,19995,1,0,0:0:0:0:
256,192,20143,1,8,0:0:0:0:
256,192,20292,1,8,0:0:0:0:
256,192,20440,1,0,0:0:0:0:
256,192,20589,1,8,0:0:0:0:
256,192,21035,1,8,0:0:0:0:
256,192,21332,1,0,0:0:0:0:
256,192,21629,1,0,0:0:0:0:
256,192,21926,1,8,0:0:0:0:
256,192,22223,1,8,0:0:0:0:
256,192,22371,1,8,0:0:0:0:
256,192,22817,1,8,0:0:0:0:
256,192,22965,1,0,0:0:0:0:
256,192,23708,1,0,0:0:0:0:
256,192,23931,1,0,0:0:0:0:
256,192,24153,1,8,0:0:0:0:
256,192,24302,1,0,0:0:0:0:
256,192,24599,1,8,0:0:0:0:
256,192,24747,1,8,0:0:0:0:
256,192,25193,1,8,0:0:0:0:
256,192,25341,1,0,0:0:0:0:
256,192,25787,1,8,0:0:0:0:
256,192,26084,1,0,0:0:0:0:
256,192,26381,1,8,0:0:0:0:
256,192,26678,1,8,0:0:0:0:
256,192,27421,1,0,0:0:0:0:
256,192,27570,1,0,0:0:0:0:
256,192,27718,1,8,0:0:0:0:
256,192,28757,1,0,0:0:0:0:
256,192,29054,1,8,0:0:0:0:
256,192,29500,1,0,0:0:0:0:
256,192,29648,1,8,0:0:0:0:
256,192,29797,1,8,0:0:0:0:
256,192,29945,1,0,0:0:0:0:
256,192,30094,1,8,0:0:0:0:
256,192,30391,1,0,0:0:0:0:
256,192,30539,1,8,0:0:0:0:
256,192,30688,1,0,0:0:0:0:
256,192,30837,1,8,0:0:0:0:
256,192,30985,1,0,0:0:0:0:
256,192,31134,1,8,0:0:0:0:
256,192,31282,1,0,0:0:0:0:
256,192,31332,1,0,0:0:0:0:
256,192,31381,1,0,0:0:0:0:
256,192,31431,1,12,0:0:0:0:
256,192,31579,1,8,0:0:0:0:
256,192,31728,1,0,0:0:0:0:
256,192,31876,1,12,0:0:0:0:
256,192,32025,1,0,0:0:0:0:
256,192,32173,1,8,0:0:0:0:
256,192,32322,1,4,0:0:0:0:
256,192,32767,1,0,0:0:0:0:
256,192,32841,1,0,0:0:0:0:
256,192,32916,1,8,0:0:0:0:
256,192,33064,1,0,0:0:0:0:
256,192,33139,1,8,0:0:0:0:
256,192,33213,1,0,0:0:0:0:
256,192,33361,1,8,0:0:0:0:
256,192,33436,1,0,0:0:0:0:
256,192,33510,1,8,0:0:0:0:
256,192,33584,1,8,0:0:0:0:
256,192,33658,1,0,0:0:0:0:
256,192,33733,1,0,0:0:0:0:
256,192,33807,1,8,0:0:0:0:
256,192,34104,1,8,0:0:0:0:
256,192,34401,1,8,0:0:0:0:
256,192,34698,1,8,0:0:0:0:
256,192,34995,1,8,0:0:0:0:
256,192,35143,1,8,0:0:0:0:
256,192,35292,1,0,0:0:0:0:
256,192,35440,1,0,0:0:0:0:
256,192,35589,1,8,0:0:0:0:
256,192,35663,1,8,0:0:0:0:
256,192,35738,1,0,0:0:0:0:
256,192,35812,1,0,0:0:0:0:
256,192,35886,1,8,0:0:0:0:
256,192,35936,1,0,0:0:0:0:
256,192,35985,1,0,0:0:0:0:
256,192,36035,1,8,0:0:0:0:
256,192,36084,1,0,0:0:0:0:
256,192,36134,1,0,0:0:0:0:
256,192,36183,1,12,0:0:0:0:
256,192,36332,1,0,0:0:0:0:
256,192,36406,1,0,0:0:0:0:
256,192,36480,1,8,0:0:0:0:
256,192,36629,1,0,0:0:0:0:
256,192,36703,1,8,0:0:0:0:
256,192,36777,1,0,0:0:0:0:
256,192,36926,1,0,0:0:0:0:
256,192,37000,1,0,0:0:0:0:
256,192,37074,1,8,0:0:0:0:
256,192,37223,1,0,0:0:0:0:
256,192,37297,1,0,0:0:0:0:
256,192,37371,1,0,0:0:0:0:
256,192,37520,1,0,0:0:0:0:
256,192,37594,1,0,0:0:0:0:
256,192,37668,1,8,0:0:0:0:
256,192,37817,1,0,0:0:0:0:
256,192,37891,1,8,0:0:0:0:
256,192,37965,1,0,0:0:0:0:
256,192,38114,1,0,0:0:0:0:
256,192,38188,1,0,0:0:0:0:
256,192,38262,1,8,0:0:0:0:
256,192,38411,1,8,0:0:0:0:
256,192,38485,1,8,0:0:0:0:
256,192,38559,1,0,0:0:0:0:
256,192,38708,1,0,0:0:0:0:
256,192,38782,1,0,0:0:0:0:
256,192,38856,1,8,0:0:0:0:
256,192,39005,1,0,0:0:0:0:
256,192,39079,1,8,0:0:0:0:
256,192,39153,1,0,0:0:0:0:
256,192,39302,1,0,0:0:0:0:
256,192,39376,1,0,0:0:0:0:
256,192,39450,1,8,0:0:0:0:
256,192,39599,1,0,0:0:0:0:
256,192,39673,1,0,0:0:0:0:
256,192,39747,5,8,0:0:0:0:
256,192,39797,1,8,0:0:0:0:
256,192,39846,1,8,0:0:0:0:
256,192,39896,1,0,0:0:0:0:
256,192,39970,1,0,0:0:0:0:
256,192,40044,1,12,0:0:0:0:
256,192,40341,1,12,0:0:0:0:
256,192,40639,1,12,0:0:0:0:
256,192,40936,1,4,0:0:0:0:
256,192,41381,1,8,0:0:0:0:
256,192,41530,1,8,0:0:0:0:
256,192,41975,1,0,0:0:0:0:
256,192,42124,1,8,0:0:0:0:
256,192,42421,1,0,0:0:0:0:
256,192,42718,1,8,0:0:0:0:
256,192,43015,1,0,0:0:0:0:
256,192,43163,1,0,0:0:0:0:
256,192,43312,1,8,0:0:0:0:
256,192,43609,1,8,0:0:0:0:
256,192,43757,1,0,0:0:0:0:
256,192,43906,1,8,0:0:0:0:
256,192,44005,1,8,0:0:0:0:
256,192,44104,1,8,0:0:0:0:
256,192,44203,1,0,0:0:0:0:
256,192,44302,1,0,0:0:0:0:
256,192,44401,1,0,0:0:0:0:
256,192,44500,1,8,0:0:0:0:
256,192,44797,1,0,0:0:0:0:
256,192,44945,1,0,0:0:0:0:
256,192,45094,1,8,0:0:0:0:
256,192,45391,1,8,0:0:0:0:
256,192,45465,1,8,0:0:0:0:
256,192,45540,1,0,0:0:0:0:
256,192,45688,1,8,0:0:0:0:
256,192,46134,1,0,0:0:0:0:
256,192,46282,1,8,0:0:0:0:
256,192,46431,1,0,0:0:0:0:
256,192,46579,1,8,0:0:0:0:
256,192,46728,1,8,0:0:0:0:
256,192,47025,1,0,0:0:0:0:
256,192,47173,1,8,0:0:0:0:
256,192,47322,1,0,0:0:0:0:
256,192,47470,1,8,0:0:0:0:
256,192,47619,1,8,0:0:0:0:
256,192,47767,1,0,0:0:0:0:
256,192,47916,1,0,0:0:0:0:
256,192,48064,1,12,0:0:0:0:
256,192,48510,1,0,0:0:0:0:
256,192,48584,1,0,0:0:0:0:
256,192,48658,1,12,0:0:0:0:
256,192,49104,1,0,0:0:0:0:
256,192,49178,1,0,0:0:0:0:
256,192,49252,1,12,0:0:0:0:
256,192,49698,1,0,0:0:0:0:
256,192,49772,1,0,0:0:0:0:
256,192,49846,1,12,0:0:0:0:
256,192,50044,1,12,0:0:0:0:
256,192,50242,1,4,0:0:0:0:
256,192,50738,1,12,0:0:0:0:
256,192,50886,1,12,0:0:0:0:
256,192,51183,1,8,0:0:0:0:
256,192,51332,1,0,0:0:0:0:
256,192,51480,1,0,0:0:0:0:
256,192,51629,1,12,0:0:0:0:
256,192,51777,1,0,0:0:0:0:
251,200,51851,1,0,0:0:0:0:
256,192,51926,1,0,0:0:0:0:
256,192,52074,1,12,0:0:0:0:
256,192,52223,1,0,0:0:0:0:
256,192,52297,1,8,0:0:0:0:
256,192,52520,1,8,0:0:0:0:
256,192,52594,1,0,0:0:0:0:
256,192,52668,1,0,0:0:0:0:
256,192,52742,1,0,0:0:0:0:
256,192,52817,1,12,0:0:0:0:
256,192,53114,1,0,0:0:0:0:
256,192,53262,1,12,0:0:0:0:
246,188,53559,1,8,0:0:0:0:
256,192,53708,1,0,0:0:0:0:
256,192,53856,1,0,0:0:0:0:
256,192,54005,1,12,0:0:0:0:
256,192,54153,1,0,0:0:0:0:
256,192,54228,1,0,0:0:0:0:
256,192,54302,1,0,0:0:0:0:
256,192,54450,1,12,0:0:0:0:
256,192,54599,1,0,0:0:0:0:
256,192,54673,1,8,0:0:0:0:
256,192,54896,1,8,0:0:0:0:
256,192,54970,1,8,0:0:0:0:
256,192,55044,1,0,0:0:0:0:
256,192,55119,1,0,0:0:0:0:
256,192,55193,1,12,0:0:0:0:
256,192,56084,1,8,0:0:0:0:
256,192,56678,1,0,0:0:0:0:
256,192,56975,1,8,0:0:0:0:
256,192,57272,1,0,0:0:0:0:
256,192,57569,1,8,0:0:0:0:
256,192,57718,1,0,0:0:0:0:
256,192,57792,1,0,0:0:0:0:
256,192,57866,1,0,0:0:0:0:
256,192,58015,1,8,0:0:0:0:
256,192,58163,1,0,0:0:0:0:
256,192,58238,1,8,0:0:0:0:
256,192,58312,1,0,0:0:0:0:
256,192,58460,1,8,0:0:0:0:
256,192,58609,1,0,0:0:0:0:
256,192,58683,1,0,0:0:0:0:
256,192,58757,1,0,0:0:0:0:
256,192,58906,1,8,0:0:0:0:
256,192,59054,1,0,0:0:0:0:
256,192,59129,1,8,0:0:0:0:
256,192,59203,1,0,0:0:0:0:
256,192,59351,1,8,0:0:0:0:
256,192,59500,1,0,0:0:0:0:
256,192,59574,1,0,0:0:0:0:
256,192,59648,1,8,0:0:0:0:
256,192,59797,1,0,0:0:0:0:
256,192,59871,1,8,0:0:0:0:
256,192,59945,1,0,0:0:0:0:
256,192,60020,1,0,0:0:0:0:
256,192,60094,1,8,0:0:0:0:
256,192,60168,1,0,0:0:0:0:
256,192,60242,1,8,0:0:0:0:
256,192,60391,1,0,0:0:0:0:
256,192,60465,1,8,0:0:0:0:
256,192,60540,1,0,0:0:0:0:
256,192,60614,1,0,0:0:0:0:
256,160,60688,1,8,0:0:0:0:
256,192,60837,1,0,0:0:0:0:
256,192,60911,1,0,0:0:0:0:
256,192,60985,1,8,0:0:0:0:
256,192,61059,1,0,0:0:0:0:
256,192,61134,1,8,0:0:0:0:
256,192,61282,1,0,0:0:0:0:
256,192,61356,1,8,0:0:0:0:
256,192,61431,1,0,0:0:0:0:
256,192,61505,1,0,0:0:0:0:
256,192,61579,1,8,0:0:0:0:
256,192,61728,1,8,0:0:0:0:
256,192,61802,1,0,0:0:0:0:
256,192,61876,1,0,0:0:0:0:
256,192,61950,1,8,0:0:0:0:
256,192,62025,1,0,0:0:0:0:
256,192,62099,1,0,0:0:0:0:
256,192,62173,1,8,0:0:0:0:
256,192,62247,1,8,0:0:0:0:
256,192,62322,1,4,0:0:0:0:
256,192,62520,1,4,0:0:0:0:
256,192,62718,1,4,0:0:0:0:
256,192,62916,1,4,0:0:0:0:
256,192,63114,1,4,0:0:0:0:
256,192,63312,1,4,0:0:0:0:
256,192,63510,1,8,0:0:0:0:
256,192,63584,1,8,0:0:0:0:
256,192,63658,1,8,0:0:0:0:
256,192,63733,1,8,0:0:0:0:
256,192,63807,1,8,0:0:0:0:
256,192,63955,1,0,0:0:0:0:
256,192,64030,1,0,0:0:0:0:
256,192,64104,1,0,0:0:0:0:
256,192,64178,1,0,0:0:0:0:
256,192,64252,1,0,0:0:0:0:
256,192,64401,1,0,0:0:0:0:
256,192,64475,1,0,0:0:0:0:
256,192,64549,1,8,0:0:0:0:
256,192,64624,1,8,0:0:0:0:
256,192,64698,5,0,0:0:0:0:
256,192,64747,1,0,0:0:0:0:
256,192,64797,1,0,0:0:0:0:
256,192,64846,1,0,0:0:0:0:
256,192,64896,1,0,0:0:0:0:
256,192,64945,1,0,0:0:0:0:
256,192,64995,1,12,0:0:0:0:
256,192,65143,1,0,0:0:0:0:
256,192,65292,1,8,0:0:0:0:
256,192,65440,1,8,0:0:0:0:
256,192,65515,1,0,0:0:0:0:
256,192,65589,1,8,0:0:0:0:
256,192,65663,1,0,0:0:0:0:
256,192,65738,1,8,0:0:0:0:
256,192,65812,1,8,0:0:0:0:
256,192,65886,1,0,0:0:0:0:
256,192,66035,1,0,0:0:0:0:
256,192,66084,1,8,0:0:0:0:
256,192,66134,1,8,0:0:0:0:
256,192,66183,1,0,0:0:0:0:
256,192,66332,1,8,0:0:0:0:
256,192,66480,1,0,0:0:0:0:
256,192,66629,1,8,0:0:0:0:
256,192,66703,1,0,0:0:0:0:
256,192,66777,1,8,0:0:0:0:
256,192,66851,1,8,0:0:0:0:
256,192,66926,1,0,0:0:0:0:
256,192,67000,1,0,0:0:0:0:
256,192,67074,1,8,0:0:0:0:
256,192,67223,1,0,0:0:0:0:
256,192,67297,1,8,0:0:0:0:
256,192,67371,1,0,0:0:0:0:
256,192,67445,1,0,0:0:0:0:
256,192,67520,1,8,0:0:0:0:
256,192,67668,1,0,0:0:0:0:
256,192,67742,1,0,0:0:0:0:
256,192,67817,1,8,0:0:0:0:
256,192,67891,1,0,0:0:0:0:
256,192,67965,1,8,0:0:0:0:
256,192,68040,1,8,0:0:0:0:
256,192,68114,1,0,0:0:0:0:
256,192,68188,1,0,0:0:0:0:
256,192,68262,1,8,0:0:0:0:
256,192,68411,1,0,0:0:0:0:
256,192,68559,1,8,0:0:0:0:
256,192,68634,1,8,0:0:0:0:
256,192,68708,1,0,0:0:0:0:
256,192,68856,1,0,0:0:0:0:
256,192,69005,1,8,0:0:0:0:
256,192,69079,1,0,0:0:0:0:
256,192,69153,1,8,0:0:0:0:
256,192,69228,1,8,0:0:0:0:
256,192,69302,1,0,0:0:0:0:
256,192,69376,1,0,0:0:0:0:
256,192,69450,1,12,0:0:0:0:
256,192,69599,1,0,0:0:0:0:
256,192,69673,1,8,0:0:0:0:
256,192,69747,1,0,0:0:0:0:
256,192,69822,1,0,0:0:0:0:
256,192,69896,1,8,0:0:0:0:
256,192,70044,1,12,0:0:0:0:
256,192,70193,1,0,0:0:0:0:
256,192,70267,1,8,0:0:0:0:
256,192,70341,1,8,0:0:0:0:
256,192,70416,1,0,0:0:0:0:
256,192,70490,1,8,0:0:0:0:
256,192,70639,1,12,0:0:0:0:
256,192,70787,1,0,0:0:0:0:
256,192,70861,1,8,0:0:0:0:
256,192,70936,1,8,0:0:0:0:
256,192,71010,1,0,0:0:0:0:
256,192,71084,1,8,0:0:0:0:
256,192,71158,1,8,0:0:0:0:
256,192,71233,1,0,0:0:0:0:
256,192,71307,1,8,0:0:0:0:
256,192,71381,1,0,0:0:0:0:
256,192,71455,1,0,0:0:0:0:
256,192,71530,1,8,0:0:0:0:
256,192,71678,1,0,0:0:0:0:
256,192,71752,1,0,0:0:0:0:
256,192,71827,1,8,0:0:0:0:
256,192,71901,1,8,0:0:0:0:
256,192,71975,1,0,0:0:0:0:
256,192,72049,1,0,0:0:0:0:
256,192,72124,1,8,0:0:0:0:
256,192,72198,1,0,0:0:0:0:
256,192,72272,1,8,0:0:0:0:
256,192,72346,1,8,0:0:0:0:
256,192,72421,1,0,0:0:0:0:
256,192,72569,1,0,0:0:0:0:
256,192,72619,1,0,0:0:0:0:
256,192,72668,1,0,0:0:0:0:
256,192,72718,1,8,0:0:0:0:
256,192,72866,1,8,0:0:0:0:
256,192,72916,1,8,0:0:0:0:
256,192,72965,1,8,0:0:0:0:
256,192,73015,1,0,0:0:0:0:
256,192,73114,1,8,0:0:0:0:
256,192,73213,1,0,0:0:0:0:
256,192,73312,1,8,0:0:0:0:
256,192,73411,1,0,0:0:0:0:
256,192,73510,1,8,0:0:0:0:
256,192,73609,5,0,0:0:0:0:
256,192,73658,1,8,0:0:0:0:
256,192,73708,1,8,0:0:0:0:
256,192,73757,1,0,0:0:0:0:
256,192,73832,1,0,0:0:0:0:
256,192,73906,1,12,0:0:0:0:
256,192,74203,1,0,0:0:0:0:
256,192,74252,1,0,0:0:0:0:
256,192,74302,1,0,0:0:0:0:
256,192,74351,1,0,0:0:0:0:
256,192,74401,1,0,0:0:0:0:
256,192,74450,1,0,0:0:0:0:
256,192,74500,1,12,0:0:0:0:
256,192,74648,1,0,0:0:0:0:
256,192,74797,1,8,0:0:0:0:
256,192,74945,1,0,0:0:0:0:
256,192,75020,1,0,0:0:0:0:
256,192,75094,1,8,0:0:0:0:
256,192,75168,1,0,0:0:0:0:
256,192,75243,1,8,0:0:0:0:
256,192,75317,1,8,0:0:0:0:
256,192,75391,1,0,0:0:0:0:
256,192,75540,1,0,0:0:0:0:
256,192,75589,1,8,0:0:0:0:
256,192,75639,1,0,0:0:0:0:
256,192,75688,1,8,0:0:0:0:
256,192,75837,1,8,0:0:0:0:
256,192,75985,1,0,0:0:0:0:
256,192,76134,1,8,0:0:0:0:
256,192,76208,1,0,0:0:0:0:
256,192,76282,1,8,0:0:0:0:
256,192,76356,1,0,0:0:0:0:
256,192,76431,1,8,0:0:0:0:
256,192,76505,1,8,0:0:0:0:
256,192,76579,1,0,0:0:0:0:
256,192,76653,1,0,0:0:0:0:
256,192,76728,1,8,0:0:0:0:
256,192,76802,1,0,0:0:0:0:
256,192,76876,1,8,0:0:0:0:
256,192,76950,1,8,0:0:0:0:
256,192,77025,1,0,0:0:0:0:
256,192,77099,1,8,0:0:0:0:
256,192,77173,1,0,0:0:0:0:
256,192,77247,1,8,0:0:0:0:
256,192,77322,1,8,0:0:0:0:
256,192,77396,1,0,0:0:0:0:
256,192,77470,1,8,0:0:0:0:
256,192,77544,1,8,0:0:0:0:
256,192,77619,1,0,0:0:0:0:
256,192,77693,1,0,0:0:0:0:
256,192,77767,1,8,0:0:0:0:
256,192,77841,1,8,0:0:0:0:
256,192,77916,1,8,0:0:0:0:
256,192,77990,1,0,0:0:0:0:
256,192,78064,1,8,0:0:0:0:
256,192,78139,1,8,0:0:0:0:
256,192,78213,1,0,0:0:0:0:
256,192,78262,1,8,0:0:0:0:
256,192,78312,1,8,0:0:0:0:
256,192,78361,1,0,0:0:0:0:
256,192,78436,1,8,0:0:0:0:
256,192,78584,1,8,0:0:0:0:
256,192,78658,1,0,0:0:0:0:
256,192,78807,1,8,0:0:0:0:
256,192,78856,1,8,0:0:0:0:
256,192,78906,1,8,0:0:0:0:
256,192,78955,1,0,0:0:0:0:
256,192,79153,1,8,0:0:0:0:
256,192,79351,1,8,0:0:0:0:
256,192,79450,1,8,0:0:0:0:
256,192,79549,1,0,0:0:0:0:
256,192,79747,1,8,0:0:0:0:
256,192,79945,1,8,0:0:0:0:
256,192,80044,1,0,0:0:0:0:
256,192,80143,1,8,0:0:0:0:
256,192,80242,1,8,0:0:0:0:
256,192,80341,1,0,0:0:0:0:
256,192,80440,1,0,0:0:0:0:
256,192,80540,1,8,0:0:0:0:
256,192,80639,1,0,0:0:0:0:
256,192,80738,1,8,0:0:0:0:
256,192,80837,1,0,0:0:0:0:
256,192,80936,1,8,0:0:0:0:
256,192,81035,1,8,0:0:0:0:
256,192,81134,1,0,0:0:0:0:
256,192,81233,1,0,0:0:0:0:
256,192,81332,1,12,0:0:0:0:
256,192,81926,1,8,0:0:0:0:
256,192,82223,1,0,0:0:0:0:
256,192,82520,1,8,0:0:0:0:
256,192,82594,1,0,0:0:0:0:
256,192,82668,1,8,0:0:0:0:
256,192,82742,1,8,0:0:0:0:
256,192,82817,1,0,0:0:0:0:
256,192,82965,1,0,0:0:0:0:
256,192,83040,1,8,0:0:0:0:
256,192,83114,1,0,0:0:0:0:
256,192,83188,1,0,0:0:0:0:
256,192,83262,1,8,0:0:0:0:
256,192,83411,1,0,0:0:0:0:
256,192,83708,1,12,0:0:0:0:
256,192,83856,1,0,0:0:0:0:
256,192,83931,1,0,0:0:0:0:
256,192,84005,1,0,0:0:0:0:
256,192,84153,1,8,0:0:0:0:
256,192,84302,1,0,0:0:0:0:
256,192,84376,1,8,0:0:0:0:
256,192,84450,1,0,0:0:0:0:
256,192,84599,1,8,0:0:0:0:
256,192,84747,1,0,0:0:0:0:
256,192,84822,1,0,0:0:0:0:
256,192,84896,1,0,0:0:0:0:
256,192,85044,1,8,0:0:0:0:
256,192,85193,1,8,0:0:0:0:
256,192,85267,1,8,0:0:0:0:
256,192,85341,1,0,0:0:0:0:
256,192,85416,1,0,0:0:0:0:
256,192,85490,1,8,0:0:0:0:
256,192,85639,1,0,0:0:0:0:
256,192,85713,1,0,0:0:0:0:
256,192,85787,1,8,0:0:0:0:
256,192,85861,1,8,0:0:0:0:
256,192,85936,1,0,0:0:0:0:
256,192,86084,1,8,0:0:0:0:
256,192,86158,1,0,0:0:0:0:
256,192,86233,1,8,0:0:0:0:
256,192,86307,1,8,0:0:0:0:
256,192,86381,1,0,0:0:0:0:
256,192,86455,1,0,0:0:0:0:
256,192,86530,1,8,0:0:0:0:
256,192,86678,1,0,0:0:0:0:
256,192,86752,1,0,0:0:0:0:
256,192,86827,1,8,0:0:0:0:
256,192,86975,1,0,0:0:0:0:
256,192,87124,1,8,0:0:0:0:
256,192,87198,1,8,0:0:0:0:
256,192,87272,1,0,0:0:0:0:
256,192,87421,1,8,0:0:0:0:
256,192,87569,1,0,0:0:0:0:
256,192,87643,1,8,0:0:0:0:
256,192,87718,1,0,0:0:0:0:
256,192,87866,1,8,0:0:0:0:
256,192,87940,1,8,0:0:0:0:
256,192,88015,1,0,0:0:0:0:
256,192,88089,1,0,0:0:0:0:
256,192,88163,1,8,0:0:0:0:
256,192,88238,1,0,0:0:0:0:
256,192,88312,1,8,0:0:0:0:
256,192,88757,1,8,0:0:0:0:
256,192,88906,1,8,0:0:0:0:
256,192,89054,1,0,0:0:0:0:
256,192,89129,1,8,0:0:0:0:
256,192,89203,1,0,0:0:0:0:
256,192,89351,1,8,0:0:0:0:
256,192,89500,1,0,0:0:0:0:
256,192,89574,1,0,0:0:0:0:
256,192,89648,1,8,0:0:0:0:
256,192,89797,1,8,0:0:0:0:
256,192,89871,1,0,0:0:0:0:
256,192,89945,1,8,0:0:0:0:
256,192,90020,1,8,0:0:0:0:
256,192,90094,1,0,0:0:0:0:
256,192,90242,1,8,0:0:0:0:
256,192,90317,1,8,0:0:0:0:
256,192,90391,1,0,0:0:0:0:
256,192,90465,1,0,0:0:0:0:
256,192,90540,1,8,0:0:0:0:
256,192,90688,1,0,0:0:0:0:
256,192,90837,1,12,0:0:0:0:
256,192,90985,1,8,0:0:0:0:
256,192,91059,1,8,0:0:0:0:
256,192,91134,1,0,0:0:0:0:
256,192,91282,1,12,0:0:0:0:
256,192,91579,1,8,0:0:0:0:
256,192,91653,1,8,0:0:0:0:
256,192,91728,1,0,0:0:0:0:
256,192,91876,1,12,0:0:0:0:
256,192,92173,1,0,0:0:0:0:
256,192,92247,1,0,0:0:0:0:
256,192,92322,1,8,0:0:0:0:
256,192,92470,1,12,0:0:0:0:
256,192,92619,1,0,0:0:0:0:
256,192,92767,1,12,0:0:0:0:
256,192,93064,1,8,0:0:0:0:
256,192,93139,1,8,0:0:0:0:
256,192,93213,1,0,0:0:0:0:
256,192,93510,1,0,0:0:0:0:
256,192,93658,1,0,0:0:0:0:
256,192,93955,1,0,0:0:0:0:
256,192,94104,1,8,0:0:0:0:
256,192,94401,1,0,0:0:0:0:
256,192,94549,1,8,0:0:0:0:
256,192,94698,1,8,0:0:0:0:
256,192,94846,1,0,0:0:0:0:
256,192,94995,1,8,0:0:0:0:
256,192,95143,1,8,0:0:0:0:
256,192,95292,1,0,0:0:0:0:
256,192,95440,1,0,0:0:0:0:
256,192,95589,1,8,0:0:0:0:
256,192,95663,1,0,0:0:0:0:
256,192,95738,1,8,0:0:0:0:
256,192,95812,1,8,0:0:0:0:
256,192,95886,1,0,0:0:0:0:
256,192,96332,1,0,0:0:0:0:
256,192,96480,1,8,0:0:0:0:
256,192,96777,1,0,0:0:0:0:
256,192,97074,1,8,0:0:0:0:
256,192,97223,1,0,0:0:0:0:
256,192,97371,1,0,0:0:0:0:
256,192,97520,1,8,0:0:0:0:
256,192,97668,1,8,0:0:0:0:
256,192,97817,1,0,0:0:0:0:
256,192,97965,1,12,0:0:0:0:
256,192,98114,1,0,0:0:0:0:
256,192,98262,1,8,0:0:0:0:
256,192,98411,1,0,0:0:0:0:
256,192,98559,1,8,0:0:0:0:
256,192,98708,1,0,0:0:0:0:
256,192,98856,1,8,0:0:0:0:
256,192,99005,1,0,0:0:0:0:
256,192,99153,1,8,0:0:0:0:
256,192,99228,1,8,0:0:0:0:
256,192,99302,1,0,0:0:0:0:
256,192,99376,1,0,0:0:0:0:
256,192,99450,1,8,0:0:0:0:
256,192,99525,1,8,0:0:0:0:
256,192,99599,1,0,0:0:0:0:
256,192,99673,1,0,0:0:0:0:
256,192,99747,1,8,0:0:0:0:
256,192,99822,1,8,0:0:0:0:
256,192,99896,1,0,0:0:0:0:
256,192,99970,1,0,0:0:0:0:
256,192,100044,1,8,0:0:0:0:
256,192,100119,1,0,0:0:0:0:
256,192,100193,1,8,0:0:0:0:
256,192,100267,1,8,0:0:0:0:
256,192,100341,1,4,0:0:0:0:
256,192,101233,1,0,0:0:0:0:
256,192,101307,1,0,0:0:0:0:
256,192,101381,1,0,0:0:0:0:
256,192,101455,1,0,0:0:0:0:
256,192,101530,1,12,0:0:0:0:
256,192,101728,1,12,0:0:0:0:
256,192,101926,1,4,0:0:0:0:
256,192,102124,1,12,0:0:0:0:
256,192,102322,1,12,0:0:0:0:
256,192,102520,1,4,0:0:0:0:
256,192,102718,1,12,0:0:0:0:
256,192,103015,1,0,0:0:0:0:
256,192,103163,1,0,0:0:0:0:
256,192,103312,1,8,0:0:0:0:
256,192,103460,1,8,0:0:0:0:
256,192,103535,1,8,0:0:0:0:
256,192,103609,1,0,0:0:0:0:
256,192,103757,1,8,0:0:0:0:
256,192,103906,1,0,0:0:0:0:
256,192,104054,1,0,0:0:0:0:
256,192,104203,1,8,0:0:0:0:
256,192,104351,1,0,0:0:0:0:
256,192,104500,1,8,0:0:0:0:
256,192,104574,1,8,0:0:0:0:
256,192,104648,1,0,0:0:0:0:
256,192,104723,1,0,0:0:0:0:
256,192,104797,1,8,0:0:0:0:
256,192,104945,1,0,0:0:0:0:
256,192,105094,1,8,0:0:0:0:
256,192,105242,1,0,0:0:0:0:
256,192,105317,1,0,0:0:0:0:
256,192,105391,1,8,0:0:0:0:
256,192,105465,1,0,0:0:0:0:
256,192,105539,1,8,0:0:0:0:
256,192,105688,1,0,0:0:0:0:
256,192,105837,1,8,0:0:0:0:
256,192,105911,1,8,0:0:0:0:
256,192,105985,1,0,0:0:0:0:
256,192,106134,1,8,0:0:0:0:
256,192,106282,1,8,0:0:0:0:
256,192,106431,1,0,0:0:0:0:
256,192,106579,1,0,0:0:0:0:
256,192,106653,1,0,0:0:0:0:
256,192,106728,1,8,0:0:0:0:
256,192,106876,1,8,0:0:0:0:
256,192,106950,1,0,0:0:0:0:
256,192,107025,1,0,0:0:0:0:
256,192,107099,1,8,0:0:0:0:
256,192,107247,1,0,0:0:0:0:
256,192,107322,1,8,0:0:0:0:
256,192,107396,1,8,0:0:0:0:
256,192,107470,1,0,0:0:0:0:
256,192,107619,1,0,0:0:0:0:
256,192,107767,1,8,0:0:0:0:
256,192,107841,1,0,0:0:0:0:
256,192,107916,1,8,0:0:0:0:
256,192,108064,1,0,0:0:0:0:
256,192,108213,1,8,0:0:0:0:
256,192,108287,1,0,0:0:0:0:
256,192,108361,1,8,0:0:0:0:
256,192,108436,1,8,0:0:0:0:
256,192,108510,1,0,0:0:0:0:
256,192,108658,1,8,0:0:0:0:
256,192,108807,1,0,0:0:0:0:
256,192,108881,1,0,0:0:0:0:
256,192,108955,1,8,0:0:0:0:
256,192,109104,1,0,0:0:0:0:
256,192,109178,1,0,0:0:0:0:
256,192,109252,1,8,0:0:0:0:
256,192,109327,1,8,0:0:0:0:
256,192,109401,1,8,0:0:0:0:
256,192,109475,1,0,0:0:0:0:
256,192,109549,1,8,0:0:0:0:
256,192,109698,1,0,0:0:0:0:
256,192,109772,1,0,0:0:0:0:
256,192,109846,1,8,0:0:0:0:
256,192,109995,1,0,0:0:0:0:
256,192,110143,1,8,0:0:0:0:
256,192,110292,1,0,0:0:0:0:
256,192,110366,1,8,0:0:0:0:
256,192,110440,1,0,0:0:0:0:
256,192,110515,1,0,0:0:0:0:
256,192,110589,1,8,0:0:0:0:
256,192,110738,1,0,0:0:0:0:
256,192,110886,1,8,0:0:0:0:
256,192,110960,1,8,0:0:0:0:
256,192,111035,1,0,0:0:0:0:
256,192,111183,1,0,0:0:0:0:
256,192,111332,1,8,0:0:0:0:
256,192,111480,1,0,0:0:0:0:
256,192,111629,1,0,0:0:0:0:
256,192,111703,1,8,0:0:0:0:
256,192,111851,1,0,0:0:0:0:
256,192,111926,1,8,0:0:0:0:
256,192,112000,1,8,0:0:0:0:
256,192,112074,1,0,0:0:0:0:
256,192,112223,1,8,0:0:0:0:
256,192,112371,1,0,0:0:0:0:
256,192,112520,1,8,0:0:0:0:
256,192,112668,1,0,0:0:0:0:
256,192,112742,1,0,0:0:0:0:
256,192,112817,1,8,0:0:0:0:
256,192,112891,1,0,0:0:0:0:
256,192,112965,1,8,0:0:0:0:
256,192,113039,1,8,0:0:0:0:
256,192,113114,1,0,0:0:0:0:
256,192,113188,1,0,0:0:0:0:
256,192,113262,1,8,0:0:0:0:
256,192,113411,1,0,0:0:0:0:
256,192,113559,1,8,0:0:0:0:
256,192,113634,1,0,0:0:0:0:
256,192,113708,1,8,0:0:0:0:
256,192,113856,1,0,0:0:0:0:
256,192,113931,1,0,0:0:0:0:
256,192,114005,1,8,0:0:0:0:
256,192,114153,1,0,0:0:0:0:
256,192,114228,1,8,0:0:0:0:
256,192,114302,1,0,0:0:0:0:
256,192,114450,1,0,0:0:0:0:
256,192,114500,1,0,0:0:0:0:
256,192,114549,1,0,0:0:0:0:
256,192,114599,1,12,0:0:0:0:
256,192,114896,1,0,0:0:0:0:
256,192,115044,1,12,0:0:0:0:
256,192,115341,1,8,0:0:0:0:
256,192,115490,1,4,0:0:0:0:
256,192,115936,1,0,0:0:0:0:
256,192,116010,1,0,0:0:0:0:
256,192,116084,1,8,0:0:0:0:
256,192,116233,1,0,0:0:0:0:
256,192,116307,1,0,0:0:0:0:
256,192,116381,1,8,0:0:0:0:
256,192,116455,1,0,0:0:0:0:
256,192,116530,1,8,0:0:0:0:
256,192,116604,1,8,0:0:0:0:
256,192,116678,1,0,0:0:0:0:
256,192,116752,1,8,0:0:0:0:
256,192,116827,1,0,0:0:0:0:
256,192,116901,1,0,0:0:0:0:
256,192,116975,1,12,0:0:0:0:
256,192,117124,1,0,0:0:0:0:
256,192,117272,1,8,0:0:0:0:
256,192,117421,1,8,0:0:0:0:
256,192,117495,1,0,0:0:0:0:
256,192,117569,1,8,0:0:0:0:
256,192,117643,1,8,0:0:0:0:
256,192,117718,1,0,0:0:0:0:
256,192,117792,1,8,0:0:0:0:
256,192,117866,1,0,0:0:0:0:
256,192,117940,1,0,0:0:0:0:
256,192,118015,1,8,0:0:0:0:
256,192,118089,1,0,0:0:0:0:
256,192,118163,1,8,0:0:0:0:
256,192,118238,1,8,0:0:0:0:
256,192,118312,1,0,0:0:0:0:
256,192,118386,1,0,0:0:0:0:
256,192,118460,1,8,0:0:0:0:
256,192,118535,1,8,0:0:0:0:
256,192,118609,1,0,0:0:0:0:
256,192,118683,1,0,0:0:0:0:
256,192,118757,1,8,0:0:0:0:
256,192,118906,1,0,0:0:0:0:
256,192,118955,1,0,0:0:0:0:
256,192,119005,1,0,0:0:0:0:
256,192,119054,1,8,0:0:0:0:
256,192,119129,1,0,0:0:0:0:
256,192,119203,1,8,0:0:0:0:
256,192,119252,1,8,0:0:0:0:
256,192,119302,1,8,0:0:0:0:
256,192,119351,1,0,0:0:0:0:
256,192,121579,1,8,0:0:0:0:
256,192,121653,1,8,0:0:0:0:
256,192,121728,1,0,0:0:0:0:
256,192,133609,5,8,0:0:0:0:
256,192,134351,1,0,0:0:0:0:
256,192,134500,1,8,0:0:0:0:
256,192,134648,1,8,0:0:0:0:
256,192,134797,1,0,0:0:0:0:
256,192,135094,1,0,0:0:0:0:
256,192,135391,1,8,0:0:0:0:
256,192,135688,1,8,0:0:0:0:
256,192,135985,1,0,0:0:0:0:
256,192,136431,1,8,0:0:0:0:
256,192,137173,1,0,0:0:0:0:
256,192,137767,1,0,0:0:0:0:
256,192,138361,1,12,0:0:0:0:
256,192,138807,1,0,0:0:0:0:
256,192,138881,1,0,0:0:0:0:
256,192,138955,1,12,0:0:0:0:
256,192,139401,1,0,0:0:0:0:
256,192,139475,1,0,0:0:0:0:
256,192,139549,1,12,0:0:0:0:
256,192,139747,1,4,0:0:0:0:
256,192,139945,1,4,0:0:0:0:
256,192,140143,1,12,0:0:0:0:
256,192,140341,1,12,0:0:0:0:
256,192,140540,1,4,0:0:0:0:
256,192,140738,1,12,0:0:0:0:
256,192,141183,1,0,0:0:0:0:
256,192,141629,1,0,0:0:0:0:
256,192,141777,1,12,0:0:0:0:
256,192,142074,1,0,0:0:0:0:
256,192,142223,1,0,0:0:0:0:
256,192,142371,1,0,0:0:0:0:
256,192,142520,1,8,0:0:0:0:
256,192,142668,1,0,0:0:0:0:
256,192,142817,1,0,0:0:0:0:
256,192,142965,1,0,0:0:0:0:
256,192,143114,1,8,0:0:0:0:
256,192,143262,1,0,0:0:0:0:
256,192,143411,1,0,0:0:0:0:
256,192,143559,1,0,0:0:0:0:
256,192,143708,1,8,0:0:0:0:
256,192,143856,1,0,0:0:0:0:
256,192,144005,1,0,0:0:0:0:
256,192,144153,1,0,0:0:0:0:
256,192,144302,1,8,0:0:0:0:
256,192,144450,1,8,0:0:0:0:
256,192,144525,1,0,0:0:0:0:
256,192,144599,1,8,0:0:0:0:
256,192,144747,1,8,0:0:0:0:
256,192,144896,1,8,0:0:0:0:
256,192,145044,1,8,0:0:0:0:
256,192,145119,1,0,0:0:0:0:
256,192,145193,1,8,0:0:0:0:
256,192,145341,1,8,0:0:0:0:
256,192,145490,1,8,0:0:0:0:
256,192,145540,1,8,0:0:0:0:
256,192,145589,1,8,0:0:0:0:
256,192,145639,1,0,0:0:0:0:
256,192,145713,1,0,0:0:0:0:
256,192,145787,1,12,0:0:0:0:
256,192,145936,1,0,0:0:0:0:
256,192,146084,1,12,0:0:0:0:
256,192,146233,1,0,0:0:0:0:
256,192,146307,1,0,0:0:0:0:
256,192,146381,1,12,0:0:0:0:
256,192,146530,1,8,0:0:0:0:
256,192,146678,1,4,0:0:0:0:
256,192,146975,1,0,0:0:0:0:
256,192,147124,1,0,0:0:0:0:
256,192,147272,1,8,0:0:0:0:
256,192,147421,1,0,0:0:0:0:
256,192,147569,1,8,0:0:0:0:
256,192,147643,1,8,0:0:0:0:
256,192,147718,1,0,0:0:0:0:
256,192,147866,1,8,0:0:0:0:
256,192,148015,1,0,0:0:0:0:
256,192,148163,1,8,0:0:0:0:
256,192,148238,1,0,0:0:0:0:
256,192,148312,1,8,0:0:0:0:
256,192,148386,1,8,0:0:0:0:
256,192,148460,1,0,0:0:0:0:
256,192,148535,1,0,0:0:0:0:
256,192,148609,1,8,0:0:0:0:
256,192,148683,1,0,0:0:0:0:
256,192,148757,1,0,0:0:0:0:
256,192,148832,1,8,0:0:0:0:
256,192,148906,1,8,0:0:0:0:
256,192,148980,1,0,0:0:0:0:
256,192,149054,1,8,0:0:0:0:
256,192,149203,1,0,0:0:0:0:
256,192,149351,1,8,0:0:0:0:
256,192,149426,1,8,0:0:0:0:
256,192,149500,1,0,0:0:0:0:
256,192,149648,1,0,0:0:0:0:
256,192,149797,1,8,0:0:0:0:
256,192,149871,1,0,0:0:0:0:
256,192,149945,1,8,0:0:0:0:
256,192,150094,1,0,0:0:0:0:
256,192,150168,1,8,0:0:0:0:
256,192,150242,1,0,0:0:0:0:
256,192,150391,1,8,0:0:0:0:
256,192,150540,1,0,0:0:0:0:
256,192,150614,1,0,0:0:0:0:
256,192,150688,1,8,0:0:0:0:
256,192,150837,1,0,0:0:0:0:
256,192,150985,1,8,0:0:0:0:
256,192,151059,1,8,0:0:0:0:
256,192,151134,1,0,0:0:0:0:
256,192,151208,1,8,0:0:0:0:
256,192,151282,1,0,0:0:0:0:
256,192,151356,1,0,0:0:0:0:
256,192,151431,1,8,0:0:0:0:
256,192,151579,1,0,0:0:0:0:
256,192,151653,1,8,0:0:0:0:
256,192,151728,1,8,0:0:0:0:
256,192,151876,1,0,0:0:0:0:
256,192,152025,1,8,0:0:0:0:
256,192,152099,1,0,0:0:0:0:
256,192,152173,1,8,0:0:0:0:
256,192,152322,1,0,0:0:0:0:
256,192,152470,1,0,0:0:0:0:
256,192,152544,1,0,0:0:0:0:
256,192,152619,1,8,0:0:0:0:
256,192,152767,1,0,0:0:0:0:
256,192,152841,1,0,0:0:0:0:
256,192,152916,1,8,0:0:0:0:
256,192,152990,1,0,0:0:0:0:
256,192,153064,1,0,0:0:0:0:
256,192,153139,1,8,0:0:0:0:
256,192,153213,1,8,0:0:0:0:
256,192,153287,1,0,0:0:0:0:
256,192,153361,1,8,0:0:0:0:
256,192,153436,1,8,0:0:0:0:
256,192,153510,1,0,0:0:0:0:
256,192,153584,1,8,0:0:0:0:
256,192,153658,1,0,0:0:0:0:
256,192,153733,1,0,0:0:0:0:
256,192,153807,1,12,0:0:0:0:
256,192,153955,1,0,0:0:0:0:
256,192,154030,1,0,0:0:0:0:
256,192,154104,1,8,0:0:0:0:
256,192,154178,1,8,0:0:0:0:
256,192,154252,1,0,0:0:0:0:
256,192,154327,1,8,0:0:0:0:
256,192,154401,1,0,0:0:0:0:
256,192,154475,1,0,0:0:0:0:
256,192,154549,1,8,0:0:0:0:
256,192,154624,1,8,0:0:0:0:
256,192,154698,1,0,0:0:0:0:
256,192,154772,1,8,0:0:0:0:
256,192,154846,1,8,0:0:0:0:
256,192,154921,1,0,0:0:0:0:
256,192,154995,1,12,0:0:0:0:
256,192,155143,1,0,0:0:0:0:
256,192,155292,1,8,0:0:0:0:
256,192,155366,1,8,0:0:0:0:
256,192,155440,1,0,0:0:0:0:
256,192,155589,1,8,0:0:0:0:
256,192,155663,1,0,0:0:0:0:
256,192,155812,1,0,0:0:0:0:
256,192,155886,1,8,0:0:0:0:
256,192,156035,1,8,0:0:0:0:
256,192,156183,1,4,0:0:0:0:
256,192,156332,1,0,0:0:0:0:
256,192,156480,1,8,0:0:0:0:
256,192,156554,1,0,0:0:0:0:
256,192,156629,1,0,0:0:0:0:
256,192,156703,1,8,0:0:0:0:
256,192,156777,1,8,0:0:0:0:
256,192,156851,1,0,0:0:0:0:
256,192,156926,1,0,0:0:0:0:
256,192,157000,1,8,0:0:0:0:
256,192,157074,1,8,0:0:0:0:
256,192,157148,1,0,0:0:0:0:
256,192,157223,1,0,0:0:0:0:
256,192,157297,1,8,0:0:0:0:
256,192,157371,1,8,0:0:0:0:
256,192,157445,1,0,0:0:0:0:
256,192,157520,1,8,0:0:0:0:
256,192,157594,1,0,0:0:0:0:
256,192,157668,1,8,0:0:0:0:
256,192,157742,1,8,0:0:0:0:
256,192,157817,1,0,0:0:0:0:
256,192,157891,1,0,0:0:0:0:
256,192,157965,1,8,0:0:0:0:
256,192,158040,1,0,0:0:0:0:
256,192,158114,1,8,0:0:0:0:
256,192,158188,1,8,0:0:0:0:
256,192,158262,1,0,0:0:0:0:
256,192,158337,1,8,0:0:0:0:
256,192,158411,1,0,0:0:0:0:
256,192,158485,1,0,0:0:0:0:
256,192,158559,1,12,0:0:0:0:
256,192,158708,1,0,0:0:0:0:
256,192,158782,1,8,0:0:0:0:
256,192,158856,1,0,0:0:0:0:
256,192,158931,1,8,0:0:0:0:
256,192,159005,1,8,0:0:0:0:
256,192,159079,1,0,0:0:0:0:
256,192,159153,1,8,0:0:0:0:
256,192,159228,1,0,0:0:0:0:
256,192,159302,1,8,0:0:0:0:
256,192,159376,1,0,0:0:0:0:
256,192,159450,1,8,0:0:0:0:
256,192,159525,1,8,0:0:0:0:
256,192,159599,1,0,0:0:0:0:
256,192,159673,1,0,0:0:0:0:
256,192,159747,1,12,0:0:0:0:
256,192,159896,1,0,0:0:0:0:
256,192,160044,1,8,0:0:0:0:
256,192,160119,1,8,0:0:0:0:
256,192,160193,1,0,0:0:0:0:
256,192,160341,1,12,0:0:0:0:
256,192,160490,1,0,0:0:0:0:
256,192,160564,1,0,0:0:0:0:
256,192,160639,1,8,0:0:0:0:
256,192,160713,1,8,0:0:0:0:
256,192,160787,1,0,0:0:0:0:
256,192,160837,1,0,0:0:0:0:
256,192,160886,1,0,0:0:0:0:
256,192,160936,1,12,0:0:0:0:
256,192,161084,1,0,0:0:0:0:
256,192,161233,1,8,0:0:0:0:
256,192,161307,1,0,0:0:0:0:
256,192,161381,1,8,0:0:0:0:
256,192,161530,1,0,0:0:0:0:
256,192,161678,1,8,0:0:0:0:
256,192,161752,1,0,0:0:0:0:
256,192,161827,1,8,0:0:0:0:
256,192,161901,1,8,0:0:0:0:
256,192,161975,1,0,0:0:0:0:
256,192,162049,1,0,0:0:0:0:
256,192,162124,1,12,0:0:0:0:
256,192,162272,1,0,0:0:0:0:
256,192,162346,1,0,0:0:0:0:
256,192,162421,1,8,0:0:0:0:
256,192,162569,1,8,0:0:0:0:
256,192,162643,1,0,0:0:0:0:
256,192,162718,1,8,0:0:0:0:
256,192,162767,1,8,0:0:0:0:
256,192,162817,1,8,0:0:0:0:
256,192,162866,1,0,0:0:0:0:
256,192,162940,1,0,0:0:0:0:
256,192,163015,1,8,0:0:0:0:
256,192,163163,1,0,0:0:0:0:
256,192,163213,1,0,0:0:0:0:
256,192,163262,1,0,0:0:0:0:
256,192,163312,1,8,0:0:0:0:
256,192,163460,1,8,0:0:0:0:
256,192,163510,1,8,0:0:0:0:
256,192,163559,1,8,0:0:0:0:
256,192,163609,1,0,0:0:0:0:
256,192,163683,1,0,0:0:0:0:
256,192,163757,1,8,0:0:0:0:
256,192,163807,1,0,0:0:0:0:
256,192,163856,1,0,0:0:0:0:
256,192,163906,1,8,0:0:0:0:
256,192,163980,1,8,0:0:0:0:
256,192,164054,1,0,0:0:0:0:
256,192,164104,1,8,0:0:0:0:
256,192,164153,1,8,0:0:0:0:
256,192,164203,1,0,0:0:0:0:
256,192,164277,1,8,0:0:0:0:
256,192,164351,1,0,0:0:0:0:
256,192,164500,1,8,0:0:0:0:
256,192,164574,1,8,0:0:0:0:
256,192,164648,1,8,0:0:0:0:
256,192,164723,1,8,0:0:0:0:
256,192,164797,1,8,0:0:0:0:
256,192,164945,1,0,0:0:0:0:
256,192,165020,1,0,0:0:0:0:
256,192,165094,1,0,0:0:0:0:
256,192,165168,1,0,0:0:0:0:
256,192,165242,1,0,0:0:0:0:
256,192,165391,1,8,0:0:0:0:
256,192,165440,1,8,0:0:0:0:
256,192,165490,1,0,0:0:0:0:
256,192,165540,1,0,0:0:0:0:
256,192,165688,1,12,0:0:0:0:
256,192,166134,1,0,0:0:0:0:
256,192,166431,1,0,0:0:0:0:
256,192,166579,1,8,0:0:0:0:
256,192,166876,1,0,0:0:0:0:
256,192,167173,1,8,0:0:0:0:
256,192,167322,1,0,0:0:0:0:
256,192,167619,1,0,0:0:0:0:
256,192,167767,1,8,0:0:0:0:
256,192,168064,1,0,0:0:0:0:
256,192,168287,1,0,0:0:0:0:
256,192,168361,1,8,0:0:0:0:
256,192,168510,1,0,0:0:0:0:
256,192,168807,1,8,0:0:0:0:
256,192,168955,1,0,0:0:0:0:
256,192,169104,1,8,0:0:0:0:
256,192,169252,1,0,0:0:0:0:
256,192,169549,1,8,0:0:0:0:
256,192,169698,1,0,0:0:0:0:
256,192,169846,1,0,0:0:0:0:
256,192,169921,1,8,0:0:0:0:
256,192,170069,1,8,0:0:0:0:
256,192,170143,1,0,0:0:0:0:
256,192,170292,1,8,0:0:0:0:
256,192,170440,1,4,0:0:0:0:
256,192,170663,1,0,0:0:0:0:
256,192,170886,1,8,0:0:0:0:
256,192,171035,1,0,0:0:0:0:
256,192,171257,1,0,0:0:0:0:
256,192,171480,1,8,0:0:0:0:
256,192,171554,1,8,0:0:0:0:
256,192,171629,1,4,0:0:0:0:
256,192,171851,1,8,0:0:0:0:
256,192,172074,1,8,0:0:0:0:
256,192,172223,1,0,0:0:0:0:
256,192,172371,1,0,0:0:0:0:
256,192,172520,1,8,0:0:0:0:
256,192,172668,1,8,0:0:0:0:
256,192,172742,1,8,0:0:0:0:
256,192,172817,1,4,0:0:0:0:
256,192,172965,1,4,0:0:0:0:
256,192,173114,1,8,0:0:0:0:
256,192,173262,1,8,0:0:0:0:
256,192,173337,1,8,0:0:0:0:
256,192,173411,1,4,0:0:0:0:
256,192,173559,1,4,0:0:0:0:
256,192,173708,1,8,0:0:0:0:
256,192,173856,1,8,0:0:0:0:
256,192,173931,1,8,0:0:0:0:
256,192,174005,1,0,0:0:0:0:
256,192,174104,1,8,0:0:0:0:
256,192,174203,1,0,0:0:0:0:
256,192,174302,1,8,0:0:0:0:
256,192,174401,1,0,0:0:0:0:
256,192,174500,1,8,0:0:0:0:
256,192,174599,1,0,0:0:0:0:
256,192,174648,1,8,0:0:0:0:
256,192,174698,1,8,0:0:0:0:
256,192,174747,1,0,0:0:0:0:
256,192,174822,1,0,0:0:0:0:
256,192,174896,1,12,0:0:0:0:
256,192,175193,1,8,0:0:0:0:
256,192,175242,1,8,0:0:0:0:
256,192,175292,1,8,0:0:0:0:
256,192,175341,1,0,0:0:0:0:
256,192,175490,1,12,0:0:0:0:
256,192,175787,1,8,0:0:0:0:
256,192,176084,1,8,0:0:0:0:
256,192,176381,1,8,0:0:0:0:
256,192,176678,1,8,0:0:0:0:
256,192,176975,1,8,0:0:0:0:
256,192,177272,1,8,0:0:0:0:
256,192,177421,1,0,0:0:0:0:
256,192,177495,1,0,0:0:0:0:
256,192,177569,1,8,0:0:0:0:
256,192,177718,1,8,0:0:0:0:
256,192,177866,1,0,0:0:0:0:
256,192,178015,1,0,0:0:0:0:
256,192,178089,1,8,0:0:0:0:
256,192,178163,1,8,0:0:0:0:
256,192,178312,1,8,0:0:0:0:
256,192,178460,1,0,0:0:0:0:
256,192,178609,1,0,0:0:0:0:
256,192,178683,1,0,0:0:0:0:
256,192,178757,1,8,0:0:0:0:
256,192,178832,1,8,0:0:0:0:
256,192,178906,1,0,0:0:0:0:
256,192,178980,1,0,0:0:0:0:
256,192,179054,1,8,0:0:0:0:
256,192,179129,1,8,0:0:0:0:
256,192,179203,1,8,0:0:0:0:
256,192,179277,1,0,0:0:0:0:
256,192,179351,1,8,0:0:0:0:
256,192,179401,1,8,0:0:0:0:
256,192,179450,1,8,0:0:0:0:
256,192,179500,1,0,0:0:0:0:
256,192,179574,1,0,0:0:0:0:
256,192,179648,1,8,0:0:0:0:
256,192,179698,1,0,0:0:0:0:
256,192,179747,1,0,0:0:0:0:
256,192,179797,1,8,0:0:0:0:
256,192,179846,1,8,0:0:0:0:
256,192,179896,1,8,0:0:0:0:
256,192,179945,1,4,0:0:0:0:
256,192,180143,1,8,0:0:0:0:
256,192,180341,1,8,0:0:0:0:
256,192,180440,1,8,0:0:0:0:
256,192,180540,1,0,0:0:0:0:
256,192,180738,1,8,0:0:0:0:
256,192,180936,1,8,0:0:0:0:
256,192,181035,1,0,0:0:0:0:
256,192,181134,1,8,0:0:0:0:
256,192,181233,1,8,0:0:0:0:
256,192,181332,1,0,0:0:0:0:
256,192,181431,1,0,0:0:0:0:
256,192,181530,1,8,0:0:0:0:
256,192,181629,1,0,0:0:0:0:
256,192,181728,1,8,0:0:0:0:
256,192,181827,1,0,0:0:0:0:
256,192,181926,1,8,0:0:0:0:
256,192,182025,1,8,0:0:0:0:
256,192,182124,1,0,0:0:0:0:
256,192,182223,1,0,0:0:0:0:
256,192,182322,1,12,0:0:0:0:
256,192,182916,1,8,0:0:0:0:
256,192,183213,1,0,0:0:0:0:
256,192,183510,1,0,0:0:0:0:
256,192,183584,1,8,0:0:0:0:
256,192,183658,1,8,0:0:0:0:
256,192,183733,1,0,0:0:0:0:
256,192,183807,1,8,0:0:0:0:
256,192,183955,1,8,0:0:0:0:
256,192,184030,1,0,0:0:0:0:
256,192,184104,1,8,0:0:0:0:
256,192,184178,1,8,0:0:0:0:
256,192,184252,1,0,0:0:0:0:
256,192,184401,1,0,0:0:0:0:
256,192,184475,1,0,0:0:0:0:
256,192,184549,1,8,0:0:0:0:
256,192,184624,1,8,0:0:0:0:
256,192,184698,1,0,0:0:0:0:
256,192,184747,1,0,0:0:0:0:
256,192,184797,1,0,0:0:0:0:
256,192,184846,1,0,0:0:0:0:
256,192,184896,1,0,0:0:0:0:
256,192,184945,1,0,0:0:0:0:
256,192,184995,1,12,0:0:0:0:
256,192,185143,1,0,0:0:0:0:
256,192,185292,1,8,0:0:0:0:
256,192,185440,1,8,0:0:0:0:
256,192,185515,1,0,0:0:0:0:
256,192,185589,1,8,0:0:0:0:
256,192,185663,1,0,0:0:0:0:
256,192,185738,1,8,0:0:0:0:
256,192,185812,1,8,0:0:0:0:
256,192,185886,1,0,0:0:0:0:
256,192,186035,1,0,0:0:0:0:
256,192,186084,1,8,0:0:0:0:
256,192,186134,1,8,0:0:0:0:
256,192,186183,1,0,0:0:0:0:
256,192,186332,1,8,0:0:0:0:
256,192,186480,1,0,0:0:0:0:
256,192,186629,1,8,0:0:0:0:
256,192,186703,1,8,0:0:0:0:
256,192,186777,1,8,0:0:0:0:
256,192,186851,1,0,0:0:0:0:
256,192,186926,1,8,0:0:0:0:
256,192,187000,1,8,0:0:0:0:
256,192,187074,1,0,0:0:0:0:
256,192,187223,1,0,0:0:0:0:
256,192,187297,1,8,0:0:0:0:
256,192,187371,1,0,0:0:0:0:
256,192,187445,1,0,0:0:0:0:
256,192,187520,1,8,0:0:0:0:
256,192,187668,1,0,0:0:0:0:
256,192,187817,1,8,0:0:0:0:
256,192,187891,1,0,0:0:0:0:
256,192,187965,1,8,0:0:0:0:
256,192,188040,1,8,0:0:0:0:
256,192,188114,1,0,0:0:0:0:
256,192,188188,1,0,0:0:0:0:
256,192,188262,1,8,0:0:0:0:
256,192,188411,1,0,0:0:0:0:
256,192,188559,1,8,0:0:0:0:
256,192,188634,1,0,0:0:0:0:
256,192,188708,1,8,0:0:0:0:
256,192,188856,1,0,0:0:0:0:
256,192,189005,1,8,0:0:0:0:
256,192,189079,1,8,0:0:0:0:
256,192,189153,1,0,0:0:0:0:
256,192,189228,1,8,0:0:0:0:
256,192,189302,1,0,0:0:0:0:
256,192,189376,1,0,0:0:0:0:
256,192,189450,1,12,0:0:0:0:
256,192,189599,1,0,0:0:0:0:
256,192,189673,1,8,0:0:0:0:
256,192,189747,1,0,0:0:0:0:
256,192,189822,1,0,0:0:0:0:
256,192,189896,1,8,0:0:0:0:
256,192,190044,1,12,0:0:0:0:
256,192,190193,1,0,0:0:0:0:
256,192,190267,1,8,0:0:0:0:
256,192,190341,1,8,0:0:0:0:
256,192,190416,1,0,0:0:0:0:
256,192,190490,1,8,0:0:0:0:
256,192,190639,1,12,0:0:0:0:
256,192,190787,1,8,0:0:0:0:
256,192,190861,1,0,0:0:0:0:
256,192,190936,1,8,0:0:0:0:
256,192,191010,1,8,0:0:0:0:
256,192,191084,1,0,0:0:0:0:
256,192,191158,1,8,0:0:0:0:
256,192,191233,1,0,0:0:0:0:
256,192,191307,1,0,0:0:0:0:
256,192,191381,1,8,0:0:0:0:
256,192,191455,1,0,0:0:0:0:
256,192,191530,1,8,0:0:0:0:
256,192,191604,1,0,0:0:0:0:
256,192,191678,1,8,0:0:0:0:
256,192,191752,1,8,0:0:0:0:
256,192,191827,1,0,0:0:0:0:
256,192,191901,1,0,0:0:0:0:
256,192,191975,1,0,0:0:0:0:
256,192,192049,1,0,0:0:0:0:
256,192,192124,1,8,0:0:0:0:
256,192,192198,1,8,0:0:0:0:
256,192,192272,1,0,0:0:0:0:
256,192,192346,1,0,0:0:0:0:
256,192,192421,1,8,0:0:0:0:
256,192,192569,1,0,0:0:0:0:
256,192,192619,1,0,0:0:0:0:
256,192,192668,1,0,0:0:0:0:
256,192,192718,1,8,0:0:0:0:
256,192,192866,1,8,0:0:0:0:
256,192,192916,1,8,0:0:0:0:
256,192,192965,1,8,0:0:0:0:
256,192,193015,1,0,0:0:0:0:
256,192,193114,1,8,0:0:0:0:
256,192,193213,1,0,0:0:0:0:
256,192,193312,1,8,0:0:0:0:
256,192,193411,1,0,0:0:0:0:
256,192,193510,1,8,0:0:0:0:
256,192,193609,1,0,0:0:0:0:
256,192,193658,1,8,0:0:0:0:
256,192,193708,1,8,0:0:0:0:
256,192,193757,1,0,0:0:0:0:
256,192,193832,1,0,0:0:0:0:
256,192,193906,1,12,0:0:0:0:
256,192,194203,1,0,0:0:0:0:
256,192,194252,1,0,0:0:0:0:
256,192,194302,1,0,0:0:0:0:
256,192,194351,1,0,0:0:0:0:
256,192,194401,1,0,0:0:0:0:
256,192,194450,1,0,0:0:0:0:
256,192,194500,1,12,0:0:0:0:
256,192,194648,1,4,0:0:0:0:
256,192,194945,1,0,0:0:0:0:
256,192,195020,1,0,0:0:0:0:
256,192,195094,1,12,0:0:0:0:
256,192,195242,1,8,0:0:0:0:
256,192,195317,1,0,0:0:0:0:
256,192,195391,1,8,0:0:0:0:
256,192,195540,1,4,0:0:0:0:
256,192,195688,1,8,0:0:0:0:
256,192,195762,1,8,0:0:0:0:
256,192,195837,1,0,0:0:0:0:
256,192,195985,1,12,0:0:0:0:
256,192,196134,1,0,0:0:0:0:
256,192,196208,1,8,0:0:0:0:
256,192,196282,1,4,0:0:0:0:
256,192,196431,1,0,0:0:0:0:
256,192,196505,1,0,0:0:0:0:
256,192,196579,1,8,0:0:0:0:
256,192,196653,1,8,0:0:0:0:
256,192,196728,1,0,0:0:0:0:
256,192,196802,1,0,0:0:0:0:
256,192,196876,1,8,0:0:0:0:
256,192,196950,1,8,0:0:0:0:
256,192,197025,1,8,0:0:0:0:
256,192,197099,1,0,0:0:0:0:
256,192,197173,1,8,0:0:0:0:
256,192,197247,1,8,0:0:0:0:
256,192,197322,1,0,0:0:0:0:
256,192,197396,1,8,0:0:0:0:
256,192,197470,1,0,0:0:0:0:
256,192,197520,1,0,0:0:0:0:
256,192,197569,1,0,0:0:0:0:
256,192,197619,1,8,0:0:0:0:
256,192,197693,1,0,0:0:0:0:
256,192,197767,1,8,0:0:0:0:
256,192,197841,1,8,0:0:0:0:
256,192,197916,1,0,0:0:0:0:
256,192,197990,1,0,0:0:0:0:
256,192,198064,1,8,0:0:0:0:
256,192,198139,1,8,0:0:0:0:
256,192,198213,1,0,0:0:0:0:
256,192,198262,1,8,0:0:0:0:
256,192,198312,1,8,0:0:0:0:
256,192,198361,1,0,0:0:0:0:
256,192,198510,1,8,0:0:0:0:
256,192,198559,1,0,0:0:0:0:
256,192,198609,1,0,0:0:0:0:
256,192,198658,1,8,0:0:0:0:
256,192,198733,1,0,0:0:0:0:
256,192,198807,1,8,0:0:0:0:
256,192,198856,1,8,0:0:0:0:
256,192,198906,1,8,0:0:0:0:
256,192,198955,1,4,0:0:0:0:
256,192,199104,1,0,0:0:0:0:
256,192,199178,1,8,0:0:0:0:
256,192,199327,1,8,0:0:0:0:
256,192,199401,1,0,0:0:0:0:
256,192,199475,1,0,0:0:0:0:
256,192,199549,1,8,0:0:0:0:
256,192,199624,1,8,0:0:0:0:
256,192,199698,1,0,0:0:0:0:
256,192,199772,1,8,0:0:0:0:
256,192,199921,1,0,0:0:0:0:
256,192,199995,1,8,0:0:0:0:
256,192,200069,1,0,0:0:0:0:
256,192,200143,1,8,0:0:0:0:
256,192,200218,1,8,0:0:0:0:
256,192,200292,1,8,0:0:0:0:
256,192,200366,1,0,0:0:0:0:
256,192,200515,1,0,0:0:0:0:
256,192,200589,1,8,0:0:0:0:
256,192,200663,1,0,0:0:0:0:
256,192,200738,1,8,0:0:0:0:
256,192,200812,1,8,0:0:0:0:
256,192,200886,1,0,0:0:0:0:
256,192,200960,1,8,0:0:0:0:
256,192,201035,1,0,0:0:0:0:
256,192,201109,1,0,0:0:0:0:
256,192,201183,1,8,0:0:0:0:
256,192,201257,1,8,0:0:0:0:
256,192,201332,1,4,0:0:0:0:
256,192,201480,1,0,0:0:0:0:
256,192,201554,1,8,0:0:0:0:
256,192,201703,1,8,0:0:0:0:
256,192,201777,1,0,0:0:0:0:
256,192,201851,1,0,0:0:0:0:
256,192,201926,1,8,0:0:0:0:
256,192,202000,1,8,0:0:0:0:
256,192,202074,1,0,0:0:0:0:
256,192,202148,1,8,0:0:0:0:
256,192,202297,1,0,0:0:0:0:
256,192,202371,1,8,0:0:0:0:
256,192,202445,1,0,0:0:0:0:
256,192,202520,1,8,0:0:0:0:
256,192,202668,1,0,0:0:0:0:
256,192,202742,1,0,0:0:0:0:
256,192,202817,1,8,0:0:0:0:
256,192,202891,1,8,0:0:0:0:
256,192,202965,1,0,0:0:0:0:
256,192,203114,1,8,0:0:0:0:
256,192,203188,1,0,0:0:0:0:
256,192,203337,1,0,0:0:0:0:
256,192,203411,1,8,0:0:0:0:
256,192,203559,1,8,0:0:0:0:
256,192,203609,1,8,0:0:0:0:
256,192,203658,1,8,0:0:0:0:
256,192,203708,1,4,0:0:0:0:
256,192,203906,1,8,0:0:0:0:
256,192,204104,1,8,0:0:0:0:
256,192,204203,1,8,0:0:0:0:
256,192,204302,1,0,0:0:0:0:
256,192,204500,1,8,0:0:0:0:
256,192,204698,1,8,0:0:0:0:
256,192,204797,1,0,0:0:0:0:
256,192,204896,1,8,0:0:0:0:
256,192,204995,1,8,0:0:0:0:
256,192,205094,1,0,0:0:0:0:
256,192,205193,1,0,0:0:0:0:
256,192,205292,1,8,0:0:0:0:
256,192,205391,1,0,0:0:0:0:
256,192,205490,1,8,0:0:0:0:
256,192,205589,1,0,0:0:0:0:
256,192,205688,1,8,0:0:0:0:
256,192,205787,1,8,0:0:0:0:
256,192,205886,1,0,0:0:0:0:
256,192,205985,1,0,0:0:0:0:
256,192,206084,1,12,0:0:0:0:
256,192,206678,1,8,0:0:0:0:
256,192,206975,1,0,0:0:0:0:
256,192,207272,1,0,0:0:0:0:
256,192,207346,1,0,0:0:0:0:
256,192,207421,1,8,0:0:0:0:
256,192,207495,1,8,0:0:0:0:
256,192,207569,1,0,0:0:0:0:
256,192,207718,1,8,0:0:0:0:
256,192,207792,1,8,0:0:0:0:
256,192,207866,1,0,0:0:0:0:
256,192,207941,1,0,0:0:0:0:
256,192,208015,1,8,0:0:0:0:
256,192,208163,1,0,0:0:0:0:
256,192,208460,1,12,0:0:0:0:
256,192,208609,1,0,0:0:0:0:
256,192,208683,1,0,0:0:0:0:
256,192,208757,1,0,0:0:0:0:
256,192,208906,1,8,0:0:0:0:
256,192,209054,1,0,0:0:0:0:
256,192,209129,1,8,0:0:0:0:
256,192,209203,1,0,0:0:0:0:
256,192,209351,1,8,0:0:0:0:
256,192,209500,1,0,0:0:0:0:
256,192,209574,1,0,0:0:0:0:
256,192,209648,1,0,0:0:0:0:
256,192,209797,1,8,0:0:0:0:
256,192,209945,1,8,0:0:0:0:
256,192,210020,1,0,0:0:0:0:
256,192,210094,1,8,0:0:0:0:
256,192,210168,1,8,0:0:0:0:
256,192,210242,1,0,0:0:0:0:
256,192,210391,1,0,0:0:0:0:
256,192,210465,1,0,0:0:0:0:
256,192,210540,1,8,0:0:0:0:
256,192,210614,1,8,0:0:0:0:
256,192,210688,1,0,0:0:0:0:
256,192,210837,1,8,0:0:0:0:
256,192,210911,1,8,0:0:0:0:
256,192,210985,1,0,0:0:0:0:
256,192,211059,1,8,0:0:0:0:
256,192,211134,1,0,0:0:0:0:
256,192,211208,1,0,0:0:0:0:
256,192,211282,1,8,0:0:0:0:
256,192,211431,1,0,0:0:0:0:
256,192,211505,1,0,0:0:0:0:
256,192,211579,1,8,0:0:0:0:
256,192,211728,1,0,0:0:0:0:
256,192,211876,1,8,0:0:0:0:
256,192,211950,1,8,0:0:0:0:
256,192,212024,1,0,0:0:0:0:
256,192,212173,1,8,0:0:0:0:
256,192,212322,1,0,0:0:0:0:
256,192,212396,1,8,0:0:0:0:
256,192,212470,1,0,0:0:0:0:
256,192,212619,1,8,0:0:0:0:
256,192,212693,1,8,0:0:0:0:
256,192,212767,1,0,0:0:0:0:
256,192,212841,1,0,0:0:0:0:
256,192,212916,1,8,0:0:0:0:
256,192,212990,1,0,0:0:0:0:
256,192,213064,1,8,0:0:0:0:
256,192,213510,1,8,0:0:0:0:
256,192,213659,1,8,0:0:0:0:
256,192,213807,1,0,0:0:0:0:
256,192,213881,1,8,0:0:0:0:
256,192,213955,1,0,0:0:0:0:
256,192,214104,1,8,0:0:0:0:
256,192,214252,1,0,0:0:0:0:
256,192,214327,1,0,0:0:0:0:
256,192,214401,1,8,0:0:0:0:
256,192,214549,1,8,0:0:0:0:
256,192,214624,1,0,0:0:0:0:
256,192,214698,1,8,0:0:0:0:
256,192,214772,1,8,0:0:0:0:
256,192,214846,1,0,0:0:0:0:
256,192,214995,1,8,0:0:0:0:
256,192,215069,1,8,0:0:0:0:
256,192,215143,1,0,0:0:0:0:
256,192,215218,1,0,0:0:0:0:
256,192,215292,1,8,0:0:0:0:
256,192,215440,1,0,0:0:0:0:
256,192,215589,1,12,0:0:0:0:
256,192,215738,1,8,0:0:0:0:
256,192,215812,1,8,0:0:0:0:
256,192,215886,1,0,0:0:0:0:
256,192,216035,1,12,0:0:0:0:
256,192,216332,1,8,0:0:0:0:
256,192,216406,1,8,0:0:0:0:
256,192,216480,1,0,0:0:0:0:
256,192,216629,1,12,0:0:0:0:
256,192,216926,1,0,0:0:0:0:
256,192,217000,1,0,0:0:0:0:
256,192,217074,1,8,0:0:0:0:
256,192,217223,1,12,0:0:0:0:
256,192,217371,1,0,0:0:0:0:
256,192,217520,1,12,0:0:0:0:
256,192,217817,1,8,0:0:0:0:
256,192,217891,1,8,0:0:0:0:
256,192,217965,1,0,0:0:0:0:
256,192,218262,1,8,0:0:0:0:
256,192,218411,1,0,0:0:0:0:
256,192,218708,1,0,0:0:0:0:
256,192,218856,1,8,0:0:0:0:
256,192,219153,1,0,0:0:0:0:
256,192,219302,1,8,0:0:0:0:
256,192,219450,1,8,0:0:0:0:
256,192,219599,1,0,0:0:0:0:
256,192,219747,1,8,0:0:0:0:
256,192,219896,1,8,0:0:0:0:
256,192,220044,1,0,0:0:0:0:
256,192,220193,1,0,0:0:0:0:
256,192,220341,1,8,0:0:0:0:
256,192,220416,1,0,0:0:0:0:
256,192,220490,1,8,0:0:0:0:
256,192,220564,1,8,0:0:0:0:
256,192,220639,1,0,0:0:0:0:
256,192,221084,1,0,0:0:0:0:
256,192,221233,1,8,0:0:0:0:
256,192,221530,1,0,0:0:0:0:
256,192,221678,1,0,0:0:0:0:
256,192,221827,1,8,0:0:0:0:
256,192,221975,1,0,0:0:0:0:
256,192,222124,1,8,0:0:0:0:
256,192,222272,1,0,0:0:0:0:
256,192,222421,1,8,0:0:0:0:
256,192,222569,1,8,0:0:0:0:
256,192,222718,1,12,0:0:0:0:
256,192,222866,1,0,0:0:0:0:
256,192,223015,1,8,0:0:0:0:
256,192,223163,1,0,0:0:0:0:
256,192,223312,1,8,0:0:0:0:
256,192,223460,1,0,0:0:0:0:
256,192,223609,1,8,0:0:0:0:
256,192,223757,1,0,0:0:0:0:
256,192,223906,1,8,0:0:0:0:
256,192,223980,1,8,0:0:0:0:
256,192,224054,1,0,0:0:0:0:
256,192,224129,1,0,0:0:0:0:
256,192,224203,1,8,0:0:0:0:
256,192,224277,1,8,0:0:0:0:
256,192,224351,1,0,0:0:0:0:
256,192,224426,1,0,0:0:0:0:
256,192,224500,1,8,0:0:0:0:
256,192,224574,1,8,0:0:0:0:
256,192,224648,1,0,0:0:0:0:
256,192,224723,1,0,0:0:0:0:
256,192,224797,1,8,0:0:0:0:
256,192,224871,1,0,0:0:0:0:
256,192,224945,1,8,0:0:0:0:
256,192,225020,1,8,0:0:0:0:
256,192,225094,1,4,0:0:0:0:
256,192,225985,1,0,0:0:0:0:
256,192,226059,1,0,0:0:0:0:
256,192,226134,1,0,0:0:0:0:
256,192,226208,1,0,0:0:0:0:
256,192,226282,1,12,0:0:0:0:
256,192,226480,1,12,0:0:0:0:
256,192,226678,1,4,0:0:0:0:
256,192,226876,1,12,0:0:0:0:
256,192,227074,1,12,0:0:0:0:
256,192,227272,1,12,0:0:0:0:
256,192,227470,1,0,0:0:0:0:
256,192,227767,5,12,0:0:0:0:
256,192,228213,1,0,0:0:0:0:
256,192,228250,1,0,0:0:0:0:
256,192,228658,1,0,0:0:0:0:
256,192,228695,1,8,0:0:0:0:
256,192,229104,1,8,0:0:0:0:
256,192,229141,1,8,0:0:0:0:
256,192,229252,12,8,229846,0:0:0:0:
