osu file format v14

[General]
AudioFilename: audio.mp3
AudioLeadIn: 0
PreviewTime: 124218
Countdown: 0
SampleSet: Soft
StackLeniency: 0.7
Mode: 0
LetterboxInBreaks: 0
WidescreenStoryboard: 0

[Editor]
Bookmarks: 8970
DistanceSpacing: 0.8
BeatDivisor: 4
GridSize: 32
TimelineZoom: 2.6

[Metadata]
Title:Xrocus
TitleUnicode:Xrocus
Artist:AAAA vs. Morimori Atsushi
ArtistUnicode:ああああ vs. モリモリあつし
Creator:-Syncro
Version:Sacrifice
Source:
Tags:AnimeStyle Shiitsuin chizu-kun Seijiro MrSergio Zekk Shiino FA featured artist electronic instrumental 非可逆リズム hikagyaku rhythm rizumu NNRR-0011 Ayatsugu_Otowa 梅干茶漬け 影虎。 cosMo@暴走P xac s-don hapi⇒ polysha 黄泉路テヂーモ umeboshi chazuke kagetora. cosMo@bousouP yomiji tejiimo Chizu Shii leomineXD
BeatmapID:3089701
BeatmapSetID:1508694

[Difficulty]
HPDrainRate:6.2
CircleSize:4.3
OverallDifficulty:9.4
ApproachRate:9.8
SliderMultiplier:2.6
SliderTickRate:1

[Events]
//Background and Video events
0,0,"Konachan.com - 325230 sample.jpg",0,0
//Break Periods
2,41250,47669
2,124218,137996
2,165802,170075
//Storyboard Layer 0 (Background)
//Storyboard Layer 1 (Fail)
//Storyboard Layer 2 (Pass)
//Storyboard Layer 3 (Foreground)
//Storyboard Layer 4 (Overlay)
//Storyboard Sound Samples

[TimingPoints]
654,297.029702970297,4,2,1,81,1,0
8970,-100,4,2,1,82,0,0
9861,-500,4,2,1,82,0,0
10158,-133.333333333333,4,2,1,75,0,0
13574,-100,4,2,1,75,0,0
15059,-181.818181818181,4,2,1,75,0,0
15208,-100,4,2,1,75,0,0
17287,-100,4,2,1,68,0,0
18475,-100,4,2,1,78,0,0
19366,-250,4,2,1,78,0,0
19663,-166.666666666667,4,2,1,78,0,0
19738,-166.666666666667,4,2,1,68,0,0
20703,-333.333333333334,4,2,1,68,0,0
21149,-200,4,2,1,68,0,0
23079,-333.333333333333,4,2,1,68,0,0
23822,-250,4,2,1,68,0,0
24416,-166.666666666667,4,2,1,68,0,0
24861,-250,4,2,1,68,0,0
26792,-333.333333333333,4,2,1,68,0,0
27832,-500,4,2,1,68,0,0
28871,-333.333333333333,4,2,1,68,0,0
29168,-200,4,2,1,68,0,0
31545,-100,4,2,1,75,0,0
32436,-200,4,2,1,75,0,0
32881,-200,4,2,1,70,0,0
33921,-200,4,2,1,75,0,0
36297,-100,4,2,1,80,0,0
36594,-133.333333333333,4,2,1,80,0,0
40158,-153.846153846153,4,2,1,80,0,0
48178,-133.333333333333,4,2,1,80,0,0
55307,-666.666666666658,4,2,1,72,0,0
57683,-666.666666666658,4,2,1,75,0,0
59465,-100,4,2,1,75,0,0
62436,-66.6666666666667,4,2,1,80,0,0
65109,-58.8235294117647,4,2,1,85,0,0
65406,-83.3333333333333,4,2,1,85,0,0
66446,-76.9230769230769,4,2,1,85,0,0
67188,-66.6666666666667,4,2,1,85,0,0
67411,-100,4,2,1,85,0,0
68376,-66.6666666666667,4,2,1,85,0,0
68525,-100,4,2,1,85,0,0
68822,-76.9230769230769,4,2,1,85,0,0
69564,-66.6666666666667,4,2,1,85,0,0
69861,-100,4,2,1,85,0,0
70158,-66.6666666666667,4,2,1,85,0,0
70455,-100,4,2,1,85,0,0
70753,-66.6666666666667,4,2,1,85,0,0
71050,-100,4,2,1,85,0,0
71347,-66.6666666666667,4,2,1,85,0,0
71792,-100,4,2,1,85,0,0
74020,-333.333333333333,4,2,1,80,0,0
74317,-66.6666666666667,4,2,1,80,0,0
74614,-58.8235294117647,4,2,1,85,0,0
74911,-100,4,2,1,85,0,0
75505,-66.6666666666667,4,2,1,85,0,0
75802,-100,4,2,1,85,0,0
75951,-76.9230769230769,4,2,1,85,0,0
79069,-76.9230769230769,4,2,1,80,0,0
79292,-66.6666666666667,4,2,1,80,0,0
79515,-58.8235294117647,4,2,1,80,0,0
81446,-222.222222222221,4,2,1,80,0,0
83822,-125,4,2,1,75,0,0
88574,-250,4,2,1,75,0,0
89020,-125,4,2,1,75,0,0
92881,-250,4,2,1,75,0,0
93327,-250,4,2,1,68,0,0
93772,-200,4,2,1,68,0,0
94515,-200,4,2,1,70,0,0
95703,-200,4,2,1,72,0,0
96891,-200,4,2,1,74,0,0
98079,-200,4,2,1,78,0,0
99416,-133.333333333333,4,2,1,78,0,0
100455,-666.666666666658,4,2,1,78,0,0
101644,-133.333333333333,4,2,1,78,0,0
101842,-153.846153846153,4,2,1,78,0,0
102040,-181.818181818181,4,2,1,78,0,0
102238,-222.222222222221,4,2,1,78,0,0
102634,-285.714285714284,4,2,1,78,0,0
102832,-133.333333333333,4,2,1,75,0,0
103129,-133.333333333333,4,2,1,75,0,0
103871,-133.333333333333,4,2,1,75,0,0
106396,-133.333333333333,4,2,1,75,0,0
114713,-285.714285714284,4,2,1,70,0,0
115604,-666.666666666658,4,2,1,70,0,0
117089,-666.666666666658,4,2,1,80,0,0
118426,-100,4,2,1,80,0,0
119465,-1000,4,2,1,65,0,0
138475,-181.818181818181,4,2,1,70,0,0
139069,-153.846153846153,4,2,1,70,0,0
139861,-133.333333333333,4,2,1,70,0,0
140059,-117.647058823529,4,2,1,70,0,0
140257,-105.263157894736,4,2,1,70,0,0
140455,-95.2380952380945,4,2,1,70,0,0
140654,-86.9565217391297,4,2,1,70,0,0
140852,-222.22222222222,4,2,1,70,0,0
142485,-222.22222222222,4,2,1,68,0,0
143228,-222.22222222222,4,2,1,72,0,0
144416,-222.22222222222,4,2,1,76,0,0
145604,-222.22222222222,4,2,1,80,0,0
145901,-66.6666666666667,4,2,1,80,0,0
146050,-133.333333333333,4,2,1,80,0,0
146198,-66.6666666666667,4,2,1,80,0,0
146347,-133.333333333333,4,2,1,80,0,0
146495,-76.9230769230769,4,2,1,80,0,0
146792,-76.9230769230769,4,2,1,78,0,0
147089,-100,4,2,1,78,0,0
147386,-76.9230769230769,4,2,1,78,0,0
147683,-100,4,2,1,78,0,0
156297,-66.6666666666667,4,2,1,78,0,0
159267,-100,4,2,1,78,0,0
159564,-76.9230769230769,4,2,1,78,0,0
159713,-66.6666666666667,4,2,1,78,0,0
160158,-83.3333333333333,4,2,1,78,0,0
160455,-66.6666666666667,4,2,1,78,0,0
160678,-100,4,2,1,78,0,0
161050,-86.9565217391304,4,2,1,82,0,0
161198,-80,4,2,1,82,0,0
161347,-74.0740740740741,4,2,1,82,0,0
162238,-66.6666666666667,4,2,1,82,0,0
165505,-66.6666666666667,4,2,1,75,0,0
170554,-333.333333333333,4,2,1,75,0,0
172931,-142.857142857143,4,2,1,75,0,0
173079,-1000,4,2,1,75,0,0
173376,-142.857142857143,4,2,1,75,0,0
173673,-1000,4,2,1,75,0,0
174119,-133.333333333333,4,2,1,75,0,0
175604,-100,4,2,1,78,0,0
177683,-100,4,2,1,74,0,0
178277,-100,4,2,1,72,0,0
178871,-100,4,2,1,68,0,0
179168,-100,4,2,1,66,0,0
179465,-100,4,2,1,64,0,0
179762,-100,4,2,1,60,0,0
180059,-76.9230769230769,4,2,1,80,0,0
182436,-250,4,2,1,80,0,0
184812,-133.333333333333,4,2,1,80,0,0
185109,-62.5,4,2,1,85,0,0
185406,-76.9230769230769,4,2,1,85,0,0
186000,-66.6666666666667,4,2,1,85,0,0
186297,-76.9230769230769,4,2,1,85,0,0
187634,-90.9090909090909,4,2,1,85,0,0
188822,-66.6666666666667,4,2,1,85,0,0
189861,-100,4,2,1,85,0,0
190158,-66.6666666666667,4,2,1,85,0,0
190381,-100,4,2,1,85,0,0
190753,-66.6666666666667,4,2,1,85,0,0
191050,-100,4,2,1,85,0,0
191198,-66.6666666666667,4,2,1,85,0,0
192535,-100,4,2,1,85,0,0
193723,-66.6666666666667,4,2,1,85,0,0
194020,-250,4,2,1,80,0,0
194317,-133.333333333333,4,2,1,80,0,0
194614,-58.8235294117647,4,2,1,80,0,0
194762,-66.6666666666667,4,2,1,80,0,0
195059,-100,4,2,1,80,0,0
195208,-66.6666666666667,4,2,1,80,0,0
195505,-100,4,2,1,80,0,0
195654,-66.6666666666667,4,2,1,80,0,0
195951,-100,4,2,1,80,0,0
196099,-66.6666666666667,4,2,1,80,0,0
199069,-66.6666666666667,4,2,1,85,0,0
200703,-100,4,2,1,85,0,0
200852,-66.6666666666667,4,2,1,85,0,0
202040,-58.8235294117647,4,2,1,85,0,0
202634,-55.5555555555556,4,2,1,85,0,0
203822,-55.5555555555556,4,2,1,80,0,0
206198,-133.333333333333,4,2,1,80,0,0
208277,-285.714285714284,4,2,1,80,0,0
208574,-100,4,2,1,75,0,0
213327,-285.714285714284,4,2,1,75,0,0
213772,-100,4,2,1,75,0,0
216000,-133.333333333333,4,2,1,75,0,0
217634,-181.818181818181,4,2,1,75,0,0
218079,-153.846153846153,4,2,1,68,0,0
219267,-153.846153846153,4,2,1,70,0,0
220455,-153.846153846153,4,2,1,72,0,0
221643,-153.846153846153,4,2,1,74,0,0
222831,-153.846153846153,4,2,1,78,0,0
225208,-399.999999999994,4,2,1,78,0,0
226396,-153.846153846153,4,2,1,78,0,0
226990,-181.818181818181,4,2,1,78,0,0
227188,-222.22222222222,4,2,1,78,0,0
227386,-285.714285714282,4,2,1,78,0,0
227881,-285.714285714282,4,2,1,80,0,0
229960,-285.714285714282,4,2,1,20,0,0

[Colours]
Combo1 : 255,94,55
Combo2 : 201,150,160
Combo3 : 243,192,99

[HitObjects]
256,192,7782,12,0,8896,0:0:0:0:
121,90,8970,6,0,P|167:140|186:188,1,65,2|0,0:3|0:0,0:0:0:0:
154,292,9119,2,0,P|174:227|206:186,1,65,2|0,0:3|0:0,0:0:0:0:
310,165,9267,2,0,P|243:179|192:172,1,65,2|0,0:3|0:0,0:0:0:0:
37,32,9416,6,0,P|138:51|264:72,1,195,2|0,0:3|0:0,0:0:0:0:
290,20,9713,1,0,1:0:0:0:
319,2,9787,1,0,1:0:0:0:
348,0,9861,2,0,P|353:22|357:44,1,39,8|0,0:0|0:0,0:0:0:0:
505,123,10158,6,0,P|435:100|388:213,1,195.00000743866,4|2,1:2|0:0,0:0:0:0:
147,202,10604,2,0,P|217:179|264:292,1,195.00000743866,2|2,1:3|0:0,0:0:0:0:
512,315,11050,2,0,P|388:342|280:363,1,195.00000743866,2|2,1:3|0:0,0:0:0:0:
124,351,11495,5,2,1:3:0:0:
217,370,11644,1,2,0:0:0:0:
92,275,11792,1,2,0:0:0:0:
309,269,11941,6,0,P|293:216|282:141,1,97.50000371933,2|0,1:3|0:0,0:0:0:0:
288,160,12163,1,2,0:0:0:0:
297,146,12238,1,2,1:3:0:0:
162,161,12386,1,2,0:0:0:0:
353,12,12535,6,0,P|277:40|160:87,1,195.00000743866,2|2,1:3|0:0,0:0:0:0:
12,6,12980,2,0,P|37:70|92:217,1,195.00000743866,2|2,1:3|0:0,0:0:0:0:
0,334,13426,2,0,P|58:303|73:300,1,48.750001859665,2|0,0:3|0:0,0:0:0:0:
273,197,13574,6,0,B|237:151|215:115|215:115|208:158|189:242,1,195,2|0,1:3|0:0,0:0:0:0:
301,336,13871,2,0,B|358:327|401:326|401:326|367:299|304:240,1,195,2|0,1:3|0:0,0:0:0:0:
168,292,14168,2,0,B|146:346|125:383|125:383|166:367|248:342,1,195,2|0,1:3|0:0,0:0:0:0:
250,275,14465,1,2,1:3:0:0:
364,202,14614,5,0,1:0:0:0:
378,189,14688,1,0,1:0:0:0:
364,175,14762,1,2,1:2:0:0:
351,189,14837,1,0,1:0:0:0:
364,190,15208,6,0,P|354:123|354:96,1,65,4|0,1:2|0:0,0:0:0:0:
444,13,15356,6,0,P|314:68|217:108,1,195,2|0,1:2|0:0,0:0:0:0:
249,80,15653,1,2,0:0:0:0:
0,173,15802,2,0,B|70:211|121:180|121:180|203:140|287:205,1,260,2|2,1:3|0:0,0:0:0:0:
512,177,16248,2,0,B|472:149|436:102|436:102|386:182|304:268,1,260,2|0,1:3|0:0,0:0:0:0:
161,353,16693,6,0,P|238:305|221:238,1,130,2|2,1:3|0:0,0:0:0:0:
491,360,16990,2,0,P|414:312|431:245,1,130,2|2,1:3|0:0,0:0:0:0:
324,98,17287,5,4,0:0:0:0:
324,98,18475,5,2,1:2:0:0:
274,115,18550,1,0,1:0:0:0:
274,167,18624,1,2,1:2:0:0:
324,183,18698,1,0,1:0:0:0:
354,141,18772,1,2,0:3:0:0:
101,209,18921,5,2,1:2:0:0:
156,227,18996,1,0,1:0:0:0:
156,284,19070,1,2,1:2:0:0:
101,302,19144,1,0,1:0:0:0:
68,256,19218,1,2,0:3:0:0:
42,55,19366,6,0,P|99:84|129:101,1,78,2|0,0:0|0:0,0:0:0:0:
118,93,19663,6,0,B|168:58|205:83|212:79|237:102|319:58,1,194.999994049072,4|0,0:0|0:0,0:0:0:0:
315,60,20109,1,2,0:0:0:0:
389,37,20257,1,2,0:0:0:0:
453,94,20406,1,2,0:0:0:0:
506,25,20554,1,2,0:0:0:0:
369,124,20703,6,0,P|351:179|336:234,1,97.4999970245362,2|0,0:0|0:0,0:0:0:0:
340,228,21149,6,0,P|389:262|446:235,1,97.5,2|0,0:0|0:0,0:0:0:0:
427,248,21446,2,0,P|474:244|510:275,1,97.5,2|0,0:0|0:0,0:0:0:0:
510,283,21743,2,0,P|489:325|444:341,1,97.5,2|0,0:0|0:0,0:0:0:0:
435,340,22040,6,0,P|377:337|320:331,1,97.5,2|0,0:0|0:0,0:0:0:0:
326,333,22337,1,2,0:0:0:0:
230,360,22485,2,0,B|203:335|176:320|176:320|203:306|232:280,1,130,2|0,0:0|0:0,0:0:0:0:
315,243,22931,1,2,0:0:0:0:
234,199,23079,6,0,P|180:216|69:249,1,155.999995239258,2|0,0:0|0:0,0:0:0:0:
23,186,23822,6,0,P|26:147|30:127,1,52,2|0,0:0|0:0,0:0:0:0:
32,119,24045,2,0,P|71:122|91:126,1,52,2|0,0:0|0:0,0:0:0:0:
99,133,24267,1,2,0:0:0:0:
64,43,24416,6,0,P|120:29|176:11,1,116.999996429443,2|0,0:0|0:0,0:0:0:0:
185,12,24713,1,2,0:0:0:0:
178,108,24861,2,0,P|216:123|289:116,1,104,2|0,0:0|0:0,0:0:0:0:
336,6,25307,2,0,P|322:48|323:59,1,52,2|2,0:0|0:0,0:0:0:0:
405,102,25604,6,0,P|423:158|431:193,1,78,2|0,0:0|0:0,0:0:0:0:
434,197,25901,2,0,P|408:220|361:200,1,78,2|0,0:0|0:0,0:0:0:0:
361,199,26198,2,0,P|324:188|295:212,1,78,2|0,0:0|0:0,0:0:0:0:
292,226,26495,2,0,P|294:263|326:282,1,78,2|0,0:0|0:0,0:0:0:0:
342,290,26792,6,0,P|392:280|510:256,1,155.999995239258,2|2,0:0|0:0,0:0:0:0:
477,384,27535,1,2,0:0:0:0:
388,365,27683,1,2,0:0:0:0:
299,378,27832,6,0,P|264:378|136:346,1,156,2|0,0:0|0:0,0:0:0:0:
61,373,28871,2,0,P|64:343|68:322,1,38.9999988098145,2|0,0:0|0:0,0:0:0:0:
22,252,29168,6,0,B|68:221|126:257|126:257|169:277|224:254,1,195,2|2,0:0|0:0,0:0:0:0:
270,190,29762,1,2,0:0:0:0:
201,142,29911,1,2,0:0:0:0:
260,71,30059,1,2,0:0:0:0:
164,20,30208,1,2,0:0:0:0:
74,170,30356,6,0,P|143:154|211:139,1,130,2|2,0:0|0:0,0:0:0:0:
260,71,30802,1,2,0:0:0:0:
396,218,30951,2,0,P|327:202|259:187,1,130,2|2,0:0|0:0,0:0:0:0:
348,59,31396,1,0,1:0:0:0:
356,34,31470,1,0,1:0:0:0:
376,23,31545,6,0,P|406:88|409:153,2,130,2|0|0,0:3|0:0|1:0,0:0:0:0:
505,251,31990,2,0,P|383:274|348:285,2,130,2|0|0,0:3|0:0|1:0,0:0:0:0:
216,307,32436,6,0,P|188:257|297:208,1,195,4|2,0:0|0:0,0:0:0:0:
293,205,32955,1,2,0:0:0:0:
299,215,33030,1,2,0:0:0:0:
307,326,33178,5,2,0:0:0:0:
300,343,33253,1,2,0:0:0:0:
285,352,33327,1,2,0:0:0:0:
188,382,33475,5,2,0:0:0:0:
180,366,33550,1,2,0:0:0:0:
165,355,33624,1,2,1:2:0:0:
143,354,33698,1,0,1:0:0:0:
125,373,33772,1,2,1:2:0:0:
96,383,33847,1,0,1:0:0:0:
67,370,33921,6,0,P|38:332|28:299,1,65,4|2,3:2|0:0,0:0:0:0:
198,210,34218,2,0,P|169:248|159:281,1,65,2|2,3:2|0:0,0:0:0:0:
10,192,34515,2,0,P|64:190|99:182,1,65,0|0,3:0|0:0,0:0:0:0:
207,350,34812,2,0,P|153:352|118:360,1,65,0|2,3:0|0:0,0:0:0:0:
126,106,35109,6,0,P|165:122|182:121,1,32.5,4|0,3:2|0:0,0:0:0:0:
299,172,35257,2,0,P|260:156|243:157,1,32.5,2|0,3:2|0:0,0:0:0:0:
219,25,35406,2,0,P|214:51|216:77,1,32.5,2|0,3:2|0:0,0:0:0:0:
192,241,35554,2,0,P|197:215|195:189,1,32.5,2|0,3:2|0:0,0:0:0:0:
325,28,35703,5,4,3:2:0:0:
316,58,35777,1,0,1:0:0:0:
331,86,35851,1,2,1:2:0:0:
361,97,35925,1,0,1:0:0:0:
388,85,36000,6,0,P|409:74|415:72,1,16.25,0|0,1:0|0:0,0:0:0:0:
406,68,36074,6,0,P|426:80|430:84,1,16.25,0|0,1:0|0:0,0:0:0:0:
434,70,36149,6,0,P|433:93|431:99,1,16.25,2|0,1:2|0:0,0:0:0:0:
447,91,36223,6,0,P|426:101|420:103,1,16.25,0|0,1:0|0:0,0:0:0:0:
442,115,36297,6,0,P|406:220|390:276,1,130,4|2,1:2|0:0,0:0:0:0:
421,384,36520,1,0,0:0:0:0:
421,384,36594,2,0,P|437:359|413:324,1,48.750001859665,8|0,0:0|0:0,0:0:0:0:
341,303,36743,1,0,0:0:0:0:
321,318,36817,1,0,0:0:0:0:
300,315,36891,5,0,1:0:0:0:
212,375,37040,1,2,0:0:0:0:
204,338,37114,1,0,0:0:0:0:
198,304,37188,1,8,0:0:0:0:
302,232,37337,1,0,0:0:0:0:
166,235,37485,6,0,P|101:253|48:265,1,97.50000371933,0|2,1:0|0:0,0:0:0:0:
6,200,37708,1,0,0:0:0:0:
6,200,37782,1,8,0:0:0:0:
54,342,37931,1,2,0:0:0:0:
81,347,38005,1,0,0:0:0:0:
107,339,38079,1,0,1:0:0:0:
198,304,38228,1,2,0:0:0:0:
225,299,38302,1,0,0:0:0:0:
251,307,38376,1,10,0:0:0:0:
297,214,38525,5,2,0:0:0:0:
292,176,38599,1,2,0:0:0:0:
289,139,38673,1,0,1:0:0:0:
142,30,38822,1,2,0:0:0:0:
177,70,38896,1,0,0:0:0:0:
161,119,38970,1,8,0:0:0:0:
35,239,39119,1,0,0:0:0:0:
0,199,39193,1,0,0:0:0:0:
16,150,39267,1,0,1:0:0:0:
264,57,39416,5,2,0:0:0:0:
318,48,39490,1,0,0:0:0:0:
371,42,39564,1,10,0:0:0:0:
486,210,39713,1,2,0:0:0:0:
429,200,39787,1,0,0:0:0:0:
379,192,39861,6,0,L|337:183,4,24.3750009298325,0|0|0|0|0,1:0|1:0|1:0|1:0|1:0,0:0:0:0:
410,285,40084,1,0,0:0:0:0:
403,279,40158,6,0,P|339:277|302:283,1,84.4999961318971,2|2,1:3|0:0,0:0:0:0:
179,86,40455,6,0,P|212:140|226:175,1,84.4999961318971,2|0,1:3|0:0,0:0:0:0:
141,384,40753,6,0,P|158:345|182:310,1,84.4999961318971,2|0,1:3|0:0,0:0:0:0:
402,73,41050,5,4,0:0:0:0:
40,162,48178,6,0,P|130:136|235:108,1,195.00000743866,4|0,0:0|0:0,0:0:0:0:
337,80,48624,1,0,1:0:0:0:
352,101,48698,1,0,1:0:0:0:
351,126,48772,6,0,P|333:209|309:337,1,195.00000743866,2|0,0:3|0:0,0:0:0:0:
60,384,49218,1,0,1:0:0:0:
86,361,49292,1,0,1:0:0:0:
96,325,49366,6,0,P|85:263|69:124,1,195.00000743866,2|0,0:3|0:0,0:0:0:0:
195,18,49812,1,0,1:0:0:0:
228,63,49886,1,0,1:0:0:0:
279,56,49960,6,0,P|340:41|396:27,1,97.50000371933,2|0,0:3|0:0,0:0:0:0:
346,126,50158,6,0,P|302:80|262:39,1,97.50000371933,2|0,0:3|0:0,0:0:0:0:
373,32,50356,6,0,P|355:92|339:147,1,97.50000371933,2|0,0:3|0:0,0:0:0:0:
345,125,50852,6,0,P|315:179|307:205,1,48.750001859665,2|0,0:3|0:0,0:0:0:0:
456,243,51000,2,0,B|396:212|364:248|346:240|323:274|242:234,1,195.00000743866,2|0,0:3|1:0,0:0:0:0:
218,147,51446,1,2,0:0:0:0:
218,147,51743,6,0,P|256:234|301:373,1,195.00000743866,2|0,0:3|1:0,0:0:0:0:
512,63,52188,2,0,P|474:150|429:289,1,195.00000743866,2|0,0:3|1:0,0:0:0:0:
377,42,52634,1,2,0:3:0:0:
348,29,52708,1,2,0:3:0:0:
322,39,52782,1,2,0:3:0:0:
311,65,52856,1,0,0:0:0:0:
275,75,52931,6,0,P|225:97|79:111,1,195.00000743866,2|0,0:3|1:0,0:0:0:0:
23,295,53376,2,0,B|97:298|159:340|159:340|155:267|207:187,1,292.50001115799,2|2,0:3|0:0,0:0:0:0:
198,200,54119,6,0,P|273:165|294:272,1,195.00000743866,2|0,0:3|1:0,0:0:0:0:
502,384,54564,2,0,P|457:297|423:196,1,195.00000743866,2|0,0:3|1:0,0:0:0:0:
313,68,55010,1,2,0:3:0:0:
339,45,55084,1,2,0:3:0:0:
372,43,55158,1,2,0:3:0:0:
398,66,55233,1,0,0:0:0:0:
426,65,55307,6,0,B|484:64|505:63|505:63|478:137|458:255,1,272.999991668701,4|2,0:0|0:0,0:0:0:0:
387,380,57683,5,2,0:3:0:0:
260,314,57832,1,2,1:2:0:0:
247,270,57906,1,0,1:0:0:0:
263,228,57980,1,0,1:0:0:0:
416,112,58129,5,2,0:3:0:0:
285,90,58277,1,2,1:2:0:0:
241,111,58352,1,0,1:0:0:0:
198,133,58426,1,0,1:0:0:0:
0,288,58574,5,2,0:3:0:0:
133,330,58723,1,2,1:2:0:0:
141,284,58797,1,0,1:0:0:0:
150,236,58871,1,0,1:0:0:0:
69,23,59020,5,2,0:3:0:0:
198,133,59168,1,2,1:2:0:0:
230,165,59243,1,0,1:0:0:0:
273,168,59317,1,0,1:0:0:0:
391,0,59465,6,0,P|375:74|372:109,1,65,2|0,0:3|1:0,0:0:0:0:
481,260,59614,1,2,1:2:0:0:
512,222,59688,1,0,0:0:0:0:
505,170,59762,2,0,P|466:147|430:137,1,65,2|0,0:3|1:0,0:0:0:0:
280,57,59911,1,2,1:2:0:0:
280,57,59985,1,0,0:0:0:0:
280,57,60059,5,0,1:0:0:0:
262,85,60134,1,0,1:0:0:0:
269,125,60208,1,2,1:2:0:0:
293,152,60282,1,0,1:0:0:0:
297,193,60356,1,0,3:0:0:0:
102,322,60505,5,0,1:0:0:0:
92,280,60579,1,0,1:0:0:0:
109,240,60653,1,2,1:2:0:0:
146,219,60727,1,0,1:0:0:0:
188,223,60802,1,0,3:0:0:0:
440,359,60951,5,0,1:0:0:0:
396,361,61025,1,0,1:0:0:0:
353,365,61099,1,2,1:2:0:0:
309,369,61173,1,0,1:0:0:0:
266,374,61248,1,0,3:0:0:0:
54,97,61396,5,0,1:0:0:0:
100,119,61470,1,0,1:0:0:0:
149,138,61544,1,2,1:2:0:0:
199,153,61618,1,0,1:0:0:0:
249,164,61693,1,0,3:0:0:0:
393,297,61842,6,0,P|407:246|413:214,1,65,2|0,3:2|1:0,0:0:0:0:
481,81,61990,1,0,1:0:0:0:
468,64,62064,2,0,P|392:88|372:98,1,65,2|0,3:2|0:0,0:0:0:0:
222,20,62213,1,0,0:0:0:0:
239,11,62287,2,0,P|315:35|335:45,1,65,2|0,3:2|0:0,0:0:0:0:
393,297,62436,6,0,B|378:221|378:221|353:204|332:193|332:193|315:113,1,195.00000743866,2|0,0:3|0:0,0:0:0:0:
211,278,62634,6,0,B|284:303|284:303|311:289|331:277|331:277|409:302,1,195.00000743866,2|0,0:3|0:0,0:0:0:0:
318,130,62832,6,0,B|259:180|259:180|257:211|258:234|258:234|197:289,1,195.00000743866,2|0,0:3|0:0,0:0:0:0:
414,231,63030,6,0,B|363:172|363:172|332:170|309:171|309:171|254:110,1,195.00000743866,2|0,0:3|0:0,0:0:0:0:
246,305,63228,6,0,B|322:290|322:290|338:265|350:244|350:244|430:226,1,195.00000743866,2|0,0:3|0:0,0:0:0:0:
266,124,63426,6,0,B|240:197|240:197|254:224|266:244|266:244|241:322,1,195.00000743866,2|0,0:3|0:0,0:0:0:0:
110,263,63624,5,0,1:0:0:0:
50,243,63698,1,0,1:0:0:0:
50,181,63772,1,0,1:0:0:0:
110,162,63847,1,0,1:0:0:0:
145,212,63921,1,2,0:3:0:0:
266,124,64069,5,0,1:0:0:0:
332,102,64143,1,0,1:0:0:0:
332,33,64217,1,0,1:0:0:0:
266,12,64292,1,0,1:0:0:0:
227,67,64366,1,2,0:3:0:0:
190,307,64515,5,2,0:0:0:0:
235,290,64589,1,2,0:0:0:0:
281,274,64663,1,2,0:0:0:0:
327,258,64737,1,2,0:0:0:0:
374,242,64812,6,0,P|421:250|446:257,5,65.0000024795533,0|0|0|0|0|0,1:0|0:0|0:0|1:0|0:0|0:0,0:0:0:0:
504,197,65109,6,0,B|452:164|420:120|420:120|380:154|272:175,1,221.000004215241,4|0,0:0|0:0,0:0:0:0:
222,134,65332,1,0,0:0:0:0:
222,134,65406,2,0,P|246:92|276:112,1,77.999997619629,0|0,1:0|0:0,0:0:0:0:
374,242,65554,1,2,0:0:0:0:
242,288,65703,2,0,P|290:186|300:156,1,77.999997619629,10|0,0:0|0:0,0:0:0:0:
409,311,65852,2,0,P|361:209|351:179,1,77.999997619629,2|0,0:0|0:0,0:0:0:0:
114,41,66000,6,0,P|144:182|153:237,1,155.999995239258,0|2,1:0|0:0,0:0:0:0:
75,229,66223,1,2,0:0:0:0:
63,213,66260,1,0,0:0:0:0:
64,196,66297,2,0,P|98:164|138:185,1,77.999997619629,8|0,0:0|0:0,0:0:0:0:
174,325,66446,6,0,B|235:286|283:320|283:320|343:363|413:307,1,253.499988395691,2|0,0:0|0:0,0:0:0:0:
368,241,66743,1,2,0:0:0:0:
341,245,66817,1,0,0:0:0:0:
318,231,66891,1,10,0:0:0:0:
312,205,66965,1,0,0:0:0:0:
325,181,67040,1,2,0:0:0:0:
324,151,67114,1,2,0:0:0:0:
306,130,67188,6,0,B|227:152|196:164|196:164|140:153|92:145,1,195.00000743866,0|2,1:0|0:0,0:0:0:0:
10,73,67411,1,2,0:0:0:0:
31,65,67485,2,0,P|52:119|53:140,1,65,8|0,0:0|0:0,0:0:0:0:
125,243,67634,2,0,P|147:139|155:90,1,130,2|0,0:0|1:0,0:0:0:0:
148,27,67856,1,0,0:0:0:0:
175,16,67931,1,2,0:0:0:0:
208,31,68005,1,0,0:0:0:0:
227,75,68079,1,10,0:0:0:0:
275,81,68154,1,0,0:0:0:0:
316,46,68228,1,2,0:0:0:0:
368,56,68302,1,0,0:0:0:0:
396,101,68376,6,0,P|371:170|357:216,1,97.50000371933,2|0,1:2|0:0,0:0:0:0:
512,225,68525,2,0,P|460:250|443:257,1,65,2|0,0:0|0:0,0:0:0:0:
365,350,68673,1,8,0:0:0:0:
326,322,68748,1,2,0:0:0:0:
275,342,68822,6,0,B|213:366|169:381|169:381|134:326|63:249,1,253.499988395691,2|0,0:0|0:0,0:0:0:0:
6,312,69119,1,2,0:0:0:0:
0,273,69193,1,0,0:0:0:0:
16,233,69267,1,8,0:0:0:0:
55,204,69342,1,0,0:0:0:0:
82,158,69416,1,2,1:2:0:0:
60,90,69490,1,0,1:0:0:0:
114,39,69564,6,0,B|180:18|193:64|199:61|224:93|303:73,1,195.00000743866,4|2,1:2|0:0,0:0:0:0:
384,35,69787,1,2,0:0:0:0:
384,35,69861,2,0,P|352:3|329:0,1,65,8|0,0:0|0:0,0:0:0:0:
218,98,70010,1,2,0:0:0:0:
468,12,70158,6,0,P|441:106|404:235,1,195.00000743866,2|2,1:3|0:0,0:0:0:0:
326,244,70381,1,2,0:0:0:0:
326,244,70455,2,0,P|306:218|322:193,1,65,8|0,0:0|0:0,0:0:0:0:
463,169,70604,1,2,0:0:0:0:
145,124,70753,6,0,P|202:239|204:337,1,195.00000743866,2|2,1:3|0:0,0:0:0:0:
115,351,70975,1,2,0:0:0:0:
115,351,71050,2,0,P|94:295|110:276,1,65,8|0,0:0|0:0,0:0:0:0:
262,225,71198,2,0,P|251:255|223:269,1,65,2|2,0:0|0:0,0:0:0:0:
0,192,71347,6,0,P|99:216|139:223,1,97.50000371933,2|0,1:3|0:0,0:0:0:0:
211,381,71495,1,2,0:0:0:0:
243,366,71569,1,2,0:0:0:0:
282,375,71644,2,0,P|329:364|376:351,1,97.50000371933,10|0,0:0|0:0,0:0:0:0:
512,299,71792,2,0,P|444:283|412:271,1,65,2|0,0:0|0:0,0:0:0:0:
512,94,71941,5,2,1:3:0:0:
467,113,72015,1,0,1:0:0:0:
420,99,72089,1,0,1:0:0:0:
399,53,72163,1,0,1:0:0:0:
355,32,72238,1,8,1:2:0:0:
307,49,72312,1,0,1:0:0:0:
288,91,72386,1,0,1:0:0:0:
250,115,72460,1,0,1:0:0:0:
207,111,72535,2,0,P|172:101|118:72,1,65,2|0,1:3|0:0,0:0:0:0:
136,235,72683,6,0,P|161:267|166:276,2,32.5,2|0|0,0:0|0:0|0:0,0:0:0:0:
309,231,72832,2,0,P|235:198|207:193,1,65,10|0,0:0|0:0,0:0:0:0:
185,368,72980,2,0,P|215:355|243:339,1,65,2|0,0:0|0:0,0:0:0:0:
469,340,73129,5,0,3:0:0:0:
506,261,73228,5,0,3:0:0:0:
469,183,73327,5,0,3:0:0:0:
384,164,73426,5,0,3:0:0:0:
316,218,73525,5,0,3:0:0:0:
316,305,73624,5,0,3:0:0:0:
383,355,73723,6,0,L|363:398,2,32.5,0|0|0,3:0|0:0|0:0,0:0:0:0:
225,355,73871,1,0,0:0:0:0:
206,347,73946,1,0,0:0:0:0:
193,335,74020,6,0,P|197:286|201:275,1,58.4999982147217,10|2,0:0|0:0,0:0:0:0:
137,199,74317,6,0,P|213:185|229:180,5,65.0000024795533,0|0|0|0|0|0,1:0|0:0|0:0|1:0|0:0|0:0,0:0:0:0:
34,320,74614,6,0,B|40:243|-1:184|-1:184|40:162|93:113,1,221.000004215241,4|0,0:0|0:0,0:0:0:0:
206,80,74837,1,0,0:0:0:0:
206,80,74911,2,0,P|172:105|141:100,1,65,0|0,1:0|0:0,0:0:0:0:
13,74,75059,1,2,0:0:0:0:
137,199,75208,2,0,P|171:216|215:233,1,65,10|0,0:0|0:0,0:0:0:0:
105,364,75356,2,0,P|139:347|183:330,1,65,2|0,0:0|0:0,0:0:0:0:
387,381,75505,6,0,P|367:286|348:177,1,195.00000743866,0|0,1:0|0:0,0:0:0:0:
356,118,75728,1,0,0:0:0:0:
370,105,75765,1,0,0:0:0:0:
386,101,75802,2,0,P|412:123|397:173,1,65,8|0,0:0|0:0,0:0:0:0:
345,310,75951,6,0,B|268:272|228:317|220:311|172:353|71:293,1,253.499988395691,2|0,0:0|0:0,0:0:0:0:
36,249,76248,1,2,0:0:0:0:
30,218,76322,1,0,0:0:0:0:
47,182,76396,1,10,0:0:0:0:
85,167,76470,1,0,0:0:0:0:
123,190,76545,1,2,1:2:0:0:
177,191,76619,1,2,1:2:0:0:
231,145,76693,5,2,1:3:0:0:
238,132,76767,1,0,0:0:0:0:
238,121,76841,1,2,0:0:0:0:
235,112,76916,1,0,0:0:0:0:
231,100,76990,2,0,P|191:98|131:93,1,84.4999961318971,8|0,0:0|0:0,0:0:0:0:
302,13,77139,2,0,P|342:11|402:6,1,84.4999961318971,2|2,1:2|1:2,0:0:0:0:
382,141,77287,5,2,1:3:0:0:
362,176,77361,1,0,0:0:0:0:
360,217,77435,1,2,0:0:0:0:
378,257,77510,1,0,0:0:0:0:
415,285,77584,2,0,P|459:287|525:292,1,84.4999961318971,10|0,0:0|0:0,0:0:0:0:
234,218,77733,2,0,P|190:220|124:225,1,84.4999961318971,2|2,1:2|1:2,0:0:0:0:
219,384,77881,5,2,1:3:0:0:
181,350,77955,1,0,1:0:0:0:
130,348,78029,1,0,1:0:0:0:
84,376,78104,1,0,0:0:0:0:
33,368,78178,1,10,0:0:0:0:
8,323,78253,1,0,1:0:0:0:
33,279,78327,1,2,1:2:0:0:
88,268,78401,1,0,0:0:0:0:
126,229,78475,5,2,1:3:0:0:
140,184,78550,1,0,1:0:0:0:
121,143,78624,1,2,1:2:0:0:
82,128,78698,5,0,1:0:0:0:
64,92,78772,1,10,0:0:0:0:
78,58,78847,1,0,1:0:0:0:
116,45,78921,2,0,P|168:56|206:61,1,84.4999961318971,2|0,1:2|1:0,0:0:0:0:
360,41,79069,6,0,B|327:14|316:4|316:4|308:60|292:138,1,168.999992263794,2|0,3:0|0:0,0:0:0:0:
481,152,79267,6,0,B|488:103|492:87|492:87|432:111|346:140,1,168.999992263794,2|0,3:0|0:0,0:0:0:0:
426,220,79465,6,0,P|362:250|293:285,1,130.000004959107,2|2,3:0|3:0,0:0:0:0:
182,364,79663,6,0,B|123:313|158:275|150:267|201:212|104:133,1,221.000004215241,2|0,3:0|0:0,0:0:0:0:
0,314,79861,6,0,B|14:237|65:248|68:237|141:254|161:130,1,221.000004215241,2|0,3:0|0:0,0:0:0:0:
82,45,80059,6,0,P|168:85|227:116,1,147.333336143494,2|2,3:0|3:0,0:0:0:0:
449,202,80257,5,2,3:0:0:0:
355,202,80356,5,2,3:0:0:0:
310,121,80455,5,2,3:0:0:0:
355,41,80554,5,2,3:0:0:0:
449,41,80654,5,2,3:0:0:0:
493,121,80753,5,2,3:0:0:0:
453,22,80852,5,2,3:0:0:0:
341,25,80951,5,2,3:0:0:0:
288,124,81051,5,2,3:0:0:0:
349,218,81150,5,2,3:0:0:0:
460,215,81249,5,2,3:0:0:0:
512,116,81348,5,2,3:0:0:0:
396,109,81446,6,0,P|323:139|212:182,1,175.499994644165,4|0,3:2|0:0,0:0:0:0:
1,127,82040,2,0,P|79:117|197:99,1,175.499994644165
352,278,82634,5,0,1:0:0:0:
288,257,82708,1,0,1:0:0:0:
288,189,82782,1,2,1:2:0:0:
352,169,82856,1,0,1:0:0:0:
391,223,82931,1,2,0:3:0:0:
100,384,83079,5,0,1:0:0:0:
176,359,83153,1,0,1:0:0:0:
176,281,83227,1,2,1:2:0:0:
104,259,83301,1,0,1:0:0:0:
59,320,83376,1,2,0:3:0:0:
212,203,83525,5,0,1:0:0:0:
212,203,83822,6,0,P|186:103|172:-17,1,208,4|2,1:2|0:0,0:0:0:0:
362,146,84267,2,0,P|336:246|322:366,1,208,2|2,1:3|0:0,0:0:0:0:
57,349,84713,2,0,P|144:365|126:279,1,208,2|2,1:3|0:0,0:0:0:0:
27,174,85158,5,2,1:3:0:0:
166,161,85307,1,2,0:0:0:0:
16,258,85455,1,2,0:0:0:0:
214,227,85604,1,2,1:3:0:0:
166,161,85753,1,2,0:0:0:0:
152,146,85827,1,2,0:0:0:0:
151,125,85901,1,2,1:3:0:0:
216,59,86050,1,2,0:0:0:0:
321,132,86198,5,2,1:3:0:0:
305,152,86272,1,0,0:0:0:0:
304,178,86347,1,0,0:0:0:0:
319,198,86421,1,0,0:0:0:0:
320,223,86495,1,2,0:0:0:0:
266,384,86644,6,0,P|358:333|466:288,1,208,2|2,1:3|0:0,0:0:0:0:
507,138,87089,2,0,P|416:188|320:229,1,208,2|2,1:3|0:0,0:0:0:0:
134,219,87535,2,0,P|224:168|320:127,1,208,2|2,1:3|0:0,0:0:0:0:
503,7,87980,6,0,P|458:44|394:21,1,104,2|2,1:3|0:0,0:0:0:0:
217,65,88277,1,2,1:3:0:0:
310,10,88426,1,2,1:3:0:0:
310,10,88574,6,0,P|330:64|338:87,1,78,2|0,0:0|0:0,0:0:0:0:
222,149,88871,5,2,1:3:0:0:
104,37,89020,2,0,P|94:109|70:250,1,208,4|2,1:2|0:0,0:0:0:0:
254,354,89465,2,0,P|244:282|220:141,1,208,2|2,1:3|0:0,0:0:0:0:
33,347,89911,2,0,P|110:374|142:263,1,208,2|2,1:3|0:0,0:0:0:0:
438,328,90356,6,0,P|333:313|313:308,1,104,2|2,1:3|0:0,0:0:0:0:
221,148,90654,2,0,P|326:163|346:168,1,104,2|2,1:3|0:0,0:0:0:0:
512,292,90951,6,0,P|479:260|482:226,1,52,2|0,1:3|0:0,0:0:0:0:
410,187,91099,1,0,1:0:0:0:
400,148,91173,1,0,1:0:0:0:
419,115,91248,1,0,1:0:0:0:
510,0,91396,6,0,P|447:20|331:52,1,156,2|0,1:3|0:0,0:0:0:0:
281,78,91693,1,0,1:0:0:0:
246,76,91767,1,0,1:0:0:0:
218,55,91842,1,0,1:0:0:0:
6,180,91990,6,0,P|68:138|154:172,1,156,2|0,1:3|0:0,0:0:0:0:
251,162,92287,1,0,1:0:0:0:
235,197,92361,1,0,1:0:0:0:
241,232,92436,1,0,1:0:0:0:
64,384,92584,6,0,P|72:301|90:184,1,156,2|0,1:3|0:0,0:0:0:0:
82,229,92881,2,0,B|124:238|124:238|135:252|148:264|148:264|187:271,1,104,4|0,1:2|0:0,0:0:0:0:
227,337,93253,1,0,0:0:0:0:
227,337,93327,5,0,3:0:0:0:
302,300,93475,1,0,0:0:0:0:
379,302,93624,1,0,0:0:0:0:
443,352,93772,6,0,P|464:308|476:273,1,65,2|0,0:0|0:0,0:0:0:0:
414,221,94069,1,0,1:0:0:0:
485,179,94218,2,0,P|464:135|452:100,1,65,0|0,3:0|0:0,0:0:0:0:
343,161,94515,6,0,P|275:193|226:222,2,130,0|0|2,1:0|3:0|0:0,0:0:0:0:
415,93,95257,1,0,1:0:0:0:
339,54,95406,2,0,P|287:67|264:70,1,65,0|2,3:0|0:0,0:0:0:0:
126,27,95703,6,0,P|156:99|178:158,2,130,0|0|0,1:0|3:0|0:0,0:0:0:0:
30,41,96446,1,0,1:0:0:0:
18,134,96594,2,0,P|50:116|81:99,1,65,0|2,3:0|0:0,0:0:0:0:
88,212,96891,6,0,P|158:223|220:236,1,130,0|0,1:0|3:0,0:0:0:0:
315,190,97337,1,0,0:0:0:0:
317,336,97485,2,0,P|301:292|289:261,1,65,2|0,0:0|1:0,0:0:0:0:
176,371,97782,2,0,P|192:327|204:296,1,65,0|2,3:0|0:0,0:0:0:0:
418,274,98079,5,4,3:2:0:0:
446,192,98228,1,2,1:2:0:0:
400,114,98376,1,0,3:0:0:0:
315,103,98525,1,2,1:2:0:0:
82,207,98673,5,0,3:0:0:0:
181,244,98822,1,2,1:2:0:0:
276,201,98970,1,2,3:2:0:0:
315,103,99119,1,2,1:2:0:0:
124,44,99267,5,4,3:2:0:0:
150,59,99342,1,0,1:0:0:0:
171,86,99416,2,0,P|159:136|153:147,1,48.750001859665,2|0,1:2|0:0,0:0:0:0:
331,0,99564,5,2,3:2:0:0:
305,15,99639,1,0,1:0:0:0:
284,42,99713,2,0,P|296:92|302:103,1,48.750001859665,2|0,1:2|1:0,0:0:0:0:
102,280,99861,5,4,3:2:0:0:
138,250,99936,1,0,1:0:0:0:
181,244,100010,2,0,P|245:258|270:271,1,48.750001859665,2|0,1:2|0:0,0:0:0:0:
511,231,100158,5,0,3:0:0:0:
467,193,100233,1,0,1:0:0:0:
411,194,100307,2,0,P|347:208|322:221,1,48.750001859665,2|0,1:2|0:0,0:0:0:0:
289,384,100455,6,0,L|312:278,1,107.24999672699,4|0,0:0|0:0,0:0:0:0:
310,269,101347,1,0,1:0:0:0:
308,258,101421,1,0,1:0:0:0:
301,248,101495,1,0,1:0:0:0:
292,243,101569,1,0,1:0:0:0:
295,252,101644,6,0,P|258:243|162:244,1,97.50000371933,2|0,3:0|0:0,0:0:0:0:
198,239,101842,6,0,P|189:210|151:146,1,84.4999961318971,2|0,3:0|0:0,0:0:0:0:
164,162,102040,6,0,P|182:142|215:84,1,71.5000021820069,2|0,3:0|0:0,0:0:0:0:
206,105,102238,6,0,P|224:109|272:109,1,58.4999982147217,2|0,3:0|0:0,0:0:0:0:
263,110,102436,6,0,P|267:126|289:162,1,58.4999982147217,2|0,3:0|0:0,0:0:0:0:
288,161,102634,6,0,P|277:172|257:206,1,45.4999986114502,2|0,3:0|0:0,0:0:0:0:
261,197,102832,6,0,P|185:219|58:262,1,195.00000743866,4|8,1:2|0:0,0:0:0:0:
30,89,103277,1,2,0:0:0:0:
114,162,103426,1,0,1:0:0:0:
0,184,103574,1,2,0:0:0:0:
153,58,103723,1,10,0:0:0:0:
30,89,103871,1,2,0:0:0:0:
229,117,104020,2,0,P|320:114|357:112,1,97.50000371933,0|0,1:0|0:0,0:0:0:0:
414,69,104243,1,0,0:0:0:0:
414,69,104317,6,0,P|430:154|453:176,1,97.50000371933,10|2,0:0|0:0,0:0:0:0:
512,350,104614,2,0,P|430:321|399:330,1,97.50000371933,0|2,1:0|0:0,0:0:0:0:
237,299,104911,2,0,P|302:242|310:211,1,97.50000371933,10|2,0:0|0:0,0:0:0:0:
413,51,105208,6,0,P|346:73|288:89,1,97.50000371933,0|0,1:0|0:0,0:0:0:0:
169,24,105505,1,8,0:0:0:0:
220,187,105654,2,0,P|232:110|244:55,1,97.50000371933,2|0,0:0|1:0,0:0:0:0:
338,2,105951,1,2,0:0:0:0:
169,24,106099,1,10,0:0:0:0:
314,83,106248,1,2,0:0:0:0:
85,115,106396,2,0,P|111:205|141:310,2,195.00000743866,0|8|0,1:0|0:0|1:0,0:0:0:0:
0,34,107139,1,2,0:0:0:0:
0,34,107213,1,2,0:0:0:0:
3,37,107287,1,8,0:0:0:0:
142,10,107436,1,2,0:0:0:0:
15,158,107584,6,0,P|7:244|2:300,1,97.50000371933,0|0,1:0|0:0,0:0:0:0:
152,371,107881,1,8,0:0:0:0:
199,222,108030,2,0,P|143:247|91:265,1,97.50000371933,2|0,0:0|1:0,0:0:0:0:
9,365,108327,1,0,0:0:0:0:
152,371,108475,1,10,0:0:0:0:
29,268,108624,1,2,0:0:0:0:
230,330,108772,2,0,P|283:317|363:298,1,97.50000371933,0|0,1:0|0:0,0:0:0:0:
417,372,108995,1,0,0:0:0:0:
417,372,109069,6,0,P|435:324|417:267,1,97.50000371933,10|2,0:0|0:0,0:0:0:0:
512,90,109366,2,0,P|461:98|421:142,1,97.50000371933,0|2,1:0|0:0,0:0:0:0:
224,150,109663,2,0,P|256:189|314:202,1,97.50000371933,10|2,0:0|0:0,0:0:0:0:
512,13,109960,2,0,P|398:36|289:65,2,195.00000743866,0|8|0,1:0|0:0|1:0,0:0:0:0:
512,121,110703,1,2,0:0:0:0:
357,140,110852,2,0,P|284:142|258:113,1,97.50000371933,10|2,0:0|0:0,0:0:0:0:
185,49,111074,1,0,0:0:0:0:
185,49,111149,6,0,P|199:175|210:276,1,195.00000743866,0|8,1:0|0:0,0:0:0:0:
231,334,111594,1,2,0:0:0:0:
119,364,111743,1,0,1:0:0:0:
119,364,111817,2,0,P|136:309|145:275,1,48.750001859665,0|2,1:0|1:2,0:0:0:0:
28,350,111965,1,0,1:0:0:0:
28,350,112040,2,0,P|11:295|2:261,1,48.750001859665,8|0,0:0|0:0,0:0:0:0:
89,218,112188,1,2,1:2:0:0:
231,334,112337,6,0,P|330:309|431:286,1,195.00000743866,0|8,1:0|0:0,0:0:0:0:
436,179,112782,1,2,0:0:0:0:
316,120,112931,2,0,P|309:198|303:244,1,97.50000371933,2|2,1:2|0:0,0:0:0:0:
412,309,113228,1,10,0:0:0:0:
255,282,113376,1,2,0:0:0:0:
440,167,113525,5,0,1:0:0:0:
316,120,113673,1,2,0:0:0:0:
487,98,113822,1,10,0:0:0:0:
349,208,113970,1,2,0:0:0:0:
392,30,114119,1,2,1:2:0:0:
480,238,114267,1,0,0:0:0:0:
503,0,114416,1,10,0:0:0:0:
296,100,114564,2,0,P|256:111|251:114,2,24.3750009298325,2|0|0,1:2|0:0|1:0,0:0:0:0:
298,113,114713,6,0,P|254:98|211:84,1,90.9999972229005,2|0,3:0|1:0,0:0:0:0:
158,4,115158,2,0,P|127:61|113:87,1,90.9999972229005,2|0,3:0|1:0,0:0:0:0:
115,295,115604,6,0,P|82:284|129:195,1,175.499994644165,4|2,0:0|1:2,0:0:0:0:
494,196,117089,5,4,1:2:0:0:
389,290,117238,1,2,1:2:0:0:
378,155,117386,1,8,1:2:0:0:
249,367,117535,1,2,1:2:0:0:
262,373,117609,1,0,0:0:0:0:
273,370,117683,5,2,1:3:0:0:
286,344,117757,1,2,0:0:0:0:
281,318,117832,1,2,1:2:0:0:
262,295,117906,1,2,0:0:0:0:
259,269,117980,1,8,1:2:0:0:
279,237,118054,1,0,0:0:0:0:
302,192,118129,1,2,1:2:0:0:
286,138,118203,1,0,0:0:0:0:
236,127,118277,5,2,1:3:0:0:
236,127,118352,1,0,1:0:0:0:
236,127,118426,2,0,P|162:140|128:152,1,65,2|0,1:2|1:0,0:0:0:0:
399,104,118574,5,8,1:2:0:0:
399,104,118649,1,0,1:0:0:0:
399,104,118723,2,0,P|472:117|506:129,1,65,2|0,1:2|1:0,0:0:0:0:
213,43,118871,6,0,P|139:56|105:68,1,65,2|0,1:3|1:0,0:0:0:0:
402,24,119020,2,0,P|475:37|509:49,1,65,2|0,1:2|1:0,0:0:0:0:
348,270,119168,6,0,P|323:175|320:147,1,65,10|0,1:2|1:0,0:0:0:0:
287,0,119317,2,0,P|312:95|315:123,1,65,2|0,1:2|1:0,0:0:0:0:
253,306,119465,6,0,B|207:286|171:306|165:301|118:329|76:307,1,182
20,240,121693,1,2,0:0:0:0:
21,224,121767,1,2,0:0:0:0:
37,206,121842,6,0,B|62:190|90:155|90:155|104:198|119:219,1,143,2|0,0:0|0:0,0:0:0:0:
384,245,138475,6,0,P|314:280|204:333,1,178.750005455017,4|0,0:0|0:0,0:0:0:0:
115,329,138921,1,0,1:0:0:0:
100,307,138995,1,0,1:0:0:0:
110,280,139069,6,0,P|145:197|191:75,1,211.249990329743,2|0,1:3|0:0,0:0:0:0:
310,51,139515,1,0,1:0:0:0:
353,55,139589,1,0,1:0:0:0:
406,60,139663,6,0,P|479:88|522:106,1,84.4999961318971,2|0,1:3|0:0,0:0:0:0:
484,90,139861,6,0,P|496:167|502:213,1,97.50000371933,2|0,1:3|0:0,0:0:0:0:
498,186,140059,6,0,P|437:235|388:264,1,110.50000210762,2|0,1:3|0:0,0:0:0:0:
409,252,140257,6,0,P|368:212|305:194,1,123.499996702194,2|0,1:3|0:0,0:0:0:0:
305,194,140455,6,0,P|239:252|155:277,1,136.499995834351,2|0,1:3|0:0,0:0:0:0:
195,271,140654,6,0,P|139:218|67:197,1,149.500002851486,2|0,1:3|0:0,0:0:0:0:
70,197,140852,6,0,P|21:166|144:136,1,292.499991073609,2|0,1:3|0:0,0:0:0:0:
245,33,141743,1,0,1:0:0:0:
294,189,141891,6,0,P|295:212|303:295,1,87.7499973220826,4|0,0:0|0:0,0:0:0:0:
321,368,142188,1,2,0:0:0:0:
404,347,142337,1,0,0:0:0:0:
430,265,142485,1,0,1:0:0:0:
391,191,142634,1,2,1:2:0:0:
294,189,142782,1,0,1:0:0:0:
238,271,142931,1,2,1:2:0:0:
148,237,143079,1,0,1:0:0:0:
152,143,143228,5,0,1:0:0:0:
245,81,143376,1,2,1:2:0:0:
390,104,143525,1,2,1:2:0:0:
501,17,143673,1,2,1:2:0:0:
337,0,143822,1,0,1:0:0:0:
166,56,143970,1,2,1:2:0:0:
148,237,144119,1,0,1:0:0:0:
19,367,144267,1,2,1:2:0:0:
32,148,144416,5,2,1:2:0:0:
221,315,144564,1,0,1:0:0:0:
126,120,144713,1,2,1:2:0:0:
121,371,144861,1,0,1:0:0:0:
232,86,145010,1,2,1:2:0:0:
4,279,145158,1,0,1:0:0:0:
279,382,145307,1,2,1:2:0:0:
32,148,145455,1,0,1:0:0:0:
359,253,145604,6,0,L|380:248,4,14.6249995536804,2|0|0|0|2,1:2|0:0|0:0|0:0|1:2,0:0:0:0:
253,196,145827,1,0,0:0:0:0:
243,202,145901,6,0,B|249:251|249:251|257:260|257:260|263:308,1,97.50000371933,2|0,1:3|0:0,0:0:0:0:
338,152,146050,2,0,L|330:98,1,48.750001859665,2|0,1:2|0:0,0:0:0:0:
449,283,146198,6,0,B|403:263|403:263|391:266|391:266|347:247,1,97.50000371933,0|0,1:2|1:0,0:0:0:0:
451,172,146347,2,0,L|505:164,1,48.750001859665,0|0,1:0|1:0,0:0:0:0:
361,344,146495,6,0,B|254:321|254:321|223:353|223:353|104:323,1,253.499988395691,2|0,1:3|0:0,0:0:0:0:
104,333,146792,5,4,1:2:0:0:
235,245,146941,1,0,0:0:0:0:
16,311,147089,2,0,P|33:226|45:158,1,130,8|2,0:0|0:0,0:0:0:0:
245,122,147386,6,0,P|335:170|413:199,1,168.999992263794,0|2,1:0|0:0,0:0:0:0:
491,67,147609,1,0,0:0:0:0:
491,67,147683,2,0,P|453:119|452:122,2,43.3333333333333,10|0|0,0:0|0:0|0:0,0:0:0:0:
512,247,147832,2,0,P|491:165|486:145,1,65,2|0,0:0|0:0,0:0:0:0:
315,0,147980,6,0,P|234:37|154:64,1,130,0|0,1:0|0:0,0:0:0:0:
98,16,148203,1,0,0:0:0:0:
68,4,148277,1,8,0:0:0:0:
38,12,148352,1,2,0:0:0:0:
22,39,148426,1,2,0:0:0:0:
26,69,148500,1,2,0:0:0:0:
50,91,148574,5,0,1:0:0:0:
83,120,148649,1,0,0:0:0:0:
89,167,148723,1,2,0:0:0:0:
70,215,148797,1,2,0:0:0:0:
30,238,148871,5,10,0:0:0:0:
3,293,148946,1,2,0:0:0:0:
18,354,149020,1,2,0:0:0:0:
71,384,149094,1,0,0:0:0:0:
134,350,149168,5,0,1:0:0:0:
386,380,149317,1,2,0:0:0:0:
163,206,149465,1,10,0:0:0:0:
230,384,149614,6,0,P|249:310|276:168,1,195,2|0,0:0|0:0,0:0:0:0:
258,102,149911,1,2,0:0:0:0:
467,171,150059,1,10,0:0:0:0:
220,264,150208,1,2,0:0:0:0:
196,262,150282,6,0,P|137:219|33:127,1,195,2|0,0:0|0:0,0:0:0:0:
182,0,150654,1,10,0:0:0:0:
45,138,150802,6,0,P|76:262|101:373,1,195,2|0,0:0|0:0,0:0:0:0:
175,381,151099,1,2,0:0:0:0:
198,359,151173,1,2,0:0:0:0:
205,326,151248,1,10,0:0:0:0:
194,298,151322,1,2,0:0:0:0:
204,258,151396,1,2,1:2:0:0:
254,243,151470,1,0,0:0:0:0:
300,267,151545,5,0,1:0:0:0:
404,379,151693,1,2,0:0:0:0:
512,247,151842,1,10,0:0:0:0:
290,382,151990,5,0,0:0:0:0:
388,200,152139,1,2,1:2:0:0:
512,382,152287,1,2,0:0:0:0:
250,253,152436,2,0,P|128:291|100:301,1,130,8|2,0:0|0:0,0:0:0:0:
11,28,152733,6,0,P|90:41|216:68,1,195,0|2,1:0|0:0,0:0:0:0:
286,25,153030,1,8,0:0:0:0:
319,47,153104,1,0,0:0:0:0:
329,84,153178,1,2,0:0:0:0:
306,124,153253,1,2,0:0:0:0:
302,172,153327,5,0,1:0:0:0:
338,212,153401,1,0,0:0:0:0:
391,203,153475,1,2,0:0:0:0:
415,162,153550,1,2,0:0:0:0:
461,148,153624,5,8,0:0:0:0:
506,178,153698,1,0,0:0:0:0:
512,226,153772,1,2,0:0:0:0:
482,260,153847,1,0,0:0:0:0:
436,256,153921,2,0,P|370:258|321:252,1,65,4|0,0:0|0:0,0:0:0:0:
370,382,154069,5,2,0:0:0:0:
360,339,154144,1,0,0:0:0:0:
324,318,154218,1,8,0:0:0:0:
272,315,154292,1,0,0:0:0:0:
237,345,154366,2,0,P|184:381|168:388,1,65,2|2,0:0|0:0,0:0:0:0:
71,381,154515,5,0,1:0:0:0:
30,339,154589,1,0,0:0:0:0:
44,289,154663,1,2,0:0:0:0:
86,261,154738,1,2,0:0:0:0:
99,218,154812,5,10,0:0:0:0:
112,169,154886,1,0,0:0:0:0:
87,126,154960,1,2,0:0:0:0:
41,114,155035,1,2,0:0:0:0:
0,133,155109,5,4,0:0:0:0:
234,92,155257,1,0,1:0:0:0:
72,25,155406,1,8,0:0:0:0:
195,207,155554,1,2,0:0:0:0:
346,50,155703,5,2,1:3:0:0:
346,50,155777,2,0,P|366:127|379:174,1,65,0|0,1:0|1:0,0:0:0:0:
154,0,155926,5,2,1:3:0:0:
154,0,156000,2,0,P|134:77|121:124,1,65,2|0,1:3|0:0,0:0:0:0:
250,154,156149,6,0,P|230:77|217:30,1,65,2|0,1:3|0:0,0:0:0:0:
23,308,156297,6,0,P|52:246|105:271,1,97.50000371933,4|0,1:2|0:0,0:0:0:0:
256,384,156446,2,0,P|227:322|174:347,1,97.50000371933,0|0,1:0|0:0,0:0:0:0:
76,155,156594,5,8,0:0:0:0:
101,175,156668,1,0,0:0:0:0:
132,177,156743,1,2,0:0:0:0:
162,161,156817,1,2,0:0:0:0:
199,148,156891,5,0,1:0:0:0:
236,168,156965,1,0,0:0:0:0:
255,215,157040,1,2,0:0:0:0:
239,259,157114,1,2,0:0:0:0:
258,306,157188,5,10,0:0:0:0:
309,310,157262,1,0,0:0:0:0:
352,283,157337,1,2,0:0:0:0:
358,234,157411,1,0,0:0:0:0:
330,191,157485,5,2,1:2:0:0:
324,134,157559,1,2,0:0:0:0:
363,99,157634,1,2,0:0:0:0:
414,100,157708,1,2,0:0:0:0:
453,140,157782,5,10,0:0:0:0:
414,177,157856,1,2,0:0:0:0:
358,159,157931,1,2,0:0:0:0:
345,107,158005,1,0,0:0:0:0:
299,79,158079,6,0,P|196:115|78:162,1,195.00000743866,0|2,1:0|0:0,0:0:0:0:
6,57,158302,1,2,0:0:0:0:
51,28,158376,2,0,P|162:52|207:62,1,97.50000371933,8|0,0:0|0:0,0:0:0:0:
243,222,158525,1,2,1:2:0:0:
228,272,158599,1,0,1:0:0:0:
213,323,158673,5,4,1:2:0:0:
0,232,158822,2,0,P|136:203|178:192,1,97.50000371933,0|0,1:0|0:0,0:0:0:0:
205,359,158970,6,0,P|356:327|473:302,1,195.00000743866,8|2,0:0|0:0,0:0:0:0:
493,214,159193,1,2,0:0:0:0:
493,214,159267,6,0,P|466:212|449:281,1,65,0|0,1:0|0:0,0:0:0:0:
278,157,159416,2,0,P|305:155|322:224,1,65,2|2,0:0|0:0,0:0:0:0:
391,384,159564,2,0,P|357:282|346:259,1,84.4999961318971,10|0,0:0|0:0,0:0:0:0:
433,36,159713,2,0,P|399:138|388:161,1,97.50000371933,2|0,0:0|0:0,0:0:0:0:
252,269,159861,6,0,P|134:230|39:189,1,195.00000743866,4|2,0:0|0:0,0:0:0:0:
41,356,160084,1,0,0:0:0:0:
41,356,160158,2,0,P|79:293|69:273,1,77.999997619629,10|2,0:0|0:0,0:0:0:0:
22,139,160307,1,2,0:0:0:0:
222,364,160455,6,0,P|338:311|446:270,1,195.00000743866,4|2,0:0|0:0,0:0:0:0:
342,171,160678,1,2,0:0:0:0:
342,171,160753,2,0,P|295:207|314:241,1,65,8|0,0:0|0:0,0:0:0:0:
490,378,160901,1,2,1:2:0:0:
509,329,160975,1,0,1:0:0:0:
487,288,161050,6,0,P|462:253|438:214,1,74.7500014257431,4|0,1:2|0:0,0:0:0:0:
242,18,161198,2,0,P|253:59|262:104,1,81.25,0|0,1:0|0:0,0:0:0:0:
311,349,161347,2,0,P|322:307|331:262,1,87.7500003347397,8|0,0:0|0:0,0:0:0:0:
387,0,161495,2,0,P|383:42|376:88,1,87.7500003347397,2|2,1:2|0:0,0:0:0:0:
154,228,161644,2,0,P|193:209|233:187,1,87.7500003347397,0|0,1:0|0:0,0:0:0:0:
512,111,161792,2,0,P|472:129|432:151,1,87.7500003347397,0|0,1:0|0:0,0:0:0:0:
242,371,161941,1,8,0:0:0:0:
226,331,162015,1,2,0:0:0:0:
185,311,162089,1,2,1:2:0:0:
137,328,162163,1,2,0:0:0:0:
109,362,162238,6,0,P|43:377|-17:392,1,97.50000371933,4|0,0:0|0:0,0:0:0:0:
25,182,162386,2,0,P|10:116|-5:56,1,97.50000371933,0|0,1:0|0:0,0:0:0:0:
206,135,162535,2,0,P|272:120|332:105,1,97.50000371933,8|0,0:0|0:0,0:0:0:0:
322,339,162683,1,2,1:2:0:0:
299,300,162757,1,2,1:2:0:0:
326,267,162832,2,0,L|309:210,4,48.750001859665,4|0|0|0|0,0:0|0:0|0:0|0:0|1:0,0:0:0:0:
426,384,163054,1,0,0:0:0:0:
423,361,163129,6,0,P|417:295|421:239,1,97.50000371933,8|0,0:0|0:0,0:0:0:0:
508,71,163277,2,0,P|514:137|510:193,1,97.50000371933,2|2,1:2|1:2,0:0:0:0:
326,267,163426,6,0,P|234:266|201:265,1,97.50000371933,4|0,0:0|0:0,0:0:0:0:
26,376,163574,1,2,1:2:0:0:
5,326,163649,1,0,1:0:0:0:
30,276,163723,1,6,0:0:0:0:
76,257,163797,1,0,0:0:0:0:
104,207,163871,1,2,1:2:0:0:
83,149,163946,1,0,1:0:0:0:
32,132,164020,1,4,0:0:0:0:
8,84,164094,1,0,0:0:0:0:
37,40,164168,1,2,1:2:0:0:
88,41,164243,1,0,1:0:0:0:
123,80,164317,6,0,P|237:100|278:108,1,97.50000371933,6|0,0:0|0:0,0:0:0:0:
449,20,164465,2,0,P|335:40|294:48,1,97.50000371933,2|0,0:0|0:0,0:0:0:0:
242,285,164614,5,0,1:0:0:0:
180,264,164688,1,0,1:0:0:0:
180,200,164762,1,0,1:0:0:0:
242,180,164837,1,0,1:0:0:0:
279,232,164911,1,2,0:3:0:0:
432,375,165059,5,0,1:0:0:0:
506,349,165133,1,0,1:0:0:0:
506,272,165207,1,0,1:0:0:0:
432,248,165282,1,0,1:0:0:0:
387,311,165356,1,2,0:3:0:0:
81,71,170554,6,0,P|105:170|137:325,1,253.499992263794,4|0,0:0|0:0,0:0:0:0:
249,326,171594,5,0,3:0:0:0:
290,329,171668,1,0,3:0:0:0:
321,301,171743,2,0,P|341:272|203:210,1,253.499992263794,4|0,0:0|0:0,0:0:0:0:
130,112,172782,5,0,3:0:0:0:
163,118,172856,1,0,3:0:0:0:
197,110,172931,2,0,P|238:100|264:90,1,45.4999986114502,4|0,0:0|0:0,0:0:0:0:
344,1,173079,2,0,L|342:21,1,19.5,2|0,3:0|0:0,0:0:0:0:
442,113,173376,5,0,3:0:0:0:
409,119,173450,1,0,3:0:0:0:
375,111,173525,2,0,P|334:101|308:91,1,45.4999986114502,4|0,0:0|0:0,0:0:0:0:
251,7,173673,2,0,L|253:27,1,19.5,2|0,3:0|0:0,0:0:0:0:
291,171,173970,5,0,3:0:0:0:
284,206,174045,1,0,3:0:0:0:
278,238,174119,5,0,3:0:0:0:
201,255,174218,5,0,3:0:0:0:
140,206,174317,5,0,3:0:0:0:
140,128,174416,5,0,3:0:0:0:
201,80,174515,5,0,3:0:0:0:
278,97,174614,5,0,3:0:0:0:
311,172,174713,6,0,L|307:206,4,24.3750009298325,0|0|0|0|0,3:0|0:0|0:0|0:0|0:0,0:0:0:0:
383,102,174936,1,0,0:0:0:0:
399,109,175010,2,0,P|409:142|411:182,1,48.750001859665,2|2,0:0|0:0,0:0:0:0:
508,192,175158,1,2,0:0:0:0:
491,211,175233,1,0,0:0:0:0:
486,240,175307,2,0,P|426:273|333:327,1,146.250005578995,2|0,0:0|0:0,0:0:0:0:
337,384,175604,6,0,B|330:335|325:317|325:317|282:299|170:249,1,195,4|0,3:2|0:0,0:0:0:0:
141,364,175901,2,0,B|179:334|193:320|193:320|187:275|173:152,1,195,0|0,3:0|0:0,0:0:0:0:
49,178,176198,2,0,B|95:197|112:201|112:201|149:173|248:101,1,195,2|0,3:2|0:0,0:0:0:0:
283,36,176495,6,0,B|332:90|315:126|324:128|299:162|378:232,1,195,0|2,3:0|0:0,0:0:0:0:
215,126,176792,2,0,B|286:110|309:142|315:136|332:175|433:142,1,195,0|0,3:2|0:0,0:0:0:0:
260,221,177089,2,0,B|282:150|321:147|319:139|361:144|382:40,1,195,0|0,3:0|0:0,0:0:0:0:
264,10,177386,5,2,3:2:0:0:
173,69,177535,1,2,3:2:0:0:
148,78,177609,1,0,3:0:0:0:
127,86,177683,5,2,3:3:0:0:
14,13,177832,1,2,3:2:0:0:
0,218,177980,1,0,3:0:0:0:
147,174,178129,1,2,3:2:0:0:
139,199,178203,1,0,3:0:0:0:
133,224,178277,5,2,3:3:0:0:
160,383,178426,1,2,3:2:0:0:
3,331,178574,1,2,3:2:0:0:
227,271,178723,1,2,3:2:0:0:
253,266,178797,1,0,3:0:0:0:
278,262,178871,5,2,3:3:0:0:
305,276,178946,1,0,3:0:0:0:
340,271,179020,1,2,3:2:0:0:
358,244,179094,1,0,3:0:0:0:
347,208,179168,5,2,3:3:0:0:
312,175,179243,1,0,3:0:0:0:
307,127,179317,1,2,3:2:0:0:
338,90,179391,1,0,3:0:0:0:
396,77,179465,6,0,P|423:92|438:104,5,43.3333333333333,2|0|0|0|0|0,3:3|0:0|0:0|0:0|0:0|0:0,0:0:0:0:
284,0,179762,2,0,P|257:15|242:27,5,43.3333333333333,0|0|0|0|0|0,3:0|0:0|0:0|0:0|0:0|0:0,0:0:0:0:
219,161,180059,6,0,B|170:134|141:165|133:160|89:188|34:150,1,168.999992263794,2|0,3:0|0:0,0:0:0:0:
157,7,180257,6,0,B|109:35|121:76|113:80|115:133|54:161,1,168.999992263794,2|0,3:0|0:0,0:0:0:0:
0,292,180455,6,0,P|71:257|134:228,1,112.666661509196,2|2,3:0|3:0,0:0:0:0:
176,310,180654,6,0,B|249:341|278:359|278:359|304:304|318:286,1,168.999992263794,2|0,3:0|0:0,0:0:0:0:
219,161,180852,6,0,B|228:239|227:273|227:273|288:268|310:271,1,168.999992263794,2|0,3:0|0:0,0:0:0:0:
444,376,181050,6,0,P|408:309|390:277,1,112.666661509196,2|2,3:0|3:0,0:0:0:0:
328,164,181248,5,2,3:0:0:0:
407,164,181347,5,2,3:0:0:0:
447,95,181446,5,2,3:0:0:0:
407,27,181545,5,2,3:0:0:0:
328,27,181644,5,2,3:0:0:0:
289,95,181743,5,2,3:0:0:0:
319,0,181842,5,2,3:0:0:0:
420,0,181941,5,2,3:0:0:0:
471,87,182040,5,2,3:0:0:0:
420,175,182139,5,2,3:0:0:0:
318,175,182238,5,2,3:0:0:0:
268,88,182337,5,2,3:0:0:0:
228,8,182436,6,0,P|248:65|278:167,1,156,4|0,3:2|0:0,0:0:0:0:
268,384,183030,2,0,P|248:327|218:225,1,156
306,81,183624,5,0,1:0:0:0:
247,100,183698,1,0,1:0:0:0:
247,162,183772,1,0,1:0:0:0:
306,181,183847,1,0,1:0:0:0:
342,131,183921,1,2,0:3:0:0:
418,371,184069,5,0,1:0:0:0:
354,351,184143,1,0,1:0:0:0:
354,285,184217,1,0,1:0:0:0:
418,264,184292,1,0,1:0:0:0:
457,318,184366,1,2,0:3:0:0:
512,158,184515,5,2,0:0:0:0:
494,161,184589,1,2,0:0:0:0:
477,164,184663,1,2,0:0:0:0:
461,169,184737,1,2,0:0:0:0:
440,175,184812,2,0,P|419:181|406:183,5,32.5000012397767,0|0|0|0|0|0,1:0|0:0|0:0|1:0|0:0|0:0,0:0:0:0:
465,36,185109,6,0,B|420:84|379:107|379:107|331:86|266:82,1,208,4|0,0:0|0:0,0:0:0:0:
221,0,185332,1,0,0:0:0:0:
221,0,185406,2,0,P|262:23|245:86,1,84.4999961318971,0|0,1:0|0:0,0:0:0:0:
345,171,185554,1,2,0:0:0:0:
103,102,185703,2,0,P|192:93|218:94,1,84.4999961318971,10|0,0:0|0:0,0:0:0:0:
345,171,185852,2,0,P|256:162|230:163,1,84.4999961318971,2|0,0:0|0:0,0:0:0:0:
0,300,186000,6,0,P|81:271|200:231,1,195.00000743866,0|2,1:0|0:0,0:0:0:0:
264,250,186223,1,2,0:0:0:0:
273,254,186260,1,0,0:0:0:0:
285,264,186297,2,0,P|268:320|257:364,1,84.4999961318971,8|0,0:0|0:0,0:0:0:0:
497,384,186446,6,0,B|437:317|464:280|456:275|502:213|424:131,1,253.499988395691,2|0,0:0|0:0,0:0:0:0:
493,54,186743,1,2,0:0:0:0:
461,71,186817,1,0,0:0:0:0:
423,58,186891,1,10,0:0:0:0:
405,25,186965,1,0,0:0:0:0:
361,16,187040,1,2,0:0:0:0:
335,43,187114,1,2,0:0:0:0:
331,89,187188,6,0,P|238:103|114:124,1,168.999992263794,0|2,1:0|0:0,0:0:0:0:
0,64,187411,1,2,0:0:0:0:
18,73,187485,2,0,P|146:53|179:43,1,84.4999961318971,8|0,0:0|0:0,0:0:0:0:
123,325,187634,2,0,P|150:190|166:97,1,214.500006546021,2|0,0:0|0:0,0:0:0:0:
226,35,187931,1,2,0:0:0:0:
257,68,188005,1,0,0:0:0:0:
262,117,188079,1,10,0:0:0:0:
237,163,188154,1,0,0:0:0:0:
233,217,188228,1,2,0:0:0:0:
284,260,188302,1,0,0:0:0:0:
352,243,188376,6,0,P|428:212|511:182,1,143.000004364014,2|2,1:2|0:0,0:0:0:0:
348,351,188673,1,8,0:0:0:0:
298,378,188748,1,2,0:0:0:0:
253,360,188822,6,0,B|161:351|98:356|98:356|63:300|34:216,1,292.50001115799,2|0,0:0|0:0,0:0:0:0:
22,122,189119,1,2,0:0:0:0:
48,104,189193,1,0,0:0:0:0:
90,110,189267,1,8,0:0:0:0:
110,153,189342,1,0,0:0:0:0:
127,211,189416,1,2,1:2:0:0:
190,211,189490,1,0,1:0:0:0:
226,150,189564,6,0,P|391:104|472:82,1,195.00000743866,4|2,1:2|0:0,0:0:0:0:
437,231,189787,1,2,0:0:0:0:
437,231,189861,2,0,P|415:201|429:166,1,65,8|0,0:0|0:0,0:0:0:0:
512,81,190010,1,2,0:0:0:0:
310,326,190158,6,0,P|158:301|45:288,1,195.00000743866,2|2,1:3|0:0,0:0:0:0:
17,384,190381,1,2,0:0:0:0:
17,384,190455,2,0,P|52:355|40:316,1,65,8|0,0:0|0:0,0:0:0:0:
4,197,190604,1,2,0:0:0:0:
180,32,190753,6,0,P|186:142|204:273,1,195.00000743866,2|2,1:3|0:0,0:0:0:0:
261,335,190975,1,2,0:0:0:0:
261,335,191050,2,0,P|293:293|273:255,1,65,8|0,0:0|0:0,0:0:0:0:
123,151,191198,1,2,0:0:0:0:
151,166,191272,1,2,0:0:0:0:
188,155,191347,6,0,P|285:117|335:96,1,97.50000371933,2|0,1:3|0:0,0:0:0:0:
490,251,191495,2,0,P|393:213|343:192,1,97.50000371933,2|2,0:0|0:0,0:0:0:0:
377,18,191644,2,0,P|398:98|410:148,1,97.50000371933,10|0,0:0|0:0,0:0:0:0:
261,335,191792,2,0,P|282:255|294:205,1,97.50000371933,2|0,0:0|0:0,0:0:0:0:
262,20,191941,5,2,1:3:0:0:
227,38,192015,1,0,1:0:0:0:
187,37,192089,1,0,1:0:0:0:
153,11,192163,1,0,1:0:0:0:
103,1,192238,5,8,1:2:0:0:
61,20,192312,1,0,1:0:0:0:
31,54,192386,1,0,1:0:0:0:
27,104,192460,1,0,1:0:0:0:
40,145,192535,2,0,P|68:196|89:228,1,65,2|0,1:3|0:0,0:0:0:0:
270,241,192683,6,0,P|218:250|211:254,2,32.5,2|0|0,0:0|0:0|0:0,0:0:0:0:
81,293,192832,2,0,P|166:311|186:317,1,65,10|0,0:0|0:0,0:0:0:0:
148,102,192980,2,0,P|166:187|172:207,1,65,2|0,0:0|0:0,0:0:0:0:
305,332,193129,5,0,3:0:0:0:
391,375,193228,5,0,3:0:0:0:
477,339,193327,5,0,3:0:0:0:
512,254,193426,5,0,3:0:0:0:
477,168,193525,5,0,3:0:0:0:
391,133,193624,5,0,3:0:0:0:
302,171,193723,6,0,P|253:193|224:206,2,48.750001859665,0|0|0,3:0|0:0|0:0,0:0:0:0:
369,5,193871,5,0,0:0:0:0:
392,26,193946,1,0,0:0:0:0:
413,58,194020,2,0,P|397:106|391:132,1,78,10|2,0:0|0:0,0:0:0:0:
477,168,194317,6,0,P|442:184|436:187,5,32.5000012397767,0|0|0|0|0|0,1:0|0:0|0:0|1:0|0:0|0:0,0:0:0:0:
512,254,194614,2,0,P|399:273|330:287,1,110.50000210762,4|0,0:0|0:0,0:0:0:0:
152,301,194762,6,0,B|180:344|210:375|210:375|189:275|162:126,1,292.50001115799,2|0,0:3|0:0,0:0:0:0:
171,180,195059,2,0,P|217:149|274:154,1,65,0|0,1:0|0:0,0:0:0:0:
512,85,195208,6,0,B|435:39|371:72|371:72|311:103|235:50,1,292.50001115799,2|0,0:3|0:0,0:0:0:0:
236,50,195505,2,0,P|187:77|156:90,1,65,2|0,0:0|0:0,0:0:0:0:
0,384,195654,6,0,P|21:234|55:58,1,292.50001115799,2|0,0:3|0:0,0:0:0:0:
46,95,195951,2,0,P|102:108|120:154,1,65,2|0,1:2|0:0,0:0:0:0:
384,274,196099,6,0,B|294:238|242:223|242:223|192:273|131:351,1,292.50001115799,2|0,0:3|0:0,0:0:0:0:
182,342,196396,2,0,B|242:366|276:376|276:376|310:342|350:290,1,195.00000743866,2|2,0:3|1:2,0:0:0:0:
452,197,196619,1,2,1:2:0:0:
452,197,196693,5,2,0:3:0:0:
467,173,196767,1,0,0:0:0:0:
472,146,196842,1,2,0:0:0:0:
470,125,196916,1,0,0:0:0:0:
460,109,196990,2,0,P|372:137|303:161,1,97.50000371933,0|0,1:0|0:0,0:0:0:0:
172,145,197139,5,2,0:3:0:0:
151,115,197213,1,0,0:0:0:0:
144,79,197287,1,2,0:0:0:0:
155,44,197361,1,0,0:0:0:0:
179,17,197436,2,0,P|282:48|363:76,1,97.50000371933,0|0,1:0|0:0,0:0:0:0:
353,250,197584,6,0,P|362:289|368:314,2,48.750001859665,2|0|2,0:3|0:0|0:0,0:0:0:0:
186,367,197733,1,2,0:0:0:0:
171,368,197807,1,0,0:0:0:0:
155,368,197882,5,0,1:0:0:0:
166,309,197956,1,0,1:0:0:0:
138,254,198030,1,0,1:0:0:0:
83,225,198105,1,0,0:0:0:0:
60,167,198179,1,2,1:3:0:0:
92,115,198254,1,0,1:0:0:0:
151,115,198328,1,0,1:0:0:0:
195,165,198402,1,0,0:0:0:0:
257,180,198476,5,2,1:3:0:0:
311,168,198551,1,0,1:0:0:0:
342,125,198624,1,0,1:0:0:0:
335,77,198699,5,0,1:0:0:0:
361,36,198773,1,2,1:3:0:0:
403,31,198848,1,0,1:0:0:0:
434,58,198921,1,0,1:0:0:0:
438,94,198995,1,0,1:0:0:0:
422,121,199069,6,0,B|367:136|323:100|323:100|286:64|217:80,1,195.00000743866,4|2,1:2|0:0,0:0:0:0:
393,231,199292,6,0,B|338:217|318:164|318:164|304:114|235:93,1,195.00000743866,2|0,0:0|0:0,0:0:0:0:
160,265,199515,1,2,0:0:0:0:
181,281,199589,1,0,0:0:0:0:
211,282,199663,6,0,B|295:251|345:223|345:223|457:240,1,195.00000743866,0|2,1:0|0:0,0:0:0:0:
512,384,199886,2,0,B|464:391|464:391|414:363|330:332,1,195.00000743866,2|0,0:0|0:0,0:0:0:0:
94,339,200109,1,2,0:0:0:0:
70,303,200183,1,0,0:0:0:0:
65,256,200257,6,0,P|117:157|175:54,1,195.00000743866,0|2,1:0|0:0,0:0:0:0:
191,305,200480,2,0,P|186:193|185:75,1,195.00000743866,2|0,0:0|0:0,0:0:0:0:
118,0,200703,2,0,P|188:15|229:16,1,65,2|0,0:0|0:0,0:0:0:0:
499,20,200852,6,0,P|367:53|305:71,1,195.00000743866,0|2,1:0|0:0,0:0:0:0:
491,147,201074,2,0,P|359:114|297:96,1,195.00000743866,2|0,0:0|0:0,0:0:0:0:
150,129,201297,1,2,1:2:0:0:
132,133,201371,1,0,1:0:0:0:
112,124,201446,6,0,B|84:116|63:109|63:109|78:192|102:281,1,195.00000743866,4|2,1:2|0:0,0:0:0:0:
143,363,201668,2,0,B|115:371|94:378|94:378|109:295|133:206,1,195.00000743866,2|0,0:0|0:0,0:0:0:0:
257,106,201891,1,2,0:0:0:0:
288,121,201965,1,0,0:0:0:0:
326,115,202040,6,0,B|380:92|431:75|431:75|443:132|466:218,1,221.000004215241,4|2,1:2|0:0,0:0:0:0:
512,330,202262,2,0,B|458:353|407:370|407:370|395:313|372:227,1,221.000004215241,2|0,0:0|0:0,0:0:0:0:
216,187,202485,1,2,0:0:0:0:
192,144,202559,1,2,0:0:0:0:
150,129,202634,6,0,P|124:282|121:330,1,116.999996429443,4|0,1:2|0:0,0:0:0:0:
284,384,202782,2,0,P|258:231|255:183,1,116.999996429443,2|2,1:2|0:0,0:0:0:0:
56,364,202931,2,0,P|173:334|207:326,1,116.999996429443,12|0,1:2|0:0,0:0:0:0:
329,157,203079,2,0,P|212:187|178:195,1,116.999996429443,2|0,1:2|0:0,0:0:0:0:
0,60,203228,5,4,1:2:0:0:
0,60,203302,2,0,P|143:51|213:52,1,116.999996429443,0|2,1:0|1:2,0:0:0:0:
405,70,203451,5,0,1:0:0:0:
405,70,203525,2,0,P|262:61|192:62,1,116.999996429443,14|0,1:2|1:0,0:0:0:0:
61,198,203673,2,0,P|13:192|-16:188,2,58.4999982147217,2|0|0,1:2|0:0|1:0,0:0:0:0:
252,382,203822,6,0,B|238:320|265:261|265:261|221:208|219:102,1,233.999992858887,2|0,3:0|0:0,0:0:0:0:
158,337,204020,6,0,B|218:318|256:265|256:265|324:276|416:225,1,233.999992858887,2|0,3:0|0:0,0:0:0:0:
505,330,204218,6,0,P|456:248|422:179,1,155.999995239258,2|2,3:0|3:0,0:0:0:0:
357,118,204416,6,0,B|296:107|258:146|258:146|209:199|87:171,1,233.999992858887,2|0,3:0|0:0,0:0:0:0:
197,48,204614,6,0,B|186:109|225:147|225:147|278:196|250:318,1,233.999992858887,2|0,3:0|0:0,0:0:0:0:
96,329,204812,6,0,P|129:223|148:142,1,155.999995239258,2|2,3:0|3:0,0:0:0:0:
364,127,205010,5,2,3:0:0:0:
326,30,205109,5,2,3:0:0:0:
227,22,205208,5,2,3:0:0:0:
168,96,205307,5,2,3:0:0:0:
61,86,205406,5,2,3:0:0:0:
4,0,205505,5,2,3:0:0:0:
76,86,205604,5,2,3:0:0:0:
109,209,205703,5,2,3:0:0:0:
241,219,205802,5,2,3:0:0:0:
344,142,205901,5,2,3:0:0:0:
461,183,206000,5,2,3:0:0:0:
459,304,206099,5,2,3:0:0:0:
316,366,206198,6,0,P|184:372|16:383,1,292.50001115799,4|0,3:2|0:0,0:0:0:0:
57,274,206792,2,0,P|136:277|237:284,1,146.250005578995
210,275,207089,2,0,P|219:199|165:149,1,146.250005578995,0|0,3:0|0:0,0:0:0:0:
63,67,207386,5,0,1:0:0:0:
0,86,207460,1,0,1:0:0:0:
0,152,207535,1,0,1:0:0:0:
63,171,207609,1,0,1:0:0:0:
100,119,207683,1,2,0:3:0:0:
341,129,207832,5,0,1:0:0:0:
265,106,207906,1,0,1:0:0:0:
265,26,207981,1,0,1:0:0:0:
341,3,208055,1,0,1:0:0:0:
385,66,208129,1,2,0:3:0:0:
167,51,208277,6,0,P|186:120|190:134,1,68.2499979171754,0|0,1:0|0:0,0:0:0:0:
0,86,208574,6,0,P|33:211|71:335,1,260,4|2,1:2|0:0,0:0:0:0:
100,119,209020,2,0,P|133:244|171:368,1,260,2|2,1:3|0:0,0:0:0:0:
321,384,209465,6,0,P|282:259|249:134,1,260,2|2,1:3|0:0,0:0:0:0:
423,298,209911,2,0,P|384:173|351:48,1,260,2|2,1:3|0:0,0:0:0:0:
121,0,210356,6,0,P|220:24|293:41,1,130,2|2,1:3|0:0,0:0:0:0:
477,17,210654,2,0,P|378:41|305:58,1,130,2|2,1:3|0:0,0:0:0:0:
0,102,210951,6,0,P|147:98|287:107,1,260,2|2,1:3|0:0,0:0:0:0:
1,186,211396,2,0,P|148:182|288:191,1,260,2|2,1:3|0:0,0:0:0:0:
503,292,211842,6,0,P|356:288|216:297,1,260,2|2,1:3|0:0,0:0:0:0:
502,376,212287,2,0,P|355:372|215:381,1,260,2|2,1:3|0:0,0:0:0:0:
256,185,212733,6,0,P|288:82|308:9,1,130,2|2,1:3|0:0,0:0:0:0:
163,28,213030,1,2,1:3:0:0:
384,0,213178,1,2,1:3:0:0:
384,0,213327,6,0,P|398:55|405:80,1,68.2499979171754,2|0,0:0|0:0,0:0:0:0:
415,76,213624,1,2,1:3:0:0:
389,205,213772,6,0,B|330:168|270:202|270:202|208:236|144:188,1,260,4|2,1:2|0:0,0:0:0:0:
55,312,214218,2,0,B|114:274|174:308|174:308|236:342|299:294,1,260,2|2,1:3|0:0,0:0:0:0:
483,384,214663,6,0,B|445:324|479:264|479:264|513:202|465:139,1,260,2|2,1:3|0:0,0:0:0:0:
382,0,215109,2,0,P|362:117|355:177,1,130,2|2,1:3|0:0,0:0:0:0:
374,370,215406,2,0,P|354:253|347:193,1,130,2|2,1:3|0:0,0:0:0:0:
266,92,215703,5,2,1:3:0:0:
237,207,215852,1,0,1:0:0:0:
205,226,215926,1,0,1:0:0:0:
173,217,216000,1,0,1:0:0:0:
50,0,216149,6,0,P|85:96|105:153,1,146.250005578995,2|0,1:3|0:0,0:0:0:0:
46,214,216446,1,0,1:0:0:0:
29,236,216520,1,0,1:0:0:0:
30,264,216594,1,0,1:0:0:0:
138,384,216743,6,0,P|214:337|291:302,1,146.250005578995,2|0,1:3|0:0,0:0:0:0:
331,265,217040,1,0,1:0:0:0:
354,288,217114,1,0,1:0:0:0:
383,288,217188,1,0,1:0:0:0:
488,144,217337,6,0,P|409:166|320:188,1,146.250005578995,2|0,1:3|0:0,0:0:0:0:
346,181,217634,6,0,B|299:154|275:130|275:130|266:165|225:229,1,178.750005455017,4|0,1:2|0:0,0:0:0:0:
205,299,218079,6,0,P|126:270|98:264,1,84.4999961318971,0|0,3:0|0:0,0:0:0:0:
35,228,218376,1,0,0:0:0:0:
101,187,218525,2,0,P|168:170|202:158,1,84.4999961318971
326,135,218822,1,0,1:0:0:0:
260,94,218970,2,0,P|193:77|159:65,1,84.4999961318971,0|0,3:0|0:0,0:0:0:0:
39,39,219267,2,0,P|72:132|101:211,2,168.999992263794,0|0|2,1:0|3:0|0:0,0:0:0:0:
226,12,220010,1,0,1:0:0:0:
260,94,220158,2,0,P|229:178|212:233,1,126.749994197846,0|0,3:0|0:0,0:0:0:0:
218,236,220455,6,0,P|331:218|406:207,2,168.999992263794,0|0|0,1:0|3:0|0:0,0:0:0:0:
54,263,221198,1,0,1:0:0:0:
49,346,221347,2,0,P|110:337|149:328,1,84.4999961318971,0|2,3:0|0:0,0:0:0:0:
314,360,221644,6,0,P|298:261|278:175,2,168.999992263794,0|0|2,1:0|3:0|0:0,0:0:0:0:
474,303,222386,1,0,1:0:0:0:
395,268,222535,2,0,P|419:198|426:160,1,84.4999961318971,0|2,3:0|0:0,0:0:0:0:
501,45,222832,6,0,P|417:68|384:76,1,84.4999961318971,4|2,3:2|1:2,0:0:0:0:
223,14,223129,2,0,P|307:37|340:45,1,84.4999961318971,0|2,3:0|1:2,0:0:0:0:
504,191,223426,2,0,P|420:168|387:160,1,84.4999961318971,0|2,3:0|1:2,0:0:0:0:
194,136,223723,2,0,P|278:113|311:105,1,84.4999961318971,2|2,3:2|1:2,0:0:0:0:
403,318,224020,5,4,3:2:0:0:
389,299,224094,1,0,1:0:0:0:
367,291,224168,1,2,1:2:0:0:
345,293,224243,1,0,1:0:0:0:
325,313,224317,5,0,3:0:0:0:
293,317,224391,1,0,1:0:0:0:
267,297,224465,1,2,1:2:0:0:
262,264,224540,1,0,1:0:0:0:
241,234,224614,5,4,3:2:0:0:
198,228,224688,1,0,1:0:0:0:
166,253,224762,1,2,1:2:0:0:
165,291,224837,1,0,1:0:0:0:
142,323,224911,5,2,3:2:0:0:
99,326,224985,1,0,1:0:0:0:
69,292,225059,1,2,1:2:0:0:
79,245,225134,1,0,1:0:0:0:
115,218,225208,6,0,P|146:165|205:54,1,178.75,4|0,0:0|0:0,0:0:0:0:
270,13,226099,1,0,1:0:0:0:
286,41,226173,1,0,1:0:0:0:
314,50,226248,1,0,1:0:0:0:
342,40,226322,1,0,1:0:0:0:
372,20,226396,6,0,P|420:37|444:93,1,84.4999961318971,2|0,3:0|0:0,0:0:0:0:
438,63,226594,6,0,P|447:113|410:160,1,84.4999961318971,2|0,3:0|0:0,0:0:0:0:
434,142,226792,6,0,P|356:138|324:133,1,84.4999961318971,2|0,3:0|0:0,0:0:0:0:
349,137,226990,6,0,P|286:140|261:144,1,71.5000021820069,2|0,3:0|0:0,0:0:0:0:
277,141,227188,6,0,P|225:137|205:134,1,58.4999982147217,2|0,3:0|0:0,0:0:0:0:
218,136,227386,6,0,P|178:137|162:140,1,45.4999986114502,2|0,3:0|0:0,0:0:0:0:
172,138,227584,5,0,1:0:0:0:
256,192,227881,12,0,229960,0:0:0:0:
