osu file format v14

[General]
AudioFilename: audio.mp3
AudioLeadIn: 0
PreviewTime: 124218
Countdown: 0
SampleSet: Soft
StackLeniency: 0.3
Mode: 0
LetterboxInBreaks: 0
WidescreenStoryboard: 1

[Editor]
Bookmarks: 8970,19663,31545,41050,48178,55307,57683,65109,83822,93327,102832,119465,124218,138475,156594,165802,175604,185109,208574,227881,229960
DistanceSpacing: 0.8
BeatDivisor: 4
GridSize: 32
TimelineZoom: 2.6

[Metadata]
Title:Xrocus
TitleUnicode:Xrocus
Artist:AAAA vs. Morimori Atsushi
ArtistUnicode:ああああ vs. モリモリあつし
Creator:-Syncro
Version:Insane
Source:
Tags:AnimeStyle Shiitsuin chizu-kun Seijiro MrSergio Zekk Shiino FA featured artist electronic instrumental 非可逆リズム hikagyaku rhythm rizumu NNRR-0011 Ayatsugu_Otowa 梅干茶漬け 影虎。 cosMo@暴走P xac s-don hapi⇒ polysha 黄泉路テヂーモ umeboshi chazuke kagetora. cosMo@bousouP yomiji tejiimo Chizu Shii leomineXD
BeatmapID:3158434
BeatmapSetID:1508694

[Difficulty]
HPDrainRate:5
CircleSize:3.7
OverallDifficulty:8
ApproachRate:9
SliderMultiplier:1.4
SliderTickRate:1

[Events]
//Background and Video events
0,0,"Konachan.com - 325230 sample.jpg",0,0
//Break Periods
2,41250,47578
2,55507,57083
2,124418,137875
2,165802,169954
//Storyboard Layer 0 (Background)
//Storyboard Layer 1 (Fail)
//Storyboard Layer 2 (Pass)
//Storyboard Layer 3 (Foreground)
//Storyboard Layer 4 (Overlay)
//Storyboard Sound Samples

[TimingPoints]
654,297.029702970297,4,2,1,81,1,0
8970,-40,4,2,1,82,0,0
9119,-66.6666666666667,4,2,1,82,0,0
9416,-71.4285714285714,4,2,1,82,0,0
9713,-83.3333333333333,4,2,1,82,0,0
10158,-100,4,2,1,75,0,0
10604,-100,4,2,1,75,0,0
11050,-100,4,2,1,75,0,0
11495,-100,4,2,1,75,0,0
12535,-100,4,2,1,75,0,0
12980,-100,4,2,1,75,0,0
13426,-100,4,2,1,75,0,0
13574,-100,4,2,1,75,0,0
15356,-100,4,2,1,75,0,0
15802,-100,4,2,1,75,0,0
16248,-100,4,2,1,75,0,0
17287,-100,4,2,1,68,0,0
18475,-100,4,2,1,78,0,0
19366,-100,4,2,1,78,0,0
19663,-100,4,2,1,78,0,0
19738,-100,4,2,1,68,0,0
21149,-125,4,2,1,68,0,0
22040,-100,4,2,1,68,0,0
22262,-100,4,2,1,68,0,0
22337,-100,4,2,1,68,0,0
23079,-166.666666666667,4,2,1,68,0,0
23822,-100,4,2,1,68,0,0
24416,-100,4,2,1,68,0,0
24638,-100,4,2,1,68,0,0
24713,-100,4,2,1,68,0,0
25901,-125,4,2,1,68,0,0
26792,-125,4,2,1,68,0,0
27980,-166.666666666667,4,2,1,68,0,0
29168,-100,4,2,1,68,0,0
31545,-100,4,2,1,75,0,0
32881,-100,4,2,1,70,0,0
33921,-100,4,2,1,75,0,0
36297,-100,4,2,1,80,0,0
40455,-71.4285714285714,4,2,1,80,0,0
40753,-62.5,4,2,1,80,0,0
48178,-125,4,2,1,80,0,0
48772,-83.3333333333333,4,2,1,80,0,0
49366,-71.4285714285714,4,2,1,80,0,0
50554,-71.4285714285714,4,2,1,80,0,0
50852,-100,4,2,1,80,0,0
51297,-166.666666666667,4,2,1,80,0,0
51743,-83.3333333333333,4,2,1,80,0,0
55307,-142.857142857143,4,2,1,72,0,0
57683,-142.857142857143,4,2,1,75,0,0
62436,-55.5555555555556,4,2,1,80,0,0
62832,-83.3333333333333,4,2,1,80,0,0
63030,-55.5555555555556,4,2,1,80,0,0
63426,-83.3333333333333,4,2,1,80,0,0
65109,-83.3333333333333,4,2,1,85,0,1
65406,-100,4,2,1,85,0,1
69564,-66.6666666666667,4,2,1,85,0,1
69787,-83.3333333333333,4,2,1,85,0,1
70158,-66.6666666666667,4,2,1,85,0,1
70381,-83.3333333333333,4,2,1,85,0,1
70753,-71.4285714285714,4,2,1,85,0,1
71050,-83.3333333333333,4,2,1,85,0,1
74020,-83.3333333333333,4,2,1,80,0,1
74614,-83.3333333333333,4,2,1,85,0,1
74911,-100,4,2,1,85,0,1
79069,-66.6666666666667,4,2,1,80,0,1
79267,-83.3333333333333,4,2,1,80,0,1
79663,-66.6666666666667,4,2,1,80,0,1
79861,-83.3333333333333,4,2,1,80,0,1
80257,-71.4285714285714,4,2,1,80,0,1
81446,-100,4,2,1,80,0,1
83525,-166.666666666667,4,2,1,80,0,1
83822,-100,4,2,1,75,0,0
84267,-83.3333333333333,4,2,1,75,0,0
85158,-100,4,2,1,75,0,0
86644,-83.3333333333333,4,2,1,75,0,0
87238,-71.4285714285714,4,2,1,75,0,0
88574,-142.857142857143,4,2,1,75,0,0
88871,-71.4285714285714,4,2,1,75,0,0
89020,-100,4,2,1,75,0,0
89911,-83.3333333333333,4,2,1,75,0,0
90208,-100,4,2,1,75,0,0
91396,-71.4285714285714,4,2,1,75,0,0
91990,-62.5,4,2,1,75,0,0
92584,-55.5555555555556,4,2,1,75,0,0
92881,-166.666666666667,4,2,1,75,0,0
93327,-100,4,2,1,68,0,0
94515,-100,4,2,1,70,0,0
95703,-100,4,2,1,72,0,0
96891,-100,4,2,1,74,0,0
98079,-100,4,2,1,78,0,0
100455,-125,4,2,1,78,0,0
101644,-55.5555555555556,4,2,1,78,0,0
101842,-125,4,2,1,78,0,0
102238,-62.5,4,2,1,78,0,0
102436,-166.666666666667,4,2,1,78,0,0
102832,-71.4285714285715,4,2,1,75,0,0
103129,-100,4,2,1,75,0,0
105208,-83.3333333333333,4,2,1,75,0,0
105505,-100,4,2,1,75,0,0
106248,-125,4,2,1,75,0,0
106990,-83.3333333333333,4,2,1,75,0,0
107584,-83.3333333333333,4,2,1,75,0,0
108030,-100,4,2,1,75,0,0
109366,-83.3333333333333,4,2,1,75,0,0
109663,-71.4285714285714,4,2,1,75,0,0
109960,-100,4,2,1,75,0,0
114713,-125,4,2,1,70,0,0
115604,-166.666666666667,4,2,1,70,0,0
116198,-100,4,2,1,70,0,0
117089,-100,4,2,1,80,0,0
118871,-71.4285714285714,4,2,1,80,0,0
119465,-200,4,2,1,65,0,0
138475,-125,4,2,1,70,0,0
139069,-83.3333333333333,4,2,1,70,0,0
139663,-55.5555555555556,4,2,1,70,0,0
140059,-83.3333333333333,4,2,1,70,0,0
140257,-55.5555555555556,4,2,1,70,0,0
140653,-83.3333333333333,4,2,1,70,0,0
140852,-133.333333333333,4,2,1,70,0,0
141891,-71.4285714285714,4,2,1,70,0,0
142337,-100,4,2,1,70,0,0
142485,-100,4,2,1,68,0,0
143228,-100,4,2,1,72,0,0
144416,-100,4,2,1,76,0,0
145604,-100,4,2,1,80,0,0
146198,-83.3333333333333,4,2,1,80,0,0
146792,-71.4285714285714,4,2,1,78,0,0
147089,-100,4,2,1,78,0,0
161050,-100,4,2,1,82,0,0
165505,-100,4,2,1,75,0,0
170554,-166.666666666667,4,2,1,75,0,0
174119,-100,4,2,1,75,0,0
175604,-100,4,2,1,78,0,0
177683,-100,4,2,1,74,0,0
178277,-100,4,2,1,72,0,0
178871,-100,4,2,1,68,0,0
179168,-100,4,2,1,66,0,0
179465,-100,4,2,1,64,0,0
179762,-100,4,2,1,60,0,0
180059,-76.9230769230769,4,2,1,80,0,0
182436,-133.333333333333,4,2,1,80,0,0
185109,-76.9230769230769,4,2,1,85,0,1
190753,-66.6666666666667,4,2,1,85,0,1
191941,-83.3333333333333,4,2,1,85,0,1
194020,-66.6666666666667,4,2,1,80,0,1
199069,-66.6666666666667,4,2,1,85,0,1
203822,-58.8235294117647,4,2,1,80,0,1
206198,-100,4,2,1,80,0,1
208574,-100,4,2,1,75,0,0
216149,-71.4285714285714,4,2,1,75,0,0
216743,-62.5,4,2,1,75,0,0
217337,-55.5555555555556,4,2,1,75,0,0
218079,-100,4,2,1,68,0,0
219267,-100,4,2,1,70,0,0
220455,-100,4,2,1,72,0,0
221643,-100,4,2,1,74,0,0
222831,-100,4,2,1,78,0,0
226396,-66.6666666666667,4,2,1,78,0,0
227881,-100,4,2,1,80,0,0
229960,-100,4,2,1,20,0,0

[Colours]
Combo1 : 255,94,55
Combo2 : 201,150,160
Combo3 : 243,192,99

[HitObjects]
42,159,8970,5,2,0:3:0:0:
161,81,9119,1,2,0:3:0:0:
66,72,9267,1,2,0:3:0:0:
132,187,9416,2,0,P|223:165|287:148,1,146.999995513916,2|0,0:3|0:0,0:0:0:0:
281,150,9713,1,0,1:0:0:0:
424,72,9861,2,0,P|389:116|413:188,1,125.999996154785,8|0,0:0|0:0,0:0:0:0:
486,259,10158,6,0,P|411:269|325:286,1,140,4|2,1:2|0:0,0:0:0:0:
279,352,10604,2,0,P|204:342|118:325,1,140,2|2,1:3|0:0,0:0:0:0:
39,300,11050,2,0,P|37:247|117:194,1,140,2|2,1:3|0:0,0:0:0:0:
218,211,11495,6,0,P|197:144|191:118,2,70,2|2|2,1:3|0:0|0:0,0:0:0:0:
296,278,11941,1,2,1:3:0:0:
382,239,12089,1,0,0:0:0:0:
471,272,12238,2,0,P|512:214|513:192,1,70,2|2,1:3|0:0,0:0:0:0:
512,63,12535,6,0,P|437:85|349:111,1,140,2|2,1:3|0:0,0:0:0:0:
309,167,12980,2,0,P|232:144|219:83,1,140,2|2,1:3|0:0,0:0:0:0:
152,13,13426,1,2,0:3:0:0:
142,136,13574,6,0,P|65:128|13:124,1,105,2|0,1:3|0:0,0:0:0:0:
38,126,13871,2,0,P|-1:165|21:223,1,105,2|0,1:3|0:0,0:0:0:0:
7,209,14168,2,0,P|29:276|41:353,1,140,2|2,1:3|1:3,0:0:0:0:
136,370,14614,1,0,1:0:0:0:
161,365,14688,1,0,1:0:0:0:
178,353,14762,1,2,1:2:0:0:
191,338,14837,1,0,1:0:0:0:
191,338,15208,5,4,1:2:0:0:
215,253,15356,2,0,P|269:248|360:257,1,140,2|2,1:2|0:0,0:0:0:0:
460,289,15802,2,0,P|455:235|464:144,1,140,2|2,1:3|0:0,0:0:0:0:
446,50,16248,2,0,P|391:28|346:93,1,140,2|0,1:3|0:0,0:0:0:0:
385,166,16693,2,0,P|334:178|289:190,1,70,2|2,1:3|0:0,0:0:0:0:
263,96,16990,2,0,P|212:108|167:120,1,70,2|2,1:3|0:0,0:0:0:0:
108,186,17287,5,4,0:0:0:0:
108,186,18475,5,2,1:2:0:0:
108,186,18550,1,0,1:0:0:0:
108,186,18624,1,2,1:2:0:0:
108,186,18698,1,0,1:0:0:0:
108,186,18772,1,2,0:3:0:0:
208,143,18921,5,2,1:2:0:0:
208,143,18996,1,0,1:0:0:0:
208,143,19070,1,2,1:2:0:0:
208,143,19144,1,0,1:0:0:0:
208,143,19218,1,2,0:3:0:0:
87,69,19366,5,2,0:0:0:0:
227,28,19663,5,4,0:0:0:0:
227,28,20109,5,2,0:0:0:0:
276,94,20257,1,2,0:0:0:0:
356,119,20406,1,2,0:0:0:0:
436,100,20554,1,2,0:0:0:0:
443,203,20703,2,0,P|397:210|287:236,1,140,2|0,0:0|0:0,0:0:0:0:
268,322,21149,6,0,P|221:321|206:295,1,56,2|0,0:0|0:0,0:0:0:0:
144,359,21446,2,0,P|121:317|136:291,1,56,2|0,0:0|0:0,0:0:0:0:
40,283,21743,2,0,P|64:242|94:242,1,56,2|0,0:0|0:0,0:0:0:0:
56,130,22040,6,0,P|121:157|185:173,1,105,2|0,0:0|0:0,0:0:0:0:
166,168,22337,1,2,0:0:0:0:
253,129,22485,2,0,P|304:96|368:135,1,140,2|0,0:0|0:0,0:0:0:0:
389,255,22931,1,2,0:0:0:0:
474,259,23079,2,0,P|460:193|441:77,1,167.999994873047,2|0,0:0|0:0,0:0:0:0:
363,12,23822,6,0,P|309:29|292:85,2,105,2|2|2,0:0|0:0|0:0,0:0:0:0:
356,177,24416,6,0,P|269:150|230:143,1,105,2|0,0:0|0:0,0:0:0:0:
243,149,24713,1,2,0:0:0:0:
192,215,24861,2,0,P|140:246|74:211,1,140,2|0,0:0|0:0,0:0:0:0:
0,138,25307,1,2,0:0:0:0:
81,97,25455,1,2,0:0:0:0:
0,234,25604,6,0,P|18:310|22:347,1,105,2|0,0:0|0:0,0:0:0:0:
31,345,25901,2,0,P|74:368|111:344,1,84,2|0,0:0|0:0,0:0:0:0:
116,333,26198,2,0,P|155:315|192:334,1,84,2|0,0:0|0:0,0:0:0:0:
211,350,26495,2,0,P|249:357|291:361,1,56,2|0,0:0|0:0,0:0:0:0:
406,363,26792,6,0,P|458:334|374:244,1,224,2|2,0:0|0:0,0:0:0:0:
280,256,27535,1,2,0:0:0:0:
196,232,27683,2,0,P|199:200|214:159,1,56,2|2,0:0|0:0,0:0:0:0:
154,76,27980,6,0,P|265:94|379:110,1,209.999993591309,2|0,0:0|0:0,0:0:0:0:
481,117,28871,2,0,P|476:76|467:62,1,41.9999987182618,2|0,0:0|0:0,0:0:0:0:
340,0,29168,6,0,P|314:47|371:109,1,140,2|0,0:0|0:0,0:0:0:0:
417,190,29614,1,2,0:0:0:0:
349,247,29762,2,0,P|303:238|269:233,1,70,2|2,0:0|0:0,0:0:0:0:
253,147,30059,2,0,P|208:162|176:174,1,70,2|2,0:0|0:0,0:0:0:0:
161,280,30356,6,0,P|103:273|57:206,1,140,2|2,0:0|0:0,0:0:0:0:
0,63,30951,2,0,P|63:78|157:92,1,140,2|2,0:0|0:0,0:0:0:0:
243,42,31396,1,0,1:0:0:0:
243,42,31470,1,0,1:0:0:0:
243,42,31545,6,0,P|258:92|268:128,1,70,2|0,0:3|0:0,0:0:0:0:
437,19,31842,1,0,1:0:0:0:
363,73,31990,2,0,P|348:123|338:159,1,70,2|0,0:3|0:0,0:0:0:0:
512,121,32287,1,0,1:0:0:0:
429,154,32436,2,0,P|449:214|476:316,1,140,4|0,0:0|0:0,0:0:0:0:
416,355,32881,6,0,P|383:354|368:348,2,35,2|2|2,0:0|0:0|0:0,0:0:0:0:
311,384,33178,2,0,P|295:354|293:338,2,35,2|2|2,0:0|0:0|0:0,0:0:0:0:
205,342,33475,2,0,P|222:313|235:303,2,35,2|2|2,0:0|0:0|1:2,0:0:0:0:
109,373,33772,1,2,1:2:0:0:
109,373,33847,1,0,1:0:0:0:
109,373,33921,6,0,P|85:331|83:305,1,70,4|2,3:2|0:0,0:0:0:0:
0,202,34218,2,0,P|55:220|88:221,1,70,2|2,3:2|0:0,0:0:0:0:
290,238,34515,2,0,P|235:220|202:219,1,70,0|0,3:0|0:0,0:0:0:0:
148,98,34812,2,0,P|131:162|141:180,1,70,0|2,3:0|0:0,0:0:0:0:
112,294,35109,5,4,3:2:0:0:
132,162,35257,1,2,3:2:0:0:
227,331,35406,1,2,3:2:0:0:
224,219,35554,1,2,3:2:0:0:
330,352,35703,2,0,P|341:298|347:288,3,35,4|0|2|0,3:2|1:0|1:2|1:0,0:0:0:0:
419,333,36000,2,0,P|413:306|410:301,6,17.5,0|0|0|0|2|0|0,1:0|0:0|1:0|0:0|1:2|0:0|1:0,0:0:0:0:
511,371,36297,6,0,P|514:292|518:269,1,70,4|2,1:2|0:0,0:0:0:0:
421,210,36594,5,8,0:0:0:0:
470,140,36743,1,0,0:0:0:0:
398,88,36891,2,0,P|344:94|322:131,1,70,0|2,1:0|0:0,0:0:0:0:
256,220,37188,5,8,0:0:0:0:
295,302,37337,1,0,0:0:0:0:
224,356,37485,2,0,P|179:340|161:307,1,70,0|2,1:0|0:0,0:0:0:0:
84,361,37782,2,0,P|75:314|94:281,1,70,8|2,0:0|0:0,0:0:0:0:
7,230,38079,2,0,P|62:218|164:204,1,140,0|10,1:0|0:0,0:0:0:0:
264,184,38525,1,2,0:0:0:0:
264,184,38599,1,2,0:0:0:0:
264,184,38673,6,0,P|260:132|261:99,1,70,0|2,1:0|0:0,0:0:0:0:
204,20,38970,5,8,0:0:0:0:
110,30,39119,1,0,0:0:0:0:
92,127,39267,2,0,P|88:157|82:198,1,70,0|2,1:0|0:0,0:0:0:0:
0,373,39564,5,10,0:0:0:0:
53,313,39713,1,2,0:0:0:0:
133,341,39861,2,0,L|157:354,4,17.5,0|0|0|0|0,1:0|1:0|1:0|1:0|1:0,0:0:0:0:
137,249,40158,6,0,P|179:223|205:221,1,70,2|2,1:3|0:0,0:0:0:0:
239,141,40455,2,0,P|304:176|326:208,1,97.9999970092774,2|0,1:3|0:0,0:0:0:0:
417,182,40753,2,0,P|419:256|402:291,1,112,2|0,1:3|0:0,0:0:0:0:
288,372,41050,5,4,0:0:0:0:
340,372,48178,6,0,P|322:300|315:257,1,112,4|0,0:0|0:0,0:0:0:0:
359,177,48624,1,0,1:0:0:0:
359,177,48698,1,0,1:0:0:0:
359,177,48772,2,0,P|342:135|227:136,1,167.999994873047,2|0,0:3|0:0,0:0:0:0:
228,263,49218,1,0,1:0:0:0:
228,263,49292,1,0,1:0:0:0:
228,263,49366,2,0,P|142:281|23:306,1,195.999994018555,2|0,0:3|0:0,0:0:0:0:
2,205,49812,1,0,1:0:0:0:
2,205,49886,1,0,1:0:0:0:
2,205,49960,5,2,0:3:0:0:
117,78,50158,1,2,0:3:0:0:
231,164,50356,1,2,0:3:0:0:
231,164,50852,5,2,0:3:0:0:
256,247,51000,2,0,P|321:264|413:291,1,140,2|0,0:3|1:0,0:0:0:0:
447,360,51743,6,0,P|472:315|430:205,1,167.999994873047,2|0,0:3|1:0,0:0:0:0:
502,135,52188,2,0,P|457:110|347:152,1,167.999994873047,2|0,0:3|1:0,0:0:0:0:
267,119,52634,2,0,P|251:176|251:194,3,41.9999987182618,2|2|2|0,0:3|0:3|0:3|0:0,0:0:0:0:
325,25,52931,6,0,P|236:37|138:48,1,167.999994873047,2|0,0:3|1:0,0:0:0:0:
0,150,53376,2,0,P|89:138|187:127,1,167.999994873047,2|0,0:3|1:0,0:0:0:0:
247,193,53822,1,2,0:0:0:0:
247,193,54119,6,0,P|269:268|186:303,1,167.999994873047,2|0,0:3|1:0,0:0:0:0:
114,335,54564,2,0,P|39:357|4:274,1,167.999994873047,2|0,0:3|1:0,0:0:0:0:
76,193,55010,2,0,P|108:174|135:182,3,41.9999987182618,2|2|2|0,0:3|0:3|0:3|0:0,0:0:0:0:
5,152,55307,1,4,0:0:0:0:
58,8,57683,6,0,L|124:25,1,48.9999985046387,2|2,0:3|1:2,0:0:0:0:
105,20,57906,1,0,1:0:0:0:
105,20,57980,1,0,1:0:0:0:
116,128,58129,6,0,L|182:145,1,48.9999985046387,2|2,0:3|1:2,0:0:0:0:
163,140,58352,1,0,1:0:0:0:
163,140,58426,1,0,1:0:0:0:
147,257,58574,6,0,L|213:274,1,48.9999985046387,2|2,0:3|1:2,0:0:0:0:
194,269,58797,1,0,1:0:0:0:
194,269,58871,1,0,1:0:0:0:
168,371,59020,6,0,L|234:388,1,48.9999985046387,2|2,0:3|1:2,0:0:0:0:
215,383,59243,1,0,1:0:0:0:
215,383,59317,1,0,1:0:0:0:
307,322,59465,6,0,L|373:339,1,48.9999985046387,2|2,0:3|1:2,0:0:0:0:
277,195,59762,6,0,L|343:212,1,48.9999985046387,2|2,0:3|1:2,0:0:0:0:
461,40,60059,6,0,P|441:71|441:78,4,24.4999992523194,0|0|2|0|0,1:0|1:0|1:2|1:0|3:0,0:0:0:0:
335,76,60505,2,0,P|351:108|357:112,4,24.4999992523194,0|0|2|0|0,1:0|1:0|1:2|1:0|3:0,0:0:0:0:
324,207,60951,2,0,P|360:208|366:205,4,24.4999992523194,0|0|2|0|0,1:0|1:0|1:2|1:0|3:0,0:0:0:0:
389,332,61396,2,0,P|409:300|408:293,4,24.4999992523194,0|0|2|0|0,1:0|1:0|1:2|1:0|3:0,0:0:0:0:
511,184,61842,6,0,L|447:201,1,48.9999985046387,2|0,3:2|1:0,0:0:0:0:
412,131,62064,1,2,3:2:0:0:
412,131,62139,2,0,L|349:144,1,48.9999985046387,0|2,0:0|3:2,0:0:0:0:
265,281,62436,5,2,0:3:0:0:
251,279,62634,1,2,0:3:0:0:
235,277,62832,1,2,0:3:0:0:
220,276,63030,1,2,0:3:0:0:
204,273,63228,1,2,0:3:0:0:
188,272,63426,1,2,0:3:0:0:
91,192,63624,6,0,P|107:228|110:249,4,41.9999987182618,0|0|0|0|2,1:0|1:0|1:0|1:0|0:3,0:0:0:0:
218,154,64069,2,0,P|202:190|199:211,4,41.9999987182618,0|0|0|0|2,1:0|1:0|1:0|1:0|0:3,0:0:0:0:
419,220,64515,5,2,0:0:0:0:
407,211,64589,1,2,0:0:0:0:
394,210,64663,1,2,0:0:0:0:
380,214,64738,1,2,0:0:0:0:
361,222,64812,2,0,P|315:216|272:211,1,83.9999974365235,0|0,1:0|1:0,0:0:0:0:
64,145,65109,6,0,P|100:139|169:120,1,83.9999974365235,4|0,0:0|0:0,0:0:0:0:
330,128,65406,1,0,1:0:0:0:
254,57,65554,1,2,0:0:0:0:
254,57,65703,2,0,P|235:118|245:139,1,70,10|2,0:0|0:0,0:0:0:0:
293,279,66000,2,0,P|286:250|276:206,1,70,0|2,1:0|0:0,0:0:0:0:
277,210,66223,1,2,0:0:0:0:
277,210,66297,1,8,0:0:0:0:
152,341,66446,2,0,P|165:283|185:196,1,140,2|2,0:0|0:0,0:0:0:0:
42,177,66891,1,10,0:0:0:0:
30,167,66965,1,0,0:0:0:0:
28,155,67040,1,2,0:0:0:0:
34,145,67114,1,2,0:0:0:0:
48,136,67188,6,0,P|99:145|141:151,1,70,0|2,1:0|0:0,0:0:0:0:
187,181,67411,6,0,P|231:137|235:113,1,70,2|0,0:0|0:0,0:0:0:0:
164,81,67634,5,2,0:0:0:0:
256,16,67782,2,0,P|334:5|358:0,1,70,0|2,1:0|0:0,0:0:0:0:
350,96,68079,1,10,0:0:0:0:
433,0,68228,1,2,0:0:0:0:
433,0,68302,1,0,0:0:0:0:
433,0,68376,6,0,P|437:79|442:128,1,105,2|0,1:2|0:0,0:0:0:0:
442,117,68673,1,8,0:0:0:0:
494,204,68822,1,2,0:0:0:0:
494,204,68896,1,0,0:0:0:0:
494,204,68970,2,0,P|451:223|397:216,1,70,0|2,1:0|0:0,0:0:0:0:
412,335,69267,2,0,P|374:307|353:256,1,70,8|2,0:0|1:2,0:0:0:0:
339,119,69564,6,0,P|257:153|162:190,1,157.500006008148,4|2,1:2|0:0,0:0:0:0:
171,185,69861,1,8,0:0:0:0:
221,79,70010,1,2,0:0:0:0:
63,154,70158,6,0,P|88:228|116:317,1,157.500006008148,2|2,1:3|0:0,0:0:0:0:
122,323,70455,1,8,0:0:0:0:
7,280,70604,1,2,0:0:0:0:
209,279,70753,6,0,P|297:295|327:301,1,97.9999970092774,2|2,1:3|0:0,0:0:0:0:
461,367,71050,2,0,P|479:301|456:259,1,83.9999974365235,8|2,0:0|0:0,0:0:0:0:
348,124,71347,2,0,P|330:190|353:232,1,83.9999974365235,2|2,1:3|0:0,0:0:0:0:
344,353,71644,2,0,P|256:369|197:378,1,125.999996154785,10|0,0:0|0:0,0:0:0:0:
128,366,71941,5,2,1:3:0:0:
112,364,72015,1,0,1:0:0:0:
97,352,72089,2,0,P|103:304|115:285,1,41.9999987182618,0|0,1:0|1:0,0:0:0:0:
73,224,72238,2,0,P|108:212|142:217,3,41.9999987182618,8|0|0|0,1:2|1:0|1:0|1:0,0:0:0:0:
216,256,72535,2,0,P|210:304|198:323,3,41.9999987182618,2|0|2|0,1:3|0:0|0:0|0:0,0:0:0:0:
204,247,72832,1,10,0:0:0:0:
143,184,72980,1,2,0:0:0:0:
240,137,73129,6,0,P|326:118|345:112,2,55.9999982910157,0|0|0,3:0|3:0|3:0,0:0:0:0:
136,82,73426,2,0,P|50:63|31:57,2,55.9999982910157,0|0|0,3:0|3:0|3:0,0:0:0:0:
230,43,73723,2,0,P|306:19|349:5,1,83.9999974365235,0|0,3:0|0:0,0:0:0:0:
408,22,74020,6,0,P|400:91|390:181,1,125.999996154785,10|2,0:0|0:0,0:0:0:0:
488,203,74317,2,0,P|469:221|458:224,6,20.9999993591309,0|0|0|0|0|0|0,1:0|1:0|1:0|1:0|1:0|1:0|1:0,0:0:0:0:
490,197,74614,6,0,P|409:205|316:215,1,167.999994873047,4|0,0:0|1:0,0:0:0:0:
242,306,75059,1,2,0:0:0:0:
329,280,75208,2,0,P|332:232|319:210,1,70,10|2,0:0|0:0,0:0:0:0:
219,88,75505,6,0,P|216:135|213:177,1,70,0|0,1:0|0:0,0:0:0:0:
214,157,75728,1,0,0:0:0:0:
214,157,75802,1,8,0:0:0:0:
342,5,75951,2,0,P|346:84|352:154,1,140,2|2,0:0|0:0,0:0:0:0:
487,195,76396,1,10,0:0:0:0:
497,217,76470,1,0,0:0:0:0:
496,242,76545,1,2,1:2:0:0:
486,263,76619,1,2,1:2:0:0:
470,273,76693,6,0,P|436:268|426:266,3,35,2|0|2|0,1:3|0:0|0:0|0:0,0:0:0:0:
374,337,76990,2,0,P|340:332|330:330,3,35,8|0|2|2,0:0|0:0|1:2|1:2,0:0:0:0:
325,232,77287,6,0,P|349:182|355:176,3,35,2|0|2|0,1:3|0:0|0:0|0:0,0:0:0:0:
303,124,77584,2,0,P|358:119|366:121,3,35,10|0|2|2,0:0|0:0|1:2|1:2,0:0:0:0:
257,295,77881,5,2,1:3:0:0:
241,287,77955,1,0,1:0:0:0:
225,292,78030,1,0,1:0:0:0:
162,221,78178,2,0,P|128:216|118:214,3,35,10|0|2|0,0:0|1:0|1:2|0:0,0:0:0:0:
57,161,78475,1,2,1:3:0:0:
57,161,78550,1,0,1:0:0:0:
158,103,78698,1,0,1:0:0:0:
158,103,78772,2,0,P|148:137|147:147,3,35,10|0|2|0,0:0|1:0|1:2|1:0,0:0:0:0:
220,38,79069,6,0,P|147:0|89:72,2,140.000005340576,2|2|2,3:0|3:0|3:0,0:0:0:0:
306,118,79564,1,2,3:0:0:0:
306,118,79663,6,0,P|379:80|437:152,2,140.000005340576,2|2|2,3:0|3:0|3:0,0:0:0:0:
232,209,80158,1,2,3:0:0:0:
232,209,80257,6,0,P|166:246|150:238,2,65.3333313395183,2|2|2,3:0|3:0|3:0,0:0:0:0:
316,270,80554,2,0,P|382:307|398:299,2,65.3333313395183,2|2|2,3:0|3:0|3:0,0:0:0:0:
245,384,80852,6,0,P|230:304|222:275,2,65.3333313395183,2|2|2,3:0|3:0|3:0,0:0:0:0:
316,270,81149,2,0,P|331:190|339:161,2,65.3333313395183,2|2|2,3:0|3:0|3:0,0:0:0:0:
462,384,81446,6,0,P|451:305|442:162,1,210,4|0,3:2|0:0,0:0:0:0:
233,212,82040,2,0,P|244:133|253:-10,1,210
125,78,82634,5,0,1:0:0:0:
125,78,82708,1,0,1:0:0:0:
125,78,82782,1,2,1:2:0:0:
125,78,82856,1,0,1:0:0:0:
125,78,82931,1,2,0:3:0:0:
18,137,83079,5,0,1:0:0:0:
18,137,83153,1,0,1:0:0:0:
18,137,83227,1,2,1:2:0:0:
18,137,83301,1,0,1:0:0:0:
18,137,83376,1,2,0:3:0:0:
59,254,83525,5,0,1:0:0:0:
59,254,83822,6,0,P|141:288|195:313,1,140,4|2,1:2|0:0,0:0:0:0:
278,358,84267,2,0,P|351:340|324:258,1,167.999994873047,2|2,1:3|0:0,0:0:0:0:
239,230,84713,2,0,P|231:172|213:63,1,167.999994873047,2|2,1:3|0:0,0:0:0:0:
348,45,85158,6,0,P|340:65|332:136,2,70,2|2|2,1:3|0:0|0:0,0:0:0:0:
439,115,85604,2,0,P|468:159|452:183,1,70,2|2,1:3|0:0,0:0:0:0:
393,239,85901,2,0,P|340:242|327:216,1,70,2|2,1:3|0:0,0:0:0:0:
241,143,86198,6,0,P|161:174|86:202,1,140,2|2,1:3|0:0,0:0:0:0:
31,295,86644,2,0,P|72:339|156:288,1,167.999994873047,2|2,1:3|0:0,0:0:0:0:
110,193,87089,2,0,P|96:123|86:21,1,167.999994873047,2|2,1:3|0:0,0:0:0:0:
205,6,87535,2,0,P|271:58|211:149,1,195.999994018555,2|2,1:3|0:0,0:0:0:0:
221,247,87980,6,0,P|278:236|339:221,1,97.9999970092774,2|2,1:3|0:0,0:0:0:0:
412,138,88277,1,2,1:3:0:0:
485,73,88426,2,0,P|496:130|511:191,1,97.9999970092774,2|2,1:3|0:0,0:0:0:0:
378,358,88871,5,2,1:3:0:0:
378,358,89020,2,0,P|273:348|206:346,1,140,4|2,1:2|0:0,0:0:0:0:
142,368,89465,2,0,P|107:336|137:250,1,140,2|2,1:3|0:0,0:0:0:0:
240,248,89911,2,0,P|270:208|252:166,1,83.9999974365235,2|2,1:3|0:0,0:0:0:0:
133,122,90208,1,2,0:0:0:0:
215,96,90356,2,0,P|286:90|315:87,1,70,2|2,1:3|0:0,0:0:0:0:
356,171,90654,2,0,P|427:165|456:162,1,70,2|2,1:3|0:0,0:0:0:0:
497,0,90951,6,0,P|482:49|487:85,1,70,2|0,1:3|1:0,0:0:0:0:
485,81,91173,1,0,1:0:0:0:
485,81,91248,1,0,1:0:0:0:
512,308,91396,6,0,P|450:294|281:275,1,195.999994018555,2|0,1:3|1:0,0:0:0:0:
292,286,91767,1,0,1:0:0:0:
292,286,91842,1,0,1:0:0:0:
126,366,91990,6,0,P|86:303|192:214,1,224,2|0,1:3|1:0,0:0:0:0:
196,215,92361,1,0,1:0:0:0:
196,215,92436,1,0,1:0:0:0:
380,384,92584,6,0,P|362:317|324:139,1,251.999992309571,2|4,1:3|1:2,0:0:0:0:
323,138,93327,6,0,P|245:160|181:169,1,140,0|0,3:0|0:0,0:0:0:0:
74,171,93772,2,0,P|48:132|127:74,1,140,2|0,0:0|1:0,0:0:0:0:
205,7,94218,2,0,P|198:65|194:100,1,70,0|0,3:0|0:0,0:0:0:0:
186,168,94515,2,0,P|212:237|234:318,1,140,0|0,1:0|3:0,0:0:0:0:
230,300,95257,5,0,1:0:0:0:
291,362,95406,2,0,P|346:328|372:314,1,70,0|2,3:0|0:0,0:0:0:0:
445,367,95703,2,0,P|474:327|431:253,1,140,0|0,1:0|3:0,0:0:0:0:
435,254,96446,5,0,1:0:0:0:
348,250,96594,2,0,P|338:199|327:149,1,70,0|2,3:0|0:0,0:0:0:0:
401,56,96891,2,0,P|317:85|249:108,1,140,0|0,1:0|3:0,0:0:0:0:
268,101,97634,5,0,1:0:0:0:
185,52,97782,2,0,P|175:108|164:145,1,70,0|2,3:0|0:0,0:0:0:0:
1,216,98079,6,0,P|30:163|67:159,2,70,4|2|0,3:2|1:2|3:0,0:0:0:0:
42,307,98525,1,2,1:2:0:0:
111,228,98673,6,0,P|174:239|204:246,2,70,0|2|2,3:0|1:2|3:2,0:0:0:0:
35,160,99119,1,2,1:2:0:0:
156,147,99267,6,0,L|200:131,3,35,4|0|2|0,3:2|1:0|1:2|0:0,0:0:0:0:
101,73,99564,1,2,3:2:0:0:
123,54,99639,1,0,1:0:0:0:
153,50,99713,1,2,1:2:0:0:
180,62,99787,1,0,1:0:0:0:
216,55,99861,6,0,P|257:49|281:47,3,35,4|0|2|0,3:2|1:0|1:2|1:0,0:0:0:0:
287,139,100158,2,0,P|328:145|352:147,3,35,0|0|2|0,3:0|1:0|1:2|1:0,0:0:0:0:
361,52,100455,5,4,1:0:0:0:
361,52,101347,6,0,P|355:88|355:90,3,28,0|0|0|0,1:0|1:0|1:0|1:0,0:0:0:0:
443,35,101644,6,0,P|455:111|475:201,2,167.999994873047,2|2|2,3:0|3:0|3:0,0:0:0:0:
338,159,102238,2,0,P|326:235|306:325,2,149.333333333333,2|2|2,3:0|3:0|3:0,0:0:0:0:
498,318,102832,6,0,P|431:316|294:332,1,195.999994018555,4|8,1:2|0:0,0:0:0:0:
197,373,103277,1,2,0:0:0:0:
108,329,103426,2,0,P|128:298|181:288,1,70,0|2,1:0|0:0,0:0:0:0:
284,246,103723,1,10,0:0:0:0:
363,204,103871,2,0,P|340:139|321:68,1,140,2|0,0:0|0:0,0:0:0:0:
162,153,104317,2,0,P|213:130|248:108,1,70,10|2,0:0|0:0,0:0:0:0:
221,24,104614,2,0,P|165:12|141:40,1,70,0|2,1:0|0:0,0:0:0:0:
58,64,104911,2,0,P|81:103|89:143,1,70,10|2,0:0|0:0,0:0:0:0:
62,263,105208,6,0,P|144:247|227:232,1,167.999994873047,0|8,1:0|0:0,0:0:0:0:
392,313,105654,1,2,0:0:0:0:
329,384,105802,2,0,P|299:332|330:246,1,140,0|10,1:0|0:0,0:0:0:0:
477,232,106248,1,2,0:0:0:0:
386,180,106396,2,0,P|312:173|265:164,2,112,0|8|0,1:0|0:0|1:0,0:0:0:0:
489,126,107139,1,2,0:0:0:0:
489,126,107213,1,2,0:0:0:0:
489,126,107287,1,8,0:0:0:0:
406,70,107436,1,2,0:0:0:0:
267,75,107584,6,0,P|220:96|110:141,1,167.999994873047,0|8,1:0|0:0,0:0:0:0:
0,206,108030,1,2,0:0:0:0:
15,109,108178,2,0,P|37:60|117:47,1,140,0|10,1:0|0:0,0:0:0:0:
153,204,108624,1,2,0:0:0:0:
81,271,108772,2,0,P|95:318|105:353,1,70,0|0,1:0|0:0,0:0:0:0:
239,375,109069,6,0,P|255:335|327:313,1,105,10|0,0:0|0:0,0:0:0:0:
316,305,109366,2,0,P|369:333|429:347,1,83.9999974365235,0|2,1:0|0:0,0:0:0:0:
507,368,109663,2,0,P|516:315|481:275,1,97.9999970092774,10|2,0:0|0:0,0:0:0:0:
371,192,109960,2,0,P|280:212|225:229,2,140,0|8|0,1:0|0:0|1:0,0:0:0:0:
489,148,110703,1,2,0:0:0:0:
407,107,110852,2,0,P|354:100|312:90,1,70,10|2,0:0|0:0,0:0:0:0:
245,29,111149,6,0,P|196:21|173:110,1,140,0|8,1:0|0:0,0:0:0:0:
82,165,111594,1,2,0:0:0:0:
182,258,111743,1,0,1:0:0:0:
182,258,111817,1,0,1:0:0:0:
182,258,111891,1,2,1:2:0:0:
70,335,112040,2,0,P|79:262|91:239,1,70,8|2,0:0|1:2,0:0:0:0:
216,166,112337,6,0,P|303:189|353:201,1,140,0|8,1:0|0:0,0:0:0:0:
473,150,112782,1,2,0:0:0:0:
423,73,112931,2,0,P|366:80|342:107,1,70,2|2,1:2|0:0,0:0:0:0:
351,200,113228,2,0,P|328:252|339:287,1,70,10|2,0:0|0:0,0:0:0:0:
497,384,113525,6,0,P|483:299|471:216,1,140,0|10,1:0|0:0,0:0:0:0:
227,243,114119,2,0,P|219:196|212:150,2,70,2|0|10,1:2|0:0|0:0,0:0:0:0:
175,35,114564,1,2,1:2:0:0:
175,35,114639,1,0,1:0:0:0:
175,35,114713,6,0,P|223:25|236:94,1,112,2|0,3:0|1:0,0:0:0:0:
68,158,115158,2,0,P|88:110|140:118,1,112,2|0,3:0|1:0,0:0:0:0:
207,173,115604,6,0,P|278:176|344:180,1,125.999996154785,4|2,0:0|0:0,0:0:0:0:
332,179,116124,1,2,0:0:0:0:
332,179,116198,1,2,0:0:0:0:
433,152,116347,2,0,P|445:184|444:211,2,35,2|2|2,0:0|0:0|0:0,0:0:0:0:
426,278,116644,2,0,P|394:266|367:267,2,35,2|2|2,0:0|0:0|0:0,0:0:0:0:
512,240,116941,1,2,1:2:0:0:
320,364,117089,5,4,1:2:0:0:
256,293,117238,1,2,1:2:0:0:
154,375,117386,1,8,1:2:0:0:
89,285,117535,1,2,1:2:0:0:
118,181,117683,5,2,1:3:0:0:
142,174,117757,1,2,0:0:0:0:
163,184,117832,1,2,1:2:0:0:
170,206,117906,1,2,0:0:0:0:
188,221,117980,5,8,1:2:0:0:
305,223,118129,1,2,1:2:0:0:
226,127,118277,2,0,P|207:75|203:65,3,35,2|0|2|0,1:3|1:0|1:2|1:0,0:0:0:0:
356,139,118574,2,0,P|375:87|379:77,3,35,8|0|2|0,1:2|1:0|1:2|1:0,0:0:0:0:
305,223,118871,2,0,P|370:248|406:268,1,97.9999970092774,2|2,1:3|1:2,0:0:0:0:
504,101,119168,2,0,P|460:155|439:190,1,97.9999970092774,10|2,1:2|1:2,0:0:0:0:
330,350,119465,6,0,B|224:376|157:329|155:257|172:187|127:156|51:146|5:174|-35:232|19:313,1,525,0|2,0:0|0:0,0:0:0:0:
96,353,121767,1,2,0:0:0:0:
96,353,121842,1,2,0:0:0:0:
256,192,121916,12,0,124218,0:0:0:0:
10,104,138475,6,0,P|89:132|120:145,1,112,4|0,0:0|0:0,0:0:0:0:
169,230,138921,1,0,1:0:0:0:
190,238,138995,1,0,1:0:0:0:
218,238,139069,2,0,P|249:167|202:98,1,167.999994873047,2|0,1:3|0:0,0:0:0:0:
326,0,139515,1,0,1:0:0:0:
320,31,139589,1,0,1:0:0:0:
322,65,139663,6,0,P|339:126|356:211,1,125.999996154785,2|0,1:3|0:0,0:0:0:0:
352,187,139861,2,0,P|430:190|445:144,1,125.999996154785,2|0,1:3|0:0,0:0:0:0:
445,155,140059,1,2,1:3:0:0:
443,320,140257,6,0,P|341:297|285:288,1,125.999996154785,2|0,1:3|0:0,0:0:0:0:
319,293,140455,2,0,P|281:335|204:325,1,125.999996154785,2|0,1:3|0:0,0:0:0:0:
215,332,140654,1,2,1:3:0:0:
101,288,140852,6,0,B|131:220|103:162|103:162|74:103|125:21,1,262.500010013581,2|0,1:3|0:0,0:0:0:0:
214,33,141743,1,0,1:0:0:0:
214,33,141891,6,0,B|251:77|295:93|295:93|347:69|439:64,1,244.999992523194,4|0,0:0|0:0,0:0:0:0:
504,23,142337,2,0,P|518:75|501:102,1,70,0|0,0:0|1:0,0:0:0:0:
512,171,142634,2,0,P|473:209|442:207,1,70,2|0,1:2|1:0,0:0:0:0:
421,288,142931,2,0,P|368:274|354:245,1,70,2|0,1:2|1:0,0:0:0:0:
261,275,143228,2,0,P|246:223|264:196,1,70,0|2,1:0|1:2,0:0:0:0:
329,125,143525,6,0,P|265:131|236:135,1,70,2|2,1:2|1:2,0:0:0:0:
177,185,143822,2,0,P|113:191|84:195,1,70,0|2,1:0|1:2,0:0:0:0:
70,113,144119,2,0,P|6:119|-23:123,1,70,0|2,1:0|1:2,0:0:0:0:
8,291,144416,6,0,P|60:330|81:329,1,70,2|0,1:2|1:0,0:0:0:0:
134,384,144713,2,0,P|193:358|203:339,1,70,2|0,1:2|1:0,0:0:0:0:
321,357,145010,2,0,P|328:292|317:274,1,70,2|0,1:2|1:0,0:0:0:0:
428,179,145307,2,0,P|376:139|355:140,1,70,2|0,1:2|1:0,0:0:0:0:
186,159,145604,6,0,P|195:181|196:189,4,17.5,2|0|0|0|2,1:2|0:0|0:0|0:0|1:2,0:0:0:0:
135,93,145901,5,2,1:3:0:0:
217,61,146050,1,2,1:2:0:0:
87,12,146198,1,0,1:2:0:0:
19,120,146347,1,0,1:0:0:0:
125,220,146495,2,0,P|201:205|257:197,1,125.999996154785,2|0,1:3|0:0,0:0:0:0:
280,275,146792,6,0,P|347:263|361:199,1,97.9999970092774,4|0,1:2|0:0,0:0:0:0:
432,100,147089,2,0,P|440:190|448:230,1,105,8|0,0:0|0:0,0:0:0:0:
442,204,147386,1,0,1:0:0:0:
500,295,147535,1,2,0:0:0:0:
404,339,147683,1,10,0:0:0:0:
404,339,147757,1,2,0:0:0:0:
404,339,147832,1,2,0:0:0:0:
360,241,147980,2,0,P|307:234|267:230,1,70,0|0,1:0|0:0,0:0:0:0:
200,358,148277,6,0,P|169:309|198:224,1,140,8|0,0:0|1:0,0:0:0:0:
304,152,148723,1,2,0:0:0:0:
211,128,148871,2,0,P|156:144|123:149,1,70,10|2,0:0|0:0,0:0:0:0:
29,314,149168,6,0,P|46:237|50:213,1,70,0|2,1:0|0:0,0:0:0:0:
20,93,149465,1,10,0:0:0:0:
20,93,149614,2,0,P|54:132|127:133,1,105,2|0,0:0|0:0,0:0:0:0:
104,140,149911,1,2,0:0:0:0:
112,36,150059,2,0,P|173:26|202:21,1,70,10|2,0:0|0:0,0:0:0:0:
181,24,150282,1,2,0:0:0:0:
181,24,150356,5,0,1:0:0:0:
248,110,150505,1,0,0:0:0:0:
323,56,150654,1,10,0:0:0:0:
313,175,150802,2,0,P|277:203|254:204,1,70,2|0,0:0|1:0,0:0:0:0:
121,227,151099,5,2,0:0:0:0:
126,244,151173,1,2,0:0:0:0:
131,261,151248,1,10,0:0:0:0:
136,278,151322,1,2,0:0:0:0:
141,298,151396,1,2,1:2:0:0:
147,321,151470,1,0,0:0:0:0:
154,341,151545,6,0,P|199:339|244:344,1,70,0|2,1:0|0:0,0:0:0:0:
343,384,151842,2,0,P|378:335|371:298,1,70,10|0,0:0|0:0,0:0:0:0:
273,259,152139,2,0,P|267:224|256:180,2,70,2|2|8,1:2|0:0|0:0,0:0:0:0:
382,217,152584,1,2,0:0:0:0:
382,217,152733,6,0,P|391:138|402:53,1,140,0|8,1:0|0:0,0:0:0:0:
250,11,153178,1,2,0:0:0:0:
301,85,153327,2,0,P|255:109|219:97,1,70,0|2,1:0|0:0,0:0:0:0:
190,178,153624,2,0,P|146:150|138:112,1,70,8|2,0:0|0:0,0:0:0:0:
75,0,153921,6,0,P|68:44|62:93,1,70,4|2,0:0|0:0,0:0:0:0:
0,209,154218,1,8,0:0:0:0:
79,187,154366,1,2,0:0:0:0:
105,266,154515,2,0,P|155:282|182:280,1,70,0|2,1:0|0:0,0:0:0:0:
225,373,154812,2,0,P|276:340|305:324,1,70,10|2,0:0|0:0,0:0:0:0:
413,302,155109,5,4,0:0:0:0:
328,244,155257,1,0,1:0:0:0:
423,213,155406,1,8,0:0:0:0:
284,335,155554,1,2,0:0:0:0:
245,230,155703,5,2,1:3:0:0:
245,230,155777,2,0,P|237:165|232:146,1,70,0|2,1:0|1:3,0:0:0:0:
220,137,156000,1,2,1:3:0:0:
304,79,156149,1,2,1:3:0:0:
417,95,156297,6,0,P|417:127|434:192,1,70,4|0,1:2|1:0,0:0:0:0:
495,310,156594,6,0,P|448:321|440:312,3,35,8|0|2|2,0:0|0:0|0:0|0:0,0:0:0:0:
412,384,156891,2,0,P|378:348|382:337,3,35,0|0|2|2,1:0|0:0|0:0|0:0,0:0:0:0:
291,380,157188,2,0,P|304:333|316:331,3,35,10|0|2|0,0:0|0:0|0:0|0:0,0:0:0:0:
203,299,157485,6,0,P|229:270|284:254,1,70,2|2,1:2|0:0,0:0:0:0:
423,232,157782,2,0,P|353:222|329:215,1,70,10|2,0:0|0:0,0:0:0:0:
140,226,158079,2,0,P|138:165|130:105,1,105,0|2,1:0|0:0,0:0:0:0:
125,100,158376,2,0,P|176:68|207:79,1,70,8|2,0:0|1:2,0:0:0:0:
205,77,158599,1,0,1:0:0:0:
227,93,158673,5,4,1:2:0:0:
326,75,158822,1,0,1:0:0:0:
321,197,158970,2,0,P|286:193|251:196,1,70,8|2,0:0|0:0,0:0:0:0:
130,347,159267,2,0,P|125:301|105:257,1,70,0|2,1:0|0:0,0:0:0:0:
21,177,159564,1,10,0:0:0:0:
125,171,159713,1,2,0:0:0:0:
198,259,159861,6,0,P|275:283|347:284,1,140,4|10,0:0|0:0,0:0:0:0:
432,215,160307,1,2,0:0:0:0:
337,290,160455,2,0,P|295:219|335:154,1,140,4|8,0:0|0:0,0:0:0:0:
404,86,160901,1,2,1:2:0:0:
404,86,160975,1,0,1:0:0:0:
404,86,161050,6,0,P|333:92|307:93,1,70,4|0,1:2|1:0,0:0:0:0:
192,36,161347,1,8,0:0:0:0:
135,112,161495,1,2,1:2:0:0:
193,188,161644,2,0,P|232:143|230:124,2,70,0|0|8,1:0|1:0|0:0,0:0:0:0:
33,102,162089,1,2,1:2:0:0:
33,102,162163,1,2,0:0:0:0:
33,102,162238,6,0,P|44:154|54:192,1,70,4|0,0:0|1:0,0:0:0:0:
157,304,162535,1,8,0:0:0:0:
42,289,162683,1,2,1:2:0:0:
162,208,162832,2,0,P|238:194|300:183,1,140,4|8,0:0|0:0,0:0:0:0:
350,351,163277,1,2,1:2:0:0:
436,367,163426,6,0,P|455:318|454:295,1,70,4|2,0:0|1:2,0:0:0:0:
512,206,163723,2,0,P|479:165|458:154,1,70,6|2,0:0|1:2,0:0:0:0:
387,50,164020,2,0,P|335:58|315:70,1,70,4|2,0:0|1:2,0:0:0:0:
145,109,164317,1,6,0:0:0:0:
247,126,164465,1,2,0:0:0:0:
313,245,164614,5,0,1:0:0:0:
313,245,164688,1,0,1:0:0:0:
313,245,164762,1,0,1:0:0:0:
313,245,164837,1,0,1:0:0:0:
313,245,164911,1,2,0:3:0:0:
193,298,165059,5,0,1:0:0:0:
193,298,165133,1,0,1:0:0:0:
193,298,165207,1,0,1:0:0:0:
193,298,165282,1,0,1:0:0:0:
193,298,165356,1,2,0:3:0:0:
15,196,170554,6,0,P|99:162|256:112,1,251.999992309571,4|0,0:0|0:0,0:0:0:0:
359,118,171594,1,0,3:0:0:0:
359,118,171668,1,0,3:0:0:0:
359,118,171743,2,0,P|398:166|276:270,1,251.999992309571,4|0,0:0|0:0,0:0:0:0:
143,338,172782,1,0,3:0:0:0:
143,338,172856,1,0,3:0:0:0:
143,338,172931,5,4,0:0:0:0:
226,379,173079,2,0,P|231:340|226:329,1,41.9999987182618,2|0,3:0|0:0,0:0:0:0:
137,228,173376,1,0,3:0:0:0:
137,228,173450,1,0,3:0:0:0:
137,228,173525,5,4,0:0:0:0:
54,269,173673,2,0,P|49:230|54:219,1,41.9999987182618,2|0,3:0|0:0,0:0:0:0:
123,129,173970,1,0,3:0:0:0:
234,148,174119,6,0,P|296:161|320:163,2,46.6666666666667,0|0|0,3:0|3:0|3:0,0:0:0:0:
123,129,174416,2,0,P|121:88|131:69,2,46.6666666666667,0|0|0,3:0|3:0|3:0,0:0:0:0:
218,59,174713,2,0,P|293:52|335:47,1,105,0|0,3:0|0:0,0:0:0:0:
341,45,175010,1,2,0:0:0:0:
374,49,175084,1,2,0:0:0:0:
397,73,175158,1,2,0:0:0:0:
391,106,175233,1,0,0:0:0:0:
380,141,175307,6,0,P|371:182|369:232,1,70,2|0,0:0|0:0,0:0:0:0:
449,274,175604,6,0,P|411:320|351:330,1,105,4|0,3:2|0:0,0:0:0:0:
368,331,175901,2,0,P|309:321|270:274,1,105,0|0,3:0|0:0,0:0:0:0:
278,290,176198,2,0,P|257:234|278:177,1,105,2|0,3:2|0:0,0:0:0:0:
268,191,176495,6,0,P|193:212|146:223,1,105,0|2,3:0|0:0,0:0:0:0:
166,218,176792,2,0,P|111:162|77:127,1,105,0|0,3:2|0:0,0:0:0:0:
92,143,177089,2,0,P|112:67|126:21,1,105,0|0,3:0|0:0,0:0:0:0:
119,41,177386,1,2,3:2:0:0:
214,82,177535,1,2,3:2:0:0:
214,82,177609,1,0,3:0:0:0:
214,82,177683,5,2,3:3:0:0:
297,26,177832,1,2,3:2:0:0:
383,70,177980,2,0,P|368:140|366:168,1,70,0|2,3:0|3:2,0:0:0:0:
368,138,178203,1,0,3:0:0:0:
368,138,178277,5,2,3:3:0:0:
284,192,178426,1,2,3:2:0:0:
339,290,178574,2,0,P|277:300|238:305,1,70,2|2,3:2|3:2,0:0:0:0:
192,304,178797,1,0,3:0:0:0:
192,304,178871,6,0,P|180:350|182:359,3,35,2|0|2|0,3:3|3:0|3:2|3:0,0:0:0:0:
174,225,179168,2,0,P|128:237|121:243,3,35,2|0|2|0,3:3|3:0|3:2|3:0,0:0:0:0:
167,141,179465,2,0,P|149:123|144:122,6,17.5,2|0|0|0|0|0|0,3:3|0:0|0:0|0:0|0:0|0:0|0:0,0:0:0:0:
60,180,179762,2,0,P|66:155|65:151,4,17.5,0|0|0|0|0,3:0|0:0|0:0|0:0|0:0,0:0:0:0:
20,19,180059,6,0,P|58:83|98:76,2,121.333327779134,2|2|2,3:0|3:0|3:0,0:0:0:0:
157,27,180554,1,2,3:0:0:0:
157,27,180654,2,0,P|266:20|304:18,2,121.333327779134,2|2|2,3:0|3:0|3:0,0:0:0:0:
213,126,181149,1,2,3:0:0:0:
213,126,181248,6,0,P|182:180|183:195,2,60.6666638895672,2|2|2,3:0|3:0|3:0,0:0:0:0:
65,183,181545,2,0,P|96:237|95:252,2,60.6666638895672,2|2|2,3:0|3:0|3:0,0:0:0:0:
194,261,181842,6,0,P|259:273|273:273,2,60.6666638895672,2|2|2,3:0|3:0|3:0,0:0:0:0:
101,335,182139,2,0,P|36:347|22:347,2,60.6666638895672,2|2|2,3:0|3:0|3:0,0:0:0:0:
227,384,182436,6,0,P|313:337|385:323,1,157.500006008148,4|0,3:2|0:0,0:0:0:0:
472,363,183030,2,0,P|521:316|477:242,1,157.500006008148
346,221,183624,5,0,1:0:0:0:
346,221,183698,1,0,1:0:0:0:
346,221,183772,1,0,1:0:0:0:
346,221,183847,1,0,1:0:0:0:
346,221,183921,1,2,0:3:0:0:
415,134,184069,5,0,1:0:0:0:
415,134,184143,1,0,1:0:0:0:
415,134,184217,1,0,1:0:0:0:
415,134,184292,1,0,1:0:0:0:
415,134,184366,1,2,0:3:0:0:
278,132,184515,6,0,P|293:103|297:92,3,26.2500010013581,2|2|2|2,0:0|0:0|0:0|0:0,0:0:0:0:
183,178,184812,2,0,L|177:159,4,13.125000500679,0|0|0|0|0,1:0|1:0|1:0|1:0|1:0,0:0:0:0:
22,259,185109,6,0,P|81:268|146:282,1,90.9999958343508,4|0,0:0|0:0,0:0:0:0:
221,273,185406,1,0,1:0:0:0:
204,381,185554,1,2,0:0:0:0:
204,381,185703,2,0,P|185:320|189:287,1,90.9999958343508,10|2,0:0|0:0,0:0:0:0:
318,166,186000,2,0,P|305:203|285:290,1,90.9999958343508,0|2,1:0|0:0,0:0:0:0:
291,253,186223,1,2,0:0:0:0:
291,253,186297,1,8,0:0:0:0:
152,115,186446,2,0,P|171:221|191:308,1,181.999991668702,2|2,0:0|0:0,0:0:0:0:
274,95,186891,1,10,0:0:0:0:
262,85,186965,1,0,0:0:0:0:
260,73,187040,1,2,0:0:0:0:
266,63,187114,1,2,0:0:0:0:
279,54,187188,6,0,P|330:63|426:81,2,136.499993751526,0|2|2,1:0|0:0|0:0,0:0:0:0:
193,17,187782,2,0,P|158:11|101:47,1,90.9999958343508,0|2,1:0|0:0,0:0:0:0:
34,178,188079,2,0,P|86:149|91:117,1,90.9999958343508,10|2,0:0|0:0,0:0:0:0:
206,142,188376,6,0,P|212:243|217:292,1,136.499993751526,2|0,1:2|0:0,0:0:0:0:
220,295,188673,1,8,0:0:0:0:
386,263,188822,1,2,0:0:0:0:
386,263,188896,1,0,0:0:0:0:
386,263,188970,2,0,P|343:244|294:239,1,90.9999958343508,0|2,1:0|0:0,0:0:0:0:
150,350,189267,1,8,0:0:0:0:
140,337,189342,1,0,0:0:0:0:
126,318,189416,1,2,1:2:0:0:
112,300,189490,1,0,1:0:0:0:
101,287,189564,6,0,P|119:202|132:150,1,136.499993751526,4|2,1:2|0:0,0:0:0:0:
130,153,189861,1,8,0:0:0:0:
40,172,190010,1,2,0:0:0:0:
226,239,190158,2,0,P|288:231|314:162,1,136.499993751526,2|2,1:3|0:0,0:0:0:0:
316,169,190455,1,8,0:0:0:0:
215,150,190604,1,2,0:0:0:0:
312,31,190753,6,0,P|369:24|418:20,1,105.000004005432,2|2,1:3|0:0,0:0:0:0:
512,93,191050,2,0,P|474:144|451:186,1,105.000004005432,8|2,0:0|0:0,0:0:0:0:
340,265,191347,2,0,P|314:175|337:133,1,105.000004005432,2|2,1:3|0:0,0:0:0:0:
312,31,191644,2,0,P|224:15|191:8,1,105.000004005432,10|2,0:0|0:0,0:0:0:0:
36,42,191941,5,2,1:3:0:0:
20,44,192015,1,0,1:0:0:0:
5,56,192089,2,0,P|11:104|23:123,5,41.9999987182618,0|0|8|0|0|0,1:0|1:0|1:2|1:0|1:0|1:0,0:0:0:0:
126,148,192535,2,0,P|120:100|108:81,3,41.9999987182618,2|0|2|0,1:3|0:0|0:0|0:0,0:0:0:0:
132,154,192832,1,10,0:0:0:0:
17,227,192980,1,2,0:0:0:0:
176,240,193129,6,0,P|262:259|281:265,2,55.9999982910157,0|0|0,3:0|3:0|3:0,0:0:0:0:
55,330,193426,2,0,P|-31:349|-50:355,2,55.9999982910157,0|0|0,3:0|3:0|3:0,0:0:0:0:
227,362,193723,2,0,P|331:336|361:325,1,125.999996154785,0|0,3:0|0:0,0:0:0:0:
366,333,194020,6,0,P|374:264|384:163,1,157.500006008148,10|2,0:0|0:0,0:0:0:0:
478,52,194317,2,0,P|459:34|447:28,6,26.2500010013581,0|0|0|0|0|0|0,1:0|1:0|1:0|1:0|1:0|1:0|1:0,0:0:0:0:
490,138,194614,5,4,0:0:0:0:
490,138,194762,2,0,P|393:149|325:161,1,157.500006008148,2|0,0:3|0:0,0:0:0:0:
246,109,195059,5,0,1:0:0:0:
246,109,195208,2,0,P|249:157|168:237,1,157.500006008148,2|0,0:3|0:0,0:0:0:0:
95,247,195505,5,2,0:0:0:0:
95,247,195654,2,0,P|96:181|90:131,1,105.000004005432,2|2,0:3|0:0,0:0:0:0:
0,0,195951,5,2,1:2:0:0:
0,0,196099,2,0,P|71:58|88:56,1,105.000004005432,2|0,0:3|1:0,0:0:0:0:
281,11,196396,6,0,P|207:7|179:45,1,105.000004005432,2|2,0:3|1:2,0:0:0:0:
190,163,196619,1,2,1:2:0:0:
166,145,196693,6,0,P|132:150|111:155,3,52.5000020027161,2|0|2|0,0:3|0:0|0:0|0:0,0:0:0:0:
146,57,196990,2,0,P|180:52|201:47,3,52.5000020027161,2|0|2|0,0:3|0:0|0:0|0:0,0:0:0:0:
274,118,197287,1,2,0:0:0:0:
274,118,197361,1,0,0:0:0:0:
274,118,197436,1,0,1:0:0:0:
212,244,197584,2,0,P|269:259|319:273,1,105.000004005432,2|2,0:3|0:0,0:0:0:0:
401,226,197881,6,0,P|413:194|393:166,3,52.5000020027161,0|0|0|0,1:0|1:0|1:0|0:0,0:0:0:0:
504,147,198178,2,0,P|491:115|511:87,3,52.5000020027161,2|0|0|0,1:3|1:0|1:0|0:0,0:0:0:0:
370,92,198475,1,2,1:3:0:0:
345,92,198550,1,0,1:0:0:0:
331,102,198624,1,0,1:0:0:0:
320,120,198698,1,0,1:0:0:0:
314,139,198772,2,0,P|259:124|239:121,3,52.5000020027161,2|0|0|0,1:3|1:0|1:0|1:0,0:0:0:0:
130,310,199069,6,0,P|118:241|101:143,2,157.500006008148,4|2|2,1:2|0:0|0:0,0:0:0:0:
213,315,199589,1,0,0:0:0:0:
213,315,199663,6,0,P|286:353|349:297,2,157.500006008148,0|2|2,1:0|0:0|0:0,0:0:0:0:
199,227,200183,1,0,0:0:0:0:
199,227,200257,6,0,P|326:204|349:197,1,105.000004005432,0|2,1:0|0:0,0:0:0:0:
394,215,200480,1,2,0:0:0:0:
394,215,200554,6,0,P|377:121|372:105,1,105.000004005432,8|2,0:0|0:0,0:0:0:0:
303,34,200777,1,0,0:0:0:0:
303,34,200852,6,0,P|365:31|384:-2,1,105.000004005432,0|2,1:0|0:0,0:0:0:0:
471,0,201074,1,2,0:0:0:0:
471,0,201149,2,0,P|463:59|458:124,1,105.000004005432,10|2,0:0|1:2,0:0:0:0:
397,195,201371,1,0,1:0:0:0:
383,198,201446,6,0,P|267:204|235:236,2,157.500006008148,4|2|2,1:2|0:0|0:0,0:0:0:0:
327,293,201965,1,0,0:0:0:0:
327,293,202040,6,0,P|407:301|497:319,2,157.500006008148,4|2|2,1:2|0:0|0:0,0:0:0:0:
239,299,202559,1,2,0:0:0:0:
239,299,202634,6,0,P|176:322|138:328,1,105.000004005432,4|2,1:2|1:2,0:0:0:0:
45,239,202856,1,2,0:0:0:0:
45,239,202931,6,0,P|111:227|146:213,1,105.000004005432,12|2,1:2|1:2,0:0:0:0:
261,185,203154,1,0,0:0:0:0:
261,185,203228,6,0,P|293:121|287:82,1,105.000004005432,4|2,1:2|1:2,0:0:0:0:
189,115,203451,1,0,1:0:0:0:
189,115,203525,5,14,1:2:0:0:
399,27,203723,1,0,0:0:0:0:
399,27,203822,6,0,P|386:105|375:199,2,158.666669692993,2|2|2,3:0|3:0|3:0,0:0:0:0:
490,143,204317,1,2,3:0:0:0:
490,143,204416,6,0,P|503:221|514:315,2,158.666669692993,2|2|2,3:0|3:0|3:0,0:0:0:0:
394,302,204911,1,2,3:0:0:0:
394,302,205010,6,0,P|331:316|292:286,2,79.3333348464966,2|2|2,3:0|3:0|3:0,0:0:0:0:
272,384,205307,2,0,P|228:336|234:287,2,79.3333348464966,2|2|2,3:0|3:0|3:0,0:0:0:0:
201,200,205604,6,0,P|281:215|315:220,2,79.3333348464966,2|2|2,3:0|3:0|3:0,0:0:0:0:
118,288,205901,2,0,P|38:303|4:308,2,79.3333348464966,2|2|2,3:0|3:0|3:0,0:0:0:0:
100,95,206198,6,0,P|219:111|321:118,1,210,4|0,3:2|0:0,0:0:0:0:
422,38,206792,2,0,P|493:72|456:197,1,210
344,251,207386,5,0,1:0:0:0:
344,251,207460,1,0,1:0:0:0:
344,251,207535,1,0,1:0:0:0:
344,251,207609,1,0,1:0:0:0:
344,251,207683,1,2,0:3:0:0:
221,219,207832,5,0,1:0:0:0:
221,219,207906,1,0,1:0:0:0:
221,219,207981,1,0,1:0:0:0:
221,219,208055,1,0,1:0:0:0:
221,219,208129,1,2,0:3:0:0:
197,358,208277,5,0,1:0:0:0:
197,358,208574,6,0,P|108:361|49:366,1,140,4|2,1:2|0:0,0:0:0:0:
0,288,209020,2,0,P|-16:230|50:216,1,140,2|2,1:3|0:0,0:0:0:0:
132,283,209465,2,0,P|141:224|155:125,1,140,2|2,1:3|0:0,0:0:0:0:
232,73,209910,6,0,P|240:93|248:164,2,70,2|2|2,1:3|0:0|0:0,0:0:0:0:
376,117,210356,2,0,P|347:161|363:185,1,70,2|2,1:3|0:0,0:0:0:0:
231,256,210653,2,0,P|284:259|297:233,1,70,2|2,1:3|0:0,0:0:0:0:
452,345,210950,6,0,P|434:260|419:181,1,140,2|2,1:3|0:0,0:0:0:0:
492,137,211396,2,0,P|459:101|370:124,1,140,2|2,1:3|0:0,0:0:0:0:
286,55,211841,2,0,P|278:138|262:221,1,140,2|2,1:3|0:0,0:0:0:0:
336,287,212287,2,0,P|273:322|214:288,1,140,2|2,1:3|0:0,0:0:0:0:
111,328,212732,6,0,P|118:293|125:259,1,70,2|2,1:3|0:0,0:0:0:0:
50,146,213029,1,2,1:3:0:0:
50,146,213178,2,0,P|39:203|16:289,1,140,2|2,1:3|0:0,0:0:0:0:
151,211,213624,5,2,1:3:0:0:
111,328,213772,2,0,P|216:318|283:316,1,140,4|2,1:2|0:0,0:0:0:0:
368,355,214218,2,0,P|405:325|375:239,1,140,2|2,1:3|0:0,0:0:0:0:
280,231,214663,2,0,P|259:194|265:155,1,70,2|2,1:3|0:0,0:0:0:0:
378,134,214960,1,2,0:0:0:0:
302,78,215108,2,0,P|234:69|205:66,1,70,2|2,1:3|0:0,0:0:0:0:
182,204,215406,2,0,P|111:198|82:195,1,70,2|2,1:3|0:0,0:0:0:0:
14,50,215703,6,0,P|29:99|24:135,1,70,2|0,1:3|1:0,0:0:0:0:
23,130,215925,1,0,1:0:0:0:
23,130,216000,1,0,1:0:0:0:
0,308,216149,6,0,P|62:294|231:275,1,195.999994018555,2|0,1:3|1:0,0:0:0:0:
220,286,216519,1,0,1:0:0:0:
220,286,216594,1,0,1:0:0:0:
386,366,216743,6,0,P|426:303|320:214,1,224,2|0,1:3|1:0,0:0:0:0:
316,215,217113,1,0,1:0:0:0:
316,215,217188,1,0,1:0:0:0:
132,384,217337,6,0,P|150:317|188:139,1,251.999992309571,2|4,1:3|1:2,0:0:0:0:
189,138,218079,6,0,P|267:160|331:169,1,140,0|0,3:0|0:0,0:0:0:0:
438,171,218524,2,0,P|464:132|385:74,1,140,0|0,0:0|1:0,0:0:0:0:
307,7,218970,2,0,P|314:65|318:100,1,70,0|0,3:0|0:0,0:0:0:0:
326,168,219267,2,0,P|300:237|278:318,1,140,0|0,1:0|3:0,0:0:0:0:
282,300,220009,5,0,1:0:0:0:
221,362,220158,2,0,P|166:328|140:314,1,70,0|2,3:0|0:0,0:0:0:0:
67,367,220455,2,0,P|38:327|81:253,1,140,0|0,1:0|3:0,0:0:0:0:
77,254,221198,5,0,1:0:0:0:
164,250,221346,2,0,P|174:199|185:149,1,70,0|2,3:0|0:0,0:0:0:0:
111,56,221643,2,0,P|195:85|263:108,1,140,0|0,1:0|3:0,0:0:0:0:
244,101,222386,5,0,1:0:0:0:
327,52,222534,2,0,P|337:108|348:145,1,70,0|2,3:0|0:0,0:0:0:0:
512,111,222831,6,0,P|483:58|446:54,2,70,4|2|0,3:2|1:2|3:0,0:0:0:0:
468,260,223277,1,2,1:2:0:0:
424,181,223425,6,0,P|361:192|331:199,2,70,0|2|2,3:0|1:2|3:2,0:0:0:0:
512,173,223871,1,2,1:2:0:0:
340,100,224020,6,0,L|296:84,3,35,4|0|2|0,3:2|1:0|1:2|1:0,0:0:0:0:
268,178,224316,1,0,3:0:0:0:
246,197,224391,1,0,1:0:0:0:
216,201,224465,1,2,1:2:0:0:
189,189,224539,1,0,1:0:0:0:
153,196,224614,6,0,P|112:202|88:204,3,35,4|0|2|0,3:2|1:0|1:2|1:0,0:0:0:0:
6,278,224911,2,0,P|47:272|71:270,3,35,2|0|2|0,3:2|1:0|1:2|1:0,0:0:0:0:
178,340,225207,5,4,0:0:0:0:
178,340,226099,6,0,P|180:322|182:282,3,35,0|0|0|0,1:0|1:0|1:0|1:0,0:0:0:0:
272,372,226396,6,0,P|313:311|413:298,2,140.000005340576,2|2|2,3:0|3:0|3:0,0:0:0:0:
240,222,226990,2,0,P|228:146|208:56,2,140.000005340576,2|2|2,3:0|3:0|3:0,0:0:0:0:
391,113,227584,5,0,1:0:0:0:
214,84,227881,5,4,3:2:0:0:
256,192,227955,12,0,229960,0:0:0:0:
