osu file format v14

[General]
AudioFilename: audio.mp3
AudioLeadIn: 0
PreviewTime: 124218
Countdown: 0
SampleSet: Soft
StackLeniency: 0.2
Mode: 0
LetterboxInBreaks: 0
WidescreenStoryboard: 1

[Editor]
Bookmarks: 8970,19663,31545,41050,48178,55307,57683,65109,83822,93327,102832,119465,124218,138475,156594,165802,175604,185109,208574,227881,229960
DistanceSpacing: 0.8
BeatDivisor: 8
GridSize: 32
TimelineZoom: 3.699998

[Metadata]
Title:Xrocus
TitleUnicode:Xrocus
Artist:AAAA vs. Morimori Atsushi
ArtistUnicode:ああああ vs. モリモリあつし
Creator:-Syncro
Version:Collab Extra
Source:
Tags:AnimeStyle Shiitsuin chizu-kun Seijiro MrSergio Zekk Shiino FA featured artist electronic instrumental 非可逆リズム hikagyaku rhythm rizumu NNRR-0011 Ayatsugu_Otowa 梅干茶漬け 影虎。 cosMo@暴走P xac s-don hapi⇒ polysha 黄泉路テヂーモ umeboshi chazuke kagetora. cosMo@bousouP yomiji tejiimo Chizu Shii leomineXD
BeatmapID:3158433
BeatmapSetID:1508694

[Difficulty]
HPDrainRate:5.7
CircleSize:3.5
OverallDifficulty:8.6
ApproachRate:9.4
SliderMultiplier:1.8
SliderTickRate:1

[Events]
//Background and Video events
0,0,"Konachan.com - 325230 sample.jpg",0,0
//Break Periods
2,41250,46450
2,124418,136747
2,166002,170014
//Storyboard Layer 0 (Background)
//Storyboard Layer 1 (Fail)
//Storyboard Layer 2 (Pass)
//Storyboard Layer 3 (Foreground)
//Storyboard Layer 4 (Overlay)
//Storyboard Sound Samples

[TimingPoints]
654,297.029702970297,4,2,1,81,1,0
8970,-40,4,2,1,82,0,0
9119,-66.6666666666667,4,2,1,82,0,0
9416,-71.4285714285714,4,2,1,82,0,0
9713,-83.3333333333333,4,2,1,82,0,0
10158,-71.4285714285714,4,2,1,75,0,0
10604,-83.3333333333333,4,2,1,75,0,0
11050,-62.5,4,2,1,75,0,0
11495,-100,4,2,1,75,0,0
12535,-71.4285714285714,4,2,1,75,0,0
12980,-83.3333333333333,4,2,1,75,0,0
13426,-62.5,4,2,1,75,0,0
13574,-71.4285714285714,4,2,1,75,0,0
15356,-100,4,2,1,75,0,0
15802,-83.3333333333333,4,2,1,75,0,0
16248,-100,4,2,1,75,0,0
17287,-100,4,2,1,68,0,0
18475,-100,4,2,1,78,0,0
19366,-166.666666666667,4,2,1,78,0,0
19663,-100,4,2,1,78,0,0
19738,-100,4,2,1,68,0,0
21149,-125,4,2,1,68,0,0
22040,-100,4,2,1,68,0,0
22262,-100,4,2,1,68,0,0
22337,-100,4,2,1,68,0,0
23079,-125,4,2,1,68,0,0
23822,-100,4,2,1,68,0,0
24416,-100,4,2,1,68,0,0
24638,-100,4,2,1,68,0,0
24713,-100,4,2,1,68,0,0
25901,-125,4,2,1,68,0,0
26792,-125,4,2,1,68,0,0
27980,-166.666666666667,4,2,1,68,0,0
29168,-100,4,2,1,68,0,0
31545,-100,4,2,1,75,0,0
32881,-100,4,2,1,70,0,0
33921,-100,4,2,1,75,0,0
36297,-100,4,2,1,80,0,0
40455,-71.4285714285714,4,2,1,80,0,0
40753,-62.5,4,2,1,80,0,0
48178,-125,4,2,1,80,0,0
48772,-83.3333333333333,4,2,1,80,0,0
49366,-71.4285714285714,4,2,1,80,0,0
50554,-71.4285714285714,4,2,1,80,0,0
50852,-100,4,2,1,80,0,0
51297,-166.666666666667,4,2,1,80,0,0
51743,-83.3333333333333,4,2,1,80,0,0
55307,-1000,4,2,1,72,0,0
57683,-142.857142857143,4,2,1,75,0,0
60059,-71.4285714285714,4,2,1,75,0,0
62436,-55.5555555555556,4,2,1,80,0,0
62832,-83.3333333333333,4,2,1,80,0,0
63030,-55.5555555555556,4,2,1,80,0,0
63426,-83.3333333333333,4,2,1,80,0,0
65109,-83.3333333333333,4,2,1,85,0,1
65406,-100,4,2,1,85,0,1
69564,-55.5555555555556,4,2,1,85,0,1
69787,-83.3333333333333,4,2,1,85,0,1
70158,-55.5555555555556,4,2,1,85,0,1
70381,-83.3333333333333,4,2,1,85,0,1
70753,-71.4285714285714,4,2,1,85,0,1
71050,-83.3333333333333,4,2,1,85,0,1
74020,-83.3333333333333,4,2,1,80,0,1
74614,-83.3333333333333,4,2,1,85,0,1
74911,-100,4,2,1,85,0,1
79069,-55.5555555555556,4,2,1,80,0,1
79267,-83.3333333333333,4,2,1,80,0,1
79663,-55.5555555555556,4,2,1,80,0,1
79861,-83.3333333333333,4,2,1,80,0,1
80257,-90.9090909090909,4,2,1,80,0,1
80554,-71.4285714285714,4,2,1,80,0,1
83525,-166.666666666667,4,2,1,80,0,1
83822,-71.4285714285714,4,2,1,75,0,0
84267,-83.3333333333333,4,2,1,75,0,0
84714,-62.5,4,2,1,75,0,0
85159,-100,4,2,1,75,0,0
86199,-71.4285714285714,4,2,1,75,0,0
86644,-83.3333333333333,4,2,1,75,0,0
87089,-62.5,4,2,1,75,0,0
87238,-71.4285714285714,4,2,1,75,0,0
88574,-142.857142857143,4,2,1,75,0,0
88871,-71.4285714285714,4,2,1,75,0,0
89020,-100,4,2,1,75,0,0
89466,-83.3333333333333,4,2,1,75,0,0
89912,-100,4,2,1,75,0,0
91396,-71.4285714285714,4,2,1,75,0,0
91990,-62.5,4,2,1,75,0,0
92584,-55.5555555555556,4,2,1,75,0,0
92881,-166.666666666667,4,2,1,75,0,0
93327,-100,4,2,1,68,0,0
94515,-100,4,2,1,70,0,0
95703,-100,4,2,1,72,0,0
96891,-100,4,2,1,74,0,0
98079,-100,4,2,1,78,0,0
100455,-125,4,2,1,78,0,0
101644,-55.5555555555556,4,2,1,78,0,0
101842,-125,4,2,1,78,0,0
102238,-62.5,4,2,1,78,0,0
102436,-166.666666666667,4,2,1,78,0,0
102832,-71.4285714285715,4,2,1,75,0,0
103129,-100,4,2,1,75,0,0
105208,-83.3333333333333,4,2,1,75,0,0
105505,-100,4,2,1,75,0,0
106248,-125,4,2,1,75,0,0
106990,-83.3333333333333,4,2,1,75,0,0
107584,-83.3333333333333,4,2,1,75,0,0
108030,-100,4,2,1,75,0,0
109366,-83.3333333333333,4,2,1,75,0,0
109663,-71.4285714285714,4,2,1,75,0,0
109960,-100,4,2,1,75,0,0
114713,-125,4,2,1,70,0,0
115604,-166.666666666667,4,2,1,70,0,0
116198,-100,4,2,1,70,0,0
117089,-100,4,2,1,80,0,0
118871,-71.4285714285714,4,2,1,80,0,0
119465,-71.4285714285714,4,2,1,65,0,0
138475,-125,4,2,1,70,0,0
139069,-83.3333333333333,4,2,1,70,0,0
139663,-55.5555555555556,4,2,1,70,0,0
140059,-83.3333333333333,4,2,1,70,0,0
140257,-55.5555555555556,4,2,1,70,0,0
140653,-83.3333333333333,4,2,1,70,0,0
141891,-71.4285714285714,4,2,1,70,0,0
142188,-100,4,2,1,70,0,0
142485,-100,4,2,1,68,0,0
143228,-100,4,2,1,72,0,0
144416,-100,4,2,1,76,0,0
145604,-100,4,2,1,80,0,0
145901,-83.3333333333333,4,2,1,80,0,0
146198,-100,4,2,1,80,0,0
146495,-125,4,2,1,80,0,0
146792,-71.4285714285714,4,2,1,78,0,0
147089,-100,4,2,1,78,0,0
153921,-83.3333333333333,4,2,1,78,0,0
154218,-100,4,2,1,78,0,0
156297,-71.4285714285714,4,2,1,78,0,0
156594,-83.3333333333333,4,2,1,78,0,0
158970,-55.5555555555556,4,2,1,78,0,0
159267,-74.0740740740741,4,2,1,78,0,0
161050,-76.9230769230769,4,2,1,82,0,0
161198,-66.6666666666667,4,2,1,82,0,0
161347,-58.8235294117647,4,2,1,82,0,0
161495,-52.6315789473684,4,2,1,82,0,0
161644,-47.6190476190476,4,2,1,82,0,0
161792,-43.4782608695652,4,2,1,82,0,0
161941,-66.6666666666667,4,2,1,82,0,0
162238,-76.9230769230769,4,2,1,82,0,0
162386,-66.6666666666667,4,2,1,82,0,0
162535,-58.8235294117647,4,2,1,82,0,0
162683,-52.6315789473684,4,2,1,82,0,0
162832,-100,4,2,1,82,0,0
162980,-43.4782608695652,4,2,1,82,0,0
163129,-66.6666666666667,4,2,1,82,0,0
165505,-66.6666666666667,4,2,1,75,0,0
174119,-90.9090909090909,4,2,1,75,0,0
175604,-250,4,2,1,78,0,0
177683,-250,4,2,1,74,0,0
178277,-250,4,2,1,72,0,0
178871,-250,4,2,1,68,0,0
179168,-250,4,2,1,66,0,0
179465,-100,4,2,1,64,0,0
179762,-100,4,2,1,60,0,0
180059,-100,4,2,1,80,0,0
185109,-83.3333333333333,4,2,1,85,0,1
185406,-100,4,2,1,85,0,1
189564,-55.5555555555556,4,2,1,85,0,1
189787,-83.3333333333333,4,2,1,85,0,1
190158,-55.5555555555556,4,2,1,85,0,1
190381,-83.3333333333333,4,2,1,85,0,1
190753,-71.4285714285714,4,2,1,85,0,1
191050,-83.3333333333333,4,2,1,85,0,1
194020,-83.3333333333333,4,2,1,80,0,1
194614,-83.3333333333333,4,2,1,80,0,1
194911,-100,4,2,1,80,0,1
199069,-55.5555555555556,4,2,1,85,0,1
199292,-83.3333333333333,4,2,1,85,0,1
199663,-55.5555555555556,4,2,1,85,0,1
199886,-83.3333333333333,4,2,1,85,0,1
200257,-71.4285714285714,4,2,1,85,0,1
201446,-55.5555555555556,4,2,1,85,0,1
201668,-71.4285714285714,4,2,1,85,0,1
203525,-166.666666666667,4,2,1,85,0,1
203822,-71.4285714285714,4,2,1,80,0,0
208574,-90.9090909090909,4,2,1,75,0,0
216743,-62.5,4,2,1,75,0,0
217040,-90.9090909090909,4,2,1,75,0,0
218079,-90.9090909090909,4,2,1,68,0,0
219267,-90.9090909090909,4,2,1,70,0,0
220455,-90.9090909090909,4,2,1,72,0,0
221643,-90.9090909090909,4,2,1,74,0,0
222831,-90.9090909090909,4,2,1,78,0,0
226396,-55.5555555555556,4,2,1,78,0,0
226594,-62.5,4,2,1,78,0,0
226792,-71.4285714285714,4,2,1,78,0,0
226990,-90.9090909090909,4,2,1,78,0,0
227188,-111.111111111111,4,2,1,78,0,0
227386,-142.857142857143,4,2,1,78,0,0
227584,-66.6666666666667,4,2,1,78,0,0
227881,-1000,4,2,1,80,0,0
228698,-1000,4,2,1,5,0,0
228772,-1000,4,2,1,80,0,0
229144,-1000,4,2,1,5,0,0
229218,-1000,4,2,1,80,0,0
229663,-1000,4,2,1,5,0,0
229737,-1000,4,2,1,80,0,0
229960,-1000,4,2,1,20,0,0

[Colours]
Combo1 : 255,94,55
Combo2 : 201,150,160
Combo3 : 243,192,99

[HitObjects]
256,192,7782,12,0,8896,0:0:0:0:
93,61,8970,6,0,P|134:112|113:199,1,112.5,2|0,0:3|0:0,0:0:0:0:
13,203,9119,2,0,P|41:185|59:157,1,67.5000025749207,2|0,0:3|0:0,0:0:0:0:
17,96,9267,1,2,0:3:0:0:
200,202,9416,6,0,B|231:159|287:167|310:212|310:212|307:252|341:269,1,188.999994232178,2|0,0:3|0:0,0:0:0:0:
328,260,9713,6,0,L|348:194,1,53.9999983520508,0|0,1:0|1:0,0:0:0:0:
275,316,9861,2,0,L|222:328,1,53.9999983520508,8|0,0:0|0:0,0:0:0:0:
352,333,10010,2,0,L|391:375,1,53.9999983520508,2|0,0:0|0:0,0:0:0:0:
443,170,10158,6,0,B|472:135|472:135|443:55|443:55|386:119|386:119|400:159,1,251.99999230957,4|2,1:2|0:0,0:0:0:0:
343,208,10604,2,0,P|231:224|133:263,1,215.999993408203,2|2,1:3|0:0,0:0:0:0:
42,185,11050,2,0,B|4:161|4:161|20:56|20:56|98:122|98:122|95:162,1,288,2|2,1:3|0:0,0:0:0:0:
58,271,11495,5,2,1:3:0:0:
0,321,11644,1,2,0:0:0:0:
71,350,11792,1,2,0:0:0:0:
205,255,11941,5,2,1:3:0:0:
233,280,12090,1,0,0:0:0:0:
198,294,12238,1,2,1:3:0:0:
212,275,12386,1,2,0:0:0:0:
407,369,12535,6,0,B|433:304|433:304|346:231|346:231|379:128,1,251.99999230957,2|2,1:3|0:0,0:0:0:0:
338,84,12980,2,0,B|338:57|313:32|313:32|465:132,1,215.999993408203,2|2,1:3|0:0,0:0:0:0:
443,118,13426,6,0,B|476:97|476:97|434:113,1,72,2|0,0:3|0:0,0:0:0:0:
218,167,13574,6,0,B|226:128|260:111|260:111|175:129|173:233,1,188.999994232178,2|0,1:3|0:0,0:0:0:0:
227,289,13871,6,0,B|256:315|254:353|254:353|281:270|192:217,1,188.999994232178,2|0,1:3|0:0,0:0:0:0:
116,238,14168,6,0,B|78:250|46:229|46:229|104:294|195:243,1,188.999994232178,2|0,1:3|0:0,0:0:0:0:
179,185,14465,1,2,1:3:0:0:
55,122,14614,5,0,1:0:0:0:
50,103,14688,1,0,1:0:0:0:
45,84,14762,1,2,1:2:0:0:
40,65,14837,1,0,1:0:0:0:
40,65,15208,6,0,P|37:43|45:61,1,62.9999980773926,4|0,1:2|0:0,0:0:0:0:
123,87,15356,6,0,P|213:100|295:166,1,180,2|2,1:2|0:0,0:0:0:0:
448,71,15802,6,0,B|427:58|435:15|435:15|380:199,1,215.999993408203,2|2,1:3|0:0,0:0:0:0:
429,252,16248,6,0,P|388:296|384:305,3,60,2|0|0|0,1:3|0:0|0:0|0:0,0:0:0:0:
321,247,16644,1,0,0:0:0:0:
321,247,16693,6,0,P|302:288|303:321,2,60,2|0|0,1:3|0:0|0:0,0:0:0:0:
221,341,16990,5,2,1:3:0:0:
157,291,17089,1,0,0:0:0:0:
97,348,17188,1,0,0:0:0:0:
36,298,17287,5,4,0:0:0:0:
256,192,17361,12,0,18401,0:0:0:0:
98,78,18475,5,2,1:2:0:0:
141,53,18550,1,0,1:0:0:0:
191,53,18624,1,2,1:2:0:0:
233,78,18698,1,0,1:0:0:0:
258,120,18772,1,2,0:3:0:0:
258,120,18920,5,2,1:2:0:0:
233,78,18994,1,0,1:0:0:0:
191,53,19068,1,2,1:2:0:0:
141,53,19144,1,0,1:0:0:0:
98,78,19217,1,2,0:3:0:0:
138,204,19366,6,0,B|129:216|129:216|132:242|132:242|148:219|148:219|143:198,1,80.9999975280763,2|0,0:0|0:0,0:0:0:0:
186,144,19663,6,0,B|213:129|247:140|263:171|263:171|277:206|310:219|338:207,1,180,4|0,0:0|0:0,0:0:0:0:
439,169,20109,5,2,0:0:0:0:
460,97,20257,1,2,0:0:0:0:
338,27,20406,1,2,0:0:0:0:
270,154,20554,1,2,0:0:0:0:
333,208,20703,6,0,P|261:246|165:328,1,180,2|0,0:0|0:0,0:0:0:0:
184,307,21149,6,0,P|147:310|120:267,1,72,2|0,0:0|0:0,0:0:0:0:
90,142,21446,2,0,P|111:172|87:217,1,72,2|0,0:0|0:0,0:0:0:0:
0,303,21743,2,0,P|15:269|66:267,1,72,2|0,0:0|0:0,0:0:0:0:
270,154,22040,6,0,B|271:137|293:121|293:121|178:151,1,135,2|0,0:0|0:0,0:0:0:0:
150,94,22337,1,2,0:0:0:0:
28,191,22485,6,0,B|-22:278|105:267|58:368,1,180,2|0,0:0|0:0,0:0:0:0:
184,227,22931,1,2,0:0:0:0:
220,295,23079,6,0,L|364:331,1,144,2|0,0:0|0:0,0:0:0:0:
415,273,23525,2,0,L|457:254,2,36
306,146,23822,6,0,B|275:111|275:111|293:57,1,90,2|0,0:0|0:0,0:0:0:0:
288,69,24045,6,0,B|319:104|319:104|301:158,1,90,2|0,0:0|0:0,0:0:0:0:
328,222,24267,5,2,0:0:0:0:
146,60,24416,6,0,B|145:43|123:27|123:27|238:57,1,135,2|0,0:0|0:0,0:0:0:0:
266,0,24713,1,2,0:0:0:0:
410,131,24861,6,0,P|303:166|226:239,1,180,2|0,0:0|0:0,0:0:0:0:
95,120,25307,1,2,0:0:0:0:
146,60,25455,2,0,L|121:247,1,180,2|0,0:0|0:0,0:0:0:0:
122,238,25901,6,0,L|200:293,1,72,2|0,0:0|0:0,0:0:0:0:
265,372,26198,2,0,L|271:300,1,72,2|0,0:0|0:0,0:0:0:0:
316,177,26495,2,0,L|250:207,1,72,2|0,0:0|0:0,0:0:0:0:
8,230,26792,6,0,B|-65:196|-26:122|53:96|124:156|123:267,1,288,2|2,0:0|0:0,0:0:0:0:
181,279,27535,5,2,0:0:0:0:
261,122,27683,1,2,0:0:0:0:
415,215,27832,1,2,0:0:0:0:
415,215,27906,1,0,0:0:0:0:
415,215,27980,6,0,B|426:167|472:142|472:142|404:118|344:130|331:209,1,269.999991760254,2|0,0:0|0:0,0:0:0:0:
252,218,28871,6,0,P|271:251|276:284,1,53.9999983520508,2|0,0:0|0:0,0:0:0:0:
209,334,29168,6,0,B|306:373|272:262|385:300,1,180,2|0,0:0|0:0,0:0:0:0:
444,282,29614,1,2,0:0:0:0:
349,118,29762,5,2,0:0:0:0:
421,153,29911,1,2,0:0:0:0:
356,201,30059,1,2,0:0:0:0:
255,48,30208,6,0,L|272:156,1,90,2|2,0:0|0:0,0:0:0:0:
221,196,30505,1,2,0:0:0:0:
115,101,30654,5,2,0:0:0:0:
25,143,30802,1,2,0:0:0:0:
4,234,30951,5,2,0:0:0:0:
71,274,31099,1,2,0:0:0:0:
100,348,31248,5,2,0:0:0:0:
170,318,31396,1,0,1:0:0:0:
170,318,31470,1,0,1:0:0:0:
170,318,31545,5,2,0:3:0:0:
4,234,31693,1,0,0:0:0:0:
146,145,31842,1,0,1:0:0:0:
354,256,31990,5,2,0:3:0:0:
296,205,32138,1,0,0:0:0:0:
279,280,32287,1,0,1:0:0:0:
458,258,32436,6,0,P|390:290|297:388,1,180,4|0,0:0|0:0,0:0:0:0:
206,308,32881,1,2,0:0:0:0:
206,308,32955,1,2,0:0:0:0:
206,308,33030,6,0,B|170:275|170:275|190:220,1,90,2|2,0:0|0:0,0:0:0:0:
257,208,33253,1,2,0:0:0:0:
257,208,33327,6,0,B|293:241|293:241|273:296,1,90,2|2,0:0|0:0,0:0:0:0:
179,157,33550,1,2,0:0:0:0:
179,157,33624,6,0,L|127:146,1,45,2|0,1:2|1:0,0:0:0:0:
56,132,33772,2,0,L|12:123,1,45,2|0,1:2|1:0,0:0:0:0:
189,20,33921,5,4,3:2:0:0:
122,74,34069,1,2,0:0:0:0:
257,208,34218,5,2,3:2:0:0:
383,96,34366,1,2,0:0:0:0:
386,87,34441,1,0,0:0:0:0:
390,78,34515,1,0,3:0:0:0:
357,43,34589,1,0,0:0:0:0:
308,49,34663,6,0,L|297:97,1,45
343,211,34812,5,0,3:0:0:0:
343,211,34886,1,0,0:0:0:0:
343,211,34960,2,0,L|354:168,1,45,2|0,0:0|0:0,0:0:0:0:
444,192,35109,5,4,3:2:0:0:
320,286,35257,1,2,3:2:0:0:
251,238,35406,5,2,3:2:0:0:
100,184,35554,1,2,3:2:0:0:
134,352,35703,6,0,L|154:290,1,45,4|0,3:2|1:0,0:0:0:0:
210,115,35852,2,0,L|198:158,1,45,2|0,1:2|1:0,0:0:0:0:
81,271,36000,6,0,L|51:280,1,22.5,0|0,1:0|0:0,0:0:0:0:
72,264,36074,2,0,L|42:273,1,22.5,0|0,1:0|0:0,0:0:0:0:
62,257,36149,2,0,L|32:266,2,22.5,2|0|0,1:2|0:0|1:0,0:0:0:0:
251,238,36297,6,0,B|311:254|311:254|347:226,1,90,4|2,1:2|0:0,0:0:0:0:
285,152,36520,1,0,0:0:0:0:
280,157,36594,2,0,B|220:141|220:141|184:169,1,90,8|0,0:0|0:0,0:0:0:0:
126,321,36817,1,0,0:0:0:0:
120,314,36891,6,0,B|60:330|60:330|24:302,1,90,0|2,1:0|0:0,0:0:0:0:
86,228,37114,1,0,0:0:0:0:
91,233,37188,2,0,B|151:217|151:217|187:245,1,90,8|0,0:0|0:0,0:0:0:0:
348,347,37411,1,0,0:0:0:0:
353,357,37485,6,0,B|413:373|413:373|449:345,1,90,0|2,1:0|0:0,0:0:0:0:
400,260,37708,1,0,0:0:0:0:
395,265,37782,2,0,B|335:249|335:249|299:277,1,90,8|2,0:0|0:0,0:0:0:0:
168,245,38005,1,0,0:0:0:0:
173,234,38079,6,0,L|152:131,1,90,0|2,1:0|0:0,0:0:0:0:
244,113,38302,1,0,0:0:0:0:
237,123,38376,2,0,L|255:212,1,90,10|2,0:0|0:0,0:0:0:0:
377,296,38599,1,2,0:0:0:0:
377,296,38673,5,0,1:0:0:0:
475,153,38822,1,2,0:0:0:0:
473,141,38896,1,0,0:0:0:0:
410,95,38970,5,8,0:0:0:0:
255,212,39119,1,0,0:0:0:0:
257,200,39193,1,0,0:0:0:0:
259,186,39267,1,0,1:0:0:0:
87,301,39416,1,2,0:0:0:0:
89,289,39490,1,0,0:0:0:0:
152,243,39564,5,10,0:0:0:0:
214,286,39713,1,2,0:0:0:0:
144,114,39861,6,0,L|135:83,4,22.5,0|0|0|0|0,1:0|1:0|1:0|1:0|1:0,0:0:0:0:
143,138,40084,1,0,0:0:0:0:
140,167,40158,6,0,B|73:196|73:196|39:177|41:117,1,135,2|0,1:3|0:0,0:0:0:0:
217,18,40455,6,0,B|174:108|326:92|241:217,1,188.999994232178,2|0,1:3|0:0,0:0:0:0:
418,338,40753,6,0,B|444:326|444:326|452:345|452:345|447:325|447:325|474:311|474:311|444:323|444:323|411:241,1,216,2|0,1:3|0:0,0:0:0:0:
447,170,41050,5,4,0:0:0:0:
256,192,46990,12,0,48104,0:0:0:0:
258,102,48178,6,0,B|261:87|275:71|275:71|224:19|224:19|201:90|201:90|222:98|239:125,1,216,4|0,0:0|1:0,0:0:0:0:
256,177,48698,1,0,1:0:0:0:
330,213,48772,6,0,B|354:231|364:259|364:259|462:234|462:234|396:160|396:160|368:177|324:178,1,323.999990112305,2|0,0:3|1:0,0:0:0:0:
256,177,49292,1,0,1:0:0:0:
185,214,49366,6,0,B|151:228|117:221|117:221|85:335|85:335|200:312|200:312|198:274|223:228,1,377.999988464356,2|0,0:3|1:0,0:0:0:0:
256,177,49886,1,0,1:0:0:0:
145,136,49960,6,0,B|130:121|107:115|107:115|131:116|148:131,1,83.9999974365235,2|0,0:3|0:0,0:0:0:0:
327,92,50158,6,0,B|347:86|363:69|363:69|350:89|328:96,1,83.9999974365235,2|0,0:3|0:0,0:0:0:0:
290,281,50356,6,0,B|278:321|290:365|290:365|269:324|278:279,1,167.999994873047,2|2,0:3|0:2,0:0:0:0:
290,281,50852,6,0,B|316:269|316:269|319:272|319:272|343:259,1,45,2|0,0:3|0:0,0:0:0:0:
404,170,51000,1,2,0:3:0:0:
404,170,51297,1,0,1:0:0:0:
404,170,51446,2,0,L|390:228,1,53.9999983520508,2|2,0:0|0:0,0:0:0:0:
213,358,51743,6,0,B|175:315|110:332|110:332|60:276|125:220,1,215.999993408203,2|0,0:3|1:0,0:0:0:0:
0,137,52188,6,0,B|132:89|132:89|83:115|94:175,1,215.999993408203,2|0,0:3|1:0,0:0:0:0:
92,148,52634,5,2,0:3:0:0:
142,130,52708,1,2,0:3:0:0:
180,168,52782,1,2,0:3:0:0:
230,150,52856,1,0,0:0:0:0:
296,194,52931,6,0,B|408:151|378:283|481:268,1,215.999993408203,2|0,0:3|1:0,0:0:0:0:
394,73,53376,6,0,P|363:160|320:300,1,215.999993408203,2|0,0:3|1:0,0:0:0:0:
313,367,53822,1,2,0:0:0:0:
313,367,53896,1,0,0:0:0:0:
313,367,53970,1,2,0:0:0:0:
313,367,54045,1,0,0:0:0:0:
313,367,54119,6,0,P|221:343|230:232,1,215.999993408203,2|0,0:3|1:0,0:0:0:0:
92,148,54564,6,0,P|131:61|239:89,1,215.999993408203,2|0,0:3|1:0,0:0:0:0:
413,55,55010,5,2,0:3:0:0:
397,106,55084,1,2,0:3:0:0:
426,151,55158,1,2,0:3:0:0:
411,203,55233,1,0,0:0:0:0:
433,280,55307,6,0,P|306:253|295:251,1,139.5,4|0,0:0|0:0,0:0:0:0:
157,96,57683,5,2,0:3:0:0:
230,38,57832,1,2,1:2:0:0:
228,47,57906,1,0,1:0:0:0:
227,56,57980,1,0,1:0:0:0:
330,130,58128,5,2,0:3:0:0:
253,70,58277,1,2,1:2:0:0:
255,79,58351,1,0,1:0:0:0:
256,88,58425,1,0,1:0:0:0:
123,210,58574,5,2,0:3:0:0:
225,135,58723,1,2,1:2:0:0:
223,144,58797,1,0,1:0:0:0:
222,153,58871,1,0,1:0:0:0:
376,289,59020,5,2,0:3:0:0:
275,215,59169,1,2,1:2:0:0:
277,224,59243,1,0,1:0:0:0:
278,233,59317,1,0,1:0:0:0:
215,338,59465,5,2,0:3:0:0:
123,233,59614,2,0,P|127:194|137:174,1,31.4999990386963,2|0,1:2|0:0,0:0:0:0:
186,156,59762,5,2,0:3:0:0:
78,35,59911,2,0,P|109:57|122:76,1,31.4999990386963,2|0,1:2|0:0,0:0:0:0:
213,76,60059,6,0,P|248:59|290:82,4,62.9999980773926,0|0|2|0|0,1:0|1:0|1:2|1:0|3:0,0:0:0:0:
269,63,60505,2,0,P|295:80|305:110,4,62.9999980773926,0|0|2|0|0,1:0|1:0|1:2|1:0|3:0,0:0:0:0:
357,199,60951,6,0,P|392:216|434:193,4,62.9999980773926,0|0|2|0|0,1:0|1:0|1:2|1:0|3:0,0:0:0:0:
413,211,61397,2,0,P|438:193|448:164,4,62.9999980773926,0|0|2|0|0,1:0|1:0|1:2|1:0|3:0,0:0:0:0:
120,145,61842,5,2,3:2:0:0:
110,165,61916,1,0,1:0:0:0:
116,190,61990,1,0,1:0:0:0:
86,214,62064,5,2,3:2:0:0:
93,234,62138,1,0,0:0:0:0:
116,247,62212,1,0,0:0:0:0:
138,282,62287,5,2,3:2:0:0:
157,291,62361,1,0,0:0:0:0:
189,308,62436,6,0,B|210:252|210:252|179:209,1,107.999996704102,2|0,0:3|0:0,0:0:0:0:
236,136,62634,2,0,B|241:108|258:88|258:88|225:112|227:143,1,107.999996704102,2|0,0:3|0:0,0:0:0:0:
109,186,62832,2,0,L|31:159,1,71.9999978027344,2|0,0:3|0:0,0:0:0:0:
317,266,63030,6,0,B|296:210|296:210|327:167,1,107.999996704102,2|0,0:3|0:0,0:0:0:0:
273,51,63228,2,0,B|268:23|251:3|251:3|284:27|282:58,1,107.999996704102,2|0,0:3|0:0,0:0:0:0:
400,101,63426,2,0,L|478:74,1,71.9999978027344,2|0,0:3|0:0,0:0:0:0:
258,215,63624,5,0,1:0:0:0:
209,198,63698,1,0,1:0:0:0:
160,211,63772,1,0,1:0:0:0:
124,247,63847,1,0,1:0:0:0:
113,296,63921,1,2,0:3:0:0:
113,296,64069,5,0,1:0:0:0:
124,247,64143,1,0,1:0:0:0:
160,211,64218,1,0,1:0:0:0:
209,198,64292,1,0,1:0:0:0:
258,215,64366,1,2,0:3:0:0:
258,215,64515,5,2,0:0:0:0:
255,230,64589,1,2,0:0:0:0:
252,245,64663,1,2,0:0:0:0:
249,261,64738,1,2,0:0:0:0:
246,276,64812,6,0,L|204:289,6,26.9999991760254,0|0|0|0|0|0|0,1:0|1:0|1:0|1:0|1:0|1:0|1:0,0:0:0:0:
343,308,65109,6,0,B|366:324|362:348|362:348|397:213,1,161.999995056153,4|0,0:0|0:0,0:0:0:0:
363,165,65406,1,0,1:0:0:0:
480,254,65554,1,2,0:0:0:0:
470,86,65703,6,0,P|437:100|425:130,1,45,10|0,0:0|0:0,0:0:0:0:
390,236,65852,2,0,P|394:200|374:175,1,45,2|0,0:0|0:0,0:0:0:0:
280,92,66000,6,0,L|190:117,1,90,0|2,1:0|0:0,0:0:0:0:
144,62,66223,1,2,0:0:0:0:
144,62,66297,5,8,0:0:0:0:
404,10,66446,6,0,B|462:48|462:48|417:133,1,135,2|0,0:0|0:0,0:0:0:0:
358,123,66743,1,2,0:0:0:0:
321,117,66817,1,0,0:0:0:0:
293,147,66891,1,10,0:0:0:0:
270,156,66965,5,0,0:0:0:0:
253,148,67040,1,2,0:0:0:0:
238,140,67114,1,2,0:0:0:0:
157,178,67188,6,0,P|178:244|191:319,1,135,0|2,1:0|0:0,0:0:0:0:
252,348,67485,2,0,P|292:357|317:368,1,45,8|0,0:0|0:0,0:0:0:0:
107,271,67634,2,0,P|67:262|42:251,1,45,2|0,0:0|0:0,0:0:0:0:
17,198,67782,5,0,1:0:0:0:
25,152,67856,1,0,0:0:0:0:
63,118,67931,1,2,0:0:0:0:
120,117,68005,1,0,0:0:0:0:
166,140,68079,5,10,0:0:0:0:
161,155,68154,1,0,0:0:0:0:
158,172,68228,1,2,0:0:0:0:
154,186,68302,1,0,0:0:0:0:
212,242,68376,5,2,1:2:0:0:
346,121,68525,1,2,0:0:0:0:
227,30,68673,5,8,0:0:0:0:
227,30,68748,1,2,0:0:0:0:
227,30,68822,2,0,B|199:106|293:73|251:172,1,135,2|0,0:0|0:0,0:0:0:0:
330,197,69119,2,0,L|386:214,1,45,2|0,0:0|0:0,0:0:0:0:
255,228,69267,2,0,L|199:245,1,45,8|0,0:0|0:0,0:0:0:0:
314,354,69416,5,2,1:2:0:0:
309,338,69490,1,0,1:0:0:0:
301,318,69564,6,0,P|360:253|449:275,1,161.999995056153,4|2,1:2|0:0,0:0:0:0:
433,272,69787,2,0,P|483:218|451:172,1,107.999996704102,2|0,0:0|0:0,0:0:0:0:
391,147,70010,1,2,0:0:0:0:
242,235,70158,6,0,P|183:170|94:192,1,161.999995056153,2|2,1:3|0:0,0:0:0:0:
111,189,70381,2,0,P|60:135|92:89,1,107.999996704102,2|0,0:0|0:0,0:0:0:0:
137,35,70604,1,2,0:0:0:0:
147,54,70678,1,0,0:0:0:0:
159,74,70753,6,0,B|233:51|233:51|246:83|307:111,1,125.999996154785,2|2,1:3|0:0,0:0:0:0:
391,147,70975,1,2,0:0:0:0:
391,147,71050,6,0,B|362:142|351:116|351:116|340:147|293:171,1,107.999996704102,8|2,0:0|0:0,0:0:0:0:
271,224,71272,1,2,0:0:0:0:
271,224,71347,6,0,P|288:280|299:314,1,53.9999983520508,2|0,1:3|0:0,0:0:0:0:
345,350,71495,2,0,P|352:324|360:298,1,53.9999983520508,2|2,0:0|0:0,0:0:0:0:
206,173,71644,6,0,P|189:229|178:263,1,53.9999983520508,10|0,0:0|0:0,0:0:0:0:
132,299,71792,2,0,P|124:273|116:247,1,53.9999983520508,2|0,0:0|0:0,0:0:0:0:
0,171,71941,6,0,P|41:182|67:190,3,53.9999983520508,2|0|0|0,1:3|1:0|1:0|1:0,0:0:0:0:
144,129,72238,5,8,1:2:0:0:
186,96,72312,1,0,1:0:0:0:
239,101,72386,1,0,1:0:0:0:
278,137,72460,1,0,1:0:0:0:
279,191,72535,6,0,L|259:255,2,53.9999983520508,2|0|2,1:3|0:0|0:0,0:0:0:0:
362,119,72757,1,0,0:0:0:0:
362,119,72832,6,0,L|342:55,2,53.9999983520508,10|0|2,0:0|0:0|0:0,0:0:0:0:
437,170,73054,1,0,0:0:0:0:
437,170,73129,5,0,3:0:0:0:
419,215,73228,1,0,3:0:0:0:
334,215,73327,5,0,3:0:0:0:
348,261,73426,1,0,3:0:0:0:
296,327,73525,5,0,3:0:0:0:
337,351,73624,1,0,3:0:0:0:
420,369,73723,6,0,L|447:381,4,26.9999991760254,0|0|0|0|0,3:0|0:0|0:0|0:0|0:0,0:0:0:0:
476,305,73946,1,0,0:0:0:0:
476,305,74020,2,0,B|495:250,1,53.9999983520508,10|2,0:0|0:0,0:0:0:0:
349,196,74168,2,0,B|366:144,1,53.9999983520508,2|2,0:0|0:0,0:0:0:0:
225,252,74317,6,0,P|216:223|208:201,5,35.9999989013672,0|0|0|0|0|0,1:0|0:0|0:0|1:0|0:0|0:0,0:0:0:0:
173,315,74614,6,0,B|124:302|124:302|81:333|81:333|12:310,1,161.999995056153,4|0,0:0|0:0,0:0:0:0:
3,242,74911,1,0,1:0:0:0:
140,136,75059,1,2,0:0:0:0:
101,264,75208,6,0,P|89:244|86:209,1,45,10|0,0:0|0:0,0:0:0:0:
0,126,75356,2,0,P|23:125|55:140,1,45,2|0,0:0|0:0,0:0:0:0:
211,178,75505,6,0,L|300:150,1,90,0|0,1:0|0:0,0:0:0:0:
331,81,75728,1,0,0:0:0:0:
331,81,75802,5,8,0:0:0:0:
181,26,75951,6,0,B|123:64|123:64|168:149,1,135,2|0,0:0|0:0,0:0:0:0:
211,178,76248,1,2,0:0:0:0:
198,204,76322,1,0,0:0:0:0:
188,231,76396,1,10,0:0:0:0:
176,244,76470,5,0,0:0:0:0:
184,259,76544,1,2,1:2:0:0:
192,276,76619,1,2,1:2:0:0:
214,365,76693,6,0,P|242:345|275:341,3,45,2|0|2|0,1:3|0:0|0:0|0:0,0:0:0:0:
321,276,76990,5,8,0:0:0:0:
346,294,77064,1,0,0:0:0:0:
377,298,77139,1,2,1:2:0:0:
405,285,77213,1,2,1:2:0:0:
423,259,77287,6,0,L|436:212,2,45,2|0|2,1:3|0:0|0:0,0:0:0:0:
361,179,77510,1,0,0:0:0:0:
361,179,77584,6,0,L|348:132,3,45,10|0|2|2,0:0|0:0|1:2|1:2,0:0:0:0:
273,211,77881,5,2,1:3:0:0:
230,227,77955,1,0,1:0:0:0:
194,199,78030,2,0,L|184:155,1,45,0|0,1:0|0:0,0:0:0:0:
127,86,78178,5,10,0:0:0:0:
130,61,78252,1,0,1:0:0:0:
160,48,78327,2,0,L|204:62,1,45,2|0,1:2|0:0,0:0:0:0:
266,121,78475,5,2,1:3:0:0:
262,135,78550,1,0,1:0:0:0:
114,188,78698,5,0,1:0:0:0:
111,175,78772,2,0,P|69:158|54:149,1,45,10|0,0:0|1:0,0:0:0:0:
266,121,78921,2,0,P|286:130|307:137,1,45,2|0,1:2|1:0,0:0:0:0:
485,40,79069,6,0,B|436:16|436:16|378:82,1,107.999996704102,2|0,3:0|0:0,0:0:0:0:
455,111,79267,2,0,B|473:206,1,71.9999978027344,2|0,3:0|0:0,0:0:0:0:
401,218,79465,5,2,3:0:0:0:
401,218,79564,1,2,3:0:0:0:
350,139,79663,6,0,B|311:98|311:98|266:121,1,107.999996704102,2|0,3:0|0:0,0:0:0:0:
296,191,79861,2,0,B|278:286,1,71.9999978027344,2|0,3:0|0:0,0:0:0:0:
215,303,80059,5,2,3:0:0:0:
215,303,80158,1,2,3:0:0:0:
146,246,80257,6,0,L|66:220,2,66.0000020141602,2|2|2,3:0|3:0|3:0,0:0:0:0:
188,158,80554,6,0,B|192:137|206:118|206:118|198:143|202:176,2,83.9999974365235,2|2|2,3:0|3:0|3:0,0:0:0:0:
237,224,80852,5,2,3:0:0:0:
282,261,80951,1,2,3:0:0:0:
339,246,81050,1,2,3:0:0:0:
367,194,81149,1,2,3:0:0:0:
412,156,81248,1,2,3:0:0:0:
470,158,81347,1,2,3:0:0:0:
511,200,81446,5,4,3:2:0:0:
256,192,81520,12,0,82337,3:0:0:0:
253,323,82634,5,0,1:0:0:0:
290,354,82709,1,0,1:0:0:0:
336,342,82783,1,2,1:2:0:0:
365,305,82857,1,0,1:0:0:0:
349,260,82931,1,2,0:3:0:0:
349,260,83080,5,0,1:0:0:0:
365,305,83154,1,0,1:0:0:0:
336,342,83228,1,2,1:2:0:0:
290,354,83302,1,0,1:0:0:0:
253,323,83377,1,2,0:3:0:0:
267,237,83525,6,0,B|258:225|258:225|261:199|261:199|277:222|277:222|272:243,1,80.9999975280763,0|0,1:0|0:0,0:0:0:0:
130,96,83822,6,0,B|123:36|123:36|17:101|17:101|73:155,1,251.999992309571,4|2,1:2|0:0,0:0:0:0:
20,213,84267,6,0,B|87:243|87:243|105:304|105:304|182:341,1,215.999993408203,2|2,1:3|0:0,0:0:0:0:
327,261,84714,6,0,B|365:237|365:237|349:132|349:132|271:198|271:198|274:238,1,288,2|2,1:3|0:0,0:0:0:0:
441,350,85159,5,2,1:3:0:0:
512,321,85307,1,2,0:0:0:0:
454,271,85456,1,2,0:0:0:0:
362,365,85605,5,2,1:3:0:0:
327,351,85753,1,2,0:0:0:0:
355,326,85902,1,2,1:3:0:0:
348,346,86050,1,2,0:0:0:0:
176,338,86199,6,0,B|163:274|115:333|96:245|96:245|157:207|157:207|149:248|218:283,1,251.999992309571,2|2,1:3|0:0,0:0:0:0:
346,175,86644,6,0,B|370:202|362:233|362:233|418:77,1,215.999993408203,2|2,1:3|0:0,0:0:0:0:
274,23,87089,6,0,B|241:2|241:2|283:18,1,72,2|0,1:3|0:0,0:0:0:0:
318,91,87238,6,0,B|326:52|360:35|360:35|275:53|273:157,1,188.999994232178,2|0,0:0|0:0,0:0:0:0:
218,164,87535,6,0,L|30:73,1,188.999994232178,2|0,1:3|0:0,0:0:0:0:
71,0,87832,5,2,0:0:0:0:
115,152,87980,1,2,1:3:0:0:
212,43,88129,1,2,0:0:0:0:
47,81,88277,6,0,B|18:94|18:94|50:66,1,62.9999980773926,2|0,1:3|0:0,0:0:0:0:
115,152,88426,1,2,1:3:0:0:
101,167,88574,6,0,B|113:213|113:213|121:211|121:211|131:249,1,94.499997116089,2|0,0:0|0:0,0:0:0:0:
38,324,88872,6,0,P|35:302|43:320,1,62.9999980773926,2|0,1:3|0:0,0:0:0:0:
118,364,89020,6,0,P|190:312|278:299,1,180,4|2,1:2|0:0,0:0:0:0:
347,169,89466,6,0,B|368:156|360:113|360:113|415:297,1,215.999993408203,2|2,1:3|0:0,0:0:0:0:
476,319,89911,5,2,1:3:0:0:
490,327,89985,1,0,0:0:0:0:
499,331,90059,1,2,0:0:0:0:
488,236,90209,1,2,0:0:0:0:
401,341,90356,5,2,1:3:0:0:
401,341,90505,1,2,0:0:0:0:
347,169,90654,6,0,B|341:157|354:124|354:124|331:166|291:160|331:220,1,135,2|0,1:3|0:0,0:0:0:0:
385,238,90951,5,2,1:3:0:0:
294,301,91099,5,0,1:0:0:0:
278,292,91173,1,0,1:0:0:0:
262,282,91248,1,0,1:0:0:0:
97,172,91396,6,0,B|64:154|64:154|81:62|81:62|155:113|155:113|148:176,1,251.999992309571,2|0,1:3|1:0,0:0:0:0:
161,225,91767,1,0,1:0:0:0:
161,225,91842,1,0,1:0:0:0:
306,125,91990,6,0,B|333:108|333:108|301:65|313:0|313:0|275:54|225:60|225:60|229:96,1,288,2|0,1:3|1:0,0:0:0:0:
244,186,92361,1,0,1:0:0:0:
244,186,92436,1,0,1:0:0:0:
434,271,92584,6,0,B|397:272|376:245|376:245|375:253|375:253|365:249|365:249|364:258|364:258|354:253|354:253|353:262|353:262|343:257|343:257|342:266|342:266|332:262|332:262|331:271|331:271|320:266|320:266|319:275|319:275|309:270|309:270|308:279|308:279|298:275|298:275|297:284|297:284|268:297,1,242.999992584229,2|0,1:3|0:0,0:0:0:0:
203,333,92881,6,0,P|176:356|208:336,1,107.999996704102,4|0,1:2|0:0,0:0:0:0:
205,259,93253,1,0,0:0:0:0:
205,259,93327,5,0,3:0:0:0:
256,192,93475,12,0,98005,0:0:0:0:
392,76,98079,6,0,L|372:146,1,45,4|0,3:2|0:0,0:0:0:0:
405,190,98228,1,2,1:2:0:0:
254,29,98376,6,0,L|274:99,1,45,0|0,3:0|0:0,0:0:0:0:
241,143,98525,1,2,1:2:0:0:
142,115,98673,6,0,L|122:185,1,45,0|0,3:0|0:0,0:0:0:0:
155,229,98822,1,2,1:2:0:0:
315,218,98970,6,0,L|335:288,1,45,2|0,3:2|0:0,0:0:0:0:
302,332,99119,1,2,1:2:0:0:
169,362,99267,5,4,3:2:0:0:
169,362,99342,1,0,1:0:0:0:
169,362,99416,2,0,P|134:344|91:345,1,45,2|0,1:2|0:0,0:0:0:0:
87,282,99564,5,2,3:2:0:0:
87,282,99639,1,0,1:0:0:0:
87,282,99713,2,0,P|49:294|19:325,1,45,2|0,1:2|1:0,0:0:0:0:
209,150,99861,5,4,3:2:0:0:
209,150,99936,1,0,1:0:0:0:
209,150,100010,2,0,L|186:212,1,45,2|0,1:2|0:0,0:0:0:0:
327,261,100158,5,0,3:0:0:0:
327,261,100233,1,0,1:0:0:0:
327,261,100307,2,0,L|311:218,1,45,2|0,1:2|0:0,0:0:0:0:
66,150,100455,6,0,B|-6:141|-15:36|92:2|203:53|192:214,1,360,4|0,0:0|0:0,0:0:0:0:
328,259,101347,5,0,1:0:0:0:
360,246,101421,1,0,1:0:0:0:
392,231,101495,1,0,1:0:0:0:
425,217,101569,1,0,1:0:0:0:
465,149,101644,6,0,B|468:120|485:96|485:96|452:115|455:155,1,107.999996704102,2|0,3:0|0:0,0:0:0:0:
425,217,101842,2,0,P|447:270|455:299,1,48,2|0,3:0|0:0,0:0:0:0:
376,148,102040,2,0,P|346:135|300:113,1,48,2|0,3:0|0:0,0:0:0:0:
237,229,102238,6,0,B|215:180|215:180|253:230,1,96,2|0,3:0|0:0,0:0:0:0:
270,297,102436,2,0,P|257:336|246:360,1,35.9999989013672,2|0,3:0|0:0,0:0:0:0:
314,234,102634,2,0,P|344:221|371:212,1,35.9999989013672,2|0,3:0|0:0,0:0:0:0:
82,368,102832,6,0,B|46:262|175:318|126:177,1,188.999994232178,4|0,1:2|0:0,0:0:0:0:
71,159,103129,5,8,0:0:0:0:
21,216,103277,1,2,0:0:0:0:
151,133,103426,5,0,1:0:0:0:
33,46,103574,2,0,L|55:110,1,45,2|0,0:0|0:0,0:0:0:0:
208,195,103723,1,10,0:0:0:0:
271,58,103871,6,0,P|195:51|153:145,1,180,2|0,0:0|0:0,0:0:0:0:
226,273,104317,2,0,P|181:287|134:305,1,90,10|2,0:0|0:0,0:0:0:0:
129,221,104614,1,0,1:0:0:0:
129,221,104688,1,0,0:0:0:0:
129,221,104762,1,2,0:0:0:0:
55,319,104911,2,0,B|53:342|79:362|79:362|69:334|73:319,1,90,10|2,0:0|0:0,0:0:0:0:
8,149,105208,6,0,B|71:130|114:179|114:179|111:208|148:241,1,161.999995056153,0|0,1:0|0:0,0:0:0:0:
189,173,105505,1,8,0:0:0:0:
303,309,105654,6,0,P|382:258|485:214,1,180,2|2,0:0|0:0,0:0:0:0:
509,162,106099,1,10,0:0:0:0:
367,39,106248,6,0,B|301:82|301:82|343:173,1,144,2|0,0:0|0:0,0:0:0:0:
400,113,106693,2,0,L|468:101,1,36,8|0,0:0|0:0,0:0:0:0:
340,229,106842,1,0,0:0:0:0:
340,229,106916,1,0,0:0:0:0:
340,229,106990,6,0,B|362:240|376:266|376:266|376:234|342:211,1,107.999996704102,0|2,1:0|0:0,0:0:0:0:
260,180,107213,6,0,B|239:193|209:192|209:192|237:208|274:190,1,107.999996704102,2|0,0:0|0:0,0:0:0:0:
268,275,107436,6,0,L|246:336,1,53.9999983520508,2|0,0:0|0:0,0:0:0:0:
44,356,107584,6,0,B|40:334|8:320|8:320|156:365,1,161.999995056153,0|0,1:0|0:0,0:0:0:0:
175,312,107881,2,0,P|162:273|152:265,1,53.9999983520508,8|0,0:0|0:0,0:0:0:0:
49,73,108030,6,0,B|-2:149|141:139|73:259,1,180,2|0,0:0|0:0,0:0:0:0:
152,265,108475,2,0,L|224:238,1,45,10|0,0:0|0:0,0:0:0:0:
400,174,108624,6,0,B|444:270|308:240|376:360,1,180,2|0,0:0|0:0,0:0:0:0:
363,334,108995,1,0,0:0:0:0:
363,334,109069,6,0,P|291:337|274:278,1,135,10|0,0:0|0:0,0:0:0:0:
194,249,109366,6,0,P|208:146|295:137,1,161.999995056153,0|0,1:0|0:0,0:0:0:0:
316,55,109663,6,0,P|414:86|408:174,1,188.999994232178,10|0,0:0|0:0,0:0:0:0:
497,232,109960,6,0,L|394:278,1,90,0|0,1:0|0:0,0:0:0:0:
322,180,110257,2,0,B|319:167|336:138|336:138|328:165|332:212,1,90,8|0,0:0|0:0,0:0:0:0:
342,261,110554,1,0,1:0:0:0:
270,338,110703,5,2,0:0:0:0:
211,286,110852,1,10,0:0:0:0:
270,338,111000,1,2,0:0:0:0:
205,209,111149,6,0,P|154:226|137:265,1,90,0|0,1:0|0:0,0:0:0:0:
66,340,111446,2,0,P|15:323|-2:284,1,90,8|2,0:0|0:0,0:0:0:0:
50,228,111743,5,0,1:0:0:0:
53,213,111817,1,0,1:0:0:0:
211,286,111965,5,0,1:0:0:0:
208,271,112039,1,8,0:0:0:0:
272,176,112188,5,2,1:2:0:0:
415,261,112337,6,0,P|436:151|459:44,1,180,0|8,1:0|0:0,0:0:0:0:
248,26,112782,1,2,0:0:0:0:
339,165,112931,1,2,1:2:0:0:
386,19,113079,1,2,0:0:0:0:
321,78,113228,1,10,0:0:0:0:
450,84,113376,6,0,B|381:49|340:115|340:115|350:153|328:195,1,180,2|2,0:0|0:0,0:0:0:0:
253,208,113822,2,0,L|169:166,1,90,10|2,0:0|0:0,0:0:0:0:
112,5,114119,2,0,L|117:98,1,90,2|0,1:2|0:0,0:0:0:0:
0,236,114416,5,10,0:0:0:0:
88,174,114564,2,0,L|79:204,2,22.5,2|0|0,1:2|0:0|1:0,0:0:0:0:
110,283,114713,6,0,B|192:268|192:268|199:293|236:311,1,144,2|0,3:0|1:0,0:0:0:0:
390,142,115158,6,0,B|415:126|415:126|403:79|403:79|370:113|370:113|378:145,1,144,2|0,3:0|1:0,0:0:0:0:
294,208,115604,6,0,P|336:282|360:364,1,161.999995056153,4|2,0:0|0:0,0:0:0:0:
358,355,116124,1,2,0:0:0:0:
358,355,116198,1,2,0:0:0:0:
458,232,116347,5,2,0:0:0:0:
455,242,116421,1,2,0:0:0:0:
452,251,116495,1,2,0:0:0:0:
288,189,116644,5,2,0:0:0:0:
291,199,116718,1,2,0:0:0:0:
294,208,116792,1,2,0:0:0:0:
135,152,116941,5,2,1:2:0:0:
132,162,117015,1,0,1:0:0:0:
129,171,117089,5,4,1:2:0:0:
202,110,117238,1,2,1:2:0:0:
141,37,117386,1,8,1:2:0:0:
68,98,117535,1,2,1:2:0:0:
220,192,117683,5,2,1:3:0:0:
246,185,117757,1,2,0:0:0:0:
272,189,117832,1,2,1:2:0:0:
294,208,117906,1,2,0:0:0:0:
306,231,117980,6,0,P|300:248|288:289,1,45,8|0,1:2|0:0,0:0:0:0:
284,113,118129,2,0,P|290:91|297:70,1,45,2|0,1:2|0:0,0:0:0:0:
168,141,118277,5,2,1:3:0:0:
128,129,118352,1,0,1:0:0:0:
93,149,118426,2,0,P|103:177|112:215,1,45,2|0,1:2|1:0,0:0:0:0:
35,245,118574,5,8,1:2:0:0:
23,284,118649,1,0,1:0:0:0:
42,319,118723,2,0,P|70:309|107:300,1,45,2|0,1:2|1:0,0:0:0:0:
230,359,118871,6,0,P|283:290|244:222,1,125.999996154785,2|2,1:3|1:2,0:0:0:0:
346,117,119094,1,0,1:0:0:0:
337,128,119168,6,0,P|259:87|199:138,1,125.999996154785,10|2,1:2|1:2,0:0:0:0:
185,276,119465,5,0,0:0:0:0:
256,192,119540,12,0,124218,0:0:0:0:
256,192,137287,12,0,138401,0:0:0:0:
254,102,138475,6,0,B|251:87|237:71|237:71|288:19|288:19|311:90|311:90|290:98|273:125,1,216,4|0,0:0|1:0,0:0:0:0:
256,177,138995,1,0,1:0:0:0:
182,213,139069,6,0,B|158:231|148:259|148:259|50:234|50:234|116:160|116:160|144:177|188:178,1,323.999990112305,2|0,1:3|1:0,0:0:0:0:
256,177,139589,1,0,1:0:0:0:
311,234,139663,6,0,B|367:255|367:255|410:224,1,107.999996704102,2|0,1:3|0:0,0:0:0:0:
427,68,139861,2,0,B|444:17|444:17|398:94,1,107.999996704102,2|0,1:3|0:0,0:0:0:0:
355,154,140059,2,0,L|328:76,1,71.9999978027344,2|0,1:3|0:0,0:0:0:0:
66,47,140257,6,0,B|122:26|122:26|161:54,1,107.999996704102,2|0,1:3|0:0,0:0:0:0:
182,213,140455,2,0,B|199:264|199:264|153:187,1,107.999996704102,2|0,1:3|0:0,0:0:0:0:
110,127,140653,2,0,L|83:205,1,71.9999978027344,2|0,1:3|0:0,0:0:0:0:
16,243,140852,5,2,1:3:0:0:
256,192,140926,12,0,141743,1:0:0:0:
142,337,141891,6,0,P|209:299|325:274,1,188.999994232178,4|0,0:0|0:0,0:0:0:0:
317,274,142188,1,2,0:0:0:0:
425,291,142337,6,0,P|448:240|420:207,1,90,0|0,0:0|1:0,0:0:0:0:
326,199,142634,2,0,P|302:249|330:282,1,90,2|0,1:2|1:0,0:0:0:0:
414,135,142931,2,0,P|395:82|351:79,1,90,2|0,1:2|1:0,0:0:0:0:
278,139,143228,2,0,P|296:191|340:194,1,90,0|2,1:0|1:2,0:0:0:0:
291,32,143525,2,0,P|240:8|207:36,1,90,2|2,1:2|1:2,0:0:0:0:
202,131,143822,2,0,P|252:154|285:126,1,90,0|2,1:0|1:2,0:0:0:0:
132,64,144119,5,0,1:0:0:0:
120,86,144267,1,2,1:2:0:0:
202,131,144416,5,2,1:2:0:0:
317,68,144564,1,0,1:0:0:0:
336,149,144713,5,2,1:2:0:0:
407,192,144861,1,0,1:0:0:0:
297,266,145010,5,2,1:2:0:0:
202,131,145158,1,0,1:0:0:0:
187,313,145307,5,2,1:2:0:0:
259,194,145455,1,0,1:0:0:0:
186,225,145604,6,0,L|146:229,4,22.5,2|0|0|0|2,1:2|0:0|0:0|0:0|1:2,0:0:0:0:
259,194,145827,1,0,0:0:0:0:
259,194,145901,6,0,B|331:159|331:159|408:240,1,161.999995056153,2|0,1:3|0:0,0:0:0:0:
405,218,146198,6,0,L|390:284,1,45,0|0,1:2|1:0,0:0:0:0:
395,261,146347,2,0,L|405:218,1,45,0|0,1:0|1:0,0:0:0:0:
473,152,146495,6,0,P|491:120|481:153,1,108,2|0,1:3|0:0,0:0:0:0:
334,126,146792,6,0,B|413:45|218:-33|177:164,1,251.999992309571,4|8,1:2|0:0,0:0:0:0:
142,196,147238,1,2,0:0:0:0:
39,115,147386,6,0,P|31:71|21:18,1,90,0|2,1:0|0:0,0:0:0:0:
237,177,147683,1,10,0:0:0:0:
239,191,147757,1,2,0:0:0:0:
241,204,147832,6,0,P|249:248|257:292,1,90,2|0,0:0|1:0,0:0:0:0:
178,358,148129,1,0,0:0:0:0:
178,358,148203,1,0,0:0:0:0:
178,358,148277,6,0,P|131:325|118:327,3,45,8|2|2|2,0:0|0:0|0:0|0:0,0:0:0:0:
68,231,148574,5,0,1:0:0:0:
54,232,148649,1,0,0:0:0:0:
44,237,148723,2,0,P|72:254|103:233,1,45,2|2,0:0|0:0,0:0:0:0:
241,204,148871,5,10,0:0:0:0:
248,187,148946,1,2,0:0:0:0:
245,165,149020,2,0,P|212:181|214:222,1,45,2|0,0:0|0:0,0:0:0:0:
103,149,149168,5,0,1:0:0:0:
95,130,149317,1,2,0:0:0:0:
217,66,149465,1,10,0:0:0:0:
262,133,149614,6,0,B|213:230|329:188|271:327,1,180,2|2,0:0|0:0,0:0:0:0:
364,362,150059,1,10,0:0:0:0:
476,299,150208,1,2,0:0:0:0:
479,289,150282,1,2,0:0:0:0:
482,280,150356,6,0,B|446:251|446:251|395:287,1,90,0|0,1:0|0:0,0:0:0:0:
334,232,150654,1,10,0:0:0:0:
424,95,150802,2,0,L|401:193,1,90,2|0,0:0|1:0,0:0:0:0:
329,89,151099,5,2,0:0:0:0:
329,89,151173,1,2,0:0:0:0:
329,89,151248,2,0,L|312:148,3,45,10|2|2|0,0:0|0:0|1:2|0:0,0:0:0:0:
255,194,151545,5,0,1:0:0:0:
255,194,151693,1,2,0:0:0:0:
162,104,151842,5,10,0:0:0:0:
39,182,151990,1,0,0:0:0:0:
91,249,152139,5,2,1:2:0:0:
91,249,152287,1,2,0:0:0:0:
73,358,152436,5,8,0:0:0:0:
79,373,152584,1,2,0:0:0:0:
238,310,152733,6,0,B|268:279|308:278|308:278|268:290|243:334,1,135,0|2,1:0|0:0,0:0:0:0:
169,361,153030,6,0,P|152:314|159:289,3,45,8|0|2|2,0:0|0:0|0:0|0:0,0:0:0:0:
91,249,153327,2,0,P|112:203|134:191,3,45,0|0|2|2,1:0|0:0|0:0|0:0,0:0:0:0:
142,123,153624,5,8,0:0:0:0:
154,126,153698,1,0,0:0:0:0:
166,129,153772,1,2,0:0:0:0:
179,132,153847,1,0,0:0:0:0:
194,136,153921,6,0,B|239:94|295:141|295:141|283:182|324:217,1,161.999995056153,4|0,0:0|0:0,0:0:0:0:
407,277,154218,6,0,P|424:230|417:205,3,45,8|0|2|2,0:0|0:0|0:0|0:0,0:0:0:0:
485,165,154515,2,0,P|463:119|441:107,3,45,0|0|2|2,1:0|0:0|0:0|0:0,0:0:0:0:
418,40,154812,5,10,0:0:0:0:
398,44,154886,1,0,0:0:0:0:
378,49,154960,1,2,0:0:0:0:
358,54,155035,1,2,0:0:0:0:
341,60,155109,5,4,0:0:0:0:
362,141,155257,1,0,1:0:0:0:
299,188,155406,1,8,0:0:0:0:
229,152,155554,1,2,0:0:0:0:
229,152,155703,5,2,1:3:0:0:
235,133,155777,1,0,1:0:0:0:
392,182,155926,5,2,1:3:0:0:
386,163,156000,1,2,1:3:0:0:
307,66,156149,1,2,1:3:0:0:
476,63,156297,6,0,B|442:56|415:44|415:44|373:83|373:83|344:66|282:66,1,188.999994232178,4|0,1:2|0:0,0:0:0:0:
307,66,156594,5,8,0:0:0:0:
288,96,156668,1,0,0:0:0:0:
297,129,156743,2,0,P|300:153|306:182,1,53.9999983520508,2|2,0:0|0:0,0:0:0:0:
188,299,156891,5,0,1:0:0:0:
206,268,156965,1,0,0:0:0:0:
197,236,157040,2,0,P|194:212|188:182,1,53.9999983520508,2|2,0:0|0:0,0:0:0:0:
403,272,157188,5,10,0:0:0:0:
372,253,157262,1,0,0:0:0:0:
339,261,157337,2,0,P|314:264|285:270,1,53.9999983520508,2|0,0:0|0:0,0:0:0:0:
81,101,157485,5,2,1:2:0:0:
102,116,157559,1,2,0:0:0:0:
128,120,157633,1,2,0:0:0:0:
153,110,157707,1,2,0:0:0:0:
170,89,157782,1,10,0:0:0:0:
174,63,157856,1,2,0:0:0:0:
164,37,157931,2,0,P|126:30|89:18,1,53.9999983520508,2|0,0:0|0:0,0:0:0:0:
170,197,158079,6,0,P|221:209|314:245,1,107.999996704102,0|2,1:0|0:0,0:0:0:0:
273,226,158302,2,0,P|288:172|313:113,1,107.999996704102,2|0,0:0|0:0,0:0:0:0:
307,124,158525,2,0,P|273:117|234:102,1,53.9999983520508,2|0,1:2|1:0,0:0:0:0:
67,197,158673,5,4,1:2:0:0:
88,281,158822,1,0,1:0:0:0:
222,353,158970,6,0,B|171:338|171:338|143:294|143:294|51:272,1,161.999995056153,8|2,0:0|0:0,0:0:0:0:
87,280,159193,5,2,0:0:0:0:
87,280,159267,2,0,P|118:271|159:256,1,60.7500002317429,0|0,1:0|0:0,0:0:0:0:
279,334,159416,2,0,P|248:343|207:358,1,60.7500002317429,2|2,0:0|0:0,0:0:0:0:
222,188,159564,2,0,P|231:219|246:260,1,60.7500002317429,10|0,0:0|0:0,0:0:0:0:
107,155,159713,1,2,0:0:0:0:
107,155,159787,1,0,0:0:0:0:
107,155,159861,6,0,P|100:122|83:83,1,60.7500002317429,4|0,0:0|0:0,0:0:0:0:
211,0,160010,2,0,P|218:33|235:72,1,60.7500002317429,2|0,0:0|0:0,0:0:0:0:
71,16,160158,2,0,P|100:13|120:6,2,40.5000001544952,10|0|0,0:0|0:0|0:0,0:0:0:0:
251,138,160307,2,0,P|218:145|179:162,1,60.7500002317429,2|0,0:0|0:0,0:0:0:0:
395,0,160455,6,0,P|388:65|369:150,1,121.500000463486,4|2,0:0|0:0,0:0:0:0:
234,275,160678,1,2,0:0:0:0:
234,275,160753,2,0,P|238:231|251:174,1,60.7500002317429,8|0,0:0|0:0,0:0:0:0:
211,0,160901,5,2,1:2:0:0:
211,0,160975,1,0,1:0:0:0:
211,0,161050,6,0,P|189:20|178:59,1,58.4999973220826,4|0,1:2|0:0,0:0:0:0:
103,44,161198,2,0,P|108:80|144:118,1,67.5000025749208,0|0,1:0|0:0,0:0:0:0:
326,200,161347,6,0,P|319:170|284:136,1,76.5000014591217,8|0,0:0|0:0,0:0:0:0:
331,73,161495,2,0,P|297:59|246:71,1,85.4999977169037,2|2,1:2|0:0,0:0:0:0:
24,229,161644,6,0,P|57:243|117:233,1,94.499997116089,0|0,1:0|0:0,0:0:0:0:
136,315,161792,2,0,P|173:291|198:232,1,103.500001974106,0|0,1:0|0:0,0:0:0:0:
36,119,161941,6,0,P|47:148|87:168,1,67.5000025749208,8|2,0:0|0:0,0:0:0:0:
276,270,162089,1,2,1:2:0:0:
276,270,162163,1,2,0:0:0:0:
276,270,162238,6,0,P|278:232|256:191,1,58.4999973220826,4|0,0:0|0:0,0:0:0:0:
340,176,162386,2,0,P|311:145|250:147,1,67.5000025749208,0|0,1:0|0:0,0:0:0:0:
24,229,162535,6,0,P|59:243|105:237,1,76.5000014591217,8|0,0:0|0:0,0:0:0:0:
106,360,162683,2,0,P|127:342|133:296,2,56.9999984779358,2|0|0,1:2|0:0|0:0,0:0:0:0:
178,104,162832,6,0,L|183:132,2,22.5,4|0|0,0:0|0:0|0:0,0:0:0:0:
276,270,162980,6,0,P|319:307|371:305,1,103.500001974106,0|0,1:0|0:0,0:0:0:0:
472,10,163129,6,0,B|471:43|446:72|446:72|475:125|475:125|452:164|449:229,1,202.500007724762,8|2,0:0|1:2,0:0:0:0:
452,194,163426,6,0,P|419:205|396:245,1,67.5000025749208,4|0,0:0|0:0,0:0:0:0:
408,353,163574,5,2,1:2:0:0:
383,335,163649,1,0,1:0:0:0:
357,320,163723,1,6,0:0:0:0:
337,348,163797,1,0,0:0:0:0:
324,373,163871,2,0,P|316:347|296:298,1,67.5000025749208,2|0,1:2|1:0,0:0:0:0:
223,287,164020,5,4,0:0:0:0:
211,249,164094,1,0,0:0:0:0:
221,226,164168,1,2,1:2:0:0:
231,217,164243,1,0,1:0:0:0:
240,199,164317,1,6,0:0:0:0:
230,174,164391,1,0,0:0:0:0:
216,167,164465,2,0,L|137:186,1,67.5000025749208,2|0,0:0|0:0,0:0:0:0:
114,113,164614,6,0,L|126:46,4,67.5000025749208,0|0|0|0|2,1:0|1:0|1:0|1:0|0:3,0:0:0:0:
378,131,165059,6,0,L|365:64,4,67.5000025749208,0|0|0|0|2,1:0|1:0|1:0|1:0|0:3,0:0:0:0:
256,240,165505,5,2,0:0:0:0:
256,219,165579,1,0,0:0:0:0:
256,199,165653,1,0,0:0:0:0:
256,179,165727,1,0,0:0:0:0:
256,159,165802,1,4,0:0:0:0:
409,312,170554,5,4,0:0:0:0:
93,76,171594,5,0,3:0:0:0:
93,76,171668,1,0,3:0:0:0:
93,76,171743,1,4,0:0:0:0:
255,298,172782,5,0,3:0:0:0:
255,298,172856,1,0,3:0:0:0:
255,298,172930,1,4,0:0:0:0:
255,298,173079,1,2,3:0:0:0:
366,91,173376,5,0,3:0:0:0:
366,91,173450,1,0,3:0:0:0:
366,91,173524,1,4,0:0:0:0:
366,91,173673,1,2,3:0:0:0:
143,94,173970,5,0,3:0:0:0:
143,94,174044,1,0,3:0:0:0:
143,94,174119,5,0,3:0:0:0:
189,74,174218,5,0,3:0:0:0:
240,99,174317,5,0,3:0:0:0:
251,159,174416,5,0,3:0:0:0:
222,211,174515,5,0,3:0:0:0:
165,224,174614,5,0,3:0:0:0:
111,197,174713,6,0,L|82:190,4,24.7500007553101,0|0|0|0|0,3:0|0:0|0:0|0:0|0:0,0:0:0:0:
237,328,175010,5,2,0:0:0:0:
256,324,175084,1,2,0:0:0:0:
275,320,175158,1,2,0:0:0:0:
295,317,175232,1,0,0:0:0:0:
317,316,175307,2,0,P|374:323|474:385,1,148.50000453186,2|0,0:0|0:0,0:0:0:0:
453,365,175604,5,4,3:2:0:0:
459,360,175901,1,0,3:0:0:0:
461,353,176198,1,2,3:2:0:0:
461,345,176495,1,0,3:0:0:0:
458,338,176792,1,0,3:2:0:0:
452,333,177089,1,0,3:0:0:0:
446,327,177386,5,2,3:2:0:0:
316,384,177535,1,2,3:2:0:0:
316,384,177609,1,0,3:0:0:0:
316,384,177683,1,2,3:3:0:0:
264,314,177832,1,2,3:2:0:0:
311,248,177980,1,0,3:0:0:0:
182,167,178129,5,2,3:2:0:0:
182,167,178203,1,0,3:0:0:0:
182,167,178277,1,2,3:3:0:0:
234,97,178426,1,2,3:2:0:0:
187,31,178574,1,2,3:2:0:0:
428,227,178723,5,2,3:2:0:0:
415,220,178797,1,0,3:0:0:0:
401,216,178871,1,2,3:3:0:0:
386,217,178946,1,0,3:0:0:0:
371,219,179020,1,2,3:2:0:0:
358,226,179094,1,0,3:0:0:0:
348,236,179168,1,2,3:3:0:0:
341,248,179243,1,0,3:0:0:0:
337,261,179317,1,2,3:2:0:0:
334,275,179391,1,0,3:0:0:0:
335,289,179465,2,0,L|345:327,14,22.5,2|0|0|0|0|0|0|0|0|0|0|0|0|0|0,3:3|0:0|0:0|0:0|0:0|0:0|0:0|0:0|3:0|0:0|0:0|0:0|0:0|0:0|0:0,0:0:0:0:
192,232,180059,6,0,P|189:263|151:309,1,60,2|0,3:0|0:0,0:0:0:0:
81,318,180257,6,0,P|113:323|157:364,1,60,2|0,3:0|0:0,0:0:0:0:
64,132,180455,5,2,3:0:0:0:
64,132,180554,5,2,3:0:0:0:
64,132,180654,6,0,P|104:108|131:76,1,60,2|0,3:0|0:0,0:0:0:0:
193,6,180852,6,0,P|188:33|213:89,1,60,2|0,3:0|0:0,0:0:0:0:
270,147,181050,5,2,3:0:0:0:
270,147,181149,5,2,3:0:0:0:
270,147,181248,5,2,3:0:0:0:
319,113,181347,5,2,3:0:0:0:
377,125,181446,5,2,3:0:0:0:
400,180,181545,5,2,3:0:0:0:
388,238,181644,5,2,3:0:0:0:
337,269,181743,5,2,3:0:0:0:
278,255,181842,5,2,3:0:0:0:
237,211,181941,5,2,3:0:0:0:
177,217,182040,5,2,3:0:0:0:
142,266,182139,6,0,L|160:347,2,60,2|2|2,3:0|3:0|3:0,0:0:0:0:
50,122,182436,5,4,3:2:0:0:
85,120,183624,5,0,1:0:0:0:
94,76,183698,1,0,1:0:0:0:
125,44,183773,1,0,1:0:0:0:
169,33,183847,1,0,1:0:0:0:
212,47,183921,1,2,0:3:0:0:
212,47,184069,5,0,1:0:0:0:
169,33,184143,1,0,1:0:0:0:
125,44,184217,1,0,1:0:0:0:
94,76,184292,1,0,1:0:0:0:
85,120,184366,1,2,0:3:0:0:
85,120,184515,5,2,0:0:0:0:
90,141,184589,1,2,0:0:0:0:
95,163,184663,1,2,0:0:0:0:
100,185,184737,1,2,0:0:0:0:
105,207,184812,2,0,L|97:248,7,22.5,0|0|0|0|0|0|0|0,1:0|1:0|1:0|1:0|1:0|1:0|1:0|0:0,0:0:0:0:
153,293,185109,6,0,P|233:318|330:384,1,161.999995056153,4|0,0:0|0:0,0:0:0:0:
299,357,185406,1,0,1:0:0:0:
405,292,185554,1,2,0:0:0:0:
233,163,185703,6,0,L|259:230,1,45,10|0,0:0|0:0,0:0:0:0:
311,273,185852,2,0,L|344:210,1,45,2|0,0:0|0:0,0:0:0:0:
439,175,186000,5,0,1:0:0:0:
312,15,186149,2,0,L|301:61,2,30,2|0|0,0:0|0:0|0:0,0:0:0:0:
312,15,186297,5,8,0:0:0:0:
233,163,186446,2,0,P|289:146|324:108,1,90,2|0,0:0|1:0,0:0:0:0:
134,261,186743,5,2,0:0:0:0:
110,248,186817,1,0,0:0:0:0:
83,245,186891,1,10,0:0:0:0:
57,250,186965,1,0,0:0:0:0:
34,265,187040,1,2,0:0:0:0:
18,286,187114,1,2,0:0:0:0:
6,316,187188,6,0,P|69:325|142:360,1,135,0|2,1:0|0:0,0:0:0:0:
133,354,187485,2,0,L|240:319,1,90,8|2,0:0|0:0,0:0:0:0:
286,218,187782,1,0,1:0:0:0:
325,197,187856,1,0,0:0:0:0:
367,212,187931,1,2,0:0:0:0:
398,244,188005,1,0,0:0:0:0:
392,297,188079,1,10,0:0:0:0:
395,312,188154,1,0,0:0:0:0:
408,335,188228,1,2,0:0:0:0:
428,343,188302,1,0,0:0:0:0:
455,333,188376,6,0,L|485:220,1,90,2|2,1:2|0:0,0:0:0:0:
438,175,188599,1,0,0:0:0:0:
438,175,188673,2,0,L|424:108,1,45,8|2,0:0|0:0,0:0:0:0:
289,0,188822,22,0,P|308:35|428:45,1,135,2|0,0:0|0:0,0:0:0:0:
394,61,189119,1,2,0:0:0:0:
394,61,189193,1,0,0:0:0:0:
394,61,189267,2,0,L|380:135,1,45,8|0,0:0|0:0,0:0:0:0:
241,103,189416,1,2,1:2:0:0:
200,89,189490,1,0,1:0:0:0:
156,70,189564,22,0,L|-8:115,1,161.999995056153,4|2,1:2|0:0,0:0:0:0:
0,112,189787,2,0,P|15:163|49:204,1,107.999996704102,2|0,0:0|0:0,0:0:0:0:
49,204,190010,2,0,P|75:201|102:203,1,53.9999983520508,2|0,0:0|0:0,0:0:0:0:
349,348,190158,6,0,B|272:316|272:316|254:373|154:368,1,161.999995056153,2|2,1:3|0:0,0:0:0:0:
214,363,190381,2,0,P|169:365|108:294,1,107.999996704102,2|0,0:0|0:0,0:0:0:0:
120,329,190604,2,0,L|138:257,1,53.9999983520508,2|0,0:0|0:0,0:0:0:0:
239,158,190753,6,0,B|287:160|306:113|306:113|294:185|359:222,1,188.999994232178,2|2,1:3|0:0,0:0:0:0:
325,219,191050,2,0,L|436:189,1,107.999996704102,8|2,0:0|0:0,0:0:0:0:
406,8,191347,1,2,1:3:0:0:
379,29,191421,1,0,0:0:0:0:
396,42,191495,2,0,P|391:80|386:119,1,53.9999983520508,2|2,0:0|0:0,0:0:0:0:
261,0,191644,1,10,0:0:0:0:
244,11,191718,1,0,0:0:0:0:
256,15,191792,2,0,L|241:98,1,53.9999983520508,2|0,0:0|0:0,0:0:0:0:
51,205,191941,5,2,1:3:0:0:
83,190,192015,1,0,1:0:0:0:
118,194,192089,1,0,1:0:0:0:
148,212,192163,1,0,1:0:0:0:
168,242,192238,1,8,1:2:0:0:
173,277,192312,1,0,1:0:0:0:
178,312,192386,1,0,1:0:0:0:
199,341,192460,1,0,1:0:0:0:
226,352,192535,6,0,P|281:320|382:267,1,161.999995056153,2|0,1:3|0:0,0:0:0:0:
467,296,192832,6,0,L|504:363,1,53.9999983520508,10|0,0:0|0:0,0:0:0:0:
373,200,192980,2,0,L|460:153,1,53.9999983520508,2|0,0:0|0:0,0:0:0:0:
298,326,193129,5,0,3:0:0:0:
304,284,193228,5,0,3:0:0:0:
268,249,193327,5,0,3:0:0:0:
286,200,193426,5,0,3:0:0:0:
259,181,193525,5,0,3:0:0:0:
274,155,193624,5,0,3:0:0:0:
264,143,193723,6,0,L|258:171,4,26.9999991760254,0|0|0|0|0,3:0|0:0|0:0|0:0|0:0,0:0:0:0:
318,0,194020,6,0,B|440:32|440:32|402:46,1,161.999995056153,10|2,0:0|0:0,0:0:0:0:
378,152,194317,6,0,L|370:102,5,35.9999989013672,0|0|0|0|0|0,1:0|0:0|0:0|1:0|0:0|0:0,0:0:0:0:
479,256,194614,6,0,L|428:229,1,53.9999983520508,4|0,0:0|0:0,0:0:0:0:
266,333,194762,1,2,0:3:0:0:
266,333,195059,1,0,1:0:0:0:
149,226,195208,2,0,L|128:119,1,90,2|2,0:3|0:0,0:0:0:0:
379,0,195654,2,0,B|361:44|361:44|372:103,1,90,2|2,0:3|0:0,0:0:0:0:
468,341,196099,2,0,B|486:297|486:297|475:238,1,90,2|0,0:3|1:0,0:0:0:0:
234,203,196396,2,0,P|281:188|345:156,1,90,2|2,0:3|1:2,0:0:0:0:
361,186,196619,1,2,1:2:0:0:
361,186,196693,6,0,L|344:239,3,45,2|0|2|0,0:3|0:0|0:0|0:0,0:0:0:0:
238,320,196990,2,0,L|215:256,3,45,0|0|2|0,1:0|0:0|0:3|0:0,0:0:0:0:
135,171,197287,5,2,0:0:0:0:
96,155,197362,1,0,0:0:0:0:
60,180,197436,2,0,P|67:206|71:245,1,45,0|0,1:0|0:0,0:0:0:0:
59,347,197584,5,2,0:3:0:0:
98,363,197659,1,2,0:0:0:0:
134,338,197733,2,0,P|127:316|124:294,1,45,2|0,0:0|0:0,0:0:0:0:
227,168,197881,5,0,1:0:0:0:
265,145,197955,1,0,1:0:0:0:
307,159,198030,1,0,1:0:0:0:
332,196,198104,1,0,0:0:0:0:
326,240,198178,2,0,P|300:252|278:267,1,45,2|0,1:3|1:0,0:0:0:0:
430,234,198327,2,0,P|449:222|469:213,1,45,0|0,1:0|0:0,0:0:0:0:
365,368,198475,6,0,P|343:299|322:229,1,135,2|0,1:3|1:0,0:0:0:0:
390,105,198772,6,0,P|410:169|429:233,1,135,2|0,1:3|1:0,0:0:0:0:
279,359,199069,6,0,L|124:310,1,161.999995056153,4|2,1:2|0:0,0:0:0:0:
124,310,199292,2,0,P|71:263|90:210,1,107.999996704102,2|0,0:0|0:0,0:0:0:0:
160,205,199515,1,2,0:0:0:0:
160,205,199589,1,0,0:0:0:0:
160,205,199663,6,0,L|119:36,1,161.999995056153,0|2,1:0|0:0,0:0:0:0:
121,47,199886,2,0,P|85:96|-1:100,1,107.999996704102,2|0,0:0|0:0,0:0:0:0:
261,180,200109,1,2,0:0:0:0:
261,180,200183,1,0,0:0:0:0:
261,180,200257,6,0,L|425:121,1,125.999996154785,0|2,1:0|0:0,0:0:0:0:
379,137,200480,2,0,P|414:143|481:223,1,125.999996154785,2|0,0:0|0:0,0:0:0:0:
361,318,200703,1,2,0:0:0:0:
361,318,200777,1,0,0:0:0:0:
361,318,200852,6,0,P|306:327|224:382,1,125.999996154785,0|2,1:0|0:0,0:0:0:0:
245,360,201074,2,0,L|134:296,1,125.999996154785,2|0,0:0|0:0,0:0:0:0:
31,382,201297,5,2,1:2:0:0:
31,382,201371,1,0,1:0:0:0:
31,382,201446,6,0,P|1:299|36:218,1,161.999995056153,4|2,1:2|0:0,0:0:0:0:
23,232,201668,2,0,L|170:169,1,125.999996154785,2|0,0:0|0:0,0:0:0:0:
204,69,201891,1,2,0:0:0:0:
204,69,201965,1,0,0:0:0:0:
204,69,202040,6,0,L|357:145,1,125.999996154785,4|2,1:2|0:0,0:0:0:0:
316,125,202262,2,0,P|372:98|460:91,1,125.999996154785,2|0,0:0|0:0,0:0:0:0:
490,218,202485,1,2,0:0:0:0:
490,218,202559,1,2,0:0:0:0:
490,218,202634,6,0,L|454:350,1,125.999996154785,4|2,1:2|1:2,0:0:0:0:
456,339,202856,2,0,P|410:321|321:384,1,125.999996154785,2|0,0:0|0:0,0:0:0:0:
154,343,203079,1,2,1:2:0:0:
154,343,203154,1,0,0:0:0:0:
154,343,203228,6,0,L|120:180,1,125.999996154785,4|2,1:2|1:2,0:0:0:0:
128,219,203451,1,0,1:0:0:0:
128,219,203525,6,0,P|148:183|125:179,1,80.9999975280763,14|0,1:2|1:0,0:0:0:0:
82,103,203822,6,0,L|44:10,1,83.9999974365235,2|0,3:0|0:0,0:0:0:0:
236,0,204020,2,0,L|128:47,1,83.9999974365235,2|0,3:0|0:0,0:0:0:0:
231,158,204218,5,2,3:0:0:0:
231,158,204317,1,2,3:0:0:0:
291,92,204416,6,0,L|335:212,1,83.9999974365235,2|0,3:0|0:0,0:0:0:0:
458,192,204614,2,0,L|356:231,1,83.9999974365235,2|0,3:0|0:0,0:0:0:0:
321,278,204812,1,2,3:0:0:0:
321,278,204911,1,2,3:0:0:0:
321,278,205010,6,0,P|291:330|237:335,5,83.9999974365235,2|2|2|2|2|2,3:0|3:0|3:0|3:0|3:0|3:0,0:0:0:0:
124,365,205604,5,2,3:0:0:0:
71,338,205703,1,2,3:0:0:0:
77,279,205802,1,2,3:0:0:0:
124,243,205901,1,2,3:0:0:0:
182,236,206000,1,2,3:0:0:0:
214,186,206099,1,2,3:0:0:0:
193,130,206198,5,4,3:2:0:0:
193,130,207386,5,0,1:0:0:0:
148,93,207461,1,0,1:0:0:0:
93,107,207535,1,0,1:0:0:0:
58,152,207609,1,0,1:0:0:0:
77,206,207683,1,2,0:3:0:0:
77,206,207832,5,0,1:0:0:0:
58,152,207906,1,0,1:0:0:0:
93,107,207980,1,0,1:0:0:0:
148,93,208054,1,0,1:0:0:0:
193,130,208129,1,2,0:3:0:0:
70,28,208277,5,0,1:0:0:0:
70,28,208574,6,0,L|295:-5,1,198.000006042481,4|2,1:2|0:0,0:0:0:0:
322,76,209020,2,0,L|126:104,1,198.000006042481,2|2,1:3|0:0,0:0:0:0:
256,302,209465,2,0,L|60:330,1,198.000006042481,2|2,1:3|0:0,0:0:0:0:
0,257,209911,2,0,L|225:224,1,198.000006042481,2|2,1:3|0:0,0:0:0:0:
349,268,210356,2,0,B|337:321|337:321|357:361,1,99.0000030212403,2|2,1:3|0:0,0:0:0:0:
162,268,210654,2,0,B|175:321|175:321|155:361,1,99.0000030212403,2|2,1:3|0:0,0:0:0:0:
266,128,210951,5,2,1:3:0:0:
243,146,211025,1,0,0:0:0:0:
248,113,211099,5,0,0:0:0:0:
263,149,211173,1,0,0:0:0:0:
234,134,211248,5,2,0:0:0:0:
320,0,211396,6,0,L|545:52,1,198.000006042481,2|2,1:3|0:0,0:0:0:0:
444,119,211842,2,0,L|236:67,1,198.000006042481,2|2,1:3|0:0,0:0:0:0:
29,125,212287,2,0,L|254:177,1,198.000006042481,2|2,1:3|0:0,0:0:0:0:
155,361,212733,2,0,B|175:321|175:321|156:243,1,99.0000030212403,2|2,1:3|0:0,0:0:0:0:
377,311,213030,1,2,1:3:0:0:
260,384,213178,1,2,1:3:0:0:
260,384,213624,5,2,1:3:0:0:
162,268,213772,2,0,P|147:181|94:62,1,198.000006042481,4|2,1:2|0:0,0:0:0:0:
195,0,214218,2,0,P|210:87|263:206,1,198.000006042481,2|2,1:3|0:0,0:0:0:0:
506,342,214663,2,0,P|491:255|438:136,1,198.000006042481,2|2,1:3|0:0,0:0:0:0:
220,291,215109,2,0,B|259:322|259:322|331:314,1,99.0000030212403,2|2,1:3|0:0,0:0:0:0:
128,134,215406,2,0,B|89:103|89:103|17:111,1,99.0000030212403,2|2,1:3|0:0,0:0:0:0:
127,326,215703,5,2,1:3:0:0:
229,189,215852,1,0,1:0:0:0:
229,189,215926,1,0,1:0:0:0:
229,189,216000,1,0,1:0:0:0:
48,220,216149,6,0,P|125:236|255:300,1,198.000006042481,2|0,1:3|1:0,0:0:0:0:
257,322,216520,1,0,1:0:0:0:
257,322,216594,1,0,1:0:0:0:
371,261,216743,6,0,B|409:237|409:237|393:132|393:132|315:198|315:198|318:238,1,288,2|0,1:3|1:0,0:0:0:0:
317,232,217114,1,0,1:0:0:0:
317,232,217188,1,0,1:0:0:0:
407,35,217337,6,0,B|395:-8|395:-8|491:40|491:40|452:99,2,198.000006042481,2|4|0,1:3|1:2|0:0,0:0:0:0:
253,113,218079,6,0,B|198:140|198:140|175:196|175:196|80:239,1,198.000006042481,0|0,3:0|0:0,0:0:0:0:
41,184,218525,1,0,0:0:0:0:
294,370,218822,5,0,1:0:0:0:
348,316,218970,2,0,P|349:263|377:197,1,99.0000030212403,0|0,3:0|0:0,0:0:0:0:
211,336,219267,6,0,P|140:328|94:383,1,148.50000453186,0|0,1:0|0:0,0:0:0:0:
94,382,219564,1,0,3:0:0:0:
139,121,220010,5,0,1:0:0:0:
92,186,220158,2,0,P|54:190|-7:224,1,99.0000030212403,0|2,3:0|0:0,0:0:0:0:
217,0,220455,6,0,P|237:52|333:37,1,148.50000453186,0|0,1:0|0:0,0:0:0:0:
319,52,220753,1,0,3:0:0:0:
389,288,221198,5,0,1:0:0:0:
451,231,221347,2,0,P|453:181|475:113,1,99.0000030212403,0|2,3:0|0:0,0:0:0:0:
287,238,221644,6,0,P|299:190|303:74,1,148.50000453186,0|0,1:0|0:0,0:0:0:0:
304,91,221941,1,0,3:0:0:0:
25,225,222386,5,0,1:0:0:0:
80,283,222535,2,0,P|118:291|177:326,1,99.0000030212403,0|2,3:0|0:0,0:0:0:0:
241,4,222832,6,0,P|232:50|214:113,1,99.0000030212403,4|2,3:2|1:2,0:0:0:0:
433,208,223129,2,0,P|384:186|325:166,1,99.0000030212403,0|2,3:0|1:2,0:0:0:0:
80,283,223426,2,0,P|140:266|197:241,1,99.0000030212403,0|2,3:0|1:2,0:0:0:0:
316,384,223723,2,0,P|311:324|302:257,1,99.0000030212403,2|2,3:2|1:2,0:0:0:0:
83,69,224020,5,4,3:2:0:0:
83,69,224094,1,0,1:0:0:0:
83,69,224168,2,0,P|74:100|58:130,1,49.5000015106202,2|0,1:2|1:0,0:0:0:0:
144,233,224317,5,0,3:0:0:0:
173,252,224391,1,0,1:0:0:0:
222,245,224465,1,2,1:2:0:0:
253,201,224540,1,0,1:0:0:0:
272,182,224614,5,4,3:2:0:0:
297,177,224688,1,0,1:0:0:0:
313,183,224762,1,2,1:2:0:0:
329,199,224837,1,0,1:0:0:0:
340,225,224911,5,2,3:2:0:0:
373,267,224985,1,0,1:0:0:0:
425,263,225059,1,2,1:2:0:0:
451,221,225134,1,0,1:0:0:0:
451,221,225208,5,4,0:0:0:0:
256,192,226099,5,0,1:0:0:0:
256,192,226173,1,0,1:0:0:0:
256,192,226248,1,0,1:0:0:0:
256,192,226322,1,0,1:0:0:0:
256,192,226396,6,0,L|77:225,1,161.999995056153,2|0,3:0|0:0,0:0:0:0:
20,236,226594,6,0,L|145:269,1,96,2|0,3:0|0:0,0:0:0:0:
260,302,226792,6,0,L|144:349,1,125.999996154785,2|0,3:0|0:0,0:0:0:0:
377,183,226990,6,0,L|454:287,1,99.0000030212403,2|0,3:0|0:0,0:0:0:0:
269,55,227188,6,0,L|335:26,1,53.9999983520508,2|0,3:0|0:0,0:0:0:0:
162,157,227386,6,0,L|133:81,1,41.9999987182618,2|0,3:0|0:0,0:0:0:0:
256,192,227584,5,0,1:0:0:0:
256,192,227881,1,4,3:2:0:0:
256,192,228327,6,0,L|256:215,1,22.5
256,192,228772,6,0,L|244:211,1,22.5
256,192,229218,6,0,L|230:206,1,27
