osu file format v14

[General]
AudioFilename: audio.mp3
AudioLeadIn: 0
PreviewTime: 124218
Countdown: 0
SampleSet: Soft
StackLeniency: 0.7
Mode: 0
LetterboxInBreaks: 0
WidescreenStoryboard: 1

[Editor]
Bookmarks: 8970
DistanceSpacing: 1.5
BeatDivisor: 4
GridSize: 4
TimelineZoom: 2.6

[Metadata]
Title:Xrocus
TitleUnicode:Xrocus
Artist:AAAA vs. Morimori Atsushi
ArtistUnicode:ああああ vs. モリモリあつし
Creator:-Syncro
Version:Collab Advanced
Source:
Tags:AnimeStyle Shiitsuin chizu-kun Seijiro MrSergio Zekk Shiino FA featured artist electronic instrumental 非可逆リズム hikagyaku rhythm rizumu NNRR-0011 Ayatsugu_Otowa 梅干茶漬け 影虎。 cosMo@暴走P xac s-don hapi⇒ polysha 黄泉路テヂーモ umeboshi chazuke kagetora. cosMo@bousouP yomiji tejiimo Chizu Shii leomineXD
BeatmapID:3316678
BeatmapSetID:1508694

[Difficulty]
HPDrainRate:3.5
CircleSize:3.2
OverallDifficulty:4.5
ApproachRate:6
SliderMultiplier:1.1
SliderTickRate:1

[Events]
//Background and Video events
0,0,"Konachan.com - 325230 sample.jpg",0,0
//Break Periods
2,19863,30495
2,41250,47128
2,124218,137425
2,166002,169504
//Storyboard Layer 0 (Background)
//Storyboard Layer 1 (Fail)
//Storyboard Layer 2 (Pass)
//Storyboard Layer 3 (Foreground)
//Storyboard Layer 4 (Overlay)
//Storyboard Sound Samples

[TimingPoints]
654,297.029702970297,4,2,1,81,1,0
8970,-100,4,2,1,82,0,0
10158,-100,4,2,1,75,0,0
17287,-100,4,2,1,68,0,0
18475,-100,4,2,1,78,0,0
19738,-100,4,2,1,68,0,0
31545,-100,4,2,1,75,0,0
32881,-100,4,2,1,70,0,0
33475,-100,4,2,1,70,0,0
33921,-100,4,2,1,75,0,0
35109,-100,4,2,1,75,0,0
36297,-100,4,2,1,80,0,0
48178,-100,4,2,1,80,0,0
48772,-100,4,2,1,80,0,0
49366,-100,4,2,1,80,0,0
51743,-100,4,2,1,80,0,0
55307,-100,4,2,1,72,0,0
57683,-100,4,2,1,75,0,0
59465,-100,4,2,1,75,0,0
62436,-100,4,2,1,80,0,0
63624,-100,4,2,1,80,0,0
64812,-100,4,2,1,80,0,0
65109,-100,4,2,1,85,0,1
74020,-100,4,2,1,80,0,0
74317,-100,4,2,1,80,0,0
74614,-100,4,2,1,85,0,1
79069,-100,4,2,1,80,0,1
83525,-100,4,2,1,80,0,0
83822,-100,4,2,1,75,0,0
93327,-100,4,2,1,68,0,0
94515,-100,4,2,1,70,0,0
95703,-100,4,2,1,72,0,0
96891,-100,4,2,1,74,0,0
98079,-100,4,2,1,78,0,0
98673,-100,4,2,1,78,0,0
99267,-100,4,2,1,78,0,0
101347,-100,4,2,1,78,0,0
102832,-100,4,2,1,75,0,1
114713,-100,4,2,1,70,0,0
117089,-100,4,2,1,80,0,1
119465,-100,4,2,1,65,0,0
138475,-100,4,2,1,70,0,0
139069,-100,4,2,1,70,0,0
139663,-100,4,2,1,70,0,0
140852,-100,4,2,1,70,0,0
142485,-100,4,2,1,68,0,0
143228,-100,4,2,1,72,0,0
144416,-100,4,2,1,76,0,0
145604,-100,4,2,1,80,0,0
146792,-100,4,2,1,78,0,1
161050,-100,4,2,1,82,0,1
164614,-100,4,2,1,82,0,1
165505,-100,4,2,1,75,0,1
165802,-100,4,2,1,75,0,0
175604,-100,4,2,1,78,0,0
177683,-100,4,2,1,74,0,0
178277,-100,4,2,1,72,0,0
178871,-100,4,2,1,68,0,0
179168,-100,4,2,1,66,0,0
179465,-100,4,2,1,64,0,0
179762,-100,4,2,1,60,0,0
180059,-100,4,2,1,80,0,0
183624,-100,4,2,1,80,0,0
184812,-100,4,2,1,80,0,0
185109,-100,4,2,1,85,0,1
194020,-100,4,2,1,80,0,0
194614,-100,4,2,1,80,0,1
199069,-100,4,2,1,85,0,1
203822,-100,4,2,1,80,0,1
208277,-100,4,2,1,80,0,0
208574,-100,4,2,1,75,0,0
218079,-100,4,2,1,68,0,0
219267,-100,4,2,1,70,0,0
220455,-100,4,2,1,72,0,0
221643,-100,4,2,1,74,0,0
222832,-100,4,2,1,78,0,0
227881,-100,4,2,1,80,0,0
229960,-100,4,2,1,20,0,0

[Colours]
Combo1 : 255,94,55
Combo2 : 201,150,160
Combo3 : 243,192,99

[HitObjects]
112,109,8970,6,0,L|189:122,1,55,2|2,0:3|0:3,0:0:0:0:
217,183,9267,2,0,L|282:192,1,55,2|2,0:3|0:3,0:0:0:0:
457,26,9861,5,8,0:0:0:0:
445,190,10158,6,0,P|450:263|452:324,1,110,4|2,1:2|0:0,0:0:0:0:
366,274,10604,2,0,P|361:347|355:403,1,110,2|2,1:3|0:0,0:0:0:0:
277,362,11050,2,0,P|213:363|186:307,1,110,2|2,1:3|0:0,0:0:0:0:
123,278,11495,2,0,P|122:232|176:199,1,110,2|2,1:3|0:0,0:0:0:0:
253,199,11941,1,2,1:3:0:0:
110,115,12238,1,2,1:3:0:0:
274,104,12535,6,0,B|319:100|319:100|347:113|347:113|393:108,1,110,2|2,1:3|0:0,0:0:0:0:
462,108,12980,2,0,B|482:45|482:45|453:-13,1,110,2|2,1:3|0:0,0:0:0:0:
379,8,13426,1,2,0:3:0:0:
379,8,13574,1,2,1:3:0:0:
214,21,13871,5,2,1:3:0:0:
161,177,14168,5,2,1:3:0:0:
269,301,14465,6,0,L|235:308,4,27.5,2|0|0|0|2,1:3|0:0|1:0|1:0|1:2,0:0:0:0:
32,365,15208,5,4,1:2:0:0:
32,365,15356,2,0,P|77:335|62:275,1,110,2|2,1:2|0:0,0:0:0:0:
134,231,15802,2,0,P|113:183|118:120,1,110,2|2,1:3|0:0,0:0:0:0:
96,46,16248,2,0,P|149:34|205:36,1,110,2|0,1:3|0:0,0:0:0:0:
263,92,16693,1,2,1:3:0:0:
399,184,16990,1,2,1:3:0:0:
450,27,17287,5,4,0:0:0:0:
224,340,18475,6,0,L|177:332,4,27.5,2|0|2|0|2,1:2|1:0|1:2|1:0|0:3,0:0:0:0:
295,297,18921,2,0,L|342:289,4,27.5,2|0|2|0|2,1:2|1:0|1:2|1:0|0:3,0:0:0:0:
243,232,19366,2,0,L|231:167,1,55,2|0,0:0|0:0,0:0:0:0:
281,111,19663,5,4,0:0:0:0:
25,132,31545,6,0,L|92:98,2,55,2|0|0,0:3|0:0|1:0,0:0:0:0:
5,211,31990,1,2,0:3:0:0:
109,338,32287,1,0,1:0:0:0:
115,255,32436,6,0,B|199:236|262:324|262:324|323:400|434:375,1,330,4|0,0:0|0:0,0:0:0:0:
355,270,33624,2,0,L|350:225,2,27.5,2|0|2,1:2|1:0|1:2,0:0:0:0:
436,256,33921,6,0,P|443:201|452:147,1,110,4|2,3:2|3:2,0:0:0:0:
337,28,34515,2,0,P|345:76|353:153,1,110,0|0,3:0|3:0,0:0:0:0:
240,258,35109,6,0,P|245:212|244:192,1,55,4|2,3:2|3:2,0:0:0:0:
165,179,35406,2,0,P|170:133|176:105,1,55,2|2,3:2|3:2,0:0:0:0:
145,45,35703,6,0,L|111:52,6,27.5,4|0|2|0|0|0|2,3:2|1:0|1:2|1:0|1:0|1:0|1:2,0:0:0:0:
227,53,36297,6,0,P|267:92|335:98,1,110,4|8,1:2|0:0,0:0:0:0:
291,261,36891,2,0,P|331:222|397:210,1,110,0|8,1:0|0:0,0:0:0:0:
496,90,37485,6,0,P|483:175|484:207,1,110,0|8,1:0|0:0,0:0:0:0:
475,363,38079,2,0,P|435:324|372:319,1,110,0|10,1:0|0:0,0:0:0:0:
304,341,38525,1,2,0:0:0:0:
223,358,38673,2,0,P|156:342|98:332,1,110,0|8,1:0|0:0,0:0:0:0:
68,176,39267,6,0,P|42:127|32:73,1,110,0|10,1:0|0:0,0:0:0:0:
183,139,39861,2,0,L|223:134,2,27.5,0|0|0,1:0|1:0|1:0,0:0:0:0:
147,213,40158,5,2,1:3:0:0:
311,213,40455,1,2,1:3:0:0:
302,47,40753,1,2,1:3:0:0:
137,53,41050,1,4,0:0:0:0:
14,366,48178,6,0,P|72:372|129:381,1,110,4|0,0:0|0:0,0:0:0:0:
179,319,48624,1,0,1:0:0:0:
179,319,48772,2,0,P|172:247|170:205,1,110,2|0,0:3|0:0,0:0:0:0:
96,171,49218,1,0,1:0:0:0:
96,171,49366,2,0,P|104:87|107:40,1,110,2|0,0:3|0:0,0:0:0:0:
190,37,49812,1,0,1:0:0:0:
231,114,49960,2,0,P|278:115|316:87,2,73.3333333333333,2|2|2,0:3|0:3|0:3,0:0:0:0:
414,305,50852,5,2,0:3:0:0:
331,302,51000,1,2,0:3:0:0:
214,49,51743,6,0,P|156:55|117:112,1,110,2|0,0:3|1:0,0:0:0:0:
152,168,52188,1,2,0:3:0:0:
397,202,52634,6,0,L|399:164,2,27.5,2|2|2,0:3|0:3|0:3,0:0:0:0:
338,260,52931,2,0,P|255:248|222:244,1,110,2|0,0:3|1:0,0:0:0:0:
150,267,53376,1,2,0:3:0:0:
68,42,54119,6,0,P|105:80|159:84,1,110,2|0,0:3|1:0,0:0:0:0:
239,66,54564,1,2,0:3:0:0:
470,153,55010,6,0,L|476:189,2,27.5,2|2|2,0:3|0:3|0:3,0:0:0:0:
383,169,55307,1,4,0:0:0:0:
256,192,55381,12,2,57089,0:0:0:0:
265,128,57683,6,0,P|233:105|151:100,1,110,2|0,0:3|1:0,0:0:0:0:
108,157,58129,2,0,P|116:226|116:273,1,110,2|0,0:3|1:0,0:0:0:0:
188,305,58574,2,0,P|248:298|304:305,1,110,2|0,0:3|1:0,0:0:0:0:
376,281,59020,2,0,P|422:278|446:207,1,110,2|0,0:3|1:0,0:0:0:0:
390,169,59465,2,0,P|376:123|381:61,1,110,2|2,0:3|0:3,0:0:0:0:
232,134,60059,6,0,L|307:146,2,55,0|2|0,1:0|1:2|3:0,0:0:0:0:
202,211,60505,2,0,P|212:265|212:281,2,55,0|2|0,1:0|1:2|3:0,0:0:0:0:
127,248,60951,2,0,P|83:242|68:228,2,55,0|2|0,1:0|1:2|3:0,0:0:0:0:
135,329,61396,2,0,P|148:383|151:404,2,55,0|2|0,1:0|1:2|3:0,0:0:0:0:
224,348,61842,2,0,P|275:353|312:364,2,82.5,2|2|2,3:2|3:2|3:2,0:0:0:0:
211,266,62436,6,0,P|209:216|204:180,2,73.3333333333333,2|2|2,0:3|0:3|0:3,0:0:0:0:
297,197,63030,2,0,P|299:147|303:109,2,73.3333333333333,2|2|2,0:3|0:3|0:3,0:0:0:0:
401,162,63624,6,0,L|436:167,4,27.5,0|0|0|0|2,1:0|1:0|1:0|1:0|0:3,0:0:0:0:
426,84,64069,2,0,L|461:89,4,27.5,0|0|0|0|2,1:0|1:0|1:0|1:0|0:3,0:0:0:0:
483,241,65109,6,0,P|462:340|464:360,1,110,4|0,0:0|1:0,0:0:0:0:
382,364,65554,1,2,0:0:0:0:
382,364,65703,2,0,P|340:370|309:365,1,55,10|2,0:0|0:0,0:0:0:0:
267,312,66000,2,0,P|243:266|242:244,2,55,0|2|8,1:0|0:0|0:0,0:0:0:0:
189,341,66446,2,0,P|144:338|74:339,1,110,2|2,0:0|0:0,0:0:0:0:
55,259,66891,1,10,0:0:0:0:
104,101,67188,6,0,P|138:91|205:126,1,110,0|8,1:0|0:0,0:0:0:0:
208,204,67634,2,0,P|237:199|270:172,1,55,2|0,0:0|1:0,0:0:0:0:
297,114,67931,1,2,0:0:0:0:
297,114,68079,2,0,P|285:76|283:51,1,55,10|2,0:0|0:0,0:0:0:0:
208,25,68376,5,2,1:2:0:0:
375,53,68673,1,8,0:0:0:0:
375,53,68822,2,0,P|378:106|387:175,1,110,2|2,0:0|0:0,0:0:0:0:
364,242,69267,2,0,P|327:230|297:225,1,55,8|2,0:0|1:2,0:0:0:0:
278,303,69564,6,0,P|238:343|196:343,2,82.5,4|2|2,1:2|0:0|0:0,0:0:0:0:
212,252,70158,2,0,L|197:159,2,82.5,2|2|2,1:3|0:0|0:0,0:0:0:0:
135,285,70753,2,0,P|91:278|60:268,1,55,2|2,1:3|0:0,0:0:0:0:
25,213,71050,2,0,P|26:183|46:151,1,55,8|2,0:0|0:0,0:0:0:0:
90,97,71347,2,0,P|137:90|159:93,1,55,2|2,1:3|0:0,0:0:0:0:
217,52,71644,2,0,P|258:62|290:60,1,55,10|2,0:0|0:0,0:0:0:0:
334,114,71941,6,0,L|378:122,6,27.5,2|0|0|0|8|0|0,1:3|1:0|1:0|1:0|1:2|1:0|1:0,0:0:0:0:
319,195,72535,2,0,P|331:245|334:263,1,55,2|2,1:3|0:0,0:0:0:0:
380,315,72832,2,0,P|427:292|446:294,1,55,10|2,0:0|0:0,0:0:0:0:
477,225,73129,6,0,P|480:177|483:153,5,36.6666666666667,0|0|0|0|0|0,3:0|3:0|3:0|3:0|3:0|3:0,0:0:0:0:
489,242,73723,5,0,3:0:0:0:
446,82,74020,5,10,0:0:0:0:
282,60,74317,2,0,L|240:40,2,27.5,0|0|0,1:0|1:0|1:0,0:0:0:0:
283,142,74614,6,0,P|184:163|164:161,1,110,4|0,0:0|1:0,0:0:0:0:
89,293,75208,2,0,P|131:260|151:256,1,55,10|2,0:0|0:0,0:0:0:0:
214,265,75505,2,0,P|209:310|244:365,1,110,0|8,1:0|0:0,0:0:0:0:
319,334,75951,2,0,P|364:339|420:288,1,110,2|2,0:0|0:0,0:0:0:0:
430,221,76396,1,10,0:0:0:0:
455,57,76693,6,0,L|346:58,1,110,2|8,1:3|0:0,0:0:0:0:
180,54,77287,2,0,P|145:64|120:61,1,55,2|2,1:3|0:0,0:0:0:0:
47,87,77584,2,0,P|54:135|53:155,1,55,10|2,0:0|1:2,0:0:0:0:
84,218,77881,2,0,B|128:214|142:236|142:236|160:259|202:253,1,110,2|10,1:3|0:0,0:0:0:0:
345,278,78475,2,0,L|311:263,1,27.5,2|0,1:3|1:0,0:0:0:0:
351,190,78698,2,0,L|317:175,1,27.5,0|10,1:0|0:0,0:0:0:0:
364,107,78921,1,2,1:2:0:0:
364,107,79069,6,0,P|438:86|462:87,2,73.3333333333333,2|2|2,3:0|3:0|3:0,0:0:0:0:
271,47,79663,6,0,P|214:60|186:67,2,73.3333333333333,2|2|2,3:0|3:0|3:0,0:0:0:0:
226,147,80257,6,0,B|227:176|227:176|232:189,10,36.6666666666667,2|2|2|2|2|2|2|2|2|2|2,3:0|3:0|3:0|3:0|3:0|3:0|3:0|3:0|3:0|3:0|3:0,0:0:0:0:
117,125,81446,5,4,3:2:0:0:
438,298,82337,5,0,3:0:0:0:
274,319,82634,6,0,L|231:313,4,27.5,0|0|2|0|2,1:0|1:0|1:2|1:0|0:3,0:0:0:0:
313,246,83079,2,0,L|356:240,4,27.5,0|0|2|0|2,1:0|1:0|1:2|1:0|0:3,0:0:0:0:
231,234,83525,1,0,1:0:0:0:
66,227,83822,6,0,P|61:154|52:101,1,110,4|2,1:2|0:0,0:0:0:0:
120,67,84267,2,0,P|183:64|214:96,1,110,2|2,1:3|0:0,0:0:0:0:
290,125,84713,2,0,P|345:122|400:118,1,110,2|2,1:3|0:0,0:0:0:0:
442,188,85158,2,0,P|445:252|403:292,1,110,2|2,1:3|0:0,0:0:0:0:
348,331,85604,2,0,P|293:329|273:331,1,55,2|2,1:3|0:0,0:0:0:0:
211,344,85901,2,0,P|212:311|210:279,1,55,2|2,1:3|0:0,0:0:0:0:
163,221,86198,1,2,1:3:0:0:
56,347,86644,6,0,P|47:293|33:240,1,110,2|2,1:3|0:0,0:0:0:0:
30,157,87089,2,0,P|64:147|152:131,1,110,2|2,1:3|0:0,0:0:0:0:
178,61,87535,2,0,P|222:50|279:95,1,110,2|2,1:3|0:0,0:0:0:0:
305,159,87980,2,0,P|341:145|358:114,1,55,2|2,1:3|0:0,0:0:0:0:
357,50,88277,5,2,1:3:0:0:
357,50,88426,1,2,1:3:0:0:
484,262,88871,5,2,1:3:0:0:
421,316,89020,2,0,P|382:299|318:274,1,110,4|2,1:2|0:0,0:0:0:0:
251,227,89465,2,0,P|269:161|281:102,1,110,2|2,1:3|0:0,0:0:0:0:
264,38,89911,2,0,P|200:49|146:60,1,110,2|2,1:3|0:0,0:0:0:0:
76,80,90356,2,0,P|81:106|100:126,1,55,2|2,1:3|0:0,0:0:0:0:
160,184,90654,2,0,P|137:216|138:244,1,55,2|2,1:3|0:0,0:0:0:0:
63,270,90951,5,2,1:3:0:0:
61,352,91099,2,0,L|21:356,2,27.5,0|0|0,1:0|1:0|1:0,0:0:0:0:
143,345,91396,1,2,1:3:0:0:
273,244,91693,6,0,L|264:214,2,27.5,0|0|0,1:0|1:0|1:0,0:0:0:0:
327,305,91990,1,2,1:3:0:0:
435,180,92287,6,0,L|426:216,2,27.5,0|0|0,1:0|1:0|1:0,0:0:0:0:
408,101,92584,1,2,1:3:0:0:
258,31,92881,6,0,P|203:28|125:23,1,110,4|0,1:2|0:0,0:0:0:0:
103,94,93327,1,0,3:0:0:0:
448,328,94069,5,0,1:0:0:0:
448,328,94218,1,0,3:0:0:0:
288,284,94515,1,0,1:0:0:0:
128,324,94812,2,0,P|79:333|16:240,1,165,0|0,3:0|1:0,0:0:0:0:
73,193,95406,1,0,3:0:0:0:
182,69,95703,6,0,P|232:88|239:96,1,55,0|0,1:0|0:0,0:0:0:0:
273,159,96000,2,0,P|398:141|442:131,1,165,0|0,3:0|1:0,0:0:0:0:
469,57,96594,1,0,3:0:0:0:
467,221,96891,6,0,P|477:258|485:294,1,55,0|2,1:0|0:0,0:0:0:0:
405,308,97188,2,0,P|309:329|237:345,1,165,0|0,3:0|1:0,0:0:0:0:
180,290,97782,1,0,3:0:0:0:
90,151,98079,6,0,P|62:152|35:155,2,55,4|2|0,3:2|1:2|3:0,0:0:0:0:
150,94,98525,1,2,1:2:0:0:
218,138,98673,2,0,P|270:132|294:127,2,55,0|2|2,3:0|1:2|3:2,0:0:0:0:
242,217,99119,1,2,1:2:0:0:
316,251,99267,6,0,P|364:243|374:233,1,55,4|2,3:2|1:2,0:0:0:0:
437,284,99564,2,0,P|454:238|450:224,1,55,2|2,3:2|1:2,0:0:0:0:
494,162,99861,2,0,P|463:124|449:120,1,55,4|2,3:2|1:2,0:0:0:0:
412,54,100158,2,0,P|364:61|354:71,1,55,0|2,3:0|1:2,0:0:0:0:
344,146,100455,1,4,0:0:0:0:
103,66,101347,2,0,L|108:25,2,27.5,0|0|0,1:0|1:0|1:0,0:0:0:0:
72,142,101644,6,0,P|23:148|-9:156,2,73.3333333333333,2|2|2,3:0|3:0|3:0,0:0:0:0:
130,235,102238,2,0,P|81:241|49:249,2,73.3333333333333,2|2|2,3:0|3:0|3:0,0:0:0:0:
236,206,102832,6,0,P|224:268|215:335,1,110,4|8,1:2|0:0,0:0:0:0:
296,351,103277,1,2,0:0:0:0:
296,351,103426,2,0,P|328:327|325:298,1,55,0|2,1:0|0:0,0:0:0:0:
382,251,103723,1,10,0:0:0:0:
382,251,103871,6,0,P|355:184|344:133,1,110,2|0,0:0|0:0,0:0:0:0:
329,66,104317,2,0,P|357:36|386:32,1,55,10|2,0:0|0:0,0:0:0:0:
450,50,104614,2,0,P|450:77|451:104,1,55,0|2,1:0|0:0,0:0:0:0:
503,168,104911,1,10,0:0:0:0:
461,327,105208,1,0,1:0:0:0:
300,320,105505,5,8,0:0:0:0:
300,320,105654,2,0,P|223:330|173:336,1,110,2|2,0:0|0:0,0:0:0:0:
112,310,106099,2,0,P|74:292|66:274,1,55,10|0,0:0|0:0,0:0:0:0:
38,204,106396,2,0,B|27:186|58:149|58:149|89:143|130:149,1,110,0|8,1:0|0:0,0:0:0:0:
254,74,106990,2,0,P|294:65|342:54,2,82.5,0|2|2,1:0|0:0|0:0,0:0:0:0:
219,149,107584,6,0,P|230:207|243:262,1,110,0|8,1:0|0:0,0:0:0:0:
283,327,108030,2,0,P|335:324|370:271,1,110,2|0,0:0|0:0,0:0:0:0:
352,200,108475,5,10,0:0:0:0:
365,35,108772,2,0,P|413:42|439:46,1,55,0|0,1:0|0:0,0:0:0:0:
500,70,109069,2,0,P|505:109|511:148,1,55,10|2,0:0|0:0,0:0:0:0:
472,199,109366,2,0,P|475:226|478:253,1,55,0|2,1:0|0:0,0:0:0:0:
496,334,109663,1,10,0:0:0:0:
346,264,109960,6,0,P|224:241|116:250,1,220,0|0,1:0|1:0,0:0:0:0:
46,253,110703,1,2,0:0:0:0:
7,179,110852,1,10,0:0:0:0:
48,107,111000,2,0,P|108:68|201:83,1,165,2|8,0:0|0:0,0:0:0:0:
200,246,111743,6,0,L|189:296,1,27.5,0|0,1:0|1:0,0:0:0:0:
269,304,111965,2,0,L|258:354,1,27.5,0|8,1:0|0:0,0:0:0:0:
339,361,112188,1,2,1:2:0:0:
378,288,112337,6,0,P|453:282|508:273,1,110,0|8,1:0|0:0,0:0:0:0:
475,195,112782,1,2,0:0:0:0:
475,195,112931,2,0,P|470:163|471:127,1,55,2|2,1:2|0:0,0:0:0:0:
421,73,113228,1,10,0:0:0:0:
357,124,113376,2,0,L|240:90,1,110,2|2,0:0|0:0,0:0:0:0:
185,43,113822,2,0,L|126:61,1,55,10|2,0:0|0:0,0:0:0:0:
111,139,114119,2,0,L|52:157,1,55,2|0,1:2|0:0,0:0:0:0:
79,235,114416,2,0,L|8:267,1,55,10|2,0:0|1:2,0:0:0:0:
52,336,114713,6,0,P|96:344|176:248,2,165,2|2|4,3:0|3:0|0:0,0:0:0:0:
473,300,117089,6,0,P|482:245|490:238,1,55,4|2,1:2|1:2,0:0:0:0:
404,212,117386,2,0,P|395:157|387:150,1,55,8|2,1:2|1:2,0:0:0:0:
343,97,117683,5,2,1:3:0:0:
260,105,117832,1,2,1:2:0:0:
213,173,117980,2,0,P|151:207|146:206,1,55,8|2,1:2|1:2,0:0:0:0:
102,161,118277,2,0,P|107:132|107:124,6,27.5,2|0|2|0|8|0|2,1:3|1:0|1:2|1:0|1:2|1:0|1:2,0:0:0:0:
40,216,118871,2,0,P|46:259|60:336,2,110,2|10|0,1:3|1:2|0:0,0:0:0:0:
253,158,121693,6,0,L|295:129,2,27.5,2|2|2,0:0|0:0|0:0,0:0:0:0:
25,350,138475,6,0,P|81:354|157:368,1,110,4|0,0:0|0:0,0:0:0:0:
207,325,138921,1,0,1:0:0:0:
238,249,139069,2,0,P|305:244|361:230,1,110,2|0,1:3|0:0,0:0:0:0:
382,159,139515,1,0,1:0:0:0:
312,114,139663,6,0,P|317:57|316:26,2,73.3333333333333,2|2|2,1:3|1:3|1:3,0:0:0:0:
212,144,140257,2,0,P|145:156|133:159,2,73.3333333333333,2|2|2,1:3|1:3|1:3,0:0:0:0:
238,249,140852,1,2,1:3:0:0:
497,311,141743,5,0,1:0:0:0:
440,371,141892,1,4,0:0:0:0:
256,192,142040,12,2,145604,1:2:0:0:
200,172,145901,5,2,1:3:0:0:
334,76,146198,2,0,L|403:85,2,55,0|0|2,1:2|1:0|1:3,0:0:0:0:
200,172,146792,6,0,P|191:118|178:63,1,110,4|8,1:2|0:0,0:0:0:0:
14,45,147386,2,0,P|22:90|21:112,1,55,0|2,1:0|0:0,0:0:0:0:
8,183,147683,1,10,0:0:0:0:
8,183,147832,2,0,P|65:171|141:170,1,110,2|0,0:0|0:0,0:0:0:0:
138,247,148277,1,8,0:0:0:0:
272,341,148574,1,0,1:0:0:0:
351,196,148871,1,10,0:0:0:0:
198,134,149168,6,0,P|242:107|303:115,1,110,0|10,1:0|0:0,0:0:0:0:
378,93,149614,2,0,P|430:106|489:93,1,110,2|2,0:0|0:0,0:0:0:0:
492,13,150059,1,10,0:0:0:0:
486,177,150356,6,0,P|490:203|499:239,1,55,0|0,1:0|0:0,0:0:0:0:
434,286,150654,1,10,0:0:0:0:
356,258,150802,2,0,P|279:269|240:288,1,110,2|2,0:0|0:0,0:0:0:0:
190,339,151248,2,0,P|194:364|200:390,2,27.5,10|2|2,0:0|0:0|1:2,0:0:0:0:
119,295,151545,6,0,P|128:250|132:233,2,55,0|2|10,1:0|0:0|0:0,0:0:0:0:
82,131,152139,2,0,P|36:124|13:120,2,55,2|2|8,1:2|0:0|0:0,0:0:0:0:
145,78,152584,1,2,0:0:0:0:
201,138,152733,6,0,L|250:198,1,55,0|2,1:0|0:0,0:0:0:0:
318,180,153030,1,8,0:0:0:0:
285,18,153327,1,0,1:0:0:0:
446,51,153624,1,8,0:0:0:0:
482,211,153921,6,0,P|467:261|414:309,1,110,4|8,0:0|0:0,0:0:0:0:
265,273,154515,2,0,P|175:273|153:278,1,110,0|10,1:0|0:0,0:0:0:0:
21,181,155109,6,0,P|45:153|55:120,1,55,4|0,0:0|1:0,0:0:0:0:
133,111,155406,1,8,0:0:0:0:
133,111,155554,2,0,P|168:98|243:82,1,110,2|0,0:0|1:0,0:0:0:0:
404,86,156149,5,2,1:3:0:0:
404,86,156297,1,4,1:2:0:0:
338,237,156594,5,8,0:0:0:0:
174,217,156891,1,0,1:0:0:0:
70,345,157188,1,10,0:0:0:0:
234,344,157485,2,0,P|312:338|346:339,1,110,2|10,1:2|0:0,0:0:0:0:
451,214,158079,6,0,P|426:184|421:158,1,55,0|2,1:0|0:0,0:0:0:0:
376,100,158376,1,8,0:0:0:0:
431,38,158525,1,2,1:2:0:0:
350,21,158673,6,0,L|290:41,2,55,4|0|8,1:2|1:0|0:0,0:0:0:0:
245,148,159267,2,0,L|192:140,2,27.5,0|0|2,1:0|0:0|0:0,0:0:0:0:
221,227,159564,2,0,L|168:219,2,27.5,10|0|2,0:0|0:0|0:0,0:0:0:0:
267,295,159861,2,0,P|279:334|280:361,1,55,4|2,0:0|0:0,0:0:0:0:
365,365,160158,1,10,0:0:0:0:
365,365,160307,2,0,P|431:359|448:305,1,110,2|2,0:0|0:0,0:0:0:0:
426,245,160753,1,8,0:0:0:0:
267,295,161050,6,0,P|219:285|203:279,1,55,4|0,1:2|1:0,0:0:0:0:
147,233,161347,1,8,0:0:0:0:
196,167,161495,2,0,L|212:102,2,55,2|0|0,1:2|1:0|1:0,0:0:0:0:
268,206,161941,1,8,0:0:0:0:
426,102,162238,6,0,P|392:93|365:82,1,55,4|0,0:0|1:0,0:0:0:0:
298,50,162535,1,8,0:0:0:0:
223,84,162683,1,2,1:2:0:0:
151,42,162832,5,4,0:0:0:0:
32,156,163129,1,8,0:0:0:0:
65,317,163426,6,0,P|92:320|119:326,1,55,4|2,0:0|1:2,0:0:0:0:
162,255,163723,2,0,P|207:252|232:240,1,55,6|2,0:0|1:2,0:0:0:0:
290,284,164020,6,0,L|309:230,1,55,4|2,0:0|1:2,0:0:0:0:
386,205,164317,2,0,P|374:180|372:152,1,55,6|2,0:0|0:0,0:0:0:0:
444,113,164614,6,0,L|495:121,4,27.5,0|0|0|0|2,1:0|1:0|1:0|1:0|0:3,0:0:0:0:
377,64,165059,2,0,L|326:72,4,27.5,0|0|0|0|2,1:0|1:0|1:0|1:0|0:3,0:0:0:0:
432,2,165505,1,2,0:0:0:0:
270,34,165802,5,4,0:0:0:0:
256,384,170554,5,4,0:0:0:0:
256,384,171594,6,0,L|256:336,2,27.5,0|0|4,3:0|3:0|0:0,0:0:0:0:
427,81,172782,6,0,L|427:41,2,27.5,0|0|4,3:0|3:0|0:0,0:0:0:0:
417,163,173079,1,2,3:0:0:0:
255,130,173376,6,0,L|255:90,2,27.5,0|0|4,3:0|3:0|0:0,0:0:0:0:
286,206,173673,1,2,3:0:0:0:
155,306,173970,5,0,3:0:0:0:
91,253,174119,2,0,B|80:227|80:227|81:209,6,36.6666666666667,0|0|0|0|0|0|0,3:0|3:0|3:0|3:0|3:0|3:0|3:0,0:0:0:0:
246,307,175010,1,2,0:0:0:0:
472,142,175604,6,0,P|487:66|492:20,2,110,4|0|2,3:2|3:0|3:2,0:0:0:0:
307,152,176495,6,0,P|284:226|294:274,1,110,0|0,3:0|3:2,0:0:0:0:
143,335,177089,2,0,P|82:353|36:324,1,110,0|2,3:0|3:2,0:0:0:0:
38,250,177535,5,2,3:2:0:0:
38,250,177683,2,0,P|77:246|107:237,1,55,2|2,3:3|3:2,0:0:0:0:
166,206,177980,2,0,P|170:163|171:141,1,55,0|2,3:0|3:2,0:0:0:0:
251,133,178277,6,0,P|294:136|323:140,1,55,2|2,3:3|3:2,0:0:0:0:
384,113,178574,2,0,P|407:147|423:154,1,55,2|2,3:2|3:2,0:0:0:0:
426,235,178871,6,0,L|392:238,12,27.5,2|0|2|0|2|0|2|0|2|0|0|0|0,3:3|3:0|3:2|3:0|3:3|3:0|3:2|3:0|3:3|0:0|0:0|0:0|3:0,0:0:0:0:
269,288,180059,6,0,L|262:371,2,73.3333333333333,2|2|2,3:0|3:0|3:0,0:0:0:0:
173,231,180654,6,0,P|127:227|98:206,2,73.3333333333333,2|2|2,3:0|3:0|3:0,0:0:0:0:
271,182,181248,2,0,B|277:155|277:155|275:136,10,36.6666666666667,2|2|2|2|2|2|2|2|2|2|2,3:0|3:0|3:0|3:0|3:0|3:0|3:0|3:0|3:0|3:0|3:0,0:0:0:0:
371,227,182436,5,4,3:2:0:0:
74,58,183624,6,0,L|35:62,4,27.5,0|0|0|0|2,1:0|1:0|1:0|1:0|0:3,0:0:0:0:
155,71,184069,2,0,L|193:76,4,27.5,0|0|0|0|2,1:0|1:0|1:0|1:0|0:3,0:0:0:0:
124,316,184812,6,0,P|104:317|85:313,2,27.5,0|0|0,1:0|1:0|1:0,0:0:0:0:
197,277,185109,2,0,P|256:310|304:306,1,110,4|0,0:0|1:0,0:0:0:0:
459,332,185703,1,10,0:0:0:0:
404,270,185852,1,2,0:0:0:0:
438,195,186000,2,0,P|449:154|448:79,1,110,0|8,1:0|0:0,0:0:0:0:
367,74,186446,2,0,P|339:75|312:70,1,55,2|0,0:0|1:0,0:0:0:0:
206,18,186891,2,0,P|168:41|141:38,1,55,10|2,0:0|0:0,0:0:0:0:
82,72,187188,6,0,L|83:181,1,110,0|8,1:0|0:0,0:0:0:0:
65,262,187634,2,0,P|110:261|131:243,1,55,2|0,0:0|1:0,0:0:0:0:
179,201,187931,1,2,0:0:0:0:
179,201,188079,2,0,P|225:193|247:189,1,55,10|2,0:0|0:0,0:0:0:0:
283,256,188376,1,2,1:2:0:0:
451,247,188673,5,8,0:0:0:0:
451,247,188822,2,0,P|448:194|503:164,1,110,2|2,0:0|0:0,0:0:0:0:
466,85,189267,2,0,L|454:43,2,27.5,8|0|2,0:0|0:0|1:2,0:0:0:0:
379,97,189564,6,0,P|327:88|281:87,2,82.5,4|2|2,1:2|0:0|0:0,0:0:0:0:
386,179,190158,2,0,P|401:216|408:265,2,82.5,2|2|2,1:3|0:0|0:0,0:0:0:0:
302,182,190753,2,0,P|259:205|235:215,1,55,2|2,1:3|0:0,0:0:0:0:
210,278,191050,2,0,L|140:258,1,55,8|2,0:0|0:0,0:0:0:0:
78,237,191347,2,0,P|64:200|76:175,1,55,2|2,1:3|0:0,0:0:0:0:
145,154,191644,2,0,P|158:117|146:94,1,55,10|2,0:0|0:0,0:0:0:0:
77,71,191941,5,2,1:3:0:0:
231,12,192238,2,0,P|269:24|296:23,1,55,8|0,1:2|1:0,0:0:0:0:
366,14,192535,1,2,1:3:0:0:
483,130,192832,2,0,P|460:177|462:196,1,55,10|2,0:0|0:0,0:0:0:0:
400,235,193129,6,0,B|402:262|402:262|404:278,6,36.6666666666667,0|0|0|0|0|0|0,3:0|3:0|3:0|3:0|3:0|3:0|3:0,0:0:0:0:
247,171,194020,5,10,0:0:0:0:
133,291,194317,2,0,L|91:271,2,27.5,0|0|0,1:0|1:0|1:0,0:0:0:0:
200,347,194614,1,4,0:0:0:0:
200,347,194762,6,0,P|258:331|283:284,1,110,2|0,0:3|1:0,0:0:0:0:
355,252,195208,2,0,P|336:211|325:128,1,110,2|2,0:3|0:0,0:0:0:0:
298,69,195654,2,0,P|257:61|192:88,1,110,2|2,0:3|1:2,0:0:0:0:
110,64,196099,1,2,0:3:0:0:
20,202,196396,1,2,0:3:0:0:
150,302,196693,6,0,P|202:270|215:268,1,55,2|2,0:3|0:0,0:0:0:0:
250,210,196990,1,0,1:0:0:0:
356,335,197287,2,0,P|400:337|431:325,1,55,2|0,0:0|1:0,0:0:0:0:
449,261,197584,2,0,P|443:219|438:186,1,55,2|2,0:3|0:0,0:0:0:0:
369,164,197881,6,0,P|347:167|326:176,6,27.5,0|0|0|0|2|0|0,1:0|1:0|1:0|0:0|1:3|1:0|1:0,0:0:0:0:
415,95,198475,2,0,P|459:102|487:107,1,55,2|0,1:3|1:0,0:0:0:0:
493,24,198772,1,2,1:3:0:0:
329,43,199069,6,0,P|253:42|224:34,2,82.5,4|2|2,1:2|0:0|0:0,0:0:0:0:
339,125,199663,2,0,P|346:197|354:225,2,82.5,0|2|2,1:0|0:0|0:0,0:0:0:0:
259,146,200257,5,0,1:0:0:0:
181,291,200554,1,8,0:0:0:0:
34,214,200852,2,0,L|29:116,2,82.5,0|2|2,1:0|0:0|1:2,0:0:0:0:
87,276,201446,6,0,P|127:300|157:337,2,82.5,4|2|2,1:2|0:0|0:0,0:0:0:0:
120,200,202040,2,0,P|160:176|190:139,2,82.5,4|2|2,1:2|0:0|0:0,0:0:0:0:
73,131,202634,1,4,1:2:0:0:
200,26,202931,2,0,P|251:34|280:35,1,55,12|2,1:2|1:2,0:0:0:0:
321,81,203228,2,0,P|313:132|305:160,1,55,4|2,1:2|1:2,0:0:0:0:
330,215,203525,2,0,P|381:207|399:205,1,55,14|2,1:2|1:2,0:0:0:0:
455,164,203822,6,0,P|456:115|480:84,2,73.3333333333333,2|2|2,3:0|3:0|3:0,0:0:0:0:
436,272,204416,2,0,P|493:285|521:292,2,73.3333333333333,2|2|2,3:0|3:0|3:0,0:0:0:0:
345,334,205010,6,0,B|346:363|346:363|351:376,10,36.6666666666667,2|2|2|2|2|2|2|2|2|2|2,3:0|3:0|3:0|3:0|3:0|3:0|3:0|3:0|3:0|3:0|3:0,0:0:0:0:
237,310,206199,5,4,3:2:0:0:
7,142,207089,5,0,3:0:0:0:
170,119,207386,6,0,L|215:113,4,27.5,0|0|0|0|2,1:0|1:0|1:0|1:0|0:3,0:0:0:0:
107,65,207831,2,0,L|61:58,4,27.5,0|0|0|0|2,1:0|1:0|1:0|1:0|0:3,0:0:0:0:
183,34,208277,1,0,0:0:0:0:
309,140,208574,6,0,P|344:131|425:123,1,110,4|2,1:2|0:0,0:0:0:0:
452,198,209020,2,0,P|474:250|474:317,1,110,2|2,1:3|0:0,0:0:0:0:
404,342,209465,2,0,P|353:337|283:335,1,110,2|2,1:3|0:0,0:0:0:0:
247,266,209911,2,0,P|211:282|132:255,1,110,2|2,1:3|0:0,0:0:0:0:
172,189,210356,2,0,P|169:155|153:144,1,55,2|2,1:3|0:0,0:0:0:0:
151,60,210654,2,0,P|120:45|90:62,1,55,2|2,1:3|0:0,0:0:0:0:
31,94,210951,1,2,1:3:0:0:
28,341,211397,6,0,P|94:345|157:352,1,110,2|2,1:3|0:0,0:0:0:0:
216,325,211842,2,0,P|220:259|226:212,1,110,2|2,1:3|0:0,0:0:0:0:
252,138,212287,2,0,P|318:134|384:126,1,110,2|2,1:3|0:0,0:0:0:0:
428,178,212733,2,0,P|426:211|427:241,1,55,2|2,1:3|0:0,0:0:0:0:
429,315,213030,1,2,1:3:0:0:
429,315,213178,1,2,1:3:0:0:
496,76,213624,5,2,1:3:0:0:
424,34,213772,2,0,P|360:39|293:39,1,110,4|2,1:2|0:0,0:0:0:0:
253,95,214218,2,0,P|200:61|140:74,1,110,2|2,1:3|0:0,0:0:0:0:
86,110,214663,2,0,P|113:145|109:222,1,110,2|2,1:3|0:0,0:0:0:0:
175,266,215109,2,0,P|227:256|250:255,1,55,2|2,1:3|0:0,0:0:0:0:
288,197,215406,2,0,P|340:207|365:215,1,55,2|2,1:3|0:0,0:0:0:0:
410,254,215703,5,2,1:3:0:0:
472,200,215852,2,0,L|466:155,2,27.5,0|0|0,1:0|1:0|1:0,0:0:0:0:
499,278,216149,1,2,1:3:0:0:
349,346,216446,6,0,L|359:398,2,27.5,0|0|0,1:0|1:0|1:0,0:0:0:0:
273,311,216743,1,2,1:3:0:0:
132,224,217040,6,0,L|123:178,2,27.5,0|0|0,1:0|1:0|1:0,0:0:0:0:
76,285,217337,1,2,1:3:0:0:
210,189,217634,6,0,P|266:197|342:209,1,110,4|0,1:2|0:0,0:0:0:0:
383,154,218079,1,0,3:0:0:0:
512,70,218673,5,2,2:0:0:0:
512,70,218822,1,0,1:0:0:0:
271,12,219267,1,0,1:0:0:0:
155,130,219564,2,0,P|143:211|132:293,1,165,0|0,3:0|1:0,0:0:0:0:
188,353,220158,1,0,3:0:0:0:
335,280,220455,5,0,1:0:0:0:
278,124,220753,2,0,L|440:94,1,165,0|0,3:0|1:0,0:0:0:0:
493,157,221347,1,0,3:0:0:0:
470,320,221644,5,0,1:0:0:0:
310,360,221941,2,0,P|229:344|149:326,1,165,0|0,3:0|1:0,0:0:0:0:
68,348,222535,1,0,3:0:0:0:
118,190,222832,6,0,P|112:147|106:128,1,55,4|2,3:2|1:2,0:0:0:0:
31,106,223129,2,0,P|38:64|45:49,1,55,0|2,3:0|1:2,0:0:0:0:
122,31,223426,6,0,P|165:41|186:44,1,55,0|2,3:0|1:2,0:0:0:0:
231,104,223723,2,0,P|274:94|303:94,1,55,2|2,3:2|1:2,0:0:0:0:
306,173,224020,6,0,P|310:239|314:251,2,55,4|2|0,3:2|1:2|3:0,0:0:0:0:
373,125,224465,1,2,1:2:0:0:
373,125,224614,2,0,P|413:122|443:116,2,55,4|2|2,3:2|1:2|3:2,0:0:0:0:
391,209,225059,1,2,1:2:0:0:
391,209,225208,1,4,0:0:0:0:
63,207,226099,6,0,P|59:186|56:166,2,27.5,0|0|0,1:0|1:0|1:0,0:0:0:0:
109,275,226396,6,0,P|91:337|82:341,2,73.3333333333333,2|2|2,3:0|3:0|3:0,0:0:0:0:
202,216,226990,6,0,P|191:160|202:143,2,73.3333333333333,2|2|2,3:0|3:0|3:0,0:0:0:0:
282,290,227584,5,0,1:0:0:0:
400,175,227881,5,4,3:2:0:0:
256,192,227955,12,0,229960,0:0:0:0:
