osu file format v14

[General]
AudioFilename: audio.mp3
AudioLeadIn: 0
PreviewTime: 191646
Countdown: 0
SampleSet: Soft
StackLeniency: 0.7
Mode: 3
LetterboxInBreaks: 0
SpecialStyle: 0
WidescreenStoryboard: 0

[Editor]
Bookmarks: 9423,18312,40535,58312,62757,76090,80535,89423,98312,116090,124979,129413,131636,136090,148025,149413,153868,158302,167201,171646,180525,184969,191636,193858,196080,197747,200525,202747,204969,207191,209413,218302,222747,227201,245257
DistanceSpacing: 1
BeatDivisor: 4
GridSize: 32
TimelineZoom: 2.999999

[Metadata]
Title:omn!s
TitleUnicode:omn​!​s
Artist:AAAA Chazuke
ArtistUnicode:ああああ茶漬け
Creator:TakJun
Version:Dream
Source:
Tags:chiptune 8bit 8-bit ああああ 梅干茶漬け Umeboshi Chazuke omnis electronic instrumental Famoss
BeatmapID:3905034
BeatmapSetID:1894877

[Difficulty]
HPDrainRate:8.5
CircleSize:7
OverallDifficulty:8
ApproachRate:5
SliderMultiplier:1.4
SliderTickRate:1

[Events]
//Background and Video events
0,0,"BG.jpg",0,0
//Break Periods
//Storyboard Layer 0 (Background)
//Storyboard Layer 1 (Fail)
//Storyboard Layer 2 (Pass)
//Storyboard Layer 3 (Foreground)
//Storyboard Layer 4 (Overlay)
//Storyboard Sound Samples

[TimingPoints]
525,277.777777777778,4,2,1,35,1,0
191636,-100,4,2,1,35,0,1
209413,-100,4,2,1,35,0,0

[HitObjects]
475,192,525,5,0,0:0:0:0:
182,192,525,128,0,2747:0:0:0:0:
329,192,663,1,0,0:0:0:0:
475,192,802,1,0,0:0:0:0:
329,192,941,1,0,0:0:0:0:
402,192,1080,1,0,0:0:0:0:
475,192,1219,1,0,0:0:0:0:
329,192,1358,1,0,0:0:0:0:
402,192,1497,1,0,0:0:0:0:
329,192,1636,1,0,0:0:0:0:
256,192,1775,1,0,0:0:0:0:
109,192,1913,1,0,0:0:0:0:
256,192,2052,1,0,0:0:0:0:
36,192,2191,1,0,0:0:0:0:
402,192,2191,1,0,0:0:0:0:
329,192,2330,1,0,0:0:0:0:
256,192,2469,1,0,0:0:0:0:
109,192,2469,1,0,0:0:0:0:
402,192,2608,1,0,0:0:0:0:
475,192,2608,1,0,0:0:0:0:
36,192,2747,1,0,0:0:0:0:
329,192,2747,128,0,4969:0:0:0:0:
182,192,2886,1,0,0:0:0:0:
36,192,3025,1,0,0:0:0:0:
182,192,3163,1,0,0:0:0:0:
109,192,3302,1,0,0:0:0:0:
402,192,3302,1,0,0:0:0:0:
36,192,3441,1,0,0:0:0:0:
182,192,3580,1,0,0:0:0:0:
402,192,3580,1,0,0:0:0:0:
109,192,3719,1,0,0:0:0:0:
182,192,3858,1,0,0:0:0:0:
475,192,3858,1,0,0:0:0:0:
256,192,3997,1,0,0:0:0:0:
402,192,3997,1,0,0:0:0:0:
475,192,4136,1,0,0:0:0:0:
109,192,4136,1,0,0:0:0:0:
182,192,4275,1,0,0:0:0:0:
36,192,4413,1,0,0:0:0:0:
402,192,4413,1,0,0:0:0:0:
182,192,4552,1,0,0:0:0:0:
109,192,4691,1,0,0:0:0:0:
475,192,4691,1,0,0:0:0:0:
402,192,4830,1,0,0:0:0:0:
256,192,4830,1,0,0:0:0:0:
475,192,4969,128,0,7191:0:0:0:0:
36,192,4969,1,0,0:0:0:0:
182,192,4969,1,0,0:0:0:0:
109,192,4969,1,0,0:0:0:0:
329,192,5108,1,0,0:0:0:0:
182,192,5247,1,0,0:0:0:0:
329,192,5386,1,0,0:0:0:0:
36,192,5386,1,0,0:0:0:0:
402,192,5525,1,0,0:0:0:0:
109,192,5525,1,0,0:0:0:0:
329,192,5663,1,0,0:0:0:0:
182,192,5802,1,0,0:0:0:0:
36,192,5802,1,0,0:0:0:0:
256,192,5941,1,0,0:0:0:0:
109,192,6080,1,0,0:0:0:0:
402,192,6219,1,0,0:0:0:0:
182,192,6219,1,0,0:0:0:0:
329,192,6358,1,0,0:0:0:0:
256,192,6497,1,0,0:0:0:0:
36,192,6636,1,0,0:0:0:0:
402,192,6636,1,0,0:0:0:0:
109,192,6775,1,0,0:0:0:0:
329,192,6913,1,0,0:0:0:0:
256,192,6913,1,0,0:0:0:0:
109,192,7052,1,0,0:0:0:0:
182,192,7052,1,0,0:0:0:0:
256,192,7191,128,0,9136:0:0:0:0:
402,192,7191,1,0,0:0:0:0:
36,192,7191,1,0,0:0:0:0:
329,192,7330,1,0,0:0:0:0:
402,192,7469,1,0,0:0:0:0:
329,192,7608,1,0,0:0:0:0:
109,192,7747,1,0,0:0:0:0:
475,192,7747,1,0,0:0:0:0:
182,192,7886,1,0,0:0:0:0:
402,192,8025,1,0,0:0:0:0:
109,192,8025,1,0,0:0:0:0:
329,192,8163,1,0,0:0:0:0:
182,192,8302,1,0,0:0:0:0:
36,192,8302,128,0,9136:0:0:0:0:
475,192,8441,1,0,0:0:0:0:
402,192,8441,1,0,0:0:0:0:
182,192,8580,1,0,0:0:0:0:
109,192,8580,1,0,0:0:0:0:
329,192,8719,1,0,0:0:0:0:
475,192,8858,128,0,9136:0:0:0:0:
109,192,8858,1,0,0:0:0:0:
182,192,8927,1,0,0:0:0:0:
329,192,8997,1,0,0:0:0:0:
402,192,9066,1,0,0:0:0:0:
109,192,9136,1,0,0:0:0:0:
182,192,9205,1,0,0:0:0:0:
329,192,9275,1,0,0:0:0:0:
402,192,9344,1,0,0:0:0:0:
256,192,9413,1,0,0:0:0:70:Cymatics - Heater Kick 26.wav
109,192,9413,1,0,0:0:0:70:F-Kick.wav
475,192,9413,128,0,11636:0:0:0:0:
36,192,9413,128,0,9969:0:0:0:0:
182,192,9413,1,0,0:0:0:0:
402,192,9552,1,0,0:0:0:0:
256,192,9691,1,0,0:0:0:0:
402,192,9830,1,0,0:0:0:0:
182,192,9969,128,0,10525:0:0:0:0:
109,192,9969,1,0,0:0:0:0:
329,192,10108,1,0,0:0:0:0:
256,192,10247,1,0,0:0:0:0:
402,192,10386,1,0,0:0:0:0:
109,192,10525,128,0,11080:0:0:0:0:
329,192,10525,1,0,0:0:0:0:
182,192,10663,1,0,0:0:0:0:
256,192,10802,1,0,0:0:0:0:
402,192,10895,1,0,0:0:0:0:
329,192,10987,1,0,0:0:0:0:
36,192,11080,128,0,11636:0:0:0:0:
182,192,11080,1,0,0:0:0:0:
256,192,11080,1,0,0:0:0:0:
402,192,11219,1,0,0:0:0:0:
329,192,11358,1,0,0:0:0:0:
109,192,11497,1,0,0:0:0:0:
256,192,11636,128,0,13858:0:0:0:0:
182,192,11636,1,0,0:0:0:0:
402,192,11636,128,0,12191:0:0:0:0:
36,192,11775,1,0,0:0:0:0:
182,192,11913,1,0,0:0:0:0:
36,192,12052,1,0,0:0:0:0:
329,192,12191,128,0,12747:0:0:0:0:
182,192,12191,1,0,0:0:0:0:
475,192,12191,1,0,0:0:0:0:
109,192,12330,1,0,0:0:0:0:
36,192,12469,1,0,0:0:0:0:
182,192,12608,1,0,0:0:0:0:
475,192,12747,128,0,13302:0:0:0:0:
402,192,12747,1,0,0:0:0:0:
109,192,12886,1,0,0:0:0:0:
36,192,12886,1,0,0:0:0:0:
329,192,13025,1,0,0:0:0:0:
182,192,13025,1,0,0:0:0:0:
109,192,13163,1,0,0:0:0:0:
402,192,13302,128,0,13858:0:0:0:0:
36,192,13302,1,0,0:0:0:0:
329,192,13302,1,0,0:0:0:0:
182,192,13441,1,0,0:0:0:0:
109,192,13580,1,0,0:0:0:0:
475,192,13580,1,0,0:0:0:0:
329,192,13719,1,0,0:0:0:0:
182,192,13858,1,0,0:0:0:0:
475,192,13858,128,0,16080:0:0:0:0:
36,192,13858,128,0,14413:0:0:0:0:
256,192,13997,1,0,0:0:0:0:
182,192,14136,1,0,0:0:0:0:
256,192,14275,1,0,0:0:0:0:
109,192,14413,128,0,14969:0:0:0:0:
329,192,14413,1,0,0:0:0:0:
402,192,14413,1,0,0:0:0:0:
182,192,14552,1,0,0:0:0:0:
329,192,14691,1,0,0:0:0:0:
256,192,14830,1,0,0:0:0:0:
182,192,14969,128,0,15525:0:0:0:0:
36,192,14969,1,0,0:0:0:0:
402,192,14969,1,0,0:0:0:0:
329,192,15108,1,0,0:0:0:0:
256,192,15247,1,0,0:0:0:0:
402,192,15386,1,0,0:0:0:0:
36,192,15525,128,0,16080:0:0:0:0:
329,192,15525,1,0,0:0:0:0:
109,192,15525,1,0,0:0:0:0:
182,192,15663,1,0,0:0:0:0:
402,192,15802,1,0,0:0:0:0:
256,192,15802,1,0,0:0:0:0:
109,192,15941,1,0,0:0:0:0:
182,192,15941,1,0,0:0:0:0:
256,192,16080,128,0,17191:0:0:0:0:
329,192,16080,128,0,16636:0:0:0:0:
402,192,16080,1,0,0:0:0:0:
36,192,16219,1,0,0:0:0:0:
402,192,16358,1,0,0:0:0:0:
36,192,16497,1,0,0:0:0:0:
182,192,16636,128,0,17191:0:0:0:0:
475,192,16636,1,0,0:0:0:0:
402,192,16728,1,0,0:0:0:0:
329,192,16821,1,0,0:0:0:0:
36,192,16913,1,0,0:0:0:0:
109,192,17006,1,0,0:0:0:0:
329,192,17099,1,0,0:0:0:0:
36,192,17191,128,0,18025:0:0:0:0:
109,192,17191,128,0,18025:0:0:0:0:
475,192,17191,128,0,17747:0:0:0:0:
402,192,17191,128,0,17747:0:0:0:0:
36,192,18302,1,0,0:0:0:70:Cymatics - Heater Kick 26.wav
329,192,18302,1,0,0:0:0:70:F-Kick.wav
475,192,18302,128,0,18858:0:0:0:0:
182,192,18302,128,0,19413:0:0:0:0:
256,192,18302,1,0,0:0:0:0:
329,192,18858,128,0,19413:0:0:0:0:
109,192,18858,1,0,0:0:0:0:
475,192,19136,1,0,0:0:0:0:
36,192,19413,128,0,19969:0:0:0:0:
402,192,19413,128,0,20525:0:0:0:0:
256,192,19552,1,0,0:0:0:0:
109,192,19691,1,0,0:0:0:0:
329,192,19830,1,0,0:0:0:0:
182,192,19969,128,0,20525:0:0:0:0:
475,192,19969,1,0,0:0:0:0:
256,192,20247,1,0,0:0:0:0:
256,192,20386,1,0,0:0:0:0:
475,192,20525,1,0,0:0:0:0:
329,192,20525,128,0,21080:0:0:0:0:
109,192,20525,128,0,21636:0:0:0:0:
36,192,20802,1,0,0:0:0:0:
475,192,20941,1,0,0:0:0:0:
402,192,21080,128,0,21636:0:0:0:0:
182,192,21080,1,0,0:0:0:0:
329,192,21219,1,0,0:0:0:0:
182,192,21358,1,0,0:0:0:0:
256,192,21497,1,0,0:0:0:0:
182,192,21636,1,0,0:0:0:0:
475,192,21636,128,0,22747:0:0:0:0:
36,192,21636,128,0,22191:0:0:0:0:
329,192,21775,1,0,0:0:0:0:
329,192,21913,1,0,0:0:0:0:
402,192,22052,1,0,0:0:0:0:
182,192,22191,128,0,22747:0:0:0:0:
109,192,22191,1,0,0:0:0:0:
256,192,22469,1,0,0:0:0:0:
256,192,22608,1,0,0:0:0:0:
109,192,22747,1,0,0:0:0:0:
36,192,22747,128,0,23858:0:0:0:0:
402,192,22747,128,0,23302:0:0:0:0:
329,192,23025,1,0,0:0:0:0:
109,192,23163,1,0,0:0:0:0:
256,192,23302,128,0,23858:0:0:0:0:
182,192,23302,1,0,0:0:0:0:
475,192,23580,1,0,0:0:0:0:
182,192,23858,1,0,0:0:0:0:
109,192,23858,128,0,24413:0:0:0:0:
402,192,23858,128,0,24969:0:0:0:0:
329,192,23997,1,0,0:0:0:0:
256,192,24136,1,0,0:0:0:0:
329,192,24275,1,0,0:0:0:0:
182,192,24413,128,0,24969:0:0:0:0:
36,192,24413,1,0,0:0:0:0:
256,192,24691,1,0,0:0:0:0:
256,192,24830,1,0,0:0:0:0:
36,192,24969,1,0,0:0:0:0:
109,192,24969,128,0,26080:0:0:0:0:
475,192,24969,128,0,25525:0:0:0:0:
256,192,25247,1,0,0:0:0:0:
402,192,25386,1,0,0:0:0:0:
329,192,25525,128,0,26080:0:0:0:0:
182,192,25525,1,0,0:0:0:0:
256,192,25663,1,0,0:0:0:0:
182,192,25802,1,0,0:0:0:0:
402,192,25941,1,0,0:0:0:0:
475,192,26080,128,0,27191:0:0:0:0:
182,192,26080,128,0,26636:0:0:0:0:
36,192,26080,1,0,0:0:0:0:
329,192,26219,1,0,0:0:0:0:
329,192,26358,1,0,0:0:0:0:
402,192,26497,1,0,0:0:0:0:
36,192,26636,128,0,27191:0:0:0:0:
256,192,26636,1,0,0:0:0:0:
109,192,26913,1,0,0:0:0:50:LR_Air Dart Snare.wav
402,192,26913,1,0,0:0:0:0:
182,192,27006,1,0,0:0:0:50:LR_Air Dart Snare.wav
329,192,27006,1,0,0:0:0:0:
182,192,27099,1,0,0:0:0:50:LR_Air Dart Snare.wav
329,192,27099,1,0,0:0:0:0:
402,192,27191,128,0,27747:0:0:0:70:Cymatics - Heater Kick 26.wav
109,192,27191,128,0,28302:0:0:0:70:F-Kick.wav
256,192,27191,128,0,27747:0:0:0:0:
182,192,27747,128,0,28302:0:0:0:0:
329,192,27747,128,0,28025:0:0:0:0:
402,192,28025,128,0,28302:0:0:0:0:
36,192,28302,128,0,29413:0:0:0:0:
475,192,28302,128,0,29413:0:0:0:0:
329,192,28302,128,0,28858:0:0:0:0:
182,192,28441,1,0,0:0:0:0:
256,192,28580,1,0,0:0:0:0:
109,192,28719,1,0,0:0:0:0:
402,192,28858,1,0,0:0:0:0:
182,192,28858,128,0,29413:0:0:0:0:
256,192,29136,1,0,0:0:0:0:
256,192,29275,1,0,0:0:0:0:
109,192,29413,128,0,30525:0:0:0:0:
329,192,29413,128,0,30525:0:0:0:0:
402,192,29413,128,0,29969:0:0:0:0:
182,192,29969,128,0,30525:0:0:0:0:
36,192,29969,1,0,0:0:0:0:
402,192,30108,1,0,0:0:0:0:
256,192,30247,1,0,0:0:0:0:
475,192,30386,1,0,0:0:0:0:
402,192,30525,128,0,31080:0:0:0:0:
36,192,30525,128,0,31080:0:0:0:0:
256,192,30525,128,0,31080:0:0:0:0:
182,192,30663,1,0,0:0:0:0:
329,192,30802,1,0,0:0:0:0:
329,192,31080,128,0,31636:0:0:0:0:
475,192,31080,128,0,31636:0:0:0:0:
109,192,31080,128,0,31636:0:0:0:0:
256,192,31358,1,0,0:0:0:0:
256,192,31497,1,0,0:0:0:0:
182,192,31636,128,0,32191:0:0:0:0:
402,192,31636,128,0,32191:0:0:0:0:
36,192,31636,128,0,32747:0:0:0:0:
475,192,32191,128,0,32747:0:0:0:0:
256,192,32191,128,0,32747:0:0:0:0:
109,192,32469,1,0,0:0:0:0:
182,192,32747,128,0,33788:0:0:0:0:
329,192,32747,128,0,33788:0:0:0:0:
402,192,32747,128,0,33788:0:0:0:0:
36,192,32886,1,0,0:0:0:0:
475,192,33025,128,0,33788:0:0:0:0:
109,192,33302,128,0,33788:0:0:0:0:
256,192,33302,1,0,0:0:0:0:
36,192,33302,128,0,33788:0:0:0:0:
36,192,33858,1,0,0:0:0:70:Cymatics - Heater Kick 26.wav
182,192,33858,1,0,0:0:0:70:F-Kick.wav
329,192,33858,1,0,0:0:0:0:
475,192,33858,1,0,0:0:0:0:
402,192,33858,1,0,0:0:0:0:
109,192,33858,1,0,0:0:0:0:
109,192,34552,1,0,0:0:0:0:
256,192,34691,1,0,0:0:0:0:
402,192,34830,1,0,0:0:0:0:
329,192,34969,1,0,0:0:0:0:
182,192,34969,1,0,0:0:0:0:
256,192,35941,1,0,0:0:0:0:
475,192,36080,1,0,0:0:0:0:
36,192,39691,128,0,40247:0:0:0:0:
182,192,39969,128,0,40525:0:0:0:0:
329,192,40247,128,0,40525:0:0:0:0:
256,192,40525,128,0,40802:0:0:0:0:
36,192,40525,1,0,0:0:0:0:
182,192,40663,1,0,0:0:0:0:
109,192,40802,1,0,0:0:0:0:
475,192,40941,128,0,41080:0:0:0:0:
402,192,40941,1,0,0:0:0:0:
329,192,41080,128,0,41358:0:0:0:0:
256,192,41080,1,0,0:0:0:0:
475,192,41497,128,0,41636:0:0:0:0:
329,192,41636,128,0,41913:0:0:0:0:
36,192,41913,1,0,0:0:0:0:
329,192,42052,128,0,42122:0:0:0:0:
329,192,42191,128,0,42330:0:0:0:0:
109,192,42191,1,0,0:0:0:0:
256,192,42330,128,0,42469:0:0:0:0:
182,192,42469,128,0,42747:0:0:0:0:
402,192,42469,1,0,0:0:0:0:
475,192,42747,1,0,0:0:0:0:
329,192,42747,1,0,0:0:0:0:
36,192,42747,128,0,43025:0:0:0:0:
256,192,42886,1,0,0:0:0:0:
402,192,43025,1,0,0:0:0:0:
109,192,43025,128,0,43163:0:0:0:0:
182,192,43163,128,0,43997:0:0:0:0:
329,192,43163,1,0,0:0:0:0:
475,192,43580,1,0,0:0:0:0:
36,192,44136,128,0,44691:0:0:0:0:
256,192,44413,128,0,44969:0:0:0:0:
402,192,44691,128,0,44761:0:0:0:0:
475,192,44761,128,0,44969:0:0:0:0:
182,192,44969,128,0,45247:0:0:0:0:
109,192,44969,1,0,0:0:0:0:
329,192,44969,1,0,0:0:0:0:
256,192,45247,1,0,0:0:0:0:
36,192,45386,128,0,45525:0:0:0:0:
402,192,45386,1,0,0:0:0:0:
182,192,45525,128,0,45802:0:0:0:0:
475,192,45802,1,0,0:0:0:0:
36,192,45941,128,0,46080:0:0:0:0:
329,192,45941,1,0,0:0:0:0:
182,192,46080,128,0,46358:0:0:0:0:
109,192,46358,128,0,46497:0:0:0:0:
109,192,46636,128,0,46844:0:0:0:0:
36,192,46844,128,0,47052:0:0:0:0:
182,192,47052,128,0,47191:0:0:0:0:
109,192,47191,1,0,0:0:0:0:
402,192,47191,1,0,0:0:0:0:
256,192,47191,128,0,47608:0:0:0:0:
475,192,47608,128,0,47747:0:0:0:0:
329,192,47747,128,0,48302:0:0:0:0:
36,192,48302,1,0,0:0:0:0:
182,192,48441,1,0,0:0:0:0:
402,192,48580,128,0,49136:0:0:0:0:
256,192,48580,1,0,0:0:0:0:
36,192,48719,1,0,0:0:0:0:
109,192,48719,1,0,0:0:0:0:
329,192,48858,128,0,49413:0:0:0:0:
182,192,48997,1,0,0:0:0:0:
475,192,49136,128,0,49413:0:0:0:0:
109,192,49136,1,0,0:0:0:0:
256,192,49275,1,0,0:0:0:0:
182,192,49413,1,0,0:0:0:0:
36,192,49413,1,0,0:0:0:0:
402,192,49413,128,0,49691:0:0:0:0:
329,192,49552,1,0,0:0:0:0:
109,192,49691,1,0,0:0:0:0:
256,192,49830,128,0,49900:0:0:0:0:
402,192,49830,1,0,0:0:0:0:
256,192,49969,128,0,50247:0:0:0:0:
329,192,49969,1,0,0:0:0:0:
475,192,50108,1,0,0:0:0:0:
109,192,50247,128,0,50316:0:0:0:0:
182,192,50386,128,0,50663:0:0:0:0:
402,192,50386,1,0,0:0:0:0:
109,192,50663,128,0,50733:0:0:0:0:
182,192,50802,128,0,50872:0:0:0:0:
329,192,50941,128,0,51219:0:0:0:0:
475,192,51358,128,0,51636:0:0:0:0:
36,192,51636,1,0,0:0:0:0:
256,192,51636,128,0,51913:0:0:0:0:
402,192,51636,1,0,0:0:0:0:
109,192,51775,1,0,0:0:0:0:
329,192,51913,1,0,0:0:0:0:
182,192,52052,128,0,52122:0:0:0:0:
475,192,52052,1,0,0:0:0:0:
182,192,52191,128,0,52469:0:0:0:0:
329,192,52191,1,0,0:0:0:0:
402,192,52330,1,0,0:0:0:0:
36,192,52469,128,0,52538:0:0:0:0:
109,192,52608,128,0,52886:0:0:0:0:
256,192,52608,1,0,0:0:0:0:
475,192,52608,1,0,0:0:0:0:
36,192,52886,128,0,52955:0:0:0:0:
109,192,53025,128,0,53094:0:0:0:0:
182,192,53163,128,0,53372:0:0:0:0:
402,192,53302,1,0,0:0:0:0:
182,192,53441,128,0,53719:0:0:0:0:
329,192,53580,128,0,53858:0:0:0:0:
475,192,53719,128,0,53858:0:0:0:0:
109,192,53858,128,0,54136:0:0:0:0:
256,192,53858,128,0,57191:0:0:0:0:
402,192,54275,128,0,54344:0:0:0:0:
109,192,54413,128,0,54691:0:0:0:0:
329,192,54691,1,0,0:0:0:0:
402,192,54830,128,0,54900:0:0:0:0:
182,192,54830,1,0,0:0:0:0:
109,192,54969,128,0,55525:0:0:0:0:
182,192,55247,128,0,55802:0:0:0:0:
475,192,55525,128,0,56080:0:0:0:0:
36,192,55802,128,0,56080:0:0:0:0:
402,192,56080,128,0,57191:0:0:0:0:
109,192,56080,128,0,56427:0:0:0:0:
182,192,56358,128,0,56427:0:0:0:0:
329,192,56497,128,0,57191:0:0:0:0:
475,192,57191,128,0,57469:0:0:0:0:
36,192,57191,128,0,57469:0:0:0:0:
182,192,57330,128,0,57608:0:0:0:0:
329,192,57330,128,0,57608:0:0:0:0:
109,192,57469,128,0,57747:0:0:0:0:
402,192,57469,128,0,57747:0:0:0:0:
256,192,57608,128,0,57886:0:0:0:0:
475,192,57608,128,0,57886:0:0:0:0:
36,192,57747,128,0,58025:0:0:0:0:
329,192,57747,128,0,58025:0:0:0:0:
182,192,57886,128,0,58163:0:0:0:0:
402,192,57886,128,0,58163:0:0:0:0:
109,192,58025,128,0,58302:0:0:0:0:
475,192,58025,128,0,58302:0:0:0:0:
256,192,58025,128,0,58302:0:0:0:0:
402,192,58302,1,0,0:0:0:70:Cymatics - Heater Kick 26.wav
182,192,58302,1,0,0:0:0:70:F-Kick.wav
36,192,58302,1,0,0:0:0:0:
329,192,58302,128,0,60525:0:0:0:0:
475,192,58580,128,0,58858:0:0:0:0:
109,192,58580,128,0,58858:0:0:0:0:
182,192,58858,128,0,58927:0:0:0:0:
256,192,58858,128,0,58927:0:0:0:0:
402,192,58997,128,0,59066:0:0:0:0:
475,192,58997,128,0,59066:0:0:0:0:
36,192,59136,128,0,59205:0:0:0:0:
182,192,59136,128,0,59205:0:0:0:0:
109,192,59275,128,0,59344:0:0:0:0:
256,192,59275,128,0,59344:0:0:0:0:
109,192,59552,128,0,59622:0:0:0:0:
256,192,59552,128,0,59622:0:0:0:0:
36,192,59691,128,0,59969:0:0:0:0:
475,192,59691,128,0,59969:0:0:0:0:
36,192,60108,128,0,60177:0:0:0:0:
109,192,60108,128,0,60177:0:0:0:0:
182,192,60247,128,0,60316:0:0:0:0:
256,192,60247,128,0,60316:0:0:0:0:
402,192,60386,128,0,60455:0:0:0:0:
475,192,60386,128,0,60455:0:0:0:0:
36,192,60525,128,0,62469:0:0:0:0:
256,192,60525,128,0,60802:0:0:0:0:
109,192,60525,128,0,60802:0:0:0:0:
475,192,60941,128,0,61011:0:0:0:0:
402,192,60941,128,0,61011:0:0:0:0:
109,192,61080,128,0,61219:0:0:0:0:
256,192,61080,128,0,61219:0:0:0:0:
329,192,61219,128,0,61288:0:0:0:0:
402,192,61219,128,0,61288:0:0:0:0:
182,192,61358,128,0,61427:0:0:0:0:
256,192,61358,128,0,61427:0:0:0:0:
329,192,61497,128,0,62052:0:0:0:0:
475,192,61497,128,0,62330:0:0:0:0:
182,192,61913,128,0,62469:0:0:0:0:
329,192,62191,128,0,62469:0:0:0:0:
475,192,62469,128,0,62747:0:0:0:0:
36,192,62747,1,0,0:0:0:50:LR_Air Dart Snare.wav
109,192,62747,1,0,0:0:0:70:F-Kick.wav
402,192,62747,1,0,0:0:0:0:
256,192,62747,128,0,63441:0:0:0:0:
109,192,63025,1,0,0:0:0:50:LR_Air Dart Snare.wav
329,192,63025,1,0,0:0:0:0:
109,192,63117,1,0,0:0:0:50:LR_Air Dart Snare.wav
182,192,63210,1,0,0:0:0:50:LR_Air Dart Snare.wav
475,192,63302,1,0,0:0:0:50:LR_Air Dart Snare.wav
402,192,63302,1,0,0:0:0:0:
36,192,63302,1,0,0:0:0:0:
329,192,63580,128,0,63719:0:0:0:50:LR_Air Dart Snare.wav
109,192,63580,1,0,0:0:0:0:
109,192,63673,1,0,0:0:0:50:LR_Air Dart Snare.wav
256,192,63719,128,0,64321:0:0:0:0:
182,192,63765,1,0,0:0:0:50:LR_Air Dart Snare.wav
36,192,63858,1,0,0:0:0:50:LR_Air Dart Snare.wav
475,192,63858,1,0,0:0:0:0:
402,192,63858,1,0,0:0:0:0:
329,192,63858,1,0,0:0:0:0:
109,192,64136,1,0,0:0:0:50:LR_Air Dart Snare.wav
329,192,64136,1,0,0:0:0:0:
109,192,64228,1,0,0:0:0:50:LR_Air Dart Snare.wav
182,192,64321,1,0,0:0:0:50:LR_Air Dart Snare.wav
256,192,64413,128,0,64506:0:0:0:50:LR_Air Dart Snare.wav
36,192,64413,1,0,0:0:0:0:
475,192,64413,1,0,0:0:0:0:
402,192,64413,1,0,0:0:0:0:
329,192,64691,128,0,64784:0:0:0:50:LR_Air Dart Snare.wav
36,192,64691,1,0,0:0:0:0:
109,192,64737,1,0,0:0:0:50:LR_Air Dart Snare.wav
182,192,64784,1,0,0:0:0:50:LR_Air Dart Snare.wav
256,192,64830,1,0,0:0:0:50:LR_Air Dart Snare.wav
329,192,64876,1,0,0:0:0:50:LR_Air Dart Snare.wav
402,192,64923,1,0,0:0:0:50:LR_Air Dart Snare.wav
475,192,64969,128,0,65525:0:0:0:50:LR_Air Dart Snare.wav
109,192,64969,1,0,0:0:0:0:
182,192,64969,1,0,0:0:0:0:
329,192,65247,1,0,0:0:0:50:LR_Air Dart Snare.wav
109,192,65247,1,0,0:0:0:0:
329,192,65339,1,0,0:0:0:50:LR_Air Dart Snare.wav
402,192,65432,1,0,0:0:0:50:LR_Air Dart Snare.wav
182,192,65525,128,0,66080:0:0:0:50:LR_Air Dart Snare.wav
36,192,65525,1,0,0:0:0:0:
256,192,65525,1,0,0:0:0:0:
329,192,65802,1,0,0:0:0:50:LR_Air Dart Snare.wav
109,192,65802,1,0,0:0:0:0:
329,192,65895,1,0,0:0:0:50:LR_Air Dart Snare.wav
402,192,65987,1,0,0:0:0:50:LR_Air Dart Snare.wav
256,192,66080,1,0,0:0:0:50:LR_Air Dart Snare.wav
109,192,66080,128,0,66636:0:0:0:0:
36,192,66080,1,0,0:0:0:0:
182,192,66358,128,0,66636:0:0:0:50:LR_Air Dart Snare.wav
329,192,66358,1,0,0:0:0:0:
329,192,66450,1,0,0:0:0:50:LR_Air Dart Snare.wav
402,192,66543,1,0,0:0:0:50:LR_Air Dart Snare.wav
256,192,66636,1,0,0:0:0:50:LR_Air Dart Snare.wav
475,192,66636,128,0,67006:0:0:0:0:
36,192,66636,1,0,0:0:0:0:
329,192,66821,128,0,67191:0:0:0:0:
182,192,66913,1,0,0:0:0:50:LR_Air Dart Snare.wav
402,192,67006,128,0,67191:0:0:0:50:LR_Air Dart Snare.wav
182,192,67006,1,0,0:0:0:0:
109,192,67099,1,0,0:0:0:50:LR_Air Dart Snare.wav
36,192,67191,1,0,0:0:0:50:LR_Air Dart Snare.wav
475,192,67191,1,0,0:0:0:0:
256,192,67191,128,0,67886:0:0:0:0:
182,192,67469,1,0,0:0:0:50:LR_Air Dart Snare.wav
329,192,67469,1,0,0:0:0:0:
329,192,67562,1,0,0:0:0:50:LR_Air Dart Snare.wav
402,192,67654,1,0,0:0:0:50:LR_Air Dart Snare.wav
475,192,67747,1,0,0:0:0:50:LR_Air Dart Snare.wav
36,192,67747,1,0,0:0:0:0:
109,192,67747,1,0,0:0:0:0:
402,192,68025,128,0,68163:0:0:0:50:LR_Air Dart Snare.wav
109,192,68025,1,0,0:0:0:0:
109,192,68117,1,0,0:0:0:50:LR_Air Dart Snare.wav
256,192,68163,128,0,68673:0:0:0:0:
182,192,68210,1,0,0:0:0:50:LR_Air Dart Snare.wav
36,192,68302,1,0,0:0:0:50:LR_Air Dart Snare.wav
329,192,68302,1,0,0:0:0:0:
475,192,68302,1,0,0:0:0:0:
402,192,68580,1,0,0:0:0:50:LR_Air Dart Snare.wav
402,192,68673,1,0,0:0:0:50:LR_Air Dart Snare.wav
329,192,68765,1,0,0:0:0:50:LR_Air Dart Snare.wav
36,192,68858,128,0,69413:0:0:0:50:LR_Air Dart Snare.wav
475,192,68858,1,0,0:0:0:0:
182,192,68858,1,0,0:0:0:0:
109,192,69136,1,0,0:0:0:50:LR_Air Dart Snare.wav
182,192,69182,1,0,0:0:0:50:LR_Air Dart Snare.wav
256,192,69228,1,0,0:0:0:50:LR_Air Dart Snare.wav
475,192,69275,1,0,0:0:0:50:LR_Air Dart Snare.wav
402,192,69321,1,0,0:0:0:50:LR_Air Dart Snare.wav
329,192,69367,1,0,0:0:0:50:LR_Air Dart Snare.wav
109,192,69413,1,0,0:0:0:50:LR_Air Dart Snare.wav
256,192,69413,1,0,0:0:0:0:
182,192,69413,128,0,69691:0:0:0:0:
329,192,69691,128,0,69784:0:0:0:50:LR_Air Dart Snare.wav
109,192,69691,1,0,0:0:0:0:
109,192,69784,1,0,0:0:0:50:LR_Air Dart Snare.wav
256,192,69830,128,0,69923:0:0:0:0:
36,192,69876,1,0,0:0:0:50:LR_Air Dart Snare.wav
329,192,69923,128,0,70663:0:0:0:0:
182,192,69969,1,0,0:0:0:50:LR_Air Dart Snare.wav
475,192,69969,1,0,0:0:0:0:
402,192,69969,1,0,0:0:0:0:
182,192,70247,1,0,0:0:0:50:LR_Air Dart Snare.wav
182,192,70339,1,0,0:0:0:50:LR_Air Dart Snare.wav
256,192,70432,1,0,0:0:0:50:LR_Air Dart Snare.wav
36,192,70525,1,0,0:0:0:50:LR_Air Dart Snare.wav
109,192,70525,1,0,0:0:0:0:
475,192,70525,1,0,0:0:0:0:
402,192,70802,128,0,70895:0:0:0:50:LR_Air Dart Snare.wav
182,192,70802,1,0,0:0:0:0:
475,192,70895,128,0,71358:0:0:0:50:LR_Air Dart Snare.wav
182,192,70895,1,0,0:0:0:0:
36,192,70987,1,0,0:0:0:50:LR_Air Dart Snare.wav
109,192,71080,1,0,0:0:0:50:LR_Air Dart Snare.wav
402,192,71080,1,0,0:0:0:0:
256,192,71080,128,0,71636:0:0:0:0:
329,192,71358,128,0,71636:0:0:0:50:LR_Air Dart Snare.wav
36,192,71358,1,0,0:0:0:0:
36,192,71450,1,0,0:0:0:50:LR_Air Dart Snare.wav
182,192,71543,1,0,0:0:0:50:LR_Air Dart Snare.wav
475,192,71636,1,0,0:0:0:50:LR_Air Dart Snare.wav
402,192,71636,1,0,0:0:0:0:
109,192,71636,128,0,72191:0:0:0:0:
402,192,71913,1,0,0:0:0:50:LR_Air Dart Snare.wav
402,192,72006,1,0,0:0:0:50:LR_Air Dart Snare.wav
329,192,72099,1,0,0:0:0:50:LR_Air Dart Snare.wav
475,192,72191,1,0,0:0:0:50:LR_Air Dart Snare.wav
36,192,72191,1,0,0:0:0:0:
256,192,72191,1,0,0:0:0:0:
182,192,72330,128,0,72423:0:0:0:0:
256,192,72469,128,0,72562:0:0:0:50:LR_Air Dart Snare.wav
402,192,72469,1,0,0:0:0:0:
402,192,72562,1,0,0:0:0:50:LR_Air Dart Snare.wav
329,192,72608,128,0,72886:0:0:0:0:
475,192,72654,1,0,0:0:0:50:LR_Air Dart Snare.wav
36,192,72747,1,0,0:0:0:50:LR_Air Dart Snare.wav
109,192,72747,1,0,0:0:0:0:
256,192,72747,1,0,0:0:0:0:
182,192,72886,128,0,72978:0:0:0:0:
256,192,73025,128,0,73117:0:0:0:50:LR_Air Dart Snare.wav
109,192,73025,1,0,0:0:0:0:
109,192,73117,1,0,0:0:0:50:LR_Air Dart Snare.wav
329,192,73163,128,0,73441:0:0:0:0:
182,192,73210,1,0,0:0:0:50:LR_Air Dart Snare.wav
36,192,73302,1,0,0:0:0:50:LR_Air Dart Snare.wav
475,192,73302,1,0,0:0:0:0:
402,192,73302,1,0,0:0:0:0:
182,192,73441,128,0,73534:0:0:0:0:
256,192,73580,128,0,73673:0:0:0:50:LR_Air Dart Snare.wav
402,192,73580,1,0,0:0:0:0:
182,192,73626,1,0,0:0:0:50:LR_Air Dart Snare.wav
109,192,73673,1,0,0:0:0:50:LR_Air Dart Snare.wav
329,192,73719,128,0,73997:0:0:0:50:LR_Air Dart Snare.wav
475,192,73719,1,0,0:0:0:0:
256,192,73765,1,0,0:0:0:50:LR_Air Dart Snare.wav
182,192,73812,1,0,0:0:0:50:LR_Air Dart Snare.wav
402,192,73858,1,0,0:0:0:50:LR_Air Dart Snare.wav
475,192,73858,1,0,0:0:0:0:
36,192,73858,1,0,0:0:0:0:
182,192,73997,128,0,74089:0:0:0:0:
256,192,74136,128,0,74228:0:0:0:50:LR_Air Dart Snare.wav
402,192,74136,1,0,0:0:0:0:
402,192,74228,1,0,0:0:0:50:LR_Air Dart Snare.wav
329,192,74275,128,0,74552:0:0:0:0:
475,192,74321,1,0,0:0:0:50:LR_Air Dart Snare.wav
36,192,74413,1,0,0:0:0:50:LR_Air Dart Snare.wav
109,192,74413,1,0,0:0:0:0:
182,192,74413,1,0,0:0:0:0:
182,192,74552,128,0,74645:0:0:0:0:
256,192,74691,128,0,74784:0:0:0:50:LR_Air Dart Snare.wav
475,192,74691,1,0,0:0:0:0:
475,192,74784,1,0,0:0:0:50:LR_Air Dart Snare.wav
329,192,74830,128,0,75247:0:0:0:0:
402,192,74876,1,0,0:0:0:50:LR_Air Dart Snare.wav
256,192,74969,1,0,0:0:0:50:LR_Air Dart Snare.wav
109,192,74969,1,0,0:0:0:0:
36,192,74969,1,0,0:0:0:0:
475,192,75247,128,0,75339:0:0:0:50:LR_Air Dart Snare.wav
182,192,75247,1,0,0:0:0:0:
182,192,75339,1,0,0:0:0:50:LR_Air Dart Snare.wav
402,192,75339,128,0,75802:0:0:0:0:
256,192,75432,1,0,0:0:0:50:LR_Air Dart Snare.wav
109,192,75525,128,0,76080:0:0:0:50:LR_Air Dart Snare.wav
36,192,75525,1,0,0:0:0:0:
329,192,75525,1,0,0:0:0:0:
475,192,75802,128,0,76080:0:0:0:50:LR_Air Dart Snare.wav
256,192,75802,1,0,0:0:0:0:
256,192,75895,1,0,0:0:0:50:LR_Air Dart Snare.wav
402,192,75987,1,0,0:0:0:50:LR_Air Dart Snare.wav
256,192,76080,128,0,77191:0:0:0:70:C.wav
36,192,76080,1,0,0:0:0:0:
182,192,76080,1,0,0:0:0:0:
329,192,76080,128,0,76636:0:0:0:0:
109,192,76358,128,0,76913:0:0:0:0:
402,192,76636,128,0,77191:0:0:0:0:
182,192,76913,128,0,77469:0:0:0:0:
36,192,77191,128,0,77747:0:0:0:0:
256,192,77469,128,0,78025:0:0:0:0:
402,192,77469,128,0,78025:0:0:0:0:
475,192,77747,128,0,78302:0:0:0:0:
182,192,77747,128,0,78302:0:0:0:0:
329,192,78025,128,0,78580:0:0:0:0:
109,192,78302,128,0,79413:0:0:0:0:
402,192,78302,128,0,78858:0:0:0:0:
256,192,78580,128,0,79136:0:0:0:0:
329,192,78858,128,0,79413:0:0:0:0:
182,192,79136,128,0,79691:0:0:0:0:
475,192,79413,128,0,80525:0:0:0:0:
402,192,79413,128,0,79969:0:0:0:0:
109,192,79691,128,0,80247:0:0:0:0:
36,192,79969,128,0,80525:0:0:0:0:
329,192,79969,128,0,80525:0:0:0:0:
256,192,79969,128,0,80247:0:0:0:0:
182,192,80247,128,0,80525:0:0:0:0:
109,192,80525,1,0,0:0:0:70:Cymatics - Heater Kick 26.wav
402,192,80525,1,0,0:0:0:70:C.wav
256,192,80525,128,0,84969:0:0:0:0:
402,192,80802,1,0,0:0:0:70:Cymatics - Heater Kick 26.wav
475,192,80802,1,0,0:0:0:70:tom01.wav
182,192,80802,1,0,0:0:0:0:
36,192,81080,1,0,0:0:0:70:Cymatics - Heater Kick 26.wav
182,192,81219,1,0,0:0:0:70:tom02.wav
329,192,81219,1,0,0:0:0:0:
36,192,81358,1,0,0:0:0:70:Cymatics - Heater Kick 26.wav
182,192,81636,1,0,0:0:0:70:Cymatics - Heater Kick 26.wav
475,192,81636,1,0,0:0:0:70:tom01.wav
402,192,81636,1,0,0:0:0:0:
109,192,81636,1,0,0:0:0:0:
329,192,81913,1,0,0:0:0:70:Cymatics - Heater Kick 26.wav
109,192,82052,1,0,0:0:0:70:tom03.wav
36,192,82052,1,0,0:0:0:0:
329,192,82191,1,0,0:0:0:70:Cymatics - Heater Kick 26.wav
36,192,82469,1,0,0:0:0:70:Cymatics - Heater Kick 26.wav
402,192,82469,1,0,0:0:0:0:
182,192,82469,1,0,0:0:0:0:
109,192,82747,1,0,0:0:0:70:Cymatics - Heater Kick 26.wav
329,192,82747,1,0,0:0:0:0:
475,192,82747,1,0,0:0:0:0:
402,192,82747,1,0,0:0:0:0:
109,192,83025,1,0,0:0:0:70:Cymatics - Heater Kick 26.wav
182,192,83025,1,0,0:0:0:70:tom01.wav
36,192,83025,1,0,0:0:0:0:
402,192,83302,1,0,0:0:0:70:Cymatics - Heater Kick 26.wav
36,192,83441,1,0,0:0:0:70:tom02.wav
182,192,83441,1,0,0:0:0:0:
402,192,83580,1,0,0:0:0:70:Cymatics - Heater Kick 26.wav
475,192,83858,1,0,0:0:0:70:Cymatics - Heater Kick 26.wav
36,192,83858,1,0,0:0:0:70:tom01.wav
109,192,83858,1,0,0:0:0:0:
182,192,83858,1,0,0:0:0:0:
329,192,84136,1,0,0:0:0:70:Cymatics - Heater Kick 26.wav
182,192,84275,1,0,0:0:0:70:tom03.wav
109,192,84275,1,0,0:0:0:0:
329,192,84413,1,0,0:0:0:70:Cymatics - Heater Kick 26.wav
475,192,84691,1,0,0:0:0:70:Cymatics - Heater Kick 26.wav
36,192,84691,1,0,0:0:0:0:
402,192,84691,1,0,0:0:0:0:
109,192,84969,1,0,0:0:0:70:Cymatics - Heater Kick 26.wav
36,192,84969,1,0,0:0:0:0:
329,192,84969,1,0,0:0:0:0:
475,192,84969,1,0,0:0:0:0:
182,192,85247,1,0,0:0:0:70:Cymatics - Heater Kick 26.wav
329,192,85247,1,0,0:0:0:70:tom01.wav
109,192,85247,1,0,0:0:0:0:
256,192,85525,1,0,0:0:0:70:Cymatics - Heater Kick 26.wav
475,192,85663,1,0,0:0:0:70:tom02.wav
402,192,85663,1,0,0:0:0:0:
256,192,85802,1,0,0:0:0:70:Cymatics - Heater Kick 26.wav
475,192,86080,1,0,0:0:0:70:Cymatics - Heater Kick 26.wav
182,192,86080,1,0,0:0:0:70:tom01.wav
36,192,86080,1,0,0:0:0:0:
329,192,86080,1,0,0:0:0:0:
109,192,86358,1,0,0:0:0:70:Cymatics - Heater Kick 26.wav
256,192,86497,1,0,0:0:0:70:tom03.wav
402,192,86497,1,0,0:0:0:0:
109,192,86636,1,0,0:0:0:70:Cymatics - Heater Kick 26.wav
329,192,86913,1,0,0:0:0:70:Cymatics - Heater Kick 26.wav
475,192,86913,1,0,0:0:0:0:
36,192,86913,1,0,0:0:0:0:
109,192,87191,1,0,0:0:0:70:Cymatics - Heater Kick 26.wav
182,192,87191,1,0,0:0:0:0:
329,192,87191,1,0,0:0:0:0:
402,192,87191,1,0,0:0:0:0:
182,192,87469,1,0,0:0:0:70:Cymatics - Heater Kick 26.wav
256,192,87469,1,0,0:0:0:70:tom01.wav
475,192,87469,1,0,0:0:0:0:
402,192,87747,1,0,0:0:0:70:Cymatics - Heater Kick 26.wav
109,192,87886,1,0,0:0:0:70:tom02.wav
36,192,87886,1,0,0:0:0:0:
402,192,88025,1,0,0:0:0:70:Cymatics - Heater Kick 26.wav
475,192,88302,1,0,0:0:0:70:Cymatics - Heater Kick 26.wav
256,192,88302,1,0,0:0:0:70:tom01.wav
182,192,88302,1,0,0:0:0:0:
36,192,88302,1,0,0:0:0:0:
329,192,88580,128,0,89413:0:0:0:70:Cymatics - Heater Kick 26.wav
109,192,88580,1,0,0:0:0:0:
182,192,88719,1,0,0:0:0:70:tom03.wav
402,192,88719,1,0,0:0:0:0:
109,192,88858,1,0,0:0:0:70:Cymatics - Heater Kick 26.wav
182,192,89136,1,0,0:0:0:70:LR_Air Dart Snare.wav
36,192,89136,1,0,0:0:0:0:
475,192,89136,1,0,0:0:0:0:
36,192,89413,1,0,0:0:0:70:Cymatics - Heater Kick 26.wav
109,192,89413,1,0,0:0:0:70:F-Kick.wav
402,192,89413,1,0,0:0:0:0:
475,192,89413,1,0,0:0:0:0:
256,192,89413,128,0,89969:0:0:0:0:
109,192,89830,1,0,0:0:0:70:Cymatics - Heater Kick 26.wav
402,192,89830,1,0,0:0:0:0:
182,192,89900,1,0,0:0:0:70:Cymatics - Heater Kick 26.wav
329,192,89900,1,0,0:0:0:0:
402,192,89969,1,0,0:0:0:70:LR_Air Dart Snare.wav
36,192,89969,1,0,0:0:0:0:
475,192,89969,1,0,0:0:0:0:
109,192,89969,128,0,90525:0:0:0:0:
329,192,90108,1,0,0:0:0:0:
182,192,90247,1,0,0:0:0:0:
402,192,90386,1,0,0:0:0:70:Cymatics - Heater Kick 26.wav
256,192,90386,1,0,0:0:0:0:
329,192,90525,128,0,91080:0:0:0:70:LR_Air Dart Snare.wav
475,192,90525,1,0,0:0:0:0:
36,192,90525,1,0,0:0:0:0:
109,192,90663,1,0,0:0:0:70:Cymatics - Heater Kick 26.wav
109,192,90802,1,0,0:0:0:70:Cymatics - Heater Kick 26.wav
256,192,90802,1,0,0:0:0:0:
475,192,90941,1,0,0:0:0:0:
182,192,91080,128,0,91636:0:0:0:70:LR_Air Dart Snare.wav
36,192,91080,1,0,0:0:0:0:
109,192,91080,1,0,0:0:0:0:
402,192,91080,1,0,0:0:0:0:
475,192,91219,1,0,0:0:0:0:
36,192,91358,1,0,0:0:0:70:Cymatics - Heater Kick 26.wav
256,192,91358,1,0,0:0:0:0:
329,192,91497,1,0,0:0:0:0:
109,192,91636,1,0,0:0:0:70:Cymatics - Heater Kick 26.wav
475,192,91636,1,0,0:0:0:0:
402,192,91636,128,0,92191:0:0:0:0:
182,192,91775,1,0,0:0:0:0:
329,192,91913,1,0,0:0:0:0:
182,192,92052,1,0,0:0:0:70:Cymatics - Heater Kick 26.wav
109,192,92052,1,0,0:0:0:0:
256,192,92122,1,0,0:0:0:70:Cymatics - Heater Kick 26.wav
329,192,92122,1,0,0:0:0:0:
109,192,92191,1,0,0:0:0:70:LR_Air Dart Snare.wav
182,192,92191,1,0,0:0:0:0:
475,192,92191,1,0,0:0:0:0:
36,192,92191,128,0,92747:0:0:0:0:
402,192,92330,1,0,0:0:0:0:
182,192,92469,1,0,0:0:0:0:
329,192,92608,1,0,0:0:0:70:Cymatics - Heater Kick 26.wav
256,192,92608,1,0,0:0:0:0:
475,192,92747,1,0,0:0:0:70:LR_Air Dart Snare.wav
402,192,92747,1,0,0:0:0:0:
182,192,92747,128,0,93302:0:0:0:0:
109,192,92886,1,0,0:0:0:70:Cymatics - Heater Kick 26.wav
329,192,92886,1,0,0:0:0:0:
329,192,93025,1,0,0:0:0:70:Cymatics - Heater Kick 26.wav
256,192,93025,1,0,0:0:0:0:
402,192,93163,1,0,0:0:0:0:
475,192,93302,1,0,0:0:0:70:LR_Air Dart Snare.wav
256,192,93302,1,0,0:0:0:70:F-Kick.wav
36,192,93302,1,0,0:0:0:0:
109,192,93302,1,0,0:0:0:0:
256,192,93441,1,0,0:0:0:0:
182,192,93441,1,0,0:0:0:0:
36,192,93580,1,0,0:0:0:70:Cymatics - Heater Kick 26.wav
475,192,93580,1,0,0:0:0:0:
402,192,93580,1,0,0:0:0:0:
329,192,93580,1,0,0:0:0:0:
109,192,93719,1,0,0:0:0:0:
256,192,93858,1,0,0:0:0:70:Cymatics - Heater Kick 26.wav
182,192,93858,1,0,0:0:0:70:F-Kick.wav
36,192,93858,1,0,0:0:0:0:
402,192,93858,1,0,0:0:0:0:
475,192,93858,1,0,0:0:0:0:
475,192,94136,1,0,0:0:0:70:Cymatics - Heater Kick 26.wav
256,192,94136,1,0,0:0:0:0:
36,192,94136,1,0,0:0:0:0:
182,192,94205,1,0,0:0:0:0:
402,192,94205,1,0,0:0:0:0:
329,192,94275,1,0,0:0:0:0:
109,192,94275,1,0,0:0:0:0:
256,192,94344,1,0,0:0:0:0:
36,192,94344,1,0,0:0:0:0:
182,192,94413,1,0,0:0:0:70:Cymatics - Heater Kick 26.wav
402,192,94413,1,0,0:0:0:0:
475,192,94413,1,0,0:0:0:0:
329,192,94483,1,0,0:0:0:0:
109,192,94483,1,0,0:0:0:0:
256,192,94552,1,0,0:0:0:0:
36,192,94552,1,0,0:0:0:0:
182,192,94622,1,0,0:0:0:0:
402,192,94622,1,0,0:0:0:0:
109,192,94691,1,0,0:0:0:70:Cymatics - Heater Kick 26.wav
329,192,94691,1,0,0:0:0:0:
36,192,94691,1,0,0:0:0:0:
475,192,94761,1,0,0:0:0:0:
256,192,94761,1,0,0:0:0:0:
109,192,94830,1,0,0:0:0:0:
402,192,94830,1,0,0:0:0:0:
182,192,94900,1,0,0:0:0:0:
329,192,94900,1,0,0:0:0:0:
256,192,94969,1,0,0:0:0:70:Cymatics - Heater Kick 26.wav
475,192,94969,1,0,0:0:0:0:
36,192,94969,1,0,0:0:0:0:
109,192,95038,1,0,0:0:0:0:
329,192,95038,1,0,0:0:0:0:
182,192,95108,1,0,0:0:0:0:
402,192,95108,1,0,0:0:0:0:
256,192,95177,1,0,0:0:0:0:
475,192,95177,1,0,0:0:0:0:
329,192,95247,1,0,0:0:0:70:Cymatics - Heater Kick 26.wav
109,192,95247,1,0,0:0:0:0:
36,192,95247,1,0,0:0:0:0:
182,192,95316,1,0,0:0:0:0:
402,192,95316,1,0,0:0:0:0:
475,192,95386,1,0,0:0:0:0:
256,192,95386,1,0,0:0:0:0:
329,192,95455,1,0,0:0:0:0:
109,192,95455,1,0,0:0:0:0:
182,192,95525,1,0,0:0:0:70:Cymatics - Heater Kick 26.wav
402,192,95525,1,0,0:0:0:0:
475,192,95525,1,0,0:0:0:0:
256,192,95594,1,0,0:0:0:0:
36,192,95594,1,0,0:0:0:0:
329,192,95663,1,0,0:0:0:0:
109,192,95663,1,0,0:0:0:0:
182,192,95733,1,0,0:0:0:0:
402,192,95733,1,0,0:0:0:0:
475,192,95802,1,0,0:0:0:70:LR_Air Dart Snare.wav
256,192,95802,1,0,0:0:0:0:
36,192,95802,1,0,0:0:0:0:
402,192,95872,1,0,0:0:0:0:
182,192,95872,1,0,0:0:0:0:
36,192,95941,1,0,0:0:0:0:
329,192,95941,1,0,0:0:0:0:
109,192,96011,1,0,0:0:0:0:
475,192,96011,1,0,0:0:0:0:
182,192,96080,1,0,0:0:0:70:LR_Air Dart Snare.wav
256,192,96080,1,0,0:0:0:70:F-Kick.wav
402,192,96080,1,0,0:0:0:0:
329,192,96080,1,0,0:0:0:0:
256,192,96219,1,0,0:0:0:70:tom01.wav
402,192,96219,1,0,0:0:0:0:
182,192,96219,1,0,0:0:0:0:
109,192,96288,1,0,0:0:0:70:tom02.wav
329,192,96358,1,0,0:0:0:70:tom03.wav
182,192,96497,1,0,0:0:0:70:LR_Air Dart Snare.wav
256,192,96497,1,0,0:0:0:70:F-Kick.wav
402,192,96497,1,0,0:0:0:0:
475,192,96497,1,0,0:0:0:0:
36,192,96636,1,0,0:0:0:70:Cymatics - Heater Kick 26.wav
182,192,96775,1,0,0:0:0:70:LR_Air Dart Snare.wav
256,192,96775,1,0,0:0:0:70:F-Kick.wav
475,192,96775,1,0,0:0:0:0:
402,192,96775,1,0,0:0:0:0:
109,192,96913,1,0,0:0:0:70:Cymatics - Heater Kick 26.wav
329,192,97052,1,0,0:0:0:70:LR_Air Dart Snare.wav
475,192,97052,1,0,0:0:0:70:F-Kick.wav
256,192,97052,1,0,0:0:0:0:
402,192,97052,1,0,0:0:0:0:
36,192,97330,1,0,0:0:0:0:
182,192,97330,1,0,0:0:0:0:
329,192,97330,1,0,0:0:0:0:
402,192,97330,1,0,0:0:0:0:
36,192,97469,1,0,0:0:0:0:
182,192,97469,1,0,0:0:0:0:
329,192,97469,1,0,0:0:0:0:
402,192,97469,1,0,0:0:0:0:
109,192,97886,128,0,97955:0:0:0:0:
256,192,98025,128,0,98094:0:0:0:0:
402,192,98163,128,0,98233:0:0:0:0:
329,192,98302,128,0,98372:0:0:0:70:Cymatics - Heater Kick 26.wav
182,192,98302,1,0,0:0:0:0:
256,192,98302,1,0,0:0:0:0:
36,192,98441,1,0,0:0:0:0:
109,192,98580,1,0,0:0:0:0:
475,192,98719,128,0,98788:0:0:0:70:Cymatics - Heater Kick 26.wav
36,192,98719,1,0,0:0:0:0:
256,192,98719,1,0,0:0:0:0:
329,192,98858,128,0,98927:0:0:0:0:
182,192,98858,1,0,0:0:0:0:
36,192,98997,1,0,0:0:0:0:
109,192,99136,1,0,0:0:0:0:
475,192,99275,128,0,99344:0:0:0:0:
36,192,99275,1,0,0:0:0:0:
329,192,99413,128,0,99483:0:0:0:0:
182,192,99413,1,0,0:0:0:0:
36,192,99552,1,0,0:0:0:70:Cymatics - Heater Kick 26.wav
402,192,99552,1,0,0:0:0:0:
109,192,99691,1,0,0:0:0:0:
36,192,99830,1,0,0:0:0:0:
329,192,99830,128,0,99900:0:0:0:0:
329,192,99969,128,0,100038:0:0:0:70:Cymatics - Heater Kick 26.wav
182,192,99969,1,0,0:0:0:0:
475,192,99969,1,0,0:0:0:0:
256,192,100108,128,0,100177:0:0:0:70:Cymatics - Heater Kick 26.wav
109,192,100108,1,0,0:0:0:0:
475,192,100108,1,0,0:0:0:0:
182,192,100247,128,0,100316:0:0:0:70:LR_Air Dart Snare.wav
109,192,100247,1,0,0:0:0:0:
36,192,100247,1,0,0:0:0:0:
402,192,100247,1,0,0:0:0:0:
329,192,100386,1,0,0:0:0:0:
475,192,100525,1,0,0:0:0:70:Cymatics - Heater Kick 26.wav
36,192,100525,128,0,100594:0:0:0:0:
182,192,100525,1,0,0:0:0:0:
402,192,100663,1,0,0:0:0:0:
475,192,100802,1,0,0:0:0:0:
109,192,100802,128,0,100872:0:0:0:0:
329,192,100941,1,0,0:0:0:70:Cymatics - Heater Kick 26.wav
182,192,100941,128,0,101011:0:0:0:0:
256,192,100941,1,0,0:0:0:0:
475,192,101080,1,0,0:0:0:0:
402,192,101219,1,0,0:0:0:0:
475,192,101358,1,0,0:0:0:0:
329,192,101497,1,0,0:0:0:0:
109,192,101636,1,0,0:0:0:0:
402,192,101775,1,0,0:0:0:70:Cymatics - Heater Kick 26.wav
256,192,101775,1,0,0:0:0:0:
182,192,101913,128,0,101983:0:0:0:0:
36,192,101913,1,0,0:0:0:0:
402,192,102052,1,0,0:0:0:0:
329,192,102191,128,0,102261:0:0:0:70:Cymatics - Heater Kick 26.wav
109,192,102191,1,0,0:0:0:0:
182,192,102191,1,0,0:0:0:0:
109,192,102330,1,0,0:0:0:70:Cymatics - Heater Kick 26.wav
256,192,102330,1,0,0:0:0:0:
475,192,102469,128,0,102538:0:0:0:70:LR_Air Dart Snare.wav
36,192,102469,1,0,0:0:0:0:
256,192,102469,1,0,0:0:0:0:
402,192,102469,1,0,0:0:0:0:
182,192,102608,1,0,0:0:0:0:
36,192,102747,1,0,0:0:0:70:Cymatics - Heater Kick 26.wav
402,192,102747,128,0,102816:0:0:0:0:
329,192,102747,1,0,0:0:0:0:
109,192,102886,1,0,0:0:0:0:
36,192,103025,1,0,0:0:0:0:
475,192,103163,128,0,103233:0:0:0:70:Cymatics - Heater Kick 26.wav
182,192,103163,1,0,0:0:0:0:
256,192,103163,1,0,0:0:0:0:
402,192,103302,128,0,103372:0:0:0:0:
36,192,103302,1,0,0:0:0:0:
109,192,103441,1,0,0:0:0:0:
36,192,103580,1,0,0:0:0:0:
475,192,103719,128,0,103788:0:0:0:0:
182,192,103719,1,0,0:0:0:0:
402,192,103858,128,0,103927:0:0:0:0:
36,192,103858,1,0,0:0:0:0:
109,192,103997,1,0,0:0:0:70:Cymatics - Heater Kick 26.wav
256,192,103997,1,0,0:0:0:0:
329,192,104136,128,0,104205:0:0:0:0:
36,192,104136,1,0,0:0:0:0:
182,192,104275,1,0,0:0:0:0:
329,192,104413,128,0,104483:0:0:0:70:Cymatics - Heater Kick 26.wav
109,192,104413,1,0,0:0:0:0:
402,192,104413,1,0,0:0:0:0:
475,192,104552,1,0,0:0:0:70:Cymatics - Heater Kick 26.wav
402,192,104552,1,0,0:0:0:0:
182,192,104622,128,0,104691:0:0:0:0:
475,192,104691,1,0,0:0:0:70:LR_Air Dart Snare.wav
109,192,104691,1,0,0:0:0:0:
329,192,104691,1,0,0:0:0:0:
36,192,104830,128,0,104900:0:0:0:0:
256,192,104830,1,0,0:0:0:0:
402,192,104969,128,0,105038:0:0:0:70:Cymatics - Heater Kick 26.wav
182,192,104969,1,0,0:0:0:0:
329,192,104969,1,0,0:0:0:0:
36,192,105108,1,0,0:0:0:0:
109,192,105247,1,0,0:0:0:0:
475,192,105386,128,0,105455:0:0:0:70:Cymatics - Heater Kick 26.wav
182,192,105386,1,0,0:0:0:0:
256,192,105386,1,0,0:0:0:0:
402,192,105525,128,0,105594:0:0:0:0:
36,192,105525,1,0,0:0:0:0:
109,192,105663,1,0,0:0:0:0:
36,192,105802,1,0,0:0:0:0:
182,192,105941,1,0,0:0:0:0:
36,192,106080,1,0,0:0:0:0:
109,192,106219,1,0,0:0:0:70:Cymatics - Heater Kick 26.wav
329,192,106219,1,0,0:0:0:0:
402,192,106358,1,0,0:0:0:0:
182,192,106358,128,0,106427:0:0:0:0:
475,192,106497,1,0,0:0:0:0:
329,192,106636,1,0,0:0:0:70:Cymatics - Heater Kick 26.wav
256,192,106636,128,0,106705:0:0:0:0:
109,192,106636,1,0,0:0:0:0:
475,192,106775,1,0,0:0:0:70:Cymatics - Heater Kick 26.wav
109,192,106775,1,0,0:0:0:0:
182,192,106775,1,0,0:0:0:0:
402,192,106913,1,0,0:0:0:70:LR_Air Dart Snare.wav
329,192,106913,128,0,106983:0:0:0:0:
182,192,106913,1,0,0:0:0:0:
36,192,106913,1,0,0:0:0:0:
475,192,107052,1,0,0:0:0:0:
329,192,107191,1,0,0:0:0:70:Cymatics - Heater Kick 26.wav
109,192,107191,1,0,0:0:0:0:
256,192,107191,128,0,107261:0:0:0:0:
402,192,107330,1,0,0:0:0:0:
329,192,107469,1,0,0:0:0:0:
182,192,107608,128,0,107677:0:0:0:70:Cymatics - Heater Kick 26.wav
475,192,107608,1,0,0:0:0:0:
36,192,107608,1,0,0:0:0:0:
182,192,107747,128,0,107816:0:0:0:0:
402,192,107747,1,0,0:0:0:0:
329,192,107886,1,0,0:0:0:0:
109,192,108025,128,0,108094:0:0:0:0:
475,192,108025,1,0,0:0:0:0:
256,192,108163,128,0,108233:0:0:0:0:
402,192,108163,1,0,0:0:0:0:
475,192,108302,1,0,0:0:0:0:
109,192,108441,128,0,108511:0:0:0:70:Cymatics - Heater Kick 26.wav
329,192,108441,1,0,0:0:0:0:
36,192,108441,1,0,0:0:0:0:
256,192,108580,128,0,108650:0:0:0:0:
182,192,108580,1,0,0:0:0:0:
402,192,108719,128,0,108788:0:0:0:0:
109,192,108719,1,0,0:0:0:0:
329,192,108858,1,0,0:0:0:70:Cymatics - Heater Kick 26.wav
256,192,108858,1,0,0:0:0:0:
329,192,108997,1,0,0:0:0:70:Cymatics - Heater Kick 26.wav
182,192,108997,1,0,0:0:0:0:
182,192,109136,1,0,0:0:0:70:LR_Air Dart Snare.wav
36,192,109136,1,0,0:0:0:0:
402,192,109136,1,0,0:0:0:0:
475,192,109136,128,0,109205:0:0:0:0:
256,192,109275,1,0,0:0:0:0:
475,192,109413,1,0,0:0:0:70:Cymatics - Heater Kick 26.wav
329,192,109413,128,0,109483:0:0:0:0:
109,192,109413,1,0,0:0:0:0:
402,192,109552,1,0,0:0:0:0:
475,192,109691,1,0,0:0:0:0:
182,192,109830,128,0,109900:0:0:0:70:Cymatics - Heater Kick 26.wav
329,192,109830,1,0,0:0:0:0:
36,192,109830,1,0,0:0:0:0:
182,192,109969,128,0,110038:0:0:0:0:
402,192,109969,1,0,0:0:0:0:
329,192,110108,1,0,0:0:0:0:
109,192,110247,128,0,110316:0:0:0:0:
475,192,110247,1,0,0:0:0:0:
256,192,110386,128,0,110455:0:0:0:0:
402,192,110386,1,0,0:0:0:0:
475,192,110525,1,0,0:0:0:0:
109,192,110663,128,0,110733:0:0:0:70:Cymatics - Heater Kick 26.wav
329,192,110663,1,0,0:0:0:0:
36,192,110663,1,0,0:0:0:0:
256,192,110802,128,0,110872:0:0:0:0:
402,192,110941,128,0,111011:0:0:0:0:
109,192,111080,1,0,0:0:0:70:Cymatics - Heater Kick 26.wav
36,192,111080,1,0,0:0:0:0:
182,192,111219,128,0,111288:0:0:0:70:Cymatics - Heater Kick 26.wav
36,192,111219,1,0,0:0:0:0:
256,192,111219,1,0,0:0:0:0:
329,192,111358,128,0,111427:0:0:0:70:LR_Air Dart Snare.wav
402,192,111358,1,0,0:0:0:0:
109,192,111358,1,0,0:0:0:0:
256,192,111358,1,0,0:0:0:0:
475,192,111497,128,0,111566:0:0:0:0:
182,192,111497,1,0,0:0:0:0:
329,192,111636,1,0,0:0:0:70:Cymatics - Heater Kick 26.wav
256,192,111636,1,0,0:0:0:0:
36,192,111636,128,0,111913:0:0:0:0:
402,192,111775,1,0,0:0:0:0:
329,192,111913,1,0,0:0:0:0:
182,192,112052,128,0,112122:0:0:0:70:Cymatics - Heater Kick 26.wav
475,192,112052,1,0,0:0:0:0:
256,192,112052,1,0,0:0:0:0:
36,192,112191,128,0,112469:0:0:0:0:
402,192,112191,1,0,0:0:0:0:
329,192,112330,1,0,0:0:0:0:
475,192,112469,1,0,0:0:0:0:
182,192,112608,128,0,112677:0:0:0:0:
402,192,112608,1,0,0:0:0:0:
36,192,112747,128,0,113025:0:0:0:0:
475,192,112747,1,0,0:0:0:0:
329,192,112886,1,0,0:0:0:70:Cymatics - Heater Kick 26.wav
182,192,112886,1,0,0:0:0:0:
256,192,113025,128,0,113302:0:0:0:0:
402,192,113025,1,0,0:0:0:0:
182,192,113163,1,0,0:0:0:0:
402,192,113302,128,0,113372:0:0:0:70:Cymatics - Heater Kick 26.wav
109,192,113302,1,0,0:0:0:0:
36,192,113302,1,0,0:0:0:0:
475,192,113372,128,0,113580:0:0:0:0:
109,192,113441,1,0,0:0:0:70:Cymatics - Heater Kick 26.wav
256,192,113441,1,0,0:0:0:0:
329,192,113580,128,0,113858:0:0:0:70:LR_Air Dart Snare.wav
256,192,113580,1,0,0:0:0:0:
36,192,113580,1,0,0:0:0:0:
402,192,113580,1,0,0:0:0:0:
109,192,113719,1,0,0:0:0:0:
182,192,113858,128,0,114136:0:0:0:70:Cymatics - Heater Kick 26.wav
475,192,113858,1,0,0:0:0:0:
402,192,113858,1,0,0:0:0:0:
256,192,113997,1,0,0:0:0:0:
402,192,114136,128,0,114205:0:0:0:0:
329,192,114136,1,0,0:0:0:0:
256,192,114275,128,0,114691:0:0:0:70:Cymatics - Heater Kick 26.wav
182,192,114275,1,0,0:0:0:0:
36,192,114413,1,0,0:0:0:0:
109,192,114552,1,0,0:0:0:70:Cymatics - Heater Kick 26.wav
402,192,114552,1,0,0:0:0:0:
329,192,114691,128,0,114761:0:0:0:70:LR_Air Dart Snare.wav
402,192,114691,1,0,0:0:0:0:
475,192,114691,1,0,0:0:0:0:
36,192,114691,1,0,0:0:0:0:
182,192,114761,128,0,114830:0:0:0:0:
329,192,114830,128,0,114900:0:0:0:0:
182,192,114900,128,0,114969:0:0:0:0:
36,192,114969,1,0,0:0:0:70:C.wav
256,192,114969,1,0,0:0:0:0:
475,192,114969,1,0,0:0:0:0:
109,192,115108,128,0,115177:0:0:0:0:
402,192,115108,128,0,115177:0:0:0:0:
182,192,115177,128,0,115247:0:0:0:0:
329,192,115177,128,0,115247:0:0:0:0:
402,192,115247,128,0,115316:0:0:0:70:C.wav
36,192,115247,128,0,115316:0:0:0:0:
109,192,115316,128,0,115386:0:0:0:0:
256,192,115316,128,0,115386:0:0:0:0:
36,192,115386,128,0,115455:0:0:0:0:
329,192,115386,128,0,115455:0:0:0:0:
182,192,115455,128,0,115525:0:0:0:0:
402,192,115455,128,0,115525:0:0:0:0:
475,192,115525,128,0,115594:0:0:0:70:C.wav
256,192,115525,128,0,115594:0:0:0:0:
329,192,115594,128,0,115663:0:0:0:0:
109,192,115594,128,0,115663:0:0:0:0:
475,192,115663,1,0,0:0:0:70:Cymatics - Heater Kick 26.wav
402,192,115663,1,0,0:0:0:0:
182,192,115663,128,0,115802:0:0:0:0:
256,192,115733,1,0,0:0:0:0:
329,192,115802,128,0,115872:0:0:0:70:LR_Air Dart Snare.wav
36,192,115802,1,0,0:0:0:70:C.wav
402,192,115802,1,0,0:0:0:0:
109,192,115802,1,0,0:0:0:0:
182,192,115872,1,0,0:0:0:0:
475,192,115941,128,0,116011:0:0:0:0:
256,192,115941,1,0,0:0:0:0:
329,192,116011,1,0,0:0:0:0:
36,192,116080,1,0,0:0:0:70:Cymatics - Heater Kick 26.wav
475,192,116080,1,0,0:0:0:70:F-Kick.wav
182,192,116080,1,0,0:0:0:0:
109,192,116080,128,0,116288:0:0:0:0:
402,192,116080,1,0,0:0:0:0:
256,192,116219,128,0,116288:0:0:0:0:
402,192,116358,128,0,116566:0:0:0:70:Cymatics - Heater Kick 26.wav
329,192,116358,1,0,0:0:0:70:LR_Air Dart Snare.wav
36,192,116358,1,0,0:0:0:0:
475,192,116358,1,0,0:0:0:0:
256,192,116497,128,0,116566:0:0:0:0:
109,192,116636,128,0,116844:0:0:0:70:Cymatics - Heater Kick 26.wav
182,192,116636,1,0,0:0:0:0:
402,192,116636,1,0,0:0:0:0:
256,192,116775,128,0,116844:0:0:0:0:
402,192,116913,128,0,117122:0:0:0:70:Cymatics - Heater Kick 26.wav
329,192,116913,1,0,0:0:0:70:LR_Air Dart Snare.wav
36,192,116913,1,0,0:0:0:0:
475,192,116913,1,0,0:0:0:0:
256,192,117052,128,0,117122:0:0:0:0:
182,192,117052,1,0,0:0:0:0:
402,192,117191,1,0,0:0:0:70:Cymatics - Heater Kick 26.wav
109,192,117191,1,0,0:0:0:0:
329,192,117191,128,0,117400:0:0:0:0:
182,192,117330,128,0,117400:0:0:0:0:
256,192,117469,128,0,117654:0:0:0:70:Cymatics - Heater Kick 26.wav
36,192,117469,1,0,0:0:0:70:LR_Air Dart Snare.wav
109,192,117469,1,0,0:0:0:0:
475,192,117469,1,0,0:0:0:0:
402,192,117608,128,0,117654:0:0:0:0:
329,192,117654,128,0,117700:0:0:0:0:
182,192,117700,128,0,117747:0:0:0:0:
36,192,117747,1,0,0:0:0:70:Cymatics - Heater Kick 26.wav
109,192,117747,128,0,117793:0:0:0:0:
475,192,117747,1,0,0:0:0:0:
256,192,117793,128,0,117839:0:0:0:0:
329,192,117839,128,0,117886:0:0:0:0:
402,192,117886,128,0,117932:0:0:0:0:
182,192,117932,128,0,118025:0:0:0:0:
36,192,118025,1,0,0:0:0:70:Cymatics - Heater Kick 26.wav
329,192,118025,1,0,0:0:0:70:LR_Air Dart Snare.wav
475,192,118025,1,0,0:0:0:0:
256,192,118025,128,0,118094:0:0:0:0:
402,192,118163,128,0,118233:0:0:0:0:
36,192,118302,128,0,118511:0:0:0:70:Cymatics - Heater Kick 26.wav
475,192,118302,1,0,0:0:0:0:
182,192,118302,1,0,0:0:0:0:
256,192,118441,128,0,118511:0:0:0:0:
475,192,118580,128,0,118788:0:0:0:70:Cymatics - Heater Kick 26.wav
109,192,118580,1,0,0:0:0:70:LR_Air Dart Snare.wav
402,192,118580,1,0,0:0:0:0:
329,192,118580,1,0,0:0:0:0:
256,192,118719,128,0,118788:0:0:0:0:
36,192,118858,128,0,119066:0:0:0:70:Cymatics - Heater Kick 26.wav
182,192,118858,1,0,0:0:0:0:
402,192,118858,1,0,0:0:0:0:
256,192,118997,128,0,119066:0:0:0:0:
329,192,118997,1,0,0:0:0:0:
475,192,119136,128,0,119344:0:0:0:70:Cymatics - Heater Kick 26.wav
402,192,119136,1,0,0:0:0:70:LR_Air Dart Snare.wav
109,192,119136,1,0,0:0:0:0:
36,192,119136,1,0,0:0:0:0:
256,192,119275,128,0,119344:0:0:0:0:
182,192,119275,1,0,0:0:0:0:
36,192,119413,128,0,119483:0:0:0:70:Cymatics - Heater Kick 26.wav
475,192,119413,1,0,0:0:0:0:
109,192,119413,1,0,0:0:0:0:
329,192,119483,128,0,119552:0:0:0:0:
182,192,119552,128,0,119761:0:0:0:0:
402,192,119552,1,0,0:0:0:0:
36,192,119691,1,0,0:0:0:70:Cymatics - Heater Kick 26.wav
109,192,119691,1,0,0:0:0:70:LR_Air Dart Snare.wav
475,192,119691,1,0,0:0:0:0:
256,192,119691,128,0,119761:0:0:0:0:
256,192,119830,128,0,119969:0:0:0:0:
329,192,119830,1,0,0:0:0:0:
109,192,119969,128,0,120177:0:0:0:70:Cymatics - Heater Kick 26.wav
36,192,119969,1,0,0:0:0:0:
475,192,119969,1,0,0:0:0:0:
402,192,119969,1,0,0:0:0:0:
329,192,120108,128,0,120177:0:0:0:0:
182,192,120108,1,0,0:0:0:0:
256,192,120247,128,0,120316:0:0:0:70:Cymatics - Heater Kick 26.wav
109,192,120247,1,0,0:0:0:70:LR_Air Dart Snare.wav
36,192,120247,1,0,0:0:0:0:
475,192,120247,1,0,0:0:0:0:
182,192,120386,128,0,120455:0:0:0:0:
402,192,120386,1,0,0:0:0:0:
256,192,120525,1,0,0:0:0:70:Cymatics - Heater Kick 26.wav
36,192,120525,1,0,0:0:0:70:F-Kick.wav
475,192,120525,1,0,0:0:0:0:
109,192,120525,128,0,120571:0:0:0:0:
182,192,120571,128,0,120617:0:0:0:0:
329,192,120617,128,0,120663:0:0:0:0:
402,192,120663,128,0,120710:0:0:0:0:
256,192,120710,128,0,120756:0:0:0:0:
182,192,120756,128,0,120802:0:0:0:0:
109,192,120802,1,0,0:0:0:70:Cymatics - Heater Kick 26.wav
36,192,120802,1,0,0:0:0:70:LR_Air Dart Snare.wav
402,192,120802,1,0,0:0:0:0:
475,192,120802,1,0,0:0:0:0:
182,192,120941,128,0,121011:0:0:0:0:
109,192,121011,128,0,121080:0:0:0:0:
256,192,121080,128,0,121288:0:0:0:70:Cymatics - Heater Kick 26.wav
475,192,121080,1,0,0:0:0:0:
329,192,121080,1,0,0:0:0:0:
182,192,121219,128,0,121288:0:0:0:0:
109,192,121358,1,0,0:0:0:70:Cymatics - Heater Kick 26.wav
182,192,121358,1,0,0:0:0:70:LR_Air Dart Snare.wav
402,192,121358,1,0,0:0:0:0:
329,192,121358,128,0,121427:0:0:0:0:
475,192,121497,128,0,121566:0:0:0:0:
36,192,121636,1,0,0:0:0:70:Cymatics - Heater Kick 26.wav
109,192,121636,1,0,0:0:0:70:C.wav
256,192,121636,128,0,121705:0:0:0:0:
329,192,121636,1,0,0:0:0:0:
402,192,121705,128,0,122122:0:0:0:0:
182,192,121775,1,0,0:0:0:0:
256,192,121913,1,0,0:0:0:70:Cymatics - Heater Kick 26.wav
36,192,121913,1,0,0:0:0:70:LR_Air Dart Snare.wav
475,192,121913,1,0,0:0:0:0:
109,192,121913,1,0,0:0:0:0:
182,192,122052,128,0,122122:0:0:0:0:
329,192,122122,128,0,122191:0:0:0:0:
475,192,122191,128,0,122400:0:0:0:70:Cymatics - Heater Kick 26.wav
182,192,122191,1,0,0:0:0:0:
109,192,122330,128,0,122400:0:0:0:0:
256,192,122400,128,0,122747:0:0:0:0:
36,192,122469,1,0,0:0:0:70:Cymatics - Heater Kick 26.wav
182,192,122469,1,0,0:0:0:70:LR_Air Dart Snare.wav
475,192,122469,1,0,0:0:0:0:
402,192,122608,128,0,122747:0:0:0:0:
109,192,122747,1,0,0:0:0:70:Cymatics - Heater Kick 26.wav
36,192,122747,1,0,0:0:0:70:F-Kick.wav
475,192,122747,1,0,0:0:0:0:
329,192,122747,128,0,122793:0:0:0:0:
256,192,122793,128,0,122839:0:0:0:0:
182,192,122839,128,0,122886:0:0:0:0:
402,192,122886,128,0,122932:0:0:0:0:
329,192,122932,128,0,122978:0:0:0:0:
256,192,122978,128,0,123025:0:0:0:0:
36,192,123025,1,0,0:0:0:70:Cymatics - Heater Kick 26.wav
182,192,123025,1,0,0:0:0:70:LR_Air Dart Snare.wav
109,192,123025,1,0,0:0:0:0:
475,192,123025,128,0,123071:0:0:0:0:
402,192,123071,128,0,123117:0:0:0:0:
329,192,123117,128,0,123163:0:0:0:0:
182,192,123163,128,0,123233:0:0:0:0:
475,192,123163,1,0,0:0:0:0:
256,192,123233,128,0,123302:0:0:0:0:
36,192,123302,128,0,123858:0:0:0:70:Cymatics - Heater Kick 26.wav
109,192,123302,1,0,0:0:0:0:
329,192,123302,1,0,0:0:0:0:
475,192,123441,1,0,0:0:0:0:
256,192,123441,1,0,0:0:0:0:
109,192,123580,1,0,0:0:0:70:Cymatics - Heater Kick 26.wav
182,192,123580,1,0,0:0:0:70:LR_Air Dart Snare.wav
402,192,123580,1,0,0:0:0:0:
256,192,123719,1,0,0:0:0:0:
329,192,123719,1,0,0:0:0:0:
109,192,123858,1,0,0:0:0:70:Cymatics - Heater Kick 26.wav
182,192,123858,1,0,0:0:0:0:
402,192,123858,1,0,0:0:0:0:
36,192,123997,1,0,0:0:0:0:
256,192,123997,1,0,0:0:0:0:
182,192,124136,1,0,0:0:0:70:LR_Air Dart Snare.wav
475,192,124136,1,0,0:0:0:70:C.wav
402,192,124136,1,0,0:0:0:0:
329,192,124136,128,0,124483:0:0:0:0:
36,192,124275,1,0,0:0:0:70:Cymatics - Heater Kick 26.wav
109,192,124275,1,0,0:0:0:0:
256,192,124344,1,0,0:0:0:70:Cymatics - Heater Kick 26.wav
36,192,124413,1,0,0:0:0:70:LR_Air Dart Snare.wav
182,192,124413,1,0,0:0:0:70:C.wav
109,192,124413,1,0,0:0:0:0:
402,192,124413,128,0,124483:0:0:0:0:
475,192,124483,128,0,124969:0:0:0:0:
256,192,124552,1,0,0:0:0:70:tom01.wav
182,192,124552,1,0,0:0:0:0:
329,192,124691,128,0,124969:0:0:0:70:tom02.wav
402,192,124691,1,0,0:0:0:0:
109,192,124830,1,0,0:0:0:70:Cymatics - Heater Kick 26.wav
36,192,124830,1,0,0:0:0:0:
256,192,124830,1,0,0:0:0:0:
36,192,124969,1,0,0:0:0:70:Cymatics - Heater Kick 26.wav
402,192,124969,1,0,0:0:0:0:
256,192,124969,1,0,0:0:0:0:
182,192,124969,128,0,125108:0:0:0:0:
329,192,125108,128,0,125177:0:0:0:0:
109,192,125108,1,0,0:0:0:0:
256,192,125247,128,0,125316:0:0:0:0:
475,192,125247,1,0,0:0:0:0:
109,192,125386,128,0,125525:0:0:0:70:Cymatics - Heater Kick 26.wav
329,192,125386,1,0,0:0:0:0:
475,192,125386,1,0,0:0:0:0:
36,192,125386,1,0,0:0:0:0:
402,192,125525,128,0,125594:0:0:0:0:
182,192,125525,1,0,0:0:0:0:
256,192,125663,128,0,125733:0:0:0:0:
109,192,125663,1,0,0:0:0:0:
402,192,125802,128,0,125849:0:0:0:70:Cymatics - Heater Kick 26.wav
256,192,125802,1,0,0:0:0:0:
36,192,125802,1,0,0:0:0:0:
475,192,125802,1,0,0:0:0:0:
329,192,125849,128,0,125895:0:0:0:0:
182,192,125895,128,0,125941:0:0:0:0:
109,192,125941,128,0,125987:0:0:0:0:
256,192,125987,128,0,126034:0:0:0:0:
402,192,126034,128,0,126080:0:0:0:0:
256,192,126219,1,0,0:0:0:0:
36,192,126358,1,0,0:0:0:0:
182,192,126358,1,0,0:0:0:0:
329,192,126358,128,0,126427:0:0:0:0:
475,192,126427,128,0,126913:0:0:0:0:
109,192,126497,1,0,0:0:0:70:Cymatics - Heater Kick 26.wav
256,192,126636,128,0,127191:0:0:0:70:LR_Air Dart Snare.wav
109,192,126636,1,0,0:0:0:70:F-Kick.wav
36,192,126636,1,0,0:0:0:0:
329,192,126636,1,0,0:0:0:0:
182,192,126775,1,0,0:0:0:70:LR_Air Dart Snare.wav
329,192,126775,1,0,0:0:0:70:F-Kick.wav
36,192,126775,1,0,0:0:0:0:
402,192,126913,128,0,127191:0:0:0:70:Cymatics - Heater Kick 26.wav
109,192,126913,1,0,0:0:0:0:
182,192,126913,1,0,0:0:0:0:
329,192,127052,1,0,0:0:0:0:
475,192,127191,1,0,0:0:0:70:Cymatics - Heater Kick 26.wav
36,192,127191,1,0,0:0:0:0:
182,192,127191,1,0,0:0:0:0:
109,192,127191,128,0,127330:0:0:0:0:
402,192,127330,128,0,127400:0:0:0:0:
329,192,127330,1,0,0:0:0:0:
256,192,127469,128,0,127538:0:0:0:0:
109,192,127469,1,0,0:0:0:0:
329,192,127608,128,0,127747:0:0:0:70:Cymatics - Heater Kick 26.wav
475,192,127608,1,0,0:0:0:0:
109,192,127608,1,0,0:0:0:0:
36,192,127608,1,0,0:0:0:0:
182,192,127747,128,0,127816:0:0:0:0:
402,192,127747,1,0,0:0:0:0:
256,192,127886,128,0,127955:0:0:0:0:
329,192,127886,1,0,0:0:0:0:
109,192,128025,128,0,128071:0:0:0:70:Cymatics - Heater Kick 26.wav
256,192,128025,1,0,0:0:0:0:
36,192,128025,1,0,0:0:0:0:
475,192,128025,1,0,0:0:0:0:
182,192,128071,128,0,128117:0:0:0:0:
329,192,128117,128,0,128163:0:0:0:0:
402,192,128163,128,0,128210:0:0:0:0:
256,192,128210,128,0,128256:0:0:0:0:
109,192,128256,128,0,128302:0:0:0:0:
475,192,128441,1,0,0:0:0:0:
182,192,128580,128,0,128650:0:0:0:0:
36,192,128580,1,0,0:0:0:0:
329,192,128580,1,0,0:0:0:0:
402,192,128650,128,0,129136:0:0:0:0:
109,192,128719,1,0,0:0:0:70:Cymatics - Heater Kick 26.wav
256,192,128858,128,0,129413:0:0:0:70:LR_Air Dart Snare.wav
109,192,128858,1,0,0:0:0:70:F-Kick.wav
36,192,128858,1,0,0:0:0:0:
475,192,128858,1,0,0:0:0:0:
182,192,128997,1,0,0:0:0:70:LR_Air Dart Snare.wav
329,192,128997,1,0,0:0:0:70:F-Kick.wav
475,192,128997,1,0,0:0:0:0:
109,192,129136,128,0,129413:0:0:0:70:Cymatics - Heater Kick 26.wav
182,192,129136,1,0,0:0:0:0:
36,192,129136,1,0,0:0:0:0:
402,192,129275,1,0,0:0:0:0:
402,192,129413,1,0,0:0:0:70:Cymatics - Heater Kick 26.wav
182,192,129413,1,0,0:0:0:0:
36,192,129413,128,0,129552:0:0:0:0:
475,192,129413,128,0,129552:0:0:0:0:
256,192,129552,128,0,129622:0:0:0:0:
109,192,129552,128,0,129622:0:0:0:0:
36,192,129691,128,0,129761:0:0:0:0:
475,192,129691,128,0,129761:0:0:0:0:
329,192,129691,1,0,0:0:0:0:
182,192,129830,128,0,129969:0:0:0:70:Cymatics - Heater Kick 26.wav
329,192,129830,128,0,129969:0:0:0:0:
475,192,129830,1,0,0:0:0:0:
109,192,129830,1,0,0:0:0:0:
256,192,129969,128,0,130038:0:0:0:70:LR_Air Dart Snare.wav
402,192,129969,128,0,130038:0:0:0:0:
36,192,129969,1,0,0:0:0:0:
109,192,129969,1,0,0:0:0:0:
182,192,130108,128,0,130177:0:0:0:0:
329,192,130108,128,0,130177:0:0:0:0:
109,192,130247,128,0,130293:0:0:0:70:Cymatics - Heater Kick 26.wav
475,192,130247,1,0,0:0:0:0:
329,192,130247,1,0,0:0:0:0:
36,192,130247,1,0,0:0:0:0:
182,192,130293,128,0,130339:0:0:0:0:
256,192,130339,128,0,130386:0:0:0:0:
402,192,130386,128,0,130432:0:0:0:0:
329,192,130432,128,0,130478:0:0:0:0:
182,192,130478,128,0,130525:0:0:0:0:
109,192,130663,1,0,0:0:0:70:tom01.wav
256,192,130663,128,0,130733:0:0:0:0:
402,192,130733,128,0,130802:0:0:0:0:
182,192,130802,128,0,130872:0:0:0:70:Cymatics - Heater Kick 26.wav
36,192,130802,1,0,0:0:0:0:
329,192,130941,128,0,131011:0:0:0:70:Cymatics - Heater Kick 26.wav
182,192,130941,1,0,0:0:0:0:
36,192,131080,1,0,0:0:0:70:LR_Air Dart Snare.wav
329,192,131080,1,0,0:0:0:70:F-Kick.wav
475,192,131080,1,0,0:0:0:0:
109,192,131080,128,0,131150:0:0:0:0:
256,192,131150,128,0,131219:0:0:0:0:
182,192,131219,128,0,131288:0:0:0:70:LR_Air Dart Snare.wav
36,192,131219,1,0,0:0:0:70:F-Kick.wav
475,192,131219,1,0,0:0:0:0:
402,192,131219,1,0,0:0:0:0:
109,192,131358,1,0,0:0:0:0:
329,192,131358,128,0,131636:0:0:0:0:
256,192,131497,128,0,131636:0:0:0:70:tom02.wav
109,192,131497,1,0,0:0:0:0:
402,192,131497,1,0,0:0:0:0:
475,192,131636,1,0,0:0:0:70:Cymatics - Heater Kick 26.wav
36,192,131636,1,0,0:0:0:0:
182,192,131636,128,0,131913:0:0:0:0:
402,192,131636,1,0,0:0:0:0:
256,192,131775,1,0,0:0:0:0:
475,192,131913,1,0,0:0:0:70:LR_Air Dart Snare.wav
256,192,131913,1,0,0:0:0:0:
36,192,131913,1,0,0:0:0:0:
109,192,131913,1,0,0:0:0:0:
329,192,132052,1,0,0:0:0:0:
182,192,132052,1,0,0:0:0:0:
475,192,132122,1,0,0:0:0:0:
36,192,132191,1,0,0:0:0:70:Cymatics - Heater Kick 26.wav
329,192,132191,1,0,0:0:0:0:
109,192,132191,128,0,132237:0:0:0:0:
402,192,132191,1,0,0:0:0:0:
182,192,132237,128,0,132284:0:0:0:0:
256,192,132284,128,0,132330:0:0:0:0:
475,192,132330,128,0,132376:0:0:0:0:
329,192,132376,128,0,132423:0:0:0:0:
182,192,132423,128,0,132469:0:0:0:0:
402,192,132469,1,0,0:0:0:70:LR_Air Dart Snare.wav
475,192,132469,1,0,0:0:0:0:
36,192,132469,1,0,0:0:0:0:
256,192,132469,1,0,0:0:0:0:
109,192,132608,1,0,0:0:0:0:
329,192,132608,1,0,0:0:0:0:
256,192,132677,1,0,0:0:0:0:
182,192,132747,1,0,0:0:0:70:Cymatics - Heater Kick 26.wav
36,192,132747,1,0,0:0:0:0:
475,192,132747,1,0,0:0:0:0:
402,192,132747,128,0,132793:0:0:0:0:
329,192,132793,128,0,132839:0:0:0:0:
256,192,132839,128,0,132886:0:0:0:0:
36,192,132886,128,0,132932:0:0:0:0:
182,192,132932,128,0,132978:0:0:0:0:
329,192,132978,128,0,133025:0:0:0:0:
402,192,133025,1,0,0:0:0:70:LR_Air Dart Snare.wav
475,192,133025,1,0,0:0:0:0:
256,192,133025,1,0,0:0:0:0:
36,192,133025,1,0,0:0:0:0:
109,192,133163,1,0,0:0:0:0:
329,192,133163,1,0,0:0:0:0:
475,192,133233,1,0,0:0:0:0:
182,192,133302,1,0,0:0:0:70:Cymatics - Heater Kick 26.wav
256,192,133302,1,0,0:0:0:0:
36,192,133302,1,0,0:0:0:0:
329,192,133302,128,0,133349:0:0:0:0:
402,192,133349,128,0,133395:0:0:0:0:
475,192,133395,128,0,133441:0:0:0:0:
256,192,133441,128,0,133487:0:0:0:0:
182,192,133487,128,0,133534:0:0:0:0:
109,192,133534,128,0,133580:0:0:0:0:
475,192,133580,1,0,0:0:0:70:LR_Air Dart Snare.wav
36,192,133580,128,0,133626:0:0:0:0:
329,192,133580,128,0,133626:0:0:0:0:
256,192,133626,128,0,133673:0:0:0:0:
182,192,133673,128,0,133719:0:0:0:70:LR_Air Dart Snare.wav
402,192,133719,128,0,133765:0:0:0:0:
109,192,133719,128,0,133765:0:0:0:0:
329,192,133765,128,0,133812:0:0:0:70:LR_Air Dart Snare.wav
182,192,133812,128,0,133858:0:0:0:0:
36,192,133858,1,0,0:0:0:70:Cymatics - Heater Kick 26.wav
402,192,133858,1,0,0:0:0:70:F-Kick.wav
475,192,133858,1,0,0:0:0:0:
256,192,133858,128,0,133927:0:0:0:0:
109,192,133927,128,0,134136:0:0:0:0:
402,192,134136,128,0,134205:0:0:0:0:
256,192,134136,1,0,0:0:0:0:
475,192,134136,1,0,0:0:0:0:
109,192,134205,128,0,134275:0:0:0:0:
402,192,134275,128,0,134344:0:0:0:0:
182,192,134275,1,0,0:0:0:0:
109,192,134344,128,0,134413:0:0:0:0:
402,192,134413,128,0,134483:0:0:0:0:
36,192,134413,1,0,0:0:0:0:
475,192,134413,1,0,0:0:0:0:
329,192,134483,128,0,134552:0:0:0:0:
182,192,134552,128,0,134622:0:0:0:70:tom02.wav
109,192,134552,1,0,0:0:0:0:
256,192,134622,128,0,134691:0:0:0:0:
36,192,134691,1,0,0:0:0:70:Cymatics - Heater Kick 26.wav
475,192,134691,1,0,0:0:0:0:
109,192,134691,1,0,0:0:0:0:
329,192,134691,128,0,134830:0:0:0:0:
182,192,134830,128,0,135247:0:0:0:70:Cymatics - Heater Kick 26.wav
402,192,134830,1,0,0:0:0:0:
475,192,134830,1,0,0:0:0:0:
36,192,134830,1,0,0:0:0:0:
329,192,135108,1,0,0:0:0:70:Cymatics - Heater Kick 26.wav
109,192,135247,128,0,135525:0:0:0:70:LR_Air Dart Snare.wav
329,192,135247,1,0,0:0:0:0:
36,192,135247,1,0,0:0:0:0:
475,192,135247,1,0,0:0:0:0:
329,192,135525,128,0,135594:0:0:0:70:Cymatics - Heater Kick 26.wav
182,192,135525,1,0,0:0:0:70:tom01.wav
36,192,135525,1,0,0:0:0:0:
402,192,135594,128,0,135802:0:0:0:0:
182,192,135663,1,0,0:0:0:0:
256,192,135802,128,0,136080:0:0:0:70:Cymatics - Heater Kick 26.wav
109,192,135802,1,0,0:0:0:0:
329,192,135802,1,0,0:0:0:0:
36,192,136080,1,0,0:0:0:70:Cymatics - Heater Kick 26.wav
475,192,136080,1,0,0:0:0:70:F-Kick.wav
182,192,136080,1,0,0:0:0:0:
109,192,136080,1,0,0:0:0:0:
402,192,136080,128,0,138025:0:0:0:0:
182,192,137052,1,0,0:0:0:0:
182,192,137191,1,0,0:0:0:0:
256,192,137469,128,0,137747:0:0:0:0:
109,192,137747,128,0,138302:0:0:0:70:tom01.wav
475,192,137747,1,0,0:0:0:0:
36,192,137747,1,0,0:0:0:0:
182,192,137886,1,0,0:0:0:70:Cymatics - Heater Kick 26.wav
329,192,137886,1,0,0:0:0:0:
329,192,138025,128,0,138094:0:0:0:70:LR_Air Dart Snare.wav
182,192,138025,1,0,0:0:0:0:
36,192,138025,1,0,0:0:0:0:
256,192,138025,1,0,0:0:0:0:
475,192,138094,128,0,138302:0:0:0:0:
402,192,138302,128,0,138580:0:0:0:70:Cymatics - Heater Kick 26.wav
256,192,138302,1,0,0:0:0:70:C.wav
36,192,138302,1,0,0:0:0:0:
329,192,138302,1,0,0:0:0:0:
475,192,138580,1,0,0:0:0:70:LR_Air Dart Snare.wav
109,192,138580,1,0,0:0:0:0:
36,192,138580,1,0,0:0:0:0:
329,192,138580,1,0,0:0:0:0:
182,192,138719,128,0,138788:0:0:0:0:
402,192,138719,128,0,138788:0:0:0:0:
329,192,138788,128,0,138858:0:0:0:0:
182,192,138858,128,0,138997:0:0:0:0:
475,192,138858,128,0,138927:0:0:0:0:
109,192,138997,128,0,139066:0:0:0:70:Cymatics - Heater Kick 26.wav
256,192,138997,128,0,139066:0:0:0:0:
182,192,139136,128,0,139205:0:0:0:70:LR_Air Dart Snare.wav
109,192,139136,1,0,0:0:0:0:
36,192,139136,1,0,0:0:0:0:
329,192,139136,128,0,139205:0:0:0:0:
475,192,139205,128,0,139413:0:0:0:0:
256,192,139275,128,0,139691:0:0:0:0:
36,192,139413,128,0,139691:0:0:0:70:Cymatics - Heater Kick 26.wav
182,192,139413,1,0,0:0:0:0:
329,192,139413,1,0,0:0:0:0:
329,192,139552,1,0,0:0:0:70:Cymatics - Heater Kick 26.wav
402,192,139691,1,0,0:0:0:70:LR_Air Dart Snare.wav
475,192,139691,1,0,0:0:0:0:
182,192,139691,1,0,0:0:0:0:
109,192,139691,1,0,0:0:0:0:
256,192,139830,128,0,139900:0:0:0:0:
329,192,139900,128,0,139969:0:0:0:0:
402,192,139969,128,0,140247:0:0:0:0:
109,192,139969,128,0,140108:0:0:0:0:
329,192,140108,1,0,0:0:0:70:Cymatics - Heater Kick 26.wav
182,192,140108,128,0,140386:0:0:0:0:
36,192,140108,128,0,140177:0:0:0:0:
329,192,140247,128,0,140525:0:0:0:70:LR_Air Dart Snare.wav
36,192,140247,1,0,0:0:0:0:
256,192,140247,1,0,0:0:0:0:
475,192,140247,128,0,140316:0:0:0:0:
109,192,140386,128,0,140525:0:0:0:0:
402,192,140386,128,0,140455:0:0:0:0:
36,192,140525,1,0,0:0:0:70:Cymatics - Heater Kick 26.wav
475,192,140525,1,0,0:0:0:0:
182,192,140525,1,0,0:0:0:0:
256,192,140525,128,0,140594:0:0:0:0:
402,192,140594,128,0,140941:0:0:0:0:
109,192,140802,1,0,0:0:0:70:LR_Air Dart Snare.wav
182,192,140802,1,0,0:0:0:0:
36,192,140802,1,0,0:0:0:0:
329,192,140802,1,0,0:0:0:0:
256,192,140941,128,0,141011:0:0:0:0:
475,192,140941,128,0,141011:0:0:0:0:
402,192,141011,128,0,141080:0:0:0:0:
256,192,141080,128,0,141358:0:0:0:0:
329,192,141080,128,0,141219:0:0:0:0:
182,192,141219,1,0,0:0:0:70:Cymatics - Heater Kick 26.wav
182,192,141358,1,0,0:0:0:70:LR_Air Dart Snare.wav
36,192,141358,1,0,0:0:0:0:
475,192,141358,1,0,0:0:0:0:
402,192,141358,128,0,141497:0:0:0:0:
109,192,141497,128,0,141913:0:0:0:0:
329,192,141497,128,0,141566:0:0:0:0:
256,192,141566,128,0,141636:0:0:0:0:
182,192,141636,128,0,142052:0:0:0:70:Cymatics - Heater Kick 26.wav
402,192,141636,1,0,0:0:0:0:
475,192,141636,1,0,0:0:0:0:
402,192,141775,1,0,0:0:0:70:Cymatics - Heater Kick 26.wav
36,192,141913,128,0,142330:0:0:0:70:LR_Air Dart Snare.wav
475,192,141913,1,0,0:0:0:0:
329,192,141913,1,0,0:0:0:0:
256,192,141913,128,0,142330:0:0:0:0:
109,192,142191,128,0,142608:0:0:0:0:
329,192,142191,128,0,142608:0:0:0:0:
475,192,142330,1,0,0:0:0:70:Cymatics - Heater Kick 26.wav
182,192,142469,128,0,142747:0:0:0:70:LR_Air Dart Snare.wav
475,192,142469,128,0,142538:0:0:0:0:
256,192,142469,1,0,0:0:0:0:
36,192,142469,1,0,0:0:0:0:
402,192,142538,128,0,142886:0:0:0:0:
36,192,142747,128,0,142816:0:0:0:70:Cymatics - Heater Kick 26.wav
475,192,142747,1,0,0:0:0:0:
329,192,142747,128,0,143025:0:0:0:0:
182,192,142816,128,0,143441:0:0:0:0:
256,192,143025,1,0,0:0:0:70:LR_Air Dart Snare.wav
475,192,143025,1,0,0:0:0:0:
109,192,143025,1,0,0:0:0:0:
36,192,143025,1,0,0:0:0:0:
329,192,143163,128,0,143233:0:0:0:0:
402,192,143233,128,0,143302:0:0:0:0:
329,192,143302,128,0,143441:0:0:0:0:
475,192,143441,128,0,143580:0:0:0:70:Cymatics - Heater Kick 26.wav
256,192,143441,1,0,0:0:0:0:
36,192,143580,1,0,0:0:0:70:LR_Air Dart Snare.wav
256,192,143580,128,0,143650:0:0:0:0:
402,192,143580,128,0,143650:0:0:0:0:
182,192,143580,1,0,0:0:0:0:
109,192,143719,128,0,144275:0:0:0:0:
329,192,143719,128,0,143788:0:0:0:0:
182,192,143788,128,0,143858:0:0:0:0:
475,192,143858,1,0,0:0:0:70:Cymatics - Heater Kick 26.wav
402,192,143858,1,0,0:0:0:0:
329,192,143858,128,0,144136:0:0:0:0:
402,192,143997,1,0,0:0:0:70:Cymatics - Heater Kick 26.wav
256,192,144136,128,0,144275:0:0:0:70:LR_Air Dart Snare.wav
475,192,144136,1,0,0:0:0:0:
36,192,144136,1,0,0:0:0:0:
182,192,144136,1,0,0:0:0:0:
402,192,144275,128,0,144413:0:0:0:0:
182,192,144413,128,0,144552:0:0:0:0:
475,192,144413,128,0,144552:0:0:0:0:
329,192,144552,128,0,144691:0:0:0:70:Cymatics - Heater Kick 26.wav
109,192,144552,128,0,144622:0:0:0:0:
402,192,144552,1,0,0:0:0:0:
182,192,144622,128,0,144691:0:0:0:0:
475,192,144691,128,0,144969:0:0:0:70:LR_Air Dart Snare.wav
256,192,144691,128,0,144830:0:0:0:0:
402,192,144691,1,0,0:0:0:0:
36,192,144691,1,0,0:0:0:0:
329,192,144830,128,0,144900:0:0:0:0:
182,192,144900,128,0,144969:0:0:0:0:
36,192,144969,1,0,0:0:0:70:Cymatics - Heater Kick 26.wav
109,192,144969,1,0,0:0:0:70:C.wav
402,192,144969,128,0,145038:0:0:0:0:
256,192,144969,128,0,145108:0:0:0:0:
475,192,145038,128,0,145386:0:0:0:0:
329,192,145108,128,0,145247:0:0:0:0:
182,192,145247,128,0,145386:0:0:0:70:LR_Air Dart Snare.wav
36,192,145247,1,0,0:0:0:0:
256,192,145247,1,0,0:0:0:0:
402,192,145247,1,0,0:0:0:0:
329,192,145386,128,0,145455:0:0:0:0:
109,192,145386,128,0,145663:0:0:0:0:
329,192,145525,128,0,146219:0:0:0:0:
182,192,145663,128,0,145802:0:0:0:70:Cymatics - Heater Kick 26.wav
402,192,145663,1,0,0:0:0:0:
36,192,145802,128,0,145872:0:0:0:70:LR_Air Dart Snare.wav
109,192,145802,1,0,0:0:0:0:
402,192,145802,1,0,0:0:0:0:
475,192,145802,1,0,0:0:0:0:
182,192,145941,128,0,146011:0:0:0:0:
36,192,146011,128,0,146080:0:0:0:0:
109,192,146080,128,0,146219:0:0:0:70:Cymatics - Heater Kick 26.wav
402,192,146080,1,0,0:0:0:0:
402,192,146219,1,0,0:0:0:70:Cymatics - Heater Kick 26.wav
36,192,146358,1,0,0:0:0:70:LR_Air Dart Snare.wav
109,192,146358,1,0,0:0:0:0:
256,192,146358,128,0,146636:0:0:0:0:
475,192,146358,128,0,146497:0:0:0:0:
329,192,146497,128,0,146566:0:0:0:0:
402,192,146566,128,0,146636:0:0:0:0:
182,192,146636,128,0,146913:0:0:0:0:
475,192,146636,128,0,146913:0:0:0:0:
109,192,146775,1,0,0:0:0:70:Cymatics - Heater Kick 26.wav
402,192,146913,128,0,146983:0:0:0:70:LR_Air Dart Snare.wav
329,192,146913,128,0,146983:0:0:0:0:
109,192,146913,1,0,0:0:0:0:
36,192,146913,1,0,0:0:0:0:
475,192,146983,128,0,147191:0:0:0:0:
182,192,146983,128,0,147052:0:0:0:0:
256,192,147052,128,0,147122:0:0:0:0:
329,192,147122,128,0,147191:0:0:0:0:
182,192,147191,1,0,0:0:0:70:Cymatics - Heater Kick 26.wav
36,192,147191,128,0,147469:0:0:0:0:
402,192,147191,128,0,147330:0:0:0:0:
256,192,147330,128,0,147469:0:0:0:0:
109,192,147469,1,0,0:0:0:70:LR_Air Dart Snare.wav
475,192,147469,1,0,0:0:0:0:
329,192,147469,1,0,0:0:0:0:
402,192,147469,1,0,0:0:0:0:
182,192,147608,128,0,147677:0:0:0:0:
36,192,147608,128,0,147677:0:0:0:0:
402,192,147677,128,0,147747:0:0:0:0:
475,192,147677,128,0,147747:0:0:0:0:
256,192,147747,128,0,147886:0:0:0:0:
109,192,147747,128,0,148025:0:0:0:0:
182,192,147886,128,0,147955:0:0:0:70:Cymatics - Heater Kick 26.wav
329,192,147886,1,0,0:0:0:0:
402,192,148025,128,0,148094:0:0:0:70:LR_Air Dart Snare.wav
475,192,148025,128,0,148302:0:0:0:0:
329,192,148025,1,0,0:0:0:0:
36,192,148025,1,0,0:0:0:0:
182,192,148163,128,0,148580:0:0:0:0:
36,192,148302,128,0,148580:0:0:0:70:Cymatics - Heater Kick 26.wav
329,192,148302,1,0,0:0:0:0:
402,192,148302,1,0,0:0:0:0:
329,192,148441,1,0,0:0:0:70:Cymatics - Heater Kick 26.wav
256,192,148580,1,0,0:0:0:70:LR_Air Dart Snare.wav
109,192,148580,1,0,0:0:0:0:
402,192,148580,1,0,0:0:0:0:
475,192,148580,1,0,0:0:0:0:
329,192,148719,128,0,148788:0:0:0:0:
182,192,148788,128,0,148858:0:0:0:0:
329,192,148858,128,0,149413:0:0:0:0:
475,192,148858,128,0,149413:0:0:0:0:
256,192,148997,1,0,0:0:0:70:Cymatics - Heater Kick 26.wav
109,192,149136,128,0,149413:0:0:0:70:LR_Air Dart Snare.wav
256,192,149136,128,0,149413:0:0:0:0:
36,192,149136,1,0,0:0:0:0:
402,192,149136,1,0,0:0:0:0:
182,192,149413,128,0,149483:0:0:0:70:Cymatics - Heater Kick 26.wav
402,192,149413,128,0,149552:0:0:0:0:
36,192,149483,128,0,150247:0:0:0:0:
475,192,149552,128,0,149691:0:0:0:0:
329,192,149691,128,0,149761:0:0:0:70:LR_Air Dart Snare.wav
402,192,149691,1,0,0:0:0:0:
256,192,149691,1,0,0:0:0:0:
109,192,149691,1,0,0:0:0:0:
182,192,149830,128,0,149969:0:0:0:0:
329,192,149969,128,0,150108:0:0:0:0:
475,192,150108,128,0,150247:0:0:0:70:Cymatics - Heater Kick 26.wav
182,192,150108,1,0,0:0:0:0:
109,192,150247,128,0,150316:0:0:0:70:LR_Air Dart Snare.wav
402,192,150247,128,0,150386:0:0:0:0:
329,192,150247,1,0,0:0:0:0:
182,192,150247,1,0,0:0:0:0:
256,192,150386,128,0,151080:0:0:0:0:
475,192,150386,128,0,150525:0:0:0:0:
36,192,150525,1,0,0:0:0:70:Cymatics - Heater Kick 26.wav
329,192,150525,1,0,0:0:0:0:
109,192,150525,1,0,0:0:0:0:
402,192,150663,128,0,150802:0:0:0:70:Cymatics - Heater Kick 26.wav
182,192,150663,1,0,0:0:0:0:
36,192,150802,1,0,0:0:0:70:LR_Air Dart Snare.wav
329,192,150802,128,0,150941:0:0:0:0:
109,192,150802,1,0,0:0:0:0:
182,192,150802,1,0,0:0:0:0:
475,192,150941,128,0,151080:0:0:0:0:
109,192,151080,128,0,151358:0:0:0:0:
182,192,151219,128,0,151358:0:0:0:70:Cymatics - Heater Kick 26.wav
329,192,151219,1,0,0:0:0:0:
402,192,151358,128,0,151636:0:0:0:70:LR_Air Dart Snare.wav
329,192,151358,128,0,151497:0:0:0:0:
36,192,151358,1,0,0:0:0:0:
475,192,151358,1,0,0:0:0:0:
256,192,151497,128,0,151636:0:0:0:0:
182,192,151636,128,0,151913:0:0:0:70:Cymatics - Heater Kick 26.wav
475,192,151636,128,0,151705:0:0:0:0:
109,192,151636,1,0,0:0:0:0:
329,192,151705,128,0,151913:0:0:0:0:
36,192,151913,1,0,0:0:0:70:LR_Air Dart Snare.wav
256,192,151913,1,0,0:0:0:0:
402,192,151913,1,0,0:0:0:0:
475,192,151913,1,0,0:0:0:0:
109,192,152052,128,0,152122:0:0:0:0:
329,192,152052,128,0,152122:0:0:0:0:
256,192,152122,128,0,152191:0:0:0:0:
109,192,152191,128,0,152469:0:0:0:0:
402,192,152191,128,0,152330:0:0:0:0:
329,192,152330,128,0,152469:0:0:0:70:Cymatics - Heater Kick 26.wav
182,192,152330,1,0,0:0:0:0:
182,192,152469,1,0,0:0:0:70:LR_Air Dart Snare.wav
36,192,152469,1,0,0:0:0:0:
475,192,152469,1,0,0:0:0:0:
402,192,152469,1,0,0:0:0:0:
329,192,152608,128,0,152747:0:0:0:0:
256,192,152608,128,0,153025:0:0:0:0:
475,192,152747,128,0,152816:0:0:0:70:Cymatics - Heater Kick 26.wav
109,192,152747,1,0,0:0:0:0:
36,192,152747,1,0,0:0:0:0:
402,192,152816,128,0,153025:0:0:0:0:
182,192,152886,1,0,0:0:0:70:LR_Air Dart Snare.wav
36,192,152886,1,0,0:0:0:0:
109,192,152886,1,0,0:0:0:0:
475,192,153025,1,0,0:0:0:70:LR_Air Dart Snare.wav
182,192,153025,1,0,0:0:0:0:
329,192,153025,1,0,0:0:0:0:
109,192,153094,128,0,153163:0:0:0:0:
36,192,153163,1,0,0:0:0:70:tom01.wav
256,192,153163,128,0,153233:0:0:0:0:
402,192,153163,128,0,153233:0:0:0:0:
329,192,153233,128,0,153302:0:0:0:0:
256,192,153302,128,0,153580:0:0:0:70:Cymatics - Heater Kick 26.wav
475,192,153302,1,0,0:0:0:0:
109,192,153302,128,0,153372:0:0:0:0:
182,192,153372,128,0,153441:0:0:0:0:
475,192,153441,1,0,0:0:0:70:LR_Air Dart Snare.wav
36,192,153441,1,0,0:0:0:70:F-Kick.wav
109,192,153441,1,0,0:0:0:0:
402,192,153441,128,0,153511:0:0:0:0:
329,192,153511,128,0,153580:0:0:0:0:
36,192,153580,128,0,153858:0:0:0:0:
402,192,153580,128,0,153650:0:0:0:0:
109,192,153719,1,0,0:0:0:70:LR_Air Dart Snare.wav
329,192,153719,1,0,0:0:0:0:
475,192,153719,1,0,0:0:0:0:
182,192,153788,1,0,0:0:0:0:
256,192,153788,1,0,0:0:0:0:
109,192,153858,1,0,0:0:0:70:Cymatics - Heater Kick 26.wav
329,192,153858,1,0,0:0:0:70:F-Kick.wav
402,192,153858,1,0,0:0:0:0:
475,192,153858,128,0,155247:0:0:0:0:
256,192,154043,1,0,0:0:0:0:
36,192,154043,1,0,0:0:0:0:
182,192,154136,1,0,0:0:0:70:Cymatics - Heater Kick 26.wav
402,192,154136,1,0,0:0:0:0:
109,192,154228,1,0,0:0:0:0:
329,192,154228,1,0,0:0:0:0:
402,192,154321,1,0,0:0:0:0:
256,192,154321,1,0,0:0:0:0:
182,192,154413,1,0,0:0:0:70:LR_Air Dart Snare.wav
36,192,154413,1,0,0:0:0:0:
109,192,154413,1,0,0:0:0:0:
182,192,154552,1,0,0:0:0:70:Cymatics - Heater Kick 26.wav
329,192,154552,1,0,0:0:0:0:
36,192,154691,1,0,0:0:0:0:
256,192,154691,1,0,0:0:0:0:
109,192,154784,1,0,0:0:0:0:
402,192,154784,1,0,0:0:0:0:
182,192,154876,1,0,0:0:0:0:
329,192,154876,1,0,0:0:0:0:
402,192,154969,1,0,0:0:0:0:
36,192,154969,1,0,0:0:0:0:
256,192,155062,1,0,0:0:0:0:
109,192,155062,1,0,0:0:0:0:
329,192,155154,1,0,0:0:0:0:
182,192,155154,1,0,0:0:0:0:
36,192,155247,128,0,155525:0:0:0:70:Cymatics - Heater Kick 26.wav
109,192,155247,1,0,0:0:0:0:
402,192,155247,1,0,0:0:0:0:
256,192,155339,1,0,0:0:0:0:
329,192,155339,1,0,0:0:0:0:
182,192,155432,1,0,0:0:0:0:
475,192,155432,1,0,0:0:0:0:
402,192,155525,1,0,0:0:0:70:LR_Air Dart Snare.wav
109,192,155525,1,0,0:0:0:0:
329,192,155525,128,0,155802:0:0:0:0:
256,192,155617,1,0,0:0:0:0:
182,192,155617,1,0,0:0:0:0:
109,192,155710,1,0,0:0:0:0:
36,192,155710,1,0,0:0:0:0:
402,192,155802,1,0,0:0:0:0:
475,192,155802,128,0,156080:0:0:0:0:
182,192,155895,1,0,0:0:0:0:
329,192,155895,1,0,0:0:0:0:
36,192,155987,1,0,0:0:0:0:
109,192,155987,1,0,0:0:0:0:
329,192,156080,1,0,0:0:0:70:Cymatics - Heater Kick 26.wav
402,192,156080,1,0,0:0:0:0:
256,192,156080,128,0,156150:0:0:0:0:
182,192,156150,128,0,156219:0:0:0:0:
256,192,156219,128,0,156497:0:0:0:0:
329,192,156358,1,0,0:0:0:70:Cymatics - Heater Kick 26.wav
475,192,156358,1,0,0:0:0:0:
182,192,156358,1,0,0:0:0:0:
36,192,156450,1,0,0:0:0:0:
109,192,156450,1,0,0:0:0:0:
402,192,156497,128,0,156543:0:0:0:0:
182,192,156543,1,0,0:0:0:0:
256,192,156543,1,0,0:0:0:0:
109,192,156636,1,0,0:0:0:70:LR_Air Dart Snare.wav
402,192,156636,128,0,156775:0:0:0:0:
475,192,156636,1,0,0:0:0:0:
36,192,156636,1,0,0:0:0:0:
182,192,156775,128,0,156913:0:0:0:70:Cymatics - Heater Kick 26.wav
109,192,156775,1,0,0:0:0:0:
329,192,156913,128,0,157052:0:0:0:0:
402,192,156913,1,0,0:0:0:0:
109,192,157006,1,0,0:0:0:0:
36,192,157006,1,0,0:0:0:0:
256,192,157052,128,0,158302:0:0:0:70:Cymatics - Heater Kick 26.wav
475,192,157099,1,0,0:0:0:0:
402,192,157099,1,0,0:0:0:0:
36,192,157191,1,0,0:0:0:0:
329,192,157191,1,0,0:0:0:0:
182,192,157284,1,0,0:0:0:0:
402,192,157284,1,0,0:0:0:0:
475,192,157376,1,0,0:0:0:0:
109,192,157376,1,0,0:0:0:0:
329,192,157469,1,0,0:0:0:70:Cymatics - Heater Kick 26.wav
182,192,157469,1,0,0:0:0:0:
36,192,157562,1,0,0:0:0:0:
402,192,157562,1,0,0:0:0:0:
475,192,157654,1,0,0:0:0:0:
109,192,157654,1,0,0:0:0:0:
329,192,157747,1,0,0:0:0:70:LR_Air Dart Snare.wav
182,192,157747,1,0,0:0:0:0:
402,192,157747,1,0,0:0:0:0:
475,192,157839,1,0,0:0:0:0:
109,192,157839,1,0,0:0:0:0:
36,192,157932,1,0,0:0:0:0:
402,192,157932,1,0,0:0:0:0:
329,192,158025,1,0,0:0:0:70:Cymatics - Heater Kick 26.wav
182,192,158025,1,0,0:0:0:0:
475,192,158117,1,0,0:0:0:0:
109,192,158117,1,0,0:0:0:0:
182,192,158210,1,0,0:0:0:0:
329,192,158210,1,0,0:0:0:0:
36,192,158302,1,0,0:0:0:70:Cymatics - Heater Kick 26.wav
109,192,158302,1,0,0:0:0:70:F-Kick.wav
402,192,158302,1,0,0:0:0:0:
475,192,158302,1,0,0:0:0:0:
256,192,158580,1,0,0:0:0:70:Cymatics - Heater Kick 26.wav
36,192,158580,1,0,0:0:0:0:
475,192,158580,1,0,0:0:0:0:
109,192,158673,1,0,0:0:0:0:
329,192,158673,1,0,0:0:0:0:
182,192,158765,1,0,0:0:0:0:
402,192,158765,1,0,0:0:0:0:
256,192,158858,1,0,0:0:0:70:LR_Air Dart Snare.wav
475,192,158858,1,0,0:0:0:0:
36,192,158858,1,0,0:0:0:0:
109,192,158858,1,0,0:0:0:0:
256,192,158997,1,0,0:0:0:70:Cymatics - Heater Kick 26.wav
329,192,158997,1,0,0:0:0:0:
402,192,159136,1,0,0:0:0:0:
36,192,159136,1,0,0:0:0:0:
109,192,159228,1,0,0:0:0:0:
329,192,159228,1,0,0:0:0:0:
182,192,159321,1,0,0:0:0:0:
402,192,159321,1,0,0:0:0:0:
475,192,159413,1,0,0:0:0:0:
36,192,159413,1,0,0:0:0:0:
256,192,159413,1,0,0:0:0:0:
329,192,159506,1,0,0:0:0:0:
109,192,159506,1,0,0:0:0:0:
475,192,159599,1,0,0:0:0:0:
182,192,159599,1,0,0:0:0:0:
36,192,159691,1,0,0:0:0:70:Cymatics - Heater Kick 26.wav
402,192,159691,1,0,0:0:0:0:
256,192,159691,128,0,159969:0:0:0:0:
329,192,159784,1,0,0:0:0:0:
182,192,159784,1,0,0:0:0:0:
475,192,159876,1,0,0:0:0:0:
109,192,159876,1,0,0:0:0:0:
36,192,159969,1,0,0:0:0:70:LR_Air Dart Snare.wav
402,192,159969,128,0,160247:0:0:0:0:
329,192,159969,1,0,0:0:0:0:
182,192,160062,1,0,0:0:0:0:
256,192,160062,1,0,0:0:0:0:
36,192,160154,1,0,0:0:0:0:
109,192,160154,1,0,0:0:0:0:
475,192,160247,128,0,160525:0:0:0:0:
329,192,160247,1,0,0:0:0:0:
109,192,160339,1,0,0:0:0:0:
182,192,160339,1,0,0:0:0:0:
329,192,160432,1,0,0:0:0:0:
402,192,160432,1,0,0:0:0:0:
36,192,160525,1,0,0:0:0:70:Cymatics - Heater Kick 26.wav
182,192,160525,1,0,0:0:0:0:
256,192,160525,128,0,160594:0:0:0:0:
402,192,160594,128,0,160663:0:0:0:0:
256,192,160663,128,0,160941:0:0:0:0:
36,192,160802,1,0,0:0:0:70:Cymatics - Heater Kick 26.wav
182,192,160802,1,0,0:0:0:0:
402,192,160895,1,0,0:0:0:0:
475,192,160895,1,0,0:0:0:0:
109,192,160941,128,0,160987:0:0:0:0:
256,192,160987,1,0,0:0:0:0:
329,192,160987,1,0,0:0:0:0:
109,192,161080,128,0,161219:0:0:0:70:LR_Air Dart Snare.wav
36,192,161080,1,0,0:0:0:0:
475,192,161080,1,0,0:0:0:0:
402,192,161080,1,0,0:0:0:0:
182,192,161219,128,0,161358:0:0:0:70:Cymatics - Heater Kick 26.wav
402,192,161219,1,0,0:0:0:0:
36,192,161358,1,0,0:0:0:0:
475,192,161358,128,0,161497:0:0:0:0:
329,192,161450,1,0,0:0:0:0:
402,192,161450,1,0,0:0:0:0:
256,192,161497,128,0,162747:0:0:0:70:Cymatics - Heater Kick 26.wav
182,192,161543,1,0,0:0:0:0:
109,192,161543,1,0,0:0:0:0:
36,192,161636,1,0,0:0:0:0:
475,192,161636,1,0,0:0:0:0:
402,192,161728,1,0,0:0:0:0:
182,192,161728,1,0,0:0:0:0:
475,192,161821,1,0,0:0:0:0:
109,192,161821,1,0,0:0:0:0:
36,192,161913,1,0,0:0:0:70:Cymatics - Heater Kick 26.wav
329,192,161913,1,0,0:0:0:0:
402,192,162006,1,0,0:0:0:0:
182,192,162006,1,0,0:0:0:0:
475,192,162099,1,0,0:0:0:0:
36,192,162099,1,0,0:0:0:0:
109,192,162191,1,0,0:0:0:70:LR_Air Dart Snare.wav
329,192,162191,1,0,0:0:0:0:
182,192,162191,1,0,0:0:0:0:
402,192,162191,1,0,0:0:0:0:
109,192,162330,1,0,0:0:0:70:LR_Air Dart Snare.wav
182,192,162330,1,0,0:0:0:0:
329,192,162330,1,0,0:0:0:0:
402,192,162330,1,0,0:0:0:0:
36,192,162469,1,0,0:0:0:70:Cymatics - Heater Kick 26.wav
475,192,162469,1,0,0:0:0:0:
109,192,162538,1,0,0:0:0:0:
402,192,162538,1,0,0:0:0:0:
329,192,162608,1,0,0:0:0:70:tom01.wav
182,192,162608,1,0,0:0:0:0:
36,192,162677,1,0,0:0:0:0:
475,192,162677,1,0,0:0:0:0:
109,192,162747,1,0,0:0:0:70:Cymatics - Heater Kick 26.wav
182,192,162747,1,0,0:0:0:70:F-Kick.wav
329,192,162747,1,0,0:0:0:0:
402,192,162747,1,0,0:0:0:0:
109,192,163025,1,0,0:0:0:70:Cymatics - Heater Kick 26.wav
36,192,163025,1,0,0:0:0:0:
256,192,163025,1,0,0:0:0:0:
402,192,163117,1,0,0:0:0:0:
475,192,163117,1,0,0:0:0:0:
182,192,163210,1,0,0:0:0:0:
329,192,163210,1,0,0:0:0:0:
402,192,163302,1,0,0:0:0:70:LR_Air Dart Snare.wav
475,192,163302,1,0,0:0:0:0:
36,192,163302,1,0,0:0:0:0:
109,192,163302,1,0,0:0:0:0:
182,192,163441,1,0,0:0:0:70:Cymatics - Heater Kick 26.wav
402,192,163441,1,0,0:0:0:0:
36,192,163580,1,0,0:0:0:0:
256,192,163580,1,0,0:0:0:0:
109,192,163673,1,0,0:0:0:0:
329,192,163673,1,0,0:0:0:0:
182,192,163765,1,0,0:0:0:0:
402,192,163765,1,0,0:0:0:0:
475,192,163858,1,0,0:0:0:0:
256,192,163858,1,0,0:0:0:0:
36,192,163858,1,0,0:0:0:0:
182,192,163950,1,0,0:0:0:0:
402,192,163950,1,0,0:0:0:0:
329,192,164043,1,0,0:0:0:0:
109,192,164043,1,0,0:0:0:0:
36,192,164136,1,0,0:0:0:70:Cymatics - Heater Kick 26.wav
475,192,164136,1,0,0:0:0:0:
256,192,164136,128,0,164413:0:0:0:0:
402,192,164228,1,0,0:0:0:0:
182,192,164228,1,0,0:0:0:0:
109,192,164321,1,0,0:0:0:0:
475,192,164321,1,0,0:0:0:0:
182,192,164413,128,0,164691:0:0:0:70:LR_Air Dart Snare.wav
329,192,164413,1,0,0:0:0:0:
36,192,164413,1,0,0:0:0:0:
475,192,164506,1,0,0:0:0:0:
402,192,164506,1,0,0:0:0:0:
256,192,164599,1,0,0:0:0:0:
109,192,164599,1,0,0:0:0:0:
329,192,164691,128,0,164969:0:0:0:0:
402,192,164691,1,0,0:0:0:0:
36,192,164761,1,0,0:0:0:0:
109,192,164761,1,0,0:0:0:0:
475,192,164830,1,0,0:0:0:70:LR_Air Dart Snare.wav
402,192,164830,1,0,0:0:0:0:
256,192,164900,1,0,0:0:0:0:
182,192,164900,1,0,0:0:0:0:
36,192,164969,1,0,0:0:0:70:Cymatics - Heater Kick 26.wav
475,192,164969,1,0,0:0:0:0:
109,192,164969,128,0,165247:0:0:0:0:
182,192,165247,1,0,0:0:0:70:Cymatics - Heater Kick 26.wav
329,192,165247,1,0,0:0:0:0:
256,192,165386,128,0,165455:0:0:0:0:
256,192,165525,128,0,165663:0:0:0:70:LR_Air Dart Snare.wav
36,192,165525,1,0,0:0:0:0:
109,192,165525,1,0,0:0:0:0:
475,192,165525,1,0,0:0:0:0:
329,192,165663,128,0,165733:0:0:0:70:Cymatics - Heater Kick 26.wav
402,192,165663,1,0,0:0:0:0:
182,192,165802,128,0,165872:0:0:0:0:
36,192,165802,1,0,0:0:0:0:
109,192,165802,1,0,0:0:0:0:
402,192,165895,1,0,0:0:0:0:
475,192,165895,1,0,0:0:0:0:
329,192,165941,128,0,166450:0:0:0:70:Cymatics - Heater Kick 26.wav
109,192,165987,1,0,0:0:0:0:
256,192,165987,1,0,0:0:0:0:
475,192,166080,1,0,0:0:0:0:
36,192,166080,1,0,0:0:0:0:
182,192,166173,1,0,0:0:0:0:
402,192,166173,1,0,0:0:0:0:
109,192,166265,1,0,0:0:0:0:
475,192,166265,1,0,0:0:0:0:
256,192,166358,1,0,0:0:0:70:Cymatics - Heater Kick 26.wav
36,192,166358,1,0,0:0:0:0:
182,192,166450,1,0,0:0:0:0:
402,192,166450,1,0,0:0:0:0:
109,192,166543,1,0,0:0:0:0:
329,192,166543,1,0,0:0:0:0:
36,192,166636,1,0,0:0:0:70:LR_Air Dart Snare.wav
475,192,166636,1,0,0:0:0:0:
256,192,166636,128,0,166775:0:0:0:0:
182,192,166728,1,0,0:0:0:0:
402,192,166728,1,0,0:0:0:0:
329,192,166775,128,0,166913:0:0:0:0:
36,192,166913,1,0,0:0:0:70:Cymatics - Heater Kick 26.wav
256,192,166913,1,0,0:0:0:0:
109,192,166913,128,0,167052:0:0:0:0:
402,192,167006,1,0,0:0:0:0:
475,192,167006,1,0,0:0:0:0:
182,192,167052,128,0,167191:0:0:0:0:
329,192,167099,1,0,0:0:0:0:
256,192,167099,1,0,0:0:0:0:
36,192,167191,1,0,0:0:0:70:Cymatics - Heater Kick 26.wav
109,192,167191,1,0,0:0:0:70:F-Kick.wav
402,192,167191,128,0,167469:0:0:0:0:
475,192,167191,128,0,167886:0:0:0:0:
256,192,167330,128,0,167608:0:0:0:0:
109,192,167469,128,0,167747:0:0:0:0:
329,192,167608,128,0,167886:0:0:0:0:
36,192,167747,128,0,168302:0:0:0:0:
182,192,167886,128,0,168163:0:0:0:0:
329,192,168025,128,0,168302:0:0:0:0:
475,192,168163,128,0,168441:0:0:0:0:
109,192,168302,128,0,168788:0:0:0:0:
256,192,168441,128,0,168719:0:0:0:0:
402,192,168580,128,0,168788:0:0:0:0:
329,192,168719,128,0,168788:0:0:0:0:
182,192,168788,128,0,169066:0:0:0:0:
475,192,168858,128,0,169413:0:0:0:0:
36,192,168997,128,0,169275:0:0:0:0:
256,192,169136,128,0,169413:0:0:0:0:
109,192,169275,128,0,169413:0:0:0:0:
182,192,169413,128,0,169483:0:0:0:0:
329,192,169413,128,0,169969:0:0:0:0:
402,192,169413,1,0,0:0:0:0:
36,192,169483,128,0,170247:0:0:0:0:
475,192,169969,128,0,170525:0:0:0:0:
109,192,170386,128,0,170455:0:0:0:0:
256,192,170455,128,0,170525:0:0:0:0:
402,192,170525,128,0,171080:0:0:0:0:
182,192,170525,128,0,170802:0:0:0:0:
36,192,170802,128,0,171080:0:0:0:0:
109,192,171080,128,0,171358:0:0:0:0:
475,192,171080,128,0,171566:0:0:0:0:
329,192,171080,128,0,171566:0:0:0:0:
36,192,171358,128,0,171566:0:0:0:0:
182,192,171358,128,0,171566:0:0:0:0:
36,192,171636,1,0,0:0:0:70:Cymatics - Heater Kick 26.wav
109,192,171636,1,0,0:0:0:70:C.wav
475,192,171636,1,0,0:0:0:0:
256,192,171636,128,0,173858:0:0:0:0:
402,192,171636,128,0,172191:0:0:0:0:
182,192,171913,1,0,0:0:0:70:Cymatics - Heater Kick 26.wav
329,192,171913,1,0,0:0:0:70:tom01.wav
109,192,172191,128,0,172747:0:0:0:70:Cymatics - Heater Kick 26.wav
36,192,172191,1,0,0:0:0:0:
475,192,172191,1,0,0:0:0:0:
329,192,172330,1,0,0:0:0:70:tom02.wav
402,192,172330,1,0,0:0:0:0:
475,192,172469,1,0,0:0:0:70:Cymatics - Heater Kick 26.wav
182,192,172469,1,0,0:0:0:0:
475,192,172747,128,0,173302:0:0:0:70:Cymatics - Heater Kick 26.wav
329,192,172747,1,0,0:0:0:70:tom01.wav
36,192,172747,1,0,0:0:0:0:
402,192,172747,1,0,0:0:0:0:
182,192,173025,1,0,0:0:0:70:Cymatics - Heater Kick 26.wav
109,192,173025,1,0,0:0:0:0:
329,192,173163,1,0,0:0:0:70:tom03.wav
402,192,173163,1,0,0:0:0:0:
182,192,173302,128,0,173858:0:0:0:70:Cymatics - Heater Kick 26.wav
36,192,173302,1,0,0:0:0:0:
109,192,173302,1,0,0:0:0:0:
329,192,173580,1,0,0:0:0:70:Cymatics - Heater Kick 26.wav
402,192,173580,1,0,0:0:0:0:
329,192,173719,1,0,0:0:0:0:
36,192,173858,1,0,0:0:0:70:Cymatics - Heater Kick 26.wav
402,192,173858,1,0,0:0:0:0:
475,192,173858,128,0,174413:0:0:0:0:
109,192,173858,128,0,174969:0:0:0:0:
182,192,174136,1,0,0:0:0:70:Cymatics - Heater Kick 26.wav
329,192,174136,1,0,0:0:0:70:tom01.wav
36,192,174413,128,0,174969:0:0:0:70:Cymatics - Heater Kick 26.wav
182,192,174413,1,0,0:0:0:0:
256,192,174413,1,0,0:0:0:0:
475,192,174552,1,0,0:0:0:70:tom02.wav
402,192,174552,1,0,0:0:0:0:
329,192,174691,1,0,0:0:0:70:Cymatics - Heater Kick 26.wav
256,192,174691,1,0,0:0:0:0:
402,192,174969,128,0,175525:0:0:0:70:Cymatics - Heater Kick 26.wav
329,192,174969,128,0,176080:0:0:0:70:tom01.wav
182,192,174969,1,0,0:0:0:0:
475,192,174969,1,0,0:0:0:0:
36,192,175108,1,0,0:0:0:0:
109,192,175108,1,0,0:0:0:0:
256,192,175247,1,0,0:0:0:70:Cymatics - Heater Kick 26.wav
182,192,175247,1,0,0:0:0:0:
256,192,175386,1,0,0:0:0:70:tom03.wav
36,192,175386,1,0,0:0:0:0:
109,192,175525,1,0,0:0:0:70:Cymatics - Heater Kick 26.wav
475,192,175525,1,0,0:0:0:0:
36,192,175525,1,0,0:0:0:0:
182,192,175525,128,0,176080:0:0:0:0:
256,192,175802,1,0,0:0:0:70:Cymatics - Heater Kick 26.wav
109,192,175802,1,0,0:0:0:0:
402,192,175802,1,0,0:0:0:0:
256,192,175941,1,0,0:0:0:0:
36,192,176080,1,0,0:0:0:70:Cymatics - Heater Kick 26.wav
402,192,176080,1,0,0:0:0:0:
475,192,176080,128,0,176636:0:0:0:0:
109,192,176080,128,0,177191:0:0:0:0:
256,192,176358,1,0,0:0:0:70:Cymatics - Heater Kick 26.wav
402,192,176358,1,0,0:0:0:70:tom01.wav
182,192,176636,128,0,177191:0:0:0:70:Cymatics - Heater Kick 26.wav
36,192,176636,1,0,0:0:0:0:
329,192,176636,1,0,0:0:0:0:
475,192,176775,1,0,0:0:0:70:tom02.wav
402,192,176775,1,0,0:0:0:0:
329,192,176913,1,0,0:0:0:70:Cymatics - Heater Kick 26.wav
256,192,176913,1,0,0:0:0:0:
402,192,177191,128,0,177747:0:0:0:70:Cymatics - Heater Kick 26.wav
475,192,177191,1,0,0:0:0:70:tom01.wav
329,192,177191,128,0,178302:0:0:0:0:
36,192,177330,1,0,0:0:0:0:
109,192,177330,1,0,0:0:0:0:
256,192,177469,1,0,0:0:0:70:Cymatics - Heater Kick 26.wav
182,192,177469,1,0,0:0:0:0:
475,192,177608,1,0,0:0:0:70:tom03.wav
182,192,177608,1,0,0:0:0:0:
109,192,177747,128,0,178302:0:0:0:70:Cymatics - Heater Kick 26.wav
36,192,177747,1,0,0:0:0:0:
256,192,177747,1,0,0:0:0:0:
475,192,177747,1,0,0:0:0:0:
182,192,178025,1,0,0:0:0:70:Cymatics - Heater Kick 26.wav
402,192,178025,1,0,0:0:0:0:
402,192,178163,1,0,0:0:0:0:
256,192,178163,1,0,0:0:0:0:
256,192,178302,128,0,178858:0:0:0:70:Cymatics - Heater Kick 26.wav
182,192,178302,1,0,0:0:0:0:
36,192,178302,1,0,0:0:0:0:
475,192,178302,128,0,179413:0:0:0:0:
182,192,178580,1,0,0:0:0:70:Cymatics - Heater Kick 26.wav
329,192,178580,1,0,0:0:0:70:tom01.wav
36,192,178858,128,0,179413:0:0:0:70:Cymatics - Heater Kick 26.wav
109,192,178858,1,0,0:0:0:0:
402,192,178858,1,0,0:0:0:0:
182,192,178997,1,0,0:0:0:70:tom02.wav
256,192,178997,1,0,0:0:0:0:
402,192,179136,1,0,0:0:0:70:Cymatics - Heater Kick 26.wav
329,192,179136,1,0,0:0:0:0:
402,192,179413,128,0,179969:0:0:0:70:Cymatics - Heater Kick 26.wav
256,192,179413,128,0,180525:0:0:0:70:tom01.wav
109,192,179413,1,0,0:0:0:0:
182,192,179413,1,0,0:0:0:0:
329,192,179552,1,0,0:0:0:0:
475,192,179552,1,0,0:0:0:0:
182,192,179691,1,0,0:0:0:70:Cymatics - Heater Kick 26.wav
36,192,179691,1,0,0:0:0:0:
182,192,179830,1,0,0:0:0:70:tom03.wav
329,192,179830,1,0,0:0:0:0:
109,192,179969,128,0,180525:0:0:0:70:Cymatics - Heater Kick 26.wav
329,192,179969,1,0,0:0:0:0:
475,192,179969,1,0,0:0:0:0:
36,192,179969,1,0,0:0:0:0:
36,192,180247,1,0,0:0:0:70:LR_Air Dart Snare.wav
182,192,180247,1,0,0:0:0:70:C.wav
402,192,180247,1,0,0:0:0:0:
475,192,180247,1,0,0:0:0:0:
36,192,180525,1,0,0:0:0:70:Cymatics - Heater Kick 26.wav
402,192,180525,1,0,0:0:0:70:F-Kick.wav
475,192,180525,1,0,0:0:0:0:
182,192,180525,1,0,0:0:0:0:
329,192,180525,128,0,181080:0:0:0:0:
402,192,180941,1,0,0:0:0:70:Cymatics - Heater Kick 26.wav
109,192,180941,1,0,0:0:0:0:
182,192,181011,1,0,0:0:0:70:Cymatics - Heater Kick 26.wav
256,192,181011,1,0,0:0:0:0:
109,192,181080,1,0,0:0:0:70:LR_Air Dart Snare.wav
475,192,181080,1,0,0:0:0:0:
402,192,181080,1,0,0:0:0:0:
36,192,181080,128,0,181636:0:0:0:0:
256,192,181219,1,0,0:0:0:0:
475,192,181219,1,0,0:0:0:0:
109,192,181358,1,0,0:0:0:0:
329,192,181358,1,0,0:0:0:0:
182,192,181497,1,0,0:0:0:70:Cymatics - Heater Kick 26.wav
402,192,181497,1,0,0:0:0:0:
475,192,181497,1,0,0:0:0:0:
109,192,181636,1,0,0:0:0:70:LR_Air Dart Snare.wav
329,192,181636,1,0,0:0:0:0:
256,192,181636,128,0,182191:0:0:0:0:
36,192,181775,1,0,0:0:0:70:Cymatics - Heater Kick 26.wav
182,192,181913,1,0,0:0:0:70:Cymatics - Heater Kick 26.wav
36,192,181913,1,0,0:0:0:0:
329,192,181913,1,0,0:0:0:0:
329,192,182052,1,0,0:0:0:0:
402,192,182052,1,0,0:0:0:0:
36,192,182191,1,0,0:0:0:70:LR_Air Dart Snare.wav
182,192,182191,1,0,0:0:0:0:
475,192,182191,1,0,0:0:0:0:
109,192,182191,128,0,182747:0:0:0:0:
256,192,182330,1,0,0:0:0:0:
329,192,182330,1,0,0:0:0:0:
402,192,182469,1,0,0:0:0:70:Cymatics - Heater Kick 26.wav
475,192,182469,1,0,0:0:0:0:
36,192,182469,1,0,0:0:0:0:
256,192,182608,1,0,0:0:0:0:
182,192,182608,1,0,0:0:0:0:
36,192,182747,1,0,0:0:0:70:Cymatics - Heater Kick 26.wav
329,192,182747,1,0,0:0:0:0:
475,192,182747,128,0,183302:0:0:0:0:
182,192,182886,1,0,0:0:0:0:
109,192,182886,1,0,0:0:0:0:
329,192,183025,1,0,0:0:0:0:
256,192,183025,1,0,0:0:0:0:
109,192,183163,1,0,0:0:0:70:Cymatics - Heater Kick 26.wav
402,192,183163,1,0,0:0:0:0:
182,192,183233,1,0,0:0:0:70:Cymatics - Heater Kick 26.wav
329,192,183233,1,0,0:0:0:0:
109,192,183302,1,0,0:0:0:70:LR_Air Dart Snare.wav
402,192,183302,1,0,0:0:0:0:
256,192,183302,1,0,0:0:0:0:
36,192,183302,128,0,183858:0:0:0:0:
329,192,183441,1,0,0:0:0:0:
182,192,183441,1,0,0:0:0:0:
402,192,183580,1,0,0:0:0:0:
475,192,183580,1,0,0:0:0:0:
109,192,183719,1,0,0:0:0:70:Cymatics - Heater Kick 26.wav
182,192,183719,1,0,0:0:0:0:
256,192,183719,1,0,0:0:0:0:
329,192,183858,1,0,0:0:0:70:LR_Air Dart Snare.wav
402,192,183858,1,0,0:0:0:0:
475,192,183858,128,0,184413:0:0:0:0:
109,192,183997,1,0,0:0:0:70:Cymatics - Heater Kick 26.wav
36,192,183997,1,0,0:0:0:0:
256,192,183997,1,0,0:0:0:0:
182,192,184136,1,0,0:0:0:70:Cymatics - Heater Kick 26.wav
109,192,184136,1,0,0:0:0:0:
329,192,184136,1,0,0:0:0:0:
256,192,184275,1,0,0:0:0:0:
402,192,184275,1,0,0:0:0:0:
329,192,184413,1,0,0:0:0:70:LR_Air Dart Snare.wav
36,192,184413,1,0,0:0:0:70:F-Kick.wav
109,192,184413,1,0,0:0:0:0:
182,192,184413,1,0,0:0:0:0:
402,192,184413,1,0,0:0:0:0:
182,192,184552,1,0,0:0:0:0:
256,192,184552,1,0,0:0:0:0:
256,192,184691,1,0,0:0:0:70:Cymatics - Heater Kick 26.wav
402,192,184691,1,0,0:0:0:0:
475,192,184691,1,0,0:0:0:0:
36,192,184691,1,0,0:0:0:0:
109,192,184691,1,0,0:0:0:0:
182,192,184830,1,0,0:0:0:0:
329,192,184830,1,0,0:0:0:0:
256,192,184969,1,0,0:0:0:70:Cymatics - Heater Kick 26.wav
36,192,184969,1,0,0:0:0:70:F-Kick.wav
475,192,184969,1,0,0:0:0:0:
402,192,184969,1,0,0:0:0:0:
109,192,184969,1,0,0:0:0:0:
256,192,185247,1,0,0:0:0:70:Cymatics - Heater Kick 26.wav
475,192,185247,1,0,0:0:0:0:
36,192,185247,1,0,0:0:0:0:
182,192,185316,1,0,0:0:0:0:
402,192,185316,1,0,0:0:0:0:
329,192,185386,1,0,0:0:0:0:
109,192,185386,1,0,0:0:0:0:
256,192,185455,1,0,0:0:0:0:
36,192,185455,1,0,0:0:0:0:
182,192,185525,1,0,0:0:0:70:Cymatics - Heater Kick 26.wav
475,192,185525,1,0,0:0:0:0:
402,192,185525,1,0,0:0:0:0:
329,192,185594,1,0,0:0:0:0:
109,192,185594,1,0,0:0:0:0:
256,192,185663,1,0,0:0:0:0:
36,192,185663,1,0,0:0:0:0:
182,192,185733,1,0,0:0:0:0:
402,192,185733,1,0,0:0:0:0:
329,192,185802,1,0,0:0:0:70:Cymatics - Heater Kick 26.wav
109,192,185802,1,0,0:0:0:0:
36,192,185802,1,0,0:0:0:0:
182,192,185872,1,0,0:0:0:0:
402,192,185872,1,0,0:0:0:0:
475,192,185941,1,0,0:0:0:0:
256,192,185941,1,0,0:0:0:0:
329,192,186011,1,0,0:0:0:0:
109,192,186011,1,0,0:0:0:0:
182,192,186080,1,0,0:0:0:70:Cymatics - Heater Kick 26.wav
402,192,186080,1,0,0:0:0:0:
475,192,186080,1,0,0:0:0:0:
36,192,186150,1,0,0:0:0:0:
256,192,186150,1,0,0:0:0:0:
329,192,186219,1,0,0:0:0:0:
109,192,186219,1,0,0:0:0:0:
402,192,186288,1,0,0:0:0:0:
182,192,186288,1,0,0:0:0:0:
36,192,186358,1,0,0:0:0:70:Cymatics - Heater Kick 26.wav
475,192,186358,1,0,0:0:0:0:
256,192,186358,1,0,0:0:0:0:
109,192,186427,1,0,0:0:0:0:
329,192,186427,1,0,0:0:0:0:
402,192,186497,1,0,0:0:0:0:
182,192,186497,1,0,0:0:0:0:
256,192,186566,1,0,0:0:0:0:
475,192,186566,1,0,0:0:0:0:
36,192,186636,1,0,0:0:0:70:Cymatics - Heater Kick 26.wav
109,192,186636,1,0,0:0:0:0:
329,192,186636,1,0,0:0:0:0:
182,192,186705,1,0,0:0:0:0:
475,192,186705,1,0,0:0:0:0:
402,192,186775,1,0,0:0:0:0:
36,192,186775,1,0,0:0:0:0:
109,192,186844,1,0,0:0:0:0:
329,192,186844,1,0,0:0:0:0:
182,192,186913,1,0,0:0:0:70:LR_Air Dart Snare.wav
475,192,186913,1,0,0:0:0:0:
402,192,186913,1,0,0:0:0:0:
256,192,186913,1,0,0:0:0:0:
36,192,186983,1,0,0:0:0:0:
109,192,186983,1,0,0:0:0:0:
475,192,187052,1,0,0:0:0:0:
329,192,187052,1,0,0:0:0:0:
256,192,187122,1,0,0:0:0:0:
182,192,187122,1,0,0:0:0:0:
36,192,187191,1,0,0:0:0:70:Cymatics - Heater Kick 26.wav
109,192,187191,1,0,0:0:0:70:F-Kick.wav
329,192,187191,1,0,0:0:0:0:
402,192,187191,1,0,0:0:0:0:
475,192,187191,1,0,0:0:0:0:
329,192,187330,1,0,0:0:0:70:LR_Air Dart Snare.wav
109,192,187330,1,0,0:0:0:0:
402,192,187330,1,0,0:0:0:0:
256,192,187400,1,0,0:0:0:70:LR_Air Dart Snare.wav
182,192,187400,1,0,0:0:0:0:
36,192,187469,1,0,0:0:0:70:LR_Air Dart Snare.wav
109,192,187469,1,0,0:0:0:0:
475,192,187469,1,0,0:0:0:0:
402,192,187469,1,0,0:0:0:0:
36,192,187608,1,0,0:0:0:70:Cymatics - Heater Kick 26.wav
182,192,187608,1,0,0:0:0:70:F-Kick.wav
256,192,187608,1,0,0:0:0:0:
329,192,187608,1,0,0:0:0:0:
475,192,187608,1,0,0:0:0:0:
109,192,187747,1,0,0:0:0:70:LR_Air Dart Snare.wav
182,192,187747,1,0,0:0:0:0:
329,192,187747,1,0,0:0:0:0:
402,192,187747,1,0,0:0:0:0:
182,192,187886,1,0,0:0:0:70:LR_Air Dart Snare.wav
36,192,187886,1,0,0:0:0:0:
256,192,187886,1,0,0:0:0:0:
475,192,187886,1,0,0:0:0:0:
36,192,188025,1,0,0:0:0:70:LR_Air Dart Snare.wav
109,192,188025,1,0,0:0:0:70:F-Kick.wav
329,192,188025,1,0,0:0:0:0:
402,192,188025,1,0,0:0:0:0:
475,192,188025,1,0,0:0:0:0:
109,192,188163,1,0,0:0:0:70:LR_Air Dart Snare.wav
182,192,188163,1,0,0:0:0:0:
402,192,188163,1,0,0:0:0:0:
256,192,188233,1,0,0:0:0:0:
329,192,188233,1,0,0:0:0:0:
36,192,188302,1,0,0:0:0:70:LR_Air Dart Snare.wav
109,192,188302,1,0,0:0:0:0:
475,192,188302,1,0,0:0:0:0:
402,192,188302,1,0,0:0:0:0:
402,192,188441,1,0,0:0:0:70:tom01.wav
36,192,188441,1,0,0:0:0:0:
256,192,188441,1,0,0:0:0:0:
329,192,188511,1,0,0:0:0:70:tom01.wav
182,192,188511,1,0,0:0:0:0:
109,192,188580,1,0,0:0:0:70:tom02.wav
475,192,188580,1,0,0:0:0:0:
256,192,188580,1,0,0:0:0:0:
402,192,188650,1,0,0:0:0:70:tom02.wav
329,192,188650,1,0,0:0:0:0:
475,192,188719,1,0,0:0:0:70:tom03.wav
36,192,188719,1,0,0:0:0:0:
109,192,188719,1,0,0:0:0:0:
182,192,188788,1,0,0:0:0:70:tom04.wav
256,192,188788,1,0,0:0:0:0:
329,192,188858,1,0,0:0:0:70:LR_Air Dart Snare.wav
402,192,188858,1,0,0:0:0:70:F-Kick.wav
475,192,188858,1,0,0:0:0:0:
36,192,188858,1,0,0:0:0:0:
109,192,188858,1,0,0:0:0:0:
182,192,189136,1,0,0:0:0:70:Cymatics - Heater Kick 26.wav
329,192,189136,1,0,0:0:0:0:
36,192,189275,1,0,0:0:0:70:LR_Air Dart Snare.wav
182,192,189275,1,0,0:0:0:0:
475,192,189275,1,0,0:0:0:0:
256,192,189275,1,0,0:0:0:0:
402,192,189413,1,0,0:0:0:70:Cymatics - Heater Kick 26.wav
109,192,189413,1,0,0:0:0:0:
182,192,189483,1,0,0:0:0:70:Cymatics - Heater Kick 26.wav
329,192,189483,1,0,0:0:0:0:
36,192,189552,1,0,0:0:0:70:LR_Air Dart Snare.wav
109,192,189552,1,0,0:0:0:0:
402,192,189552,1,0,0:0:0:0:
475,192,189552,1,0,0:0:0:0:
36,192,189691,1,0,0:0:0:70:Cymatics - Heater Kick 26.wav
182,192,189691,1,0,0:0:0:0:
256,192,189691,1,0,0:0:0:0:
182,192,189830,1,0,0:0:0:70:Cymatics - Heater Kick 26.wav
329,192,189830,1,0,0:0:0:0:
402,192,189830,1,0,0:0:0:0:
36,192,189969,1,0,0:0:0:70:LR_Air Dart Snare.wav
475,192,189969,1,0,0:0:0:70:F-Kick.wav
256,192,189969,1,0,0:0:0:0:
109,192,189969,128,0,190525:0:0:0:0:
402,192,189969,128,0,190525:0:0:0:0:
182,192,190525,128,0,190594:0:0:0:0:
256,192,190525,128,0,191080:0:0:0:0:
475,192,190525,128,0,191080:0:0:0:0:
36,192,190525,128,0,191080:0:0:0:0:
329,192,190594,128,0,190663:0:0:0:0:
402,192,190663,128,0,190733:0:0:0:0:
109,192,190733,128,0,190802:0:0:0:0:
182,192,190802,128,0,190872:0:0:0:0:
402,192,190872,128,0,190941:0:0:0:0:
329,192,190941,128,0,191011:0:0:0:0:
182,192,191011,128,0,191080:0:0:0:0:
109,192,191219,128,0,191358:0:0:0:0:
329,192,191358,128,0,191427:0:0:0:0:
182,192,191497,128,0,191566:0:0:0:0:
36,192,191636,1,0,0:0:0:70:Cymatics - Heater Kick 26.wav
109,192,191636,1,0,0:0:0:70:C.wav
256,192,191636,1,0,0:0:0:0:
475,192,191636,1,0,0:0:0:0:
402,192,191636,128,0,192052:0:0:0:0:
329,192,191775,1,0,0:0:0:0:
182,192,191775,1,0,0:0:0:0:
329,192,191913,1,0,0:0:0:70:LR_Air Dart Snare.wav
475,192,191913,1,0,0:0:0:0:
36,192,191913,1,0,0:0:0:0:
109,192,191913,1,0,0:0:0:0:
182,192,191983,1,0,0:0:0:0:
36,192,192052,1,0,0:0:0:0:
475,192,192052,1,0,0:0:0:0:
256,192,192052,1,0,0:0:0:0:
329,192,192122,1,0,0:0:0:0:
109,192,192122,1,0,0:0:0:0:
402,192,192191,1,0,0:0:0:70:Cymatics - Heater Kick 26.wav
182,192,192191,1,0,0:0:0:0:
475,192,192191,1,0,0:0:0:0:
36,192,192261,1,0,0:0:0:0:
256,192,192261,1,0,0:0:0:0:
109,192,192330,1,0,0:0:0:70:Cymatics - Heater Kick 26.wav
329,192,192330,1,0,0:0:0:0:
182,192,192400,1,0,0:0:0:0:
402,192,192400,1,0,0:0:0:0:
256,192,192469,1,0,0:0:0:70:LR_Air Dart Snare.wav
475,192,192469,1,0,0:0:0:0:
36,192,192469,1,0,0:0:0:0:
109,192,192469,1,0,0:0:0:0:
182,192,192538,1,0,0:0:0:0:
329,192,192538,1,0,0:0:0:0:
402,192,192608,1,0,0:0:0:70:Cymatics - Heater Kick 26.wav
36,192,192608,1,0,0:0:0:0:
109,192,192677,1,0,0:0:0:0:
256,192,192677,1,0,0:0:0:0:
182,192,192747,1,0,0:0:0:0:
402,192,192747,1,0,0:0:0:0:
329,192,192747,1,0,0:0:0:0:
475,192,192747,128,0,193163:0:0:0:0:
109,192,192886,1,0,0:0:0:70:Cymatics - Heater Kick 26.wav
256,192,192886,1,0,0:0:0:0:
402,192,193025,1,0,0:0:0:70:LR_Air Dart Snare.wav
36,192,193025,1,0,0:0:0:0:
329,192,193025,1,0,0:0:0:0:
109,192,193025,1,0,0:0:0:0:
182,192,193094,1,0,0:0:0:0:
36,192,193163,1,0,0:0:0:0:
256,192,193163,1,0,0:0:0:0:
329,192,193163,1,0,0:0:0:0:
475,192,193233,1,0,0:0:0:0:
402,192,193233,1,0,0:0:0:0:
109,192,193302,1,0,0:0:0:70:Cymatics - Heater Kick 26.wav
256,192,193302,1,0,0:0:0:0:
182,192,193302,1,0,0:0:0:0:
402,192,193372,1,0,0:0:0:0:
329,192,193372,1,0,0:0:0:0:
182,192,193441,1,0,0:0:0:70:Cymatics - Heater Kick 26.wav
36,192,193441,1,0,0:0:0:0:
256,192,193511,1,0,0:0:0:0:
329,192,193511,1,0,0:0:0:0:
36,192,193580,1,0,0:0:0:70:LR_Air Dart Snare.wav
109,192,193580,1,0,0:0:0:0:
402,192,193580,1,0,0:0:0:0:
475,192,193580,1,0,0:0:0:0:
182,192,193650,1,0,0:0:0:0:
256,192,193650,1,0,0:0:0:0:
475,192,193719,1,0,0:0:0:0:
402,192,193719,1,0,0:0:0:0:
182,192,193788,1,0,0:0:0:0:
329,192,193788,1,0,0:0:0:0:
36,192,193858,1,0,0:0:0:70:Cymatics - Heater Kick 26.wav
109,192,193858,1,0,0:0:0:0:
475,192,193858,1,0,0:0:0:0:
256,192,193858,1,0,0:0:0:0:
402,192,193927,1,0,0:0:0:0:
329,192,193997,1,0,0:0:0:70:Cymatics - Heater Kick 26.wav
109,192,193997,1,0,0:0:0:0:
182,192,193997,1,0,0:0:0:0:
402,192,194066,1,0,0:0:0:0:
36,192,194136,1,0,0:0:0:70:LR_Air Dart Snare.wav
182,192,194136,1,0,0:0:0:0:
475,192,194136,1,0,0:0:0:0:
256,192,194136,1,0,0:0:0:0:
329,192,194205,1,0,0:0:0:0:
475,192,194275,1,0,0:0:0:0:
109,192,194275,1,0,0:0:0:0:
402,192,194275,1,0,0:0:0:0:
182,192,194344,1,0,0:0:0:0:
36,192,194413,1,0,0:0:0:70:Cymatics - Heater Kick 26.wav
402,192,194413,1,0,0:0:0:0:
256,192,194413,1,0,0:0:0:0:
329,192,194413,1,0,0:0:0:0:
109,192,194483,1,0,0:0:0:0:
182,192,194552,1,0,0:0:0:70:Cymatics - Heater Kick 26.wav
329,192,194552,1,0,0:0:0:0:
475,192,194552,1,0,0:0:0:0:
109,192,194622,1,0,0:0:0:0:
36,192,194691,1,0,0:0:0:70:LR_Air Dart Snare.wav
402,192,194691,1,0,0:0:0:0:
475,192,194691,1,0,0:0:0:0:
256,192,194691,1,0,0:0:0:0:
182,192,194761,1,0,0:0:0:0:
109,192,194830,1,0,0:0:0:70:Cymatics - Heater Kick 26.wav
329,192,194830,1,0,0:0:0:0:
402,192,194830,1,0,0:0:0:0:
256,192,194900,1,0,0:0:0:0:
475,192,194969,1,0,0:0:0:0:
402,192,194969,1,0,0:0:0:0:
36,192,194969,1,0,0:0:0:0:
109,192,194969,128,0,195015:0:0:0:0:
182,192,195015,128,0,195062:0:0:0:0:
256,192,195062,128,0,195108:0:0:0:0:
329,192,195108,1,0,0:0:0:70:Cymatics - Heater Kick 26.wav
36,192,195108,128,0,195154:0:0:0:0:
109,192,195154,128,0,195200:0:0:0:0:
182,192,195200,128,0,195247:0:0:0:0:
402,192,195247,1,0,0:0:0:70:LR_Air Dart Snare.wav
256,192,195247,1,0,0:0:0:0:
475,192,195247,1,0,0:0:0:0:
109,192,195386,1,0,0:0:0:0:
329,192,195386,1,0,0:0:0:0:
402,192,195386,1,0,0:0:0:0:
36,192,195386,1,0,0:0:0:0:
182,192,195455,1,0,0:0:0:0:
256,192,195455,1,0,0:0:0:0:
36,192,195525,1,0,0:0:0:70:Cymatics - Heater Kick 26.wav
109,192,195525,1,0,0:0:0:0:
475,192,195525,1,0,0:0:0:0:
329,192,195525,1,0,0:0:0:0:
402,192,195663,1,0,0:0:0:70:Cymatics - Heater Kick 26.wav
182,192,195663,1,0,0:0:0:0:
475,192,195663,1,0,0:0:0:0:
256,192,195733,1,0,0:0:0:0:
402,192,195802,1,0,0:0:0:70:LR_Air Dart Snare.wav
36,192,195802,1,0,0:0:0:0:
329,192,195802,1,0,0:0:0:0:
109,192,195802,1,0,0:0:0:0:
182,192,195872,1,0,0:0:0:0:
36,192,195941,1,0,0:0:0:0:
256,192,195941,1,0,0:0:0:0:
329,192,195941,1,0,0:0:0:0:
109,192,196011,1,0,0:0:0:0:
182,192,196080,1,0,0:0:0:70:Cymatics - Heater Kick 26.wav
475,192,196080,1,0,0:0:0:70:C.wav
402,192,196080,1,0,0:0:0:0:
329,192,196080,128,0,196358:0:0:0:0:
109,192,196150,1,0,0:0:0:0:
36,192,196219,1,0,0:0:0:0:
256,192,196219,1,0,0:0:0:0:
182,192,196288,1,0,0:0:0:0:
36,192,196358,1,0,0:0:0:70:LR_Air Dart Snare.wav
475,192,196358,1,0,0:0:0:0:
402,192,196358,1,0,0:0:0:0:
109,192,196358,128,0,196636:0:0:0:0:
329,192,196427,1,0,0:0:0:0:
256,192,196497,1,0,0:0:0:0:
475,192,196497,1,0,0:0:0:0:
402,192,196566,1,0,0:0:0:0:
329,192,196636,1,0,0:0:0:70:Cymatics - Heater Kick 26.wav
36,192,196636,1,0,0:0:0:0:
182,192,196636,128,0,196913:0:0:0:0:
402,192,196705,1,0,0:0:0:0:
475,192,196775,1,0,0:0:0:70:Cymatics - Heater Kick 26.wav
256,192,196775,1,0,0:0:0:0:
109,192,196775,1,0,0:0:0:0:
329,192,196844,1,0,0:0:0:0:
475,192,196913,1,0,0:0:0:70:LR_Air Dart Snare.wav
36,192,196913,1,0,0:0:0:0:
109,192,196913,1,0,0:0:0:0:
402,192,196913,128,0,197191:0:0:0:0:
182,192,196983,1,0,0:0:0:0:
36,192,197052,1,0,0:0:0:70:Cymatics - Heater Kick 26.wav
329,192,197052,1,0,0:0:0:0:
256,192,197052,1,0,0:0:0:0:
109,192,197122,1,0,0:0:0:0:
182,192,197191,1,0,0:0:0:70:C.wav
475,192,197191,1,0,0:0:0:0:
329,192,197191,1,0,0:0:0:0:
256,192,197191,128,0,197469:0:0:0:0:
109,192,197261,1,0,0:0:0:0:
36,192,197330,1,0,0:0:0:70:Cymatics - Heater Kick 26.wav
402,192,197330,1,0,0:0:0:0:
329,192,197400,1,0,0:0:0:0:
182,192,197469,1,0,0:0:0:70:LR_Air Dart Snare.wav
36,192,197469,1,0,0:0:0:0:
475,192,197469,1,0,0:0:0:0:
402,192,197538,1,0,0:0:0:0:
329,192,197608,1,0,0:0:0:0:
182,192,197608,1,0,0:0:0:0:
256,192,197608,1,0,0:0:0:0:
109,192,197608,1,0,0:0:0:0:
475,192,197677,1,0,0:0:0:0:
402,192,197677,1,0,0:0:0:0:
36,192,197747,1,0,0:0:0:70:Cymatics - Heater Kick 26.wav
182,192,197747,1,0,0:0:0:0:
109,192,197747,1,0,0:0:0:0:
256,192,197747,128,0,197793:0:0:0:0:
329,192,197793,128,0,197839:0:0:0:0:
402,192,197839,128,0,197886:0:0:0:0:
475,192,197886,1,0,0:0:0:70:Cymatics - Heater Kick 26.wav
109,192,197886,128,0,197932:0:0:0:0:
182,192,197932,128,0,197978:0:0:0:0:
256,192,197978,128,0,198025:0:0:0:0:
329,192,198025,1,0,0:0:0:70:LR_Air Dart Snare.wav
475,192,198025,1,0,0:0:0:0:
36,192,198025,1,0,0:0:0:0:
109,192,198094,1,0,0:0:0:0:
402,192,198163,1,0,0:0:0:0:
182,192,198163,1,0,0:0:0:0:
329,192,198163,1,0,0:0:0:0:
256,192,198163,1,0,0:0:0:0:
109,192,198233,1,0,0:0:0:0:
36,192,198233,1,0,0:0:0:0:
329,192,198302,1,0,0:0:0:70:C.wav
475,192,198302,1,0,0:0:0:0:
402,192,198302,1,0,0:0:0:70:Cymatics - Heater Kick 26.wav
256,192,198302,128,0,198349:0:0:0:0:
182,192,198349,128,0,198395:0:0:0:0:
109,192,198395,128,0,198441:0:0:0:0:
36,192,198441,1,0,0:0:0:70:Cymatics - Heater Kick 26.wav
402,192,198441,128,0,198487:0:0:0:0:
329,192,198487,128,0,198534:0:0:0:0:
256,192,198534,128,0,198580:0:0:0:0:
182,192,198580,1,0,0:0:0:70:LR_Air Dart Snare.wav
36,192,198580,1,0,0:0:0:0:
475,192,198580,1,0,0:0:0:0:
182,192,198719,1,0,0:0:0:0:
402,192,198719,1,0,0:0:0:0:
109,192,198719,1,0,0:0:0:0:
475,192,198719,1,0,0:0:0:0:
256,192,198788,1,0,0:0:0:0:
329,192,198788,1,0,0:0:0:0:
475,192,198858,1,0,0:0:0:70:Cymatics - Heater Kick 26.wav
36,192,198858,1,0,0:0:0:0:
402,192,198858,1,0,0:0:0:0:
109,192,198858,128,0,198904:0:0:0:0:
182,192,198904,128,0,198950:0:0:0:0:
256,192,198950,128,0,198997:0:0:0:0:
329,192,198997,1,0,0:0:0:70:Cymatics - Heater Kick 26.wav
36,192,198997,128,0,199043:0:0:0:0:
109,192,199043,128,0,199089:0:0:0:0:
182,192,199089,128,0,199136:0:0:0:0:
329,192,199136,1,0,0:0:0:70:LR_Air Dart Snare.wav
475,192,199136,1,0,0:0:0:0:
256,192,199136,1,0,0:0:0:0:
402,192,199136,1,0,0:0:0:0:
109,192,199205,1,0,0:0:0:0:
182,192,199275,1,0,0:0:0:70:Cymatics - Heater Kick 26.wav
402,192,199275,1,0,0:0:0:0:
329,192,199344,1,0,0:0:0:0:
256,192,199413,1,0,0:0:0:0:
475,192,199413,1,0,0:0:0:0:
36,192,199413,1,0,0:0:0:0:
109,192,199413,1,0,0:0:0:0:
402,192,199483,1,0,0:0:0:0:
329,192,199552,1,0,0:0:0:70:Cymatics - Heater Kick 26.wav
182,192,199552,1,0,0:0:0:0:
109,192,199552,1,0,0:0:0:0:
256,192,199622,1,0,0:0:0:0:
402,192,199622,1,0,0:0:0:0:
475,192,199691,1,0,0:0:0:70:LR_Air Dart Snare.wav
36,192,199691,1,0,0:0:0:70:C.wav
329,192,199691,1,0,0:0:0:0:
109,192,199761,1,0,0:0:0:0:
402,192,199830,1,0,0:0:0:70:Cymatics - Heater Kick 26.wav
475,192,199830,1,0,0:0:0:0:
256,192,199830,1,0,0:0:0:0:
182,192,199830,1,0,0:0:0:0:
109,192,199900,1,0,0:0:0:70:Cymatics - Heater Kick 26.wav
256,192,199969,1,0,0:0:0:70:Cymatics - Heater Kick 26.wav
36,192,199969,1,0,0:0:0:0:
402,192,199969,1,0,0:0:0:0:
329,192,199969,1,0,0:0:0:0:
182,192,200038,1,0,0:0:0:0:
329,192,200108,1,0,0:0:0:70:Cymatics - Heater Kick 26.wav
109,192,200108,1,0,0:0:0:0:
475,192,200108,1,0,0:0:0:0:
256,192,200177,1,0,0:0:0:0:
475,192,200247,1,0,0:0:0:70:LR_Air Dart Snare.wav
182,192,200247,1,0,0:0:0:70:C.wav
36,192,200247,1,0,0:0:0:0:
402,192,200247,1,0,0:0:0:0:
329,192,200316,1,0,0:0:0:0:
109,192,200386,1,0,0:0:0:70:LR_Air Dart Snare.wav
256,192,200386,1,0,0:0:0:0:
475,192,200386,1,0,0:0:0:0:
402,192,200455,1,0,0:0:0:70:LR_Air Dart Snare.wav
36,192,200525,1,0,0:0:0:70:Cymatics - Heater Kick 26.wav
329,192,200525,1,0,0:0:0:70:C.wav
109,192,200525,1,0,0:0:0:0:
182,192,200525,128,0,200941:0:0:0:0:
402,192,200663,1,0,0:0:0:70:Cymatics - Heater Kick 26.wav
256,192,200663,1,0,0:0:0:0:
402,192,200802,1,0,0:0:0:70:LR_Air Dart Snare.wav
36,192,200802,1,0,0:0:0:0:
475,192,200802,1,0,0:0:0:0:
109,192,200802,1,0,0:0:0:0:
329,192,200872,1,0,0:0:0:0:
256,192,200941,1,0,0:0:0:70:Cymatics - Heater Kick 26.wav
36,192,200941,1,0,0:0:0:0:
109,192,200941,1,0,0:0:0:0:
475,192,201011,1,0,0:0:0:0:
402,192,201011,1,0,0:0:0:0:
36,192,201080,1,0,0:0:0:70:Cymatics - Heater Kick 26.wav
182,192,201080,1,0,0:0:0:0:
256,192,201080,1,0,0:0:0:0:
329,192,201150,1,0,0:0:0:0:
402,192,201150,1,0,0:0:0:0:
182,192,201219,1,0,0:0:0:70:Cymatics - Heater Kick 26.wav
109,192,201219,1,0,0:0:0:0:
256,192,201288,1,0,0:0:0:0:
329,192,201288,1,0,0:0:0:0:
36,192,201358,1,0,0:0:0:70:LR_Air Dart Snare.wav
109,192,201358,1,0,0:0:0:0:
402,192,201358,1,0,0:0:0:0:
475,192,201358,1,0,0:0:0:0:
256,192,201427,1,0,0:0:0:0:
182,192,201427,1,0,0:0:0:0:
329,192,201497,1,0,0:0:0:70:Cymatics - Heater Kick 26.wav
475,192,201497,1,0,0:0:0:0:
182,192,201566,1,0,0:0:0:0:
109,192,201566,1,0,0:0:0:0:
36,192,201636,1,0,0:0:0:70:Cymatics - Heater Kick 26.wav
329,192,201636,1,0,0:0:0:0:
256,192,201636,1,0,0:0:0:0:
402,192,201636,128,0,202052:0:0:0:0:
109,192,201775,1,0,0:0:0:70:Cymatics - Heater Kick 26.wav
182,192,201775,1,0,0:0:0:0:
329,192,201913,1,0,0:0:0:70:LR_Air Dart Snare.wav
475,192,201913,1,0,0:0:0:0:
36,192,201913,1,0,0:0:0:0:
109,192,201913,1,0,0:0:0:0:
182,192,201983,1,0,0:0:0:0:
36,192,202052,1,0,0:0:0:70:Cymatics - Heater Kick 26.wav
475,192,202052,1,0,0:0:0:0:
256,192,202052,1,0,0:0:0:0:
109,192,202122,1,0,0:0:0:0:
329,192,202122,1,0,0:0:0:0:
182,192,202191,1,0,0:0:0:70:Cymatics - Heater Kick 26.wav
475,192,202191,1,0,0:0:0:0:
402,192,202191,1,0,0:0:0:0:
36,192,202261,1,0,0:0:0:0:
256,192,202261,1,0,0:0:0:0:
109,192,202330,1,0,0:0:0:70:Cymatics - Heater Kick 26.wav
329,192,202330,1,0,0:0:0:0:
402,192,202400,1,0,0:0:0:0:
182,192,202400,1,0,0:0:0:0:
256,192,202469,1,0,0:0:0:70:LR_Air Dart Snare.wav
109,192,202469,1,0,0:0:0:0:
36,192,202469,1,0,0:0:0:0:
475,192,202469,1,0,0:0:0:0:
329,192,202538,1,0,0:0:0:0:
182,192,202538,1,0,0:0:0:0:
256,192,202608,1,0,0:0:0:70:Cymatics - Heater Kick 26.wav
475,192,202608,1,0,0:0:0:0:
402,192,202608,1,0,0:0:0:0:
36,192,202677,1,0,0:0:0:0:
109,192,202677,1,0,0:0:0:0:
329,192,202747,1,0,0:0:0:70:Cymatics - Heater Kick 26.wav
182,192,202747,1,0,0:0:0:0:
402,192,202747,1,0,0:0:0:0:
256,192,202747,1,0,0:0:0:0:
109,192,202816,1,0,0:0:0:0:
475,192,202886,1,0,0:0:0:70:Cymatics - Heater Kick 26.wav
36,192,202886,1,0,0:0:0:0:
329,192,202886,1,0,0:0:0:0:
256,192,202955,1,0,0:0:0:0:
36,192,203025,1,0,0:0:0:70:LR_Air Dart Snare.wav
109,192,203025,1,0,0:0:0:0:
182,192,203025,1,0,0:0:0:0:
475,192,203025,1,0,0:0:0:0:
402,192,203094,1,0,0:0:0:0:
329,192,203163,1,0,0:0:0:70:Cymatics - Heater Kick 26.wav
256,192,203163,1,0,0:0:0:0:
109,192,203163,1,0,0:0:0:0:
402,192,203233,1,0,0:0:0:0:
182,192,203302,1,0,0:0:0:70:Cymatics - Heater Kick 26.wav
256,192,203302,1,0,0:0:0:0:
475,192,203302,1,0,0:0:0:0:
36,192,203302,1,0,0:0:0:0:
329,192,203372,1,0,0:0:0:0:
36,192,203441,1,0,0:0:0:70:Cymatics - Heater Kick 26.wav
402,192,203441,1,0,0:0:0:0:
109,192,203441,1,0,0:0:0:0:
182,192,203511,1,0,0:0:0:0:
329,192,203580,1,0,0:0:0:70:LR_Air Dart Snare.wav
256,192,203580,1,0,0:0:0:0:
475,192,203580,1,0,0:0:0:0:
402,192,203580,1,0,0:0:0:0:
182,192,203650,1,0,0:0:0:0:
109,192,203719,1,0,0:0:0:70:Cymatics - Heater Kick 26.wav
36,192,203719,1,0,0:0:0:0:
329,192,203719,1,0,0:0:0:0:
256,192,203788,1,0,0:0:0:0:
36,192,203858,1,0,0:0:0:70:Cymatics - Heater Kick 26.wav
182,192,203858,1,0,0:0:0:0:
475,192,203858,1,0,0:0:0:0:
402,192,203858,1,0,0:0:0:0:
329,192,203997,1,0,0:0:0:70:Cymatics - Heater Kick 26.wav
109,192,203997,1,0,0:0:0:0:
182,192,203997,1,0,0:0:0:0:
256,192,204136,1,0,0:0:0:70:LR_Air Dart Snare.wav
36,192,204136,1,0,0:0:0:0:
475,192,204136,1,0,0:0:0:0:
402,192,204136,1,0,0:0:0:0:
182,192,204275,1,0,0:0:0:70:Cymatics - Heater Kick 26.wav
256,192,204275,1,0,0:0:0:0:
109,192,204275,1,0,0:0:0:0:
475,192,204275,1,0,0:0:0:0:
329,192,204344,1,0,0:0:0:0:
402,192,204344,1,0,0:0:0:0:
475,192,204413,1,0,0:0:0:70:Cymatics - Heater Kick 26.wav
109,192,204413,1,0,0:0:0:0:
36,192,204413,1,0,0:0:0:0:
182,192,204413,1,0,0:0:0:0:
402,192,204552,1,0,0:0:0:70:Cymatics - Heater Kick 26.wav
329,192,204552,1,0,0:0:0:0:
256,192,204552,1,0,0:0:0:0:
182,192,204622,1,0,0:0:0:0:
36,192,204691,1,0,0:0:0:70:LR_Air Dart Snare.wav
475,192,204691,1,0,0:0:0:0:
109,192,204691,1,0,0:0:0:0:
329,192,204691,1,0,0:0:0:0:
256,192,204761,1,0,0:0:0:0:
109,192,204830,1,0,0:0:0:70:Cymatics - Heater Kick 26.wav
182,192,204830,1,0,0:0:0:0:
402,192,204830,1,0,0:0:0:0:
329,192,204900,1,0,0:0:0:0:
182,192,204969,1,0,0:0:0:70:Cymatics - Heater Kick 26.wav
402,192,204969,1,0,0:0:0:70:C.wav
475,192,204969,1,0,0:0:0:0:
36,192,204969,128,0,205247:0:0:0:0:
256,192,205108,1,0,0:0:0:70:Cymatics - Heater Kick 26.wav
329,192,205108,1,0,0:0:0:0:
109,192,205108,1,0,0:0:0:0:
402,192,205177,1,0,0:0:0:0:
475,192,205247,128,0,205525:0:0:0:70:LR_Air Dart Snare.wav
109,192,205247,1,0,0:0:0:0:
182,192,205247,1,0,0:0:0:0:
256,192,205247,1,0,0:0:0:0:
329,192,205316,1,0,0:0:0:0:
402,192,205386,1,0,0:0:0:70:Cymatics - Heater Kick 26.wav
36,192,205386,1,0,0:0:0:0:
182,192,205386,1,0,0:0:0:0:
256,192,205455,1,0,0:0:0:0:
109,192,205525,128,0,205802:0:0:0:70:Cymatics - Heater Kick 26.wav
329,192,205525,1,0,0:0:0:0:
36,192,205525,1,0,0:0:0:0:
182,192,205594,1,0,0:0:0:0:
402,192,205663,1,0,0:0:0:70:Cymatics - Heater Kick 26.wav
475,192,205663,1,0,0:0:0:0:
256,192,205663,1,0,0:0:0:0:
329,192,205733,1,0,0:0:0:0:
402,192,205802,128,0,206080:0:0:0:70:LR_Air Dart Snare.wav
182,192,205802,1,0,0:0:0:0:
36,192,205802,1,0,0:0:0:0:
475,192,205802,1,0,0:0:0:0:
256,192,205872,1,0,0:0:0:0:
109,192,205941,1,0,0:0:0:70:Cymatics - Heater Kick 26.wav
329,192,205941,1,0,0:0:0:0:
36,192,205941,1,0,0:0:0:0:
182,192,206011,1,0,0:0:0:0:
475,192,206080,1,0,0:0:0:70:Cymatics - Heater Kick 26.wav
36,192,206080,1,0,0:0:0:70:C.wav
329,192,206080,1,0,0:0:0:0:
256,192,206080,128,0,206358:0:0:0:0:
109,192,206150,1,0,0:0:0:0:
329,192,206219,1,0,0:0:0:70:Cymatics - Heater Kick 26.wav
182,192,206219,1,0,0:0:0:0:
402,192,206219,1,0,0:0:0:0:
109,192,206288,1,0,0:0:0:0:
475,192,206358,1,0,0:0:0:70:LR_Air Dart Snare.wav
329,192,206358,1,0,0:0:0:0:
402,192,206358,1,0,0:0:0:0:
36,192,206358,1,0,0:0:0:0:
256,192,206427,1,0,0:0:0:0:
109,192,206497,1,0,0:0:0:70:Cymatics - Heater Kick 26.wav
402,192,206497,1,0,0:0:0:0:
182,192,206497,1,0,0:0:0:0:
475,192,206497,1,0,0:0:0:0:
256,192,206566,1,0,0:0:0:0:
329,192,206566,1,0,0:0:0:0:
36,192,206636,1,0,0:0:0:70:Cymatics - Heater Kick 26.wav
475,192,206636,1,0,0:0:0:0:
182,192,206636,1,0,0:0:0:0:
109,192,206636,1,0,0:0:0:0:
402,192,206705,1,0,0:0:0:0:
36,192,206775,1,0,0:0:0:70:Cymatics - Heater Kick 26.wav
256,192,206775,1,0,0:0:0:0:
329,192,206775,1,0,0:0:0:0:
402,192,206844,1,0,0:0:0:0:
256,192,206913,1,0,0:0:0:70:LR_Air Dart Snare.wav
109,192,206913,1,0,0:0:0:0:
475,192,206913,1,0,0:0:0:0:
182,192,206913,1,0,0:0:0:0:
329,192,206983,1,0,0:0:0:0:
402,192,207052,1,0,0:0:0:70:Cymatics - Heater Kick 26.wav
36,192,207052,1,0,0:0:0:0:
109,192,207052,1,0,0:0:0:0:
475,192,207052,1,0,0:0:0:0:
182,192,207122,1,0,0:0:0:0:
256,192,207122,1,0,0:0:0:0:
475,192,207191,1,0,0:0:0:70:Cymatics - Heater Kick 26.wav
36,192,207191,1,0,0:0:0:70:C.wav
109,192,207191,1,0,0:0:0:0:
402,192,207191,128,0,207237:0:0:0:0:
329,192,207237,128,0,207284:0:0:0:0:
256,192,207284,128,0,207330:0:0:0:0:
36,192,207330,1,0,0:0:0:70:Cymatics - Heater Kick 26.wav
182,192,207330,128,0,207376:0:0:0:0:
329,192,207376,128,0,207423:0:0:0:0:
402,192,207423,128,0,207469:0:0:0:0:
475,192,207469,1,0,0:0:0:70:LR_Air Dart Snare.wav
109,192,207469,1,0,0:0:0:0:
256,192,207469,1,0,0:0:0:0:
109,192,207608,1,0,0:0:0:70:Cymatics - Heater Kick 26.wav
182,192,207608,1,0,0:0:0:0:
402,192,207608,1,0,0:0:0:0:
475,192,207608,1,0,0:0:0:0:
256,192,207677,1,0,0:0:0:0:
329,192,207677,1,0,0:0:0:0:
475,192,207747,1,0,0:0:0:70:Cymatics - Heater Kick 26.wav
402,192,207747,1,0,0:0:0:0:
36,192,207747,1,0,0:0:0:0:
109,192,207747,128,0,207793:0:0:0:0:
182,192,207793,128,0,207839:0:0:0:0:
256,192,207839,128,0,207886:0:0:0:0:
329,192,207886,1,0,0:0:0:70:Cymatics - Heater Kick 26.wav
36,192,207886,128,0,207932:0:0:0:0:
109,192,207932,128,0,207978:0:0:0:0:
182,192,207978,128,0,208025:0:0:0:0:
402,192,208025,1,0,0:0:0:70:LR_Air Dart Snare.wav
256,192,208025,1,0,0:0:0:0:
475,192,208025,1,0,0:0:0:0:
109,192,208163,1,0,0:0:0:70:Cymatics - Heater Kick 26.wav
182,192,208163,1,0,0:0:0:0:
402,192,208163,1,0,0:0:0:0:
475,192,208163,1,0,0:0:0:0:
256,192,208233,1,0,0:0:0:0:
329,192,208233,1,0,0:0:0:0:
36,192,208302,1,0,0:0:0:70:tom01.wav
109,192,208302,1,0,0:0:0:0:
182,192,208302,1,0,0:0:0:0:
475,192,208302,128,0,208349:0:0:0:0:
402,192,208349,128,0,208395:0:0:0:0:
329,192,208395,128,0,208441:0:0:0:0:
256,192,208441,1,0,0:0:0:70:Cymatics - Heater Kick 26.wav
36,192,208441,128,0,208487:0:0:0:0:
109,192,208487,128,0,208534:0:0:0:0:
182,192,208534,128,0,208580:0:0:0:0:
329,192,208580,1,0,0:0:0:70:LR_Air Dart Snare.wav
475,192,208580,1,0,0:0:0:70:C.wav
402,192,208580,1,0,0:0:0:0:
36,192,208580,1,0,0:0:0:0:
109,192,208719,1,0,0:0:0:70:tom02.wav
256,192,208719,1,0,0:0:0:0:
475,192,208719,1,0,0:0:0:0:
182,192,208719,1,0,0:0:0:0:
402,192,208788,1,0,0:0:0:70:tom03.wav
329,192,208788,1,0,0:0:0:0:
36,192,208858,1,0,0:0:0:70:tom04.wav
475,192,208858,1,0,0:0:0:0:
109,192,208858,1,0,0:0:0:0:
182,192,208858,128,0,208904:0:0:0:0:
256,192,208904,128,0,208950:0:0:0:0:
329,192,208950,128,0,208997:0:0:0:0:
402,192,208997,1,0,0:0:0:70:Cymatics - Heater Kick 26.wav
109,192,208997,128,0,209043:0:0:0:0:
182,192,209043,128,0,209089:0:0:0:0:
256,192,209089,128,0,209136:0:0:0:0:
329,192,209136,1,0,0:0:0:70:LR_Air Dart Snare.wav
475,192,209136,1,0,0:0:0:70:C.wav
402,192,209136,1,0,0:0:0:0:
36,192,209136,128,0,209182:0:0:0:0:
109,192,209182,128,0,209228:0:0:0:0:
182,192,209228,128,0,209275:0:0:0:0:
256,192,209275,1,0,0:0:0:0:
475,192,209275,128,0,209321:0:0:0:0:
402,192,209321,128,0,209367:0:0:0:0:
329,192,209367,128,0,209413:0:0:0:0:
36,192,209413,1,0,0:0:0:70:Cymatics - Heater Kick 26.wav
109,192,209413,1,0,0:0:0:70:C.wav
182,192,209413,1,0,0:0:0:0:
256,192,209413,128,0,209969:0:0:0:0:
329,192,209691,1,0,0:0:0:70:LR_Air Dart Snare.wav
402,192,209691,1,0,0:0:0:0:
402,192,209784,1,0,0:0:0:70:LR_Air Dart Snare.wav
329,192,209784,1,0,0:0:0:0:
109,192,209876,1,0,0:0:0:70:LR_Air Dart Snare.wav
36,192,209876,1,0,0:0:0:0:
475,192,209969,1,0,0:0:0:70:Cymatics - Heater Kick 26.wav
329,192,209969,1,0,0:0:0:0:
182,192,209969,128,0,210525:0:0:0:0:
329,192,210247,1,0,0:0:0:70:LR_Air Dart Snare.wav
402,192,210247,1,0,0:0:0:0:
329,192,210339,1,0,0:0:0:70:LR_Air Dart Snare.wav
402,192,210339,1,0,0:0:0:0:
109,192,210432,1,0,0:0:0:70:LR_Air Dart Snare.wav
36,192,210432,1,0,0:0:0:0:
256,192,210525,1,0,0:0:0:70:Cymatics - Heater Kick 26.wav
475,192,210525,1,0,0:0:0:0:
329,192,210525,128,0,211080:0:0:0:0:
182,192,210802,128,0,211080:0:0:0:70:LR_Air Dart Snare.wav
475,192,210802,1,0,0:0:0:0:
402,192,210802,1,0,0:0:0:0:
475,192,210895,1,0,0:0:0:70:LR_Air Dart Snare.wav
402,192,210895,1,0,0:0:0:0:
36,192,210987,1,0,0:0:0:70:LR_Air Dart Snare.wav
109,192,210987,1,0,0:0:0:0:
475,192,211080,1,0,0:0:0:70:Cymatics - Heater Kick 26.wav
402,192,211080,128,0,211636:0:0:0:0:
256,192,211080,128,0,211358:0:0:0:0:
36,192,211358,128,0,211636:0:0:0:70:LR_Air Dart Snare.wav
109,192,211358,1,0,0:0:0:0:
329,192,211358,1,0,0:0:0:0:
182,192,211358,1,0,0:0:0:0:
475,192,211636,1,0,0:0:0:70:Cymatics - Heater Kick 26.wav
329,192,211636,128,0,212191:0:0:0:70:F-Kick.wav
256,192,211636,1,0,0:0:0:0:
109,192,211636,1,0,0:0:0:0:
182,192,211636,128,0,212191:0:0:0:0:
475,192,211913,1,0,0:0:0:70:LR_Air Dart Snare.wav
402,192,211913,1,0,0:0:0:0:
402,192,212006,1,0,0:0:0:70:LR_Air Dart Snare.wav
475,192,212006,1,0,0:0:0:0:
36,192,212099,1,0,0:0:0:70:LR_Air Dart Snare.wav
109,192,212099,1,0,0:0:0:0:
475,192,212191,1,0,0:0:0:70:Cymatics - Heater Kick 26.wav
256,192,212191,128,0,212747:0:0:0:0:
402,192,212191,128,0,212747:0:0:0:0:
36,192,212469,1,0,0:0:0:70:LR_Air Dart Snare.wav
109,192,212469,1,0,0:0:0:0:
36,192,212562,1,0,0:0:0:70:LR_Air Dart Snare.wav
109,192,212562,1,0,0:0:0:0:
329,192,212654,1,0,0:0:0:70:LR_Air Dart Snare.wav
182,192,212654,1,0,0:0:0:0:
36,192,212747,1,0,0:0:0:70:Cymatics - Heater Kick 26.wav
109,192,212747,1,0,0:0:0:0:
475,192,212747,128,0,213302:0:0:0:0:
109,192,213025,128,0,213302:0:0:0:70:LR_Air Dart Snare.wav
402,192,213025,1,0,0:0:0:0:
329,192,213025,1,0,0:0:0:0:
402,192,213117,1,0,0:0:0:70:LR_Air Dart Snare.wav
329,192,213117,1,0,0:0:0:0:
256,192,213210,1,0,0:0:0:70:LR_Air Dart Snare.wav
182,192,213210,1,0,0:0:0:0:
36,192,213302,128,0,213858:0:0:0:70:Cymatics - Heater Kick 26.wav
329,192,213302,128,0,213580:0:0:0:0:
402,192,213302,1,0,0:0:0:0:
475,192,213580,128,0,213858:0:0:0:70:LR_Air Dart Snare.wav
182,192,213580,1,0,0:0:0:0:
109,192,213580,1,0,0:0:0:0:
182,192,213673,1,0,0:0:0:70:LR_Air Dart Snare.wav
109,192,213673,1,0,0:0:0:0:
402,192,213765,1,0,0:0:0:70:LR_Air Dart Snare.wav
329,192,213765,1,0,0:0:0:0:
256,192,213858,128,0,214413:0:0:0:70:Cymatics - Heater Kick 26.wav
109,192,213858,1,0,0:0:0:70:F-Kick.wav
182,192,213858,128,0,214413:0:0:0:0:
402,192,213858,1,0,0:0:0:0:
475,192,214136,1,0,0:0:0:70:LR_Air Dart Snare.wav
402,192,214136,1,0,0:0:0:0:
402,192,214228,1,0,0:0:0:70:LR_Air Dart Snare.wav
475,192,214228,1,0,0:0:0:0:
36,192,214321,1,0,0:0:0:70:LR_Air Dart Snare.wav
109,192,214321,1,0,0:0:0:0:
402,192,214413,128,0,214691:0:0:0:70:Cymatics - Heater Kick 26.wav
475,192,214413,1,0,0:0:0:0:
329,192,214413,128,0,214969:0:0:0:0:
475,192,214691,128,0,215247:0:0:0:70:LR_Air Dart Snare.wav
109,192,214691,1,0,0:0:0:0:
36,192,214691,1,0,0:0:0:0:
36,192,214784,1,0,0:0:0:70:LR_Air Dart Snare.wav
109,192,214784,1,0,0:0:0:0:
256,192,214876,1,0,0:0:0:70:LR_Air Dart Snare.wav
402,192,214876,1,0,0:0:0:0:
182,192,214969,128,0,215525:0:0:0:70:Cymatics - Heater Kick 26.wav
36,192,214969,1,0,0:0:0:0:
109,192,214969,1,0,0:0:0:0:
109,192,215247,128,0,215525:0:0:0:70:LR_Air Dart Snare.wav
256,192,215247,1,0,0:0:0:0:
329,192,215247,1,0,0:0:0:0:
329,192,215339,1,0,0:0:0:70:LR_Air Dart Snare.wav
256,192,215339,1,0,0:0:0:0:
402,192,215432,1,0,0:0:0:70:LR_Air Dart Snare.wav
475,192,215432,1,0,0:0:0:0:
329,192,215525,128,0,216080:0:0:0:70:Cymatics - Heater Kick 26.wav
256,192,215525,1,0,0:0:0:0:
36,192,215525,128,0,215802:0:0:0:0:
402,192,215802,128,0,216080:0:0:0:70:LR_Air Dart Snare.wav
109,192,215802,1,0,0:0:0:0:
182,192,215802,1,0,0:0:0:0:
475,192,215802,1,0,0:0:0:0:
256,192,216080,1,0,0:0:0:70:Cymatics - Heater Kick 26.wav
36,192,216080,1,0,0:0:0:70:F-Kick.wav
109,192,216080,1,0,0:0:0:0:
475,192,216080,128,0,216636:0:0:0:0:
182,192,216080,128,0,216636:0:0:0:0:
402,192,216358,1,0,0:0:0:70:LR_Air Dart Snare.wav
329,192,216358,1,0,0:0:0:0:
329,192,216450,1,0,0:0:0:70:LR_Air Dart Snare.wav
402,192,216450,1,0,0:0:0:0:
36,192,216543,1,0,0:0:0:70:LR_Air Dart Snare.wav
109,192,216543,1,0,0:0:0:0:
402,192,216636,1,0,0:0:0:70:Cymatics - Heater Kick 26.wav
256,192,216636,128,0,217191:0:0:0:0:
329,192,216636,128,0,217191:0:0:0:0:
475,192,216913,1,0,0:0:0:70:LR_Air Dart Snare.wav
402,192,216913,1,0,0:0:0:0:
475,192,217006,1,0,0:0:0:70:LR_Air Dart Snare.wav
402,192,217006,1,0,0:0:0:0:
36,192,217099,1,0,0:0:0:70:LR_Air Dart Snare.wav
109,192,217099,1,0,0:0:0:0:
475,192,217191,1,0,0:0:0:70:Cymatics - Heater Kick 26.wav
402,192,217191,128,0,217747:0:0:0:0:
182,192,217191,1,0,0:0:0:0:
36,192,217469,128,0,217747:0:0:0:70:LR_Air Dart Snare.wav
329,192,217469,1,0,0:0:0:0:
256,192,217469,1,0,0:0:0:0:
256,192,217562,1,0,0:0:0:70:LR_Air Dart Snare.wav
329,192,217562,1,0,0:0:0:0:
182,192,217654,1,0,0:0:0:70:LR_Air Dart Snare.wav
109,192,217654,1,0,0:0:0:0:
475,192,217747,128,0,218302:0:0:0:70:Cymatics - Heater Kick 26.wav
329,192,217747,1,0,0:0:0:0:
256,192,217747,128,0,218025:0:0:0:0:
109,192,218025,128,0,218302:0:0:0:70:Cymatics - Heater Kick 26.wav
36,192,218025,1,0,0:0:0:0:
402,192,218117,1,0,0:0:0:70:Cymatics - Heater Kick 26.wav
329,192,218117,1,0,0:0:0:0:
182,192,218210,1,0,0:0:0:70:Cymatics - Heater Kick 26.wav
256,192,218210,1,0,0:0:0:0:
329,192,218302,1,0,0:0:0:70:Cymatics - Heater Kick 26.wav
36,192,218302,128,0,218858:0:0:0:70:F-Kick.wav
402,192,218302,128,0,218858:0:0:0:0:
256,192,218302,1,0,0:0:0:0:
109,192,218580,1,0,0:0:0:70:S1.wav
182,192,218580,1,0,0:0:0:0:
475,192,218580,1,0,0:0:0:0:
256,192,218673,1,0,0:0:0:70:LR_Air Dart Snare.wav
329,192,218673,1,0,0:0:0:0:
109,192,218765,1,0,0:0:0:70:LR_Air Dart Snare.wav
182,192,218765,1,0,0:0:0:0:
329,192,218858,1,0,0:0:0:70:Cymatics - Heater Kick 26.wav
256,192,218858,128,0,219413:0:0:0:70:F-Kick.wav
475,192,218858,1,0,0:0:0:0:
182,192,218858,1,0,0:0:0:0:
36,192,219136,1,0,0:0:0:70:LR_Air Dart Snare.wav
475,192,219136,1,0,0:0:0:0:
182,192,219136,128,0,219182:0:0:0:0:
36,192,219228,1,0,0:0:0:70:LR_Air Dart Snare.wav
182,192,219228,128,0,219275:0:0:0:0:
402,192,219321,1,0,0:0:0:70:LR_Air Dart Snare.wav
329,192,219321,128,0,219367:0:0:0:0:
475,192,219413,128,0,219969:0:0:0:70:Cymatics - Heater Kick 26.wav
182,192,219413,128,0,219969:0:0:0:70:F-Kick.wav
109,192,219413,1,0,0:0:0:0:
329,192,219413,1,0,0:0:0:0:
109,192,219691,1,0,0:0:0:70:S1.wav
402,192,219691,1,0,0:0:0:0:
36,192,219691,1,0,0:0:0:0:
256,192,219784,1,0,0:0:0:70:LR_Air Dart Snare.wav
329,192,219784,1,0,0:0:0:0:
402,192,219876,1,0,0:0:0:70:LR_Air Dart Snare.wav
109,192,219876,1,0,0:0:0:0:
36,192,219969,128,0,220525:0:0:0:70:Cymatics - Heater Kick 26.wav
329,192,219969,1,0,0:0:0:70:F-Kick.wav
256,192,219969,1,0,0:0:0:0:
475,192,220247,1,0,0:0:0:70:S1.wav
182,192,220247,1,0,0:0:0:0:
109,192,220247,1,0,0:0:0:0:
402,192,220247,128,0,220293:0:0:0:0:
475,192,220339,1,0,0:0:0:70:LR_Air Dart Snare.wav
402,192,220339,128,0,220386:0:0:0:0:
109,192,220432,1,0,0:0:0:70:LR_Air Dart Snare.wav
182,192,220432,128,0,220478:0:0:0:0:
475,192,220525,128,0,221080:0:0:0:70:Cymatics - Heater Kick 26.wav
256,192,220525,1,0,0:0:0:70:F-Kick.wav
329,192,220525,128,0,220941:0:0:0:0:
182,192,220525,1,0,0:0:0:0:
36,192,220802,1,0,0:0:0:70:S1.wav
182,192,220802,1,0,0:0:0:0:
109,192,220802,1,0,0:0:0:0:
256,192,220941,128,0,221636:0:0:0:0:
36,192,221080,1,0,0:0:0:70:Cymatics - Heater Kick 26.wav
109,192,221080,1,0,0:0:0:70:F-Kick.wav
475,192,221173,1,0,0:0:0:0:
329,192,221173,1,0,0:0:0:0:
36,192,221265,1,0,0:0:0:0:
109,192,221265,1,0,0:0:0:0:
329,192,221358,128,0,221636:0:0:0:70:LR_Air Dart Snare.wav
402,192,221358,1,0,0:0:0:0:
475,192,221358,1,0,0:0:0:0:
109,192,221450,1,0,0:0:0:70:LR_Air Dart Snare.wav
182,192,221450,1,0,0:0:0:0:
402,192,221543,1,0,0:0:0:70:LR_Air Dart Snare.wav
475,192,221543,1,0,0:0:0:0:
182,192,221636,1,0,0:0:0:70:Cymatics - Heater Kick 26.wav
109,192,221636,128,0,222469:0:0:0:70:F-Kick.wav
36,192,221636,128,0,221913:0:0:0:0:
402,192,221913,128,0,222191:0:0:0:70:S1.wav
475,192,221913,1,0,0:0:0:0:
182,192,221913,1,0,0:0:0:0:
256,192,221913,1,0,0:0:0:0:
36,192,222191,1,0,0:0:0:70:Cymatics - Heater Kick 26.wav
182,192,222191,1,0,0:0:0:70:F-Kick.wav
329,192,222191,128,0,222469:0:0:0:0:
475,192,222284,1,0,0:0:0:0:
402,192,222284,1,0,0:0:0:0:
256,192,222376,1,0,0:0:0:0:
182,192,222376,1,0,0:0:0:0:
402,192,222469,1,0,0:0:0:70:S1.wav
36,192,222469,128,0,222747:0:0:0:0:
475,192,222469,128,0,222747:0:0:0:0:
109,192,222562,1,0,0:0:0:70:LR_Air Dart Snare.wav
182,192,222562,1,0,0:0:0:0:
256,192,222654,1,0,0:0:0:70:LR_Air Dart Snare.wav
329,192,222654,1,0,0:0:0:0:
109,192,222747,1,0,0:0:0:70:Cymatics - Heater Kick 26.wav
182,192,222747,128,0,223302:0:0:0:70:F-Kick.wav
402,192,222747,128,0,223025:0:0:0:0:
36,192,223025,1,0,0:0:0:70:S1.wav
256,192,223025,1,0,0:0:0:0:
475,192,223025,1,0,0:0:0:0:
109,192,223025,128,0,223071:0:0:0:0:
36,192,223117,1,0,0:0:0:70:LR_Air Dart Snare.wav
109,192,223117,128,0,223163:0:0:0:0:
475,192,223210,1,0,0:0:0:70:LR_Air Dart Snare.wav
402,192,223210,128,0,223256:0:0:0:0:
109,192,223302,128,0,223858:0:0:0:70:Cymatics - Heater Kick 26.wav
36,192,223302,128,0,223580:0:0:0:70:F-Kick.wav
256,192,223302,1,0,0:0:0:0:
329,192,223302,1,0,0:0:0:0:
402,192,223395,1,0,0:0:0:0:
475,192,223395,1,0,0:0:0:0:
182,192,223487,1,0,0:0:0:0:
256,192,223487,1,0,0:0:0:0:
329,192,223580,1,0,0:0:0:70:LR_Air Dart Snare.wav
402,192,223580,1,0,0:0:0:0:
475,192,223580,128,0,223858:0:0:0:0:
36,192,223673,1,0,0:0:0:70:LR_Air Dart Snare.wav
182,192,223673,1,0,0:0:0:0:
329,192,223765,1,0,0:0:0:70:LR_Air Dart Snare.wav
256,192,223765,1,0,0:0:0:0:
36,192,223858,1,0,0:0:0:70:Cymatics - Heater Kick 26.wav
402,192,223858,128,0,224413:0:0:0:70:F-Kick.wav
182,192,223858,128,0,223904:0:0:0:0:
36,192,223950,1,0,0:0:0:0:
182,192,223950,128,0,223997:0:0:0:0:
475,192,224043,1,0,0:0:0:0:
329,192,224043,128,0,224089:0:0:0:0:
182,192,224136,1,0,0:0:0:70:S1.wav
109,192,224136,1,0,0:0:0:0:
36,192,224136,128,0,224413:0:0:0:0:
329,192,224228,1,0,0:0:0:70:LR_Air Dart Snare.wav
256,192,224228,1,0,0:0:0:0:
109,192,224321,1,0,0:0:0:70:LR_Air Dart Snare.wav
182,192,224321,1,0,0:0:0:0:
256,192,224413,128,0,224969:0:0:0:70:Cymatics - Heater Kick 26.wav
475,192,224413,128,0,224506:0:0:0:70:F-Kick.wav
329,192,224413,128,0,224506:0:0:0:0:
109,192,224506,128,0,224599:0:0:0:0:
36,192,224506,128,0,224599:0:0:0:0:
475,192,224599,128,0,224691:0:0:0:0:
182,192,224599,128,0,224691:0:0:0:0:
329,192,224691,128,0,224784:0:0:0:70:LR_Air Dart Snare.wav
402,192,224691,1,0,0:0:0:70:S1.wav
109,192,224691,128,0,224784:0:0:0:0:
36,192,224784,128,0,224876:0:0:0:70:LR_Air Dart Snare.wav
475,192,224784,128,0,224876:0:0:0:0:
182,192,224876,128,0,224969:0:0:0:70:LR_Air Dart Snare.wav
402,192,224876,128,0,224969:0:0:0:0:
109,192,224969,128,0,225247:0:0:0:70:Cymatics - Heater Kick 26.wav
475,192,224969,128,0,225062:0:0:0:70:F-Kick.wav
36,192,224969,128,0,225062:0:0:0:0:
329,192,224969,1,0,0:0:0:0:
182,192,225154,128,0,225247:0:0:0:0:
329,192,225154,128,0,225247:0:0:0:0:
36,192,225247,1,0,0:0:0:70:S1.wav
256,192,225247,128,0,225339:0:0:0:0:
402,192,225247,128,0,225339:0:0:0:0:
475,192,225247,128,0,225525:0:0:0:0:
109,192,225339,1,0,0:0:0:70:LR_Air Dart Snare.wav
182,192,225339,1,0,0:0:0:0:
329,192,225432,1,0,0:0:0:70:LR_Air Dart Snare.wav
256,192,225432,1,0,0:0:0:0:
36,192,225525,128,0,225802:0:0:0:70:Cymatics - Heater Kick 26.wav
182,192,225525,128,0,225617:0:0:0:70:F-Kick.wav
109,192,225525,128,0,225617:0:0:0:0:
329,192,225617,1,0,0:0:0:0:
402,192,225617,1,0,0:0:0:0:
182,192,225710,1,0,0:0:0:0:
256,192,225710,1,0,0:0:0:0:
475,192,225802,1,0,0:0:0:70:S1.wav
329,192,225802,128,0,226080:0:0:0:0:
109,192,225802,128,0,225895:0:0:0:0:
402,192,225802,128,0,225895:0:0:0:0:
36,192,225895,1,0,0:0:0:70:LR_Air Dart Snare.wav
182,192,225895,1,0,0:0:0:0:
256,192,225987,1,0,0:0:0:70:LR_Air Dart Snare.wav
402,192,225987,1,0,0:0:0:0:
475,192,226080,1,0,0:0:0:70:Cymatics - Heater Kick 26.wav
36,192,226080,1,0,0:0:0:70:F-Kick.wav
109,192,226080,1,0,0:0:0:0:
182,192,226080,1,0,0:0:0:0:
402,192,226126,1,0,0:0:0:0:
329,192,226173,1,0,0:0:0:0:
256,192,226219,1,0,0:0:0:0:
182,192,226265,1,0,0:0:0:70:Cymatics - Heater Kick 26.wav
475,192,226265,1,0,0:0:0:0:
402,192,226312,1,0,0:0:0:0:
329,192,226358,1,0,0:0:0:70:tom01.wav
36,192,226358,1,0,0:0:0:0:
109,192,226358,1,0,0:0:0:0:
182,192,226404,1,0,0:0:0:0:
256,192,226450,1,0,0:0:0:70:tom02.wav
329,192,226497,1,0,0:0:0:0:
402,192,226543,1,0,0:0:0:70:tom01.wav
36,192,226543,1,0,0:0:0:0:
475,192,226543,1,0,0:0:0:0:
109,192,226589,1,0,0:0:0:0:
182,192,226636,1,0,0:0:0:70:tom02.wav
329,192,226636,1,0,0:0:0:0:
402,192,226682,1,0,0:0:0:0:
475,192,226728,1,0,0:0:0:70:tom03.wav
256,192,226728,1,0,0:0:0:0:
182,192,226775,1,0,0:0:0:0:
109,192,226821,1,0,0:0:0:70:tom02.wav
36,192,226867,1,0,0:0:0:0:
182,192,226913,1,0,0:0:0:70:tom04.wav
329,192,226913,1,0,0:0:0:0:
402,192,226960,1,0,0:0:0:0:
256,192,227006,1,0,0:0:0:70:tom02.wav
475,192,227006,1,0,0:0:0:0:
182,192,227052,1,0,0:0:0:0:
109,192,227099,1,0,0:0:0:70:tom04.wav
329,192,227099,1,0,0:0:0:0:
402,192,227145,1,0,0:0:0:0:
182,192,227191,1,0,0:0:0:70:Cymatics - Heater Kick 26.wav
36,192,227191,128,0,228302:0:0:0:70:F-Kick.wav
475,192,227191,128,0,228302:0:0:0:0:
256,192,227191,128,0,227608:0:0:0:0:
109,192,227608,128,0,227677:0:0:0:0:
109,192,227747,128,0,229413:0:0:0:0:
182,192,228163,1,0,0:0:0:70:Cymatics - Heater Kick 26.wav
329,192,228163,1,0,0:0:0:0:
182,192,228302,1,0,0:0:0:70:Cymatics - Heater Kick 26.wav
329,192,228302,1,0,0:0:0:70:F-Kick.wav
256,192,228302,128,0,229413:0:0:0:0:
402,192,228302,128,0,229413:0:0:0:0:
36,192,229413,128,0,230525:0:0:0:70:Cymatics - Heater Kick 26.wav
475,192,229413,128,0,230525:0:0:0:70:F-Kick.wav
182,192,229413,1,0,0:0:0:0:
329,192,229413,1,0,0:0:0:0:
402,192,229830,1,0,0:0:0:70:tom01.wav
329,192,229830,1,0,0:0:0:0:
256,192,230108,1,0,0:0:0:0:
109,192,230386,1,0,0:0:0:70:Cymatics - Heater Kick 26.wav
182,192,230386,1,0,0:0:0:0:
109,192,230525,1,0,0:0:0:70:Cymatics - Heater Kick 26.wav
182,192,230525,1,0,0:0:0:70:F-Kick.wav
329,192,230525,1,0,0:0:0:0:
256,192,230525,128,0,231636:0:0:0:0:
402,192,230525,128,0,231636:0:0:0:0:
475,192,230802,1,0,0:0:0:0:
36,192,231080,1,0,0:0:0:70:Cymatics - Heater Kick 26.wav
182,192,231080,1,0,0:0:0:0:
182,192,231219,1,0,0:0:0:70:Cymatics - Heater Kick 26.wav
109,192,231358,1,0,0:0:0:70:LR_Air Dart Snare.wav
36,192,231358,1,0,0:0:0:70:F-Kick.wav
329,192,231358,1,0,0:0:0:0:
475,192,231358,1,0,0:0:0:0:
36,192,231636,1,0,0:0:0:70:LR_Air Dart Snare.wav
109,192,231636,128,0,232747:0:0:0:70:F-Kick.wav
329,192,231636,128,0,232747:0:0:0:0:
475,192,231636,1,0,0:0:0:0:
182,192,231775,1,0,0:0:0:70:Cymatics - Heater Kick 26.wav
256,192,231775,1,0,0:0:0:0:
36,192,231913,1,0,0:0:0:70:LR_Air Dart Snare.wav
256,192,231913,1,0,0:0:0:0:
475,192,231913,1,0,0:0:0:0:
402,192,232052,1,0,0:0:0:70:Cymatics - Heater Kick 26.wav
182,192,232052,1,0,0:0:0:0:
36,192,232191,1,0,0:0:0:70:LR_Air Dart Snare.wav
182,192,232191,1,0,0:0:0:0:
475,192,232191,1,0,0:0:0:0:
256,192,232330,1,0,0:0:0:70:Cymatics - Heater Kick 26.wav
402,192,232330,1,0,0:0:0:0:
256,192,232469,1,0,0:0:0:70:LR_Air Dart Snare.wav
36,192,232469,1,0,0:0:0:0:
182,192,232469,1,0,0:0:0:0:
402,192,232608,1,0,0:0:0:70:Cymatics - Heater Kick 26.wav
475,192,232608,1,0,0:0:0:0:
36,192,232747,1,0,0:0:0:70:LR_Air Dart Snare.wav
256,192,232747,1,0,0:0:0:70:F-Kick.wav
402,192,232747,128,0,233302:0:0:0:0:
182,192,232747,128,0,233858:0:0:0:0:
109,192,232886,1,0,0:0:0:70:Cymatics - Heater Kick 26.wav
329,192,232886,1,0,0:0:0:0:
36,192,233025,1,0,0:0:0:70:LR_Air Dart Snare.wav
109,192,233025,1,0,0:0:0:0:
475,192,233025,1,0,0:0:0:0:
256,192,233163,1,0,0:0:0:70:Cymatics - Heater Kick 26.wav
329,192,233163,1,0,0:0:0:0:
36,192,233233,1,0,0:0:0:70:Cymatics - Heater Kick 26.wav
475,192,233302,128,0,233858:0:0:0:70:LR_Air Dart Snare.wav
109,192,233302,1,0,0:0:0:0:
256,192,233302,1,0,0:0:0:0:
402,192,233441,1,0,0:0:0:70:Cymatics - Heater Kick 26.wav
329,192,233441,1,0,0:0:0:0:
109,192,233580,1,0,0:0:0:70:LR_Air Dart Snare.wav
36,192,233580,1,0,0:0:0:0:
402,192,233580,1,0,0:0:0:0:
256,192,233719,1,0,0:0:0:70:Cymatics - Heater Kick 26.wav
329,192,233719,1,0,0:0:0:0:
329,192,233858,1,0,0:0:0:70:LR_Air Dart Snare.wav
36,192,233858,1,0,0:0:0:0:
402,192,233858,128,0,234969:0:0:0:0:
109,192,233858,128,0,234413:0:0:0:0:
182,192,233997,1,0,0:0:0:70:Cymatics - Heater Kick 26.wav
256,192,233997,1,0,0:0:0:0:
36,192,234136,1,0,0:0:0:70:LR_Air Dart Snare.wav
256,192,234136,1,0,0:0:0:0:
475,192,234136,1,0,0:0:0:0:
182,192,234275,1,0,0:0:0:70:Cymatics - Heater Kick 26.wav
329,192,234275,1,0,0:0:0:0:
256,192,234413,128,0,234969:0:0:0:70:LR_Air Dart Snare.wav
329,192,234413,1,0,0:0:0:0:
475,192,234413,1,0,0:0:0:0:
36,192,234413,1,0,0:0:0:0:
109,192,234552,1,0,0:0:0:70:Cymatics - Heater Kick 26.wav
182,192,234552,1,0,0:0:0:0:
182,192,234691,1,0,0:0:0:70:LR_Air Dart Snare.wav
329,192,234691,1,0,0:0:0:0:
475,192,234691,1,0,0:0:0:0:
109,192,234830,1,0,0:0:0:70:Cymatics - Heater Kick 26.wav
36,192,234830,1,0,0:0:0:0:
182,192,234969,1,0,0:0:0:70:LR_Air Dart Snare.wav
329,192,234969,1,0,0:0:0:0:
475,192,234969,128,0,235525:0:0:0:0:
36,192,234969,128,0,235525:0:0:0:0:
109,192,235108,1,0,0:0:0:70:Cymatics - Heater Kick 26.wav
256,192,235108,1,0,0:0:0:0:
402,192,235177,1,0,0:0:0:0:
256,192,235247,1,0,0:0:0:70:LR_Air Dart Snare.wav
329,192,235247,1,0,0:0:0:0:
182,192,235247,1,0,0:0:0:0:
402,192,235386,1,0,0:0:0:70:Cymatics - Heater Kick 26.wav
109,192,235386,1,0,0:0:0:0:
109,192,235525,128,0,235594:0:0:0:70:LR_Air Dart Snare.wav
256,192,235525,128,0,235594:0:0:0:0:
402,192,235525,128,0,235594:0:0:0:0:
182,192,235525,128,0,235594:0:0:0:0:
329,192,235525,128,0,235594:0:0:0:0:
109,192,235663,128,0,235733:0:0:0:70:LR_Air Dart Snare.wav
256,192,235663,128,0,235733:0:0:0:0:
402,192,235663,128,0,235733:0:0:0:0:
182,192,235663,128,0,235733:0:0:0:0:
329,192,235663,128,0,235733:0:0:0:0:
109,192,235802,128,0,235872:0:0:0:70:LR_Air Dart Snare.wav
256,192,235802,128,0,235872:0:0:0:0:
402,192,235802,128,0,235872:0:0:0:0:
182,192,235802,128,0,235872:0:0:0:0:
329,192,235802,128,0,235872:0:0:0:0:
109,192,235941,128,0,236011:0:0:0:70:LR_Air Dart Snare.wav
256,192,235941,128,0,236011:0:0:0:0:
402,192,235941,128,0,236011:0:0:0:0:
182,192,235941,128,0,236011:0:0:0:0:
329,192,235941,128,0,236011:0:0:0:0:
36,192,236358,128,0,240802:0:0:0:70:Cymatics - Heater Kick 26.wav
182,192,236358,128,0,245316:0:0:0:70:F-Kick.wav
329,192,236358,128,0,245316:0:0:0:0:
475,192,236358,128,0,240802:0:0:0:0:
109,192,236497,128,0,236566:0:0:0:0:
256,192,236636,128,0,236705:0:0:0:0:
109,192,236775,128,0,236844:0:0:0:0:
402,192,236913,128,0,236983:0:0:0:0:
256,192,237052,128,0,237122:0:0:0:0:
109,192,237191,128,0,237261:0:0:0:0:
402,192,237330,128,0,237400:0:0:0:0:
256,192,237469,128,0,237538:0:0:0:0:
402,192,237608,128,0,237677:0:0:0:0:
109,192,237747,128,0,237816:0:0:0:0:
402,192,237886,128,0,237955:0:0:0:0:
256,192,238025,128,0,238094:0:0:0:0:
109,192,238163,128,0,238233:0:0:0:0:
256,192,238302,128,0,238372:0:0:0:0:
109,192,238441,128,0,238511:0:0:0:0:
256,192,238719,128,0,238788:0:0:0:0:
402,192,238858,128,0,238927:0:0:0:0:
109,192,238997,128,0,239066:0:0:0:0:
402,192,239136,128,0,239205:0:0:0:0:
256,192,239275,128,0,239344:0:0:0:0:
109,192,239413,128,0,239483:0:0:0:0:
256,192,239552,128,0,239622:0:0:0:0:
109,192,239691,128,0,239761:0:0:0:0:
402,192,239830,128,0,239900:0:0:0:0:
256,192,239969,128,0,240038:0:0:0:0:
402,192,240108,128,0,240177:0:0:0:0:
109,192,240247,128,0,240316:0:0:0:0:
256,192,240386,128,0,240455:0:0:0:0:
402,192,240525,128,0,240594:0:0:0:0:
109,192,240663,128,0,240733:0:0:0:0:
256,192,240802,128,0,245316:0:0:0:0:
36,192,240941,128,0,241011:0:0:0:0:
475,192,241080,128,0,241150:0:0:0:0:
402,192,241219,128,0,241288:0:0:0:0:
475,192,241358,128,0,241427:0:0:0:0:
109,192,241497,128,0,241566:0:0:0:0:
402,192,241636,128,0,241705:0:0:0:0:
36,192,241775,128,0,241844:0:0:0:0:
109,192,241913,128,0,241983:0:0:0:0:
36,192,242052,128,0,242122:0:0:0:0:
402,192,242191,128,0,242261:0:0:0:0:
109,192,242330,128,0,242400:0:0:0:0:
475,192,242469,128,0,242538:0:0:0:0:
402,192,242608,128,0,242677:0:0:0:0:
475,192,242747,128,0,242816:0:0:0:0:
36,192,242886,128,0,242955:0:0:0:0:
402,192,243163,128,0,243233:0:0:0:0:
109,192,243302,128,0,243372:0:0:0:0:
402,192,243441,128,0,243511:0:0:0:0:
475,192,243580,128,0,243650:0:0:0:0:
36,192,243719,128,0,243788:0:0:0:0:
109,192,243858,128,0,243927:0:0:0:0:
475,192,243997,128,0,244066:0:0:0:0:
402,192,244136,128,0,244205:0:0:0:0:
36,192,244275,128,0,244344:0:0:0:0:
475,192,244413,128,0,244483:0:0:0:0:
109,192,244552,128,0,244622:0:0:0:0:
402,192,244691,128,0,244761:0:0:0:0:
36,192,244830,128,0,244900:0:0:0:0:
475,192,244969,128,0,245038:0:0:0:0:
109,192,245108,128,0,245177:0:0:0:0:
