osu file format v14

[General]
AudioFilename: audio.mp3
AudioLeadIn: 0
PreviewTime: 76596
Countdown: 0
SampleSet: Normal
StackLeniency: 0.7
Mode: 1
LetterboxInBreaks: 0
WidescreenStoryboard: 0

[Editor]
DistanceSpacing: 1
BeatDivisor: 4
GridSize: 32
TimelineZoom: 3.199999

[Metadata]
Title:Sayonara Cosmonaut
TitleUnicode:さよならコスモノート
Artist:AAAA Chazuke
ArtistUnicode:ああああ茶漬け
Creator:D o t
Version:aabc's Inner Oni
Source:BMS
Tags:BOFU BMS of Fighters Ultimate 2017 8-bit chiptune Umeboshi Astro Notes _DUSK_ aabc271 Faputa
BeatmapID:1497700
BeatmapSetID:694743

[Difficulty]
HPDrainRate:6
CircleSize:5
OverallDifficulty:6
ApproachRate:7
SliderMultiplier:1.4
SliderTickRate:1

[Events]
//Background and Video events
0,0,"DLyK5P5UMAAmpKW.jpg",0,120
//Break Periods
//Storyboard Layer 0 (Background)
//Storyboard Layer 1 (Fail)
//Storyboard Layer 2 (Pass)
//Storyboard Layer 3 (Foreground)
//Storyboard Sound Samples

[TimingPoints]
121,300,4,1,0,80,1,0
121,-111.111111111111,4,1,0,80,0,0
6121,-106.382978723404,4,1,0,84,0,0
6571,-104.166666666667,4,1,0,84,0,0
8521,-102.040816326531,4,1,0,88,0,0
10321,-100,4,1,0,88,0,0
11521,-100,4,1,0,44,0,0
12121,-102.040816326531,4,1,0,84,0,0
21721,-102.040816326531,4,1,0,88,0,0
22021,-100,4,1,0,88,0,0
30121,-103.092783505155,4,1,0,88,0,0
31321,-106.382978723404,4,1,0,84,0,0
45121,-104.166666666667,4,1,0,84,0,0
45721,-104.166666666667,4,1,0,88,0,0
46021,-102.040816326531,4,1,0,88,0,0
50521,-100,4,1,0,88,0,0
52921,-98.0392156862745,4,1,0,88,0,0
55321,-102.040816326531,4,1,0,84,0,0
64921,-100,4,1,0,88,0,0
69721,-99.009900990099,4,1,0,88,0,0
72121,-98.0392156862745,4,1,0,88,0,0
74521,-98.0392156862745,4,1,0,44,0,0
75721,-98.0392156862745,4,1,0,44,0,0
76621,-98.0392156862745,4,1,0,88,0,0
76921,-98.0392156862745,4,1,0,88,0,0
99721,-98.0392156862745,4,1,0,90,0,1
119521,-98.0392156862745,4,1,0,45,0,0
121021,-106.382978723404,4,1,0,84,0,0
125521,-102.040816326531,4,1,0,84,0,0
126421,-98.0392156862745,4,1,0,90,0,1
141571,-98.0392156862745,4,1,0,90,0,0
141721,-98.0392156862745,4,1,0,45,0,0
142921,-102.040816326531,4,1,0,45,0,0
143821,-111.111111111111,4,1,0,80,0,0
148921,-106.382978723404,4,1,0,84,0,0
149371,-104.166666666667,4,1,0,84,0,0
151321,-102.040816326531,4,1,0,88,0,0
153121,-100,4,1,0,88,0,0
155221,-100,4,1,0,44,0,0

[HitObjects]
256,192,1021,5,0,0:0:0:0:
256,192,1096,1,0,0:0:0:0:
256,192,1171,1,0,0:0:0:0:
256,192,1246,5,8,0:0:0:0:
256,192,1321,1,8,0:0:0:0:
256,192,1771,5,0,0:0:0:0:
256,192,1846,1,0,0:0:0:0:
256,192,1921,1,0,0:0:0:0:
256,192,2071,1,0,0:0:0:0:
256,192,2221,5,8,0:0:0:0:
256,192,2371,5,0,0:0:0:0:
256,192,2671,1,0,0:0:0:0:
256,192,2746,5,8,0:0:0:0:
256,192,2821,5,0,0:0:0:0:
256,192,2971,1,0,0:0:0:0:
256,192,3121,5,8,0:0:0:0:
256,192,3271,5,0,0:0:0:0:
256,192,3421,1,0,0:0:0:0:
256,192,3571,1,0,0:0:0:0:
256,192,3646,5,8,0:0:0:0:
256,192,3721,1,8,0:0:0:0:
256,192,4021,5,0,0:0:0:0:
256,192,4171,5,8,0:0:0:0:
256,192,4471,1,8,0:0:0:0:
256,192,4621,5,0,0:0:0:0:
256,192,4771,5,8,0:0:0:0:
256,192,5071,5,0,0:0:0:0:
256,192,5221,5,8,0:0:0:0:
256,192,5371,5,0,0:0:0:0:
256,192,5521,5,8,0:0:0:0:
256,192,5671,5,0,0:0:0:0:
256,192,5821,1,0,0:0:0:0:
256,192,5971,5,8,0:0:0:0:
256,192,6121,5,4,0:0:0:0:
256,192,6571,1,0,0:0:0:0:
256,192,6646,5,8,0:0:0:0:
256,192,6721,5,0,0:0:0:0:
256,192,6946,5,8,0:0:0:0:
256,192,7171,1,8,0:0:0:0:
256,192,7321,5,0,0:0:0:0:
256,192,7621,5,8,0:0:0:0:
256,192,7921,1,8,0:0:0:0:
256,192,7996,5,0,0:0:0:0:
256,192,8071,1,0,0:0:0:0:
256,192,8221,1,0,0:0:0:0:
256,192,8371,5,8,0:0:0:0:
256,192,8521,1,12,0:0:0:0:
256,192,8671,5,0,0:0:0:0:
256,192,8746,1,0,0:0:0:0:
256,192,8821,5,8,0:0:0:0:
256,192,8971,5,0,0:0:0:0:
256,192,9046,1,0,0:0:0:0:
256,192,9121,5,8,0:0:0:0:
256,192,9271,5,0,0:0:0:0:
256,192,9421,5,8,0:0:0:0:
256,192,9571,5,4,0:0:0:0:
256,192,10321,5,8,0:0:0:0:
256,192,10396,5,0,0:0:0:0:
256,192,10471,5,8,0:0:0:0:
256,192,10621,1,8,0:0:0:0:
256,192,10696,5,0,0:0:0:0:
256,192,10771,5,8,0:0:0:0:
256,192,10921,1,8,0:0:0:0:
256,192,10996,5,0,0:0:0:0:
256,192,11071,5,8,0:0:0:0:
256,192,11146,5,0,0:0:0:0:
256,192,11221,5,8,0:0:0:0:
256,192,11296,1,8,0:0:0:0:
256,192,11371,1,8,0:0:0:0:
256,192,11446,1,8,0:0:0:0:
256,192,11521,12,0,11971,0:0:0:0:
256,192,12121,5,4,0:0:0:0:
256,192,12421,5,8,0:0:0:0:
256,192,12721,5,0,0:0:0:0:
256,192,12871,5,8,0:0:0:0:
256,192,13021,1,8,0:0:0:0:
256,192,13171,5,0,0:0:0:0:
256,192,13471,5,8,0:0:0:0:
256,192,13621,5,0,0:0:0:0:
256,192,13771,5,8,0:0:0:0:
256,192,13921,5,0,0:0:0:0:
256,192,14071,5,8,0:0:0:0:
256,192,14221,5,0,0:0:0:0:
256,192,14371,1,0,0:0:0:0:
256,192,14446,5,8,0:0:0:0:
256,192,14521,1,8,0:0:0:0:
256,192,14821,1,8,0:0:0:0:
256,192,14971,5,0,0:0:0:0:
256,192,15121,1,0,0:0:0:0:
256,192,15421,5,8,0:0:0:0:
256,192,15571,5,0,0:0:0:0:
256,192,15721,1,0,0:0:0:0:
256,192,15871,1,0,0:0:0:0:
256,192,15946,1,0,0:0:0:0:
256,192,16021,5,8,0:0:0:0:
256,192,16171,5,0,0:0:0:0:
256,192,16471,5,8,0:0:0:0:
256,192,16771,5,0,0:0:0:0:
256,192,16846,1,0,0:0:0:0:
256,192,16921,5,8,0:0:0:0:
256,192,17221,5,0,0:0:0:0:
256,192,17371,1,0,0:0:0:0:
256,192,17446,5,8,0:0:0:0:
256,192,17521,5,0,0:0:0:0:
256,192,17671,1,0,0:0:0:0:
256,192,17821,5,8,0:0:0:0:
256,192,17971,5,0,0:0:0:0:
256,192,18271,1,0,0:0:0:0:
256,192,18421,5,8,0:0:0:0:
256,192,18571,5,0,0:0:0:0:
256,192,18646,1,0,0:0:0:0:
256,192,18721,5,8,0:0:0:0:
256,192,18871,5,0,0:0:0:0:
256,192,19021,5,8,0:0:0:0:
256,192,19171,5,0,0:0:0:0:
256,192,19246,5,8,0:0:0:0:
256,192,19321,1,8,0:0:0:0:
256,192,19621,1,8,0:0:0:0:
256,192,19696,5,0,0:0:0:0:
256,192,19771,1,0,0:0:0:0:
256,192,19846,5,8,0:0:0:0:
256,192,19921,1,8,0:0:0:0:
256,192,20071,5,0,0:0:0:0:
256,192,20221,1,0,0:0:0:0:
256,192,20371,5,8,0:0:0:0:
256,192,20671,5,0,0:0:0:0:
256,192,20746,5,8,0:0:0:0:
256,192,20821,1,8,0:0:0:0:
256,192,20896,5,0,0:0:0:0:
256,192,20971,5,8,0:0:0:0:
256,192,21121,1,8,0:0:0:0:
256,192,21196,5,0,0:0:0:0:
256,192,21271,1,0,0:0:0:0:
256,192,21346,5,8,0:0:0:0:
256,192,21421,1,8,0:0:0:0:
256,192,21496,5,0,0:0:0:0:
256,192,21571,1,0,0:0:0:0:
256,192,21721,1,4,0:0:0:0:
256,192,22021,1,0,0:0:0:0:
256,192,22171,1,0,0:0:0:0:
256,192,22246,1,0,0:0:0:0:
256,192,22321,5,8,0:0:0:0:
256,192,22471,1,8,0:0:0:0:
256,192,22621,5,0,0:0:0:0:
256,192,22771,1,0,0:0:0:0:
256,192,23071,1,0,0:0:0:0:
256,192,23221,5,8,0:0:0:0:
256,192,23371,1,8,0:0:0:0:
256,192,23446,1,8,0:0:0:0:
256,192,23521,5,0,0:0:0:0:
256,192,23671,5,8,0:0:0:0:
256,192,23821,5,0,0:0:0:0:
256,192,23971,1,0,0:0:0:0:
256,192,24046,5,8,0:0:0:0:
256,192,24121,1,8,0:0:0:0:
256,192,24346,1,8,0:0:0:0:
256,192,24421,5,0,0:0:0:0:
256,192,24571,5,8,0:0:0:0:
256,192,24646,5,0,0:0:0:0:
256,192,24721,5,8,0:0:0:0:
256,192,24871,5,0,0:0:0:0:
256,192,25021,5,8,0:0:0:0:
256,192,25171,5,4,0:0:0:0:
256,192,25471,1,0,0:0:0:0:
256,192,25621,1,0,0:0:0:0:
256,192,25771,5,8,0:0:0:0:
256,192,25921,1,8,0:0:0:0:
256,192,25996,1,8,0:0:0:0:
256,192,26071,5,0,0:0:0:0:
256,192,26146,1,0,0:0:0:0:
256,192,26221,5,8,0:0:0:0:
256,192,26371,5,0,0:0:0:0:
256,192,26446,5,8,0:0:0:0:
256,192,26521,5,0,0:0:0:0:
256,192,26746,5,8,0:0:0:0:
256,192,26821,5,0,0:0:0:0:
256,192,26971,5,8,0:0:0:0:
256,192,27121,5,0,0:0:0:0:
256,192,27271,1,0,0:0:0:0:
256,192,27346,1,0,0:0:0:0:
256,192,27421,5,8,0:0:0:0:
256,192,27571,5,0,0:0:0:0:
256,192,27721,5,8,0:0:0:0:
256,192,27871,5,0,0:0:0:0:
256,192,27946,5,8,0:0:0:0:
256,192,28021,5,0,0:0:0:0:
256,192,28171,5,8,0:0:0:0:
256,192,28321,5,0,0:0:0:0:
256,192,28396,1,0,0:0:0:0:
256,192,28471,1,0,0:0:0:0:
256,192,28546,1,0,0:0:0:0:
256,192,28621,5,8,0:0:0:0:
256,192,28771,5,0,0:0:0:0:
256,192,28921,5,12,0:0:0:0:
256,192,29371,5,0,0:0:0:0:
256,192,29521,1,0,0:0:0:0:
256,192,30121,1,0,0:0:0:0:
256,192,30221,1,0,0:0:0:0:
256,192,30321,5,8,0:0:0:0:
256,192,30421,5,0,0:0:0:0:
256,192,30621,5,8,0:0:0:0:
256,192,30721,5,0,0:0:0:0:
256,192,30821,1,0,0:0:0:0:
256,192,30921,5,8,0:0:0:0:
256,192,31021,1,8,0:0:0:0:
256,192,31321,5,4,0:0:0:0:
256,192,31521,5,8,0:0:0:0:
256,192,31621,5,0,0:0:0:0:
256,192,31821,1,0,0:0:0:0:
256,192,31921,1,0,0:0:0:0:
256,192,32121,1,0,0:0:0:0:
256,192,32221,5,8,0:0:0:0:
256,192,32321,5,0,0:0:0:0:
256,192,32421,1,0,0:0:0:0:
256,192,32521,5,8,0:0:0:0:
256,192,32721,1,8,0:0:0:0:
256,192,32821,5,0,0:0:0:0:
256,192,33021,1,0,0:0:0:0:
256,192,33121,5,8,0:0:0:0:
256,192,33321,5,0,0:0:0:0:
256,192,33421,5,8,0:0:0:0:
256,192,33521,5,0,0:0:0:0:
256,192,33621,5,8,0:0:0:0:
256,192,33721,1,8,0:0:0:0:
256,192,33921,5,0,0:0:0:0:
256,192,34021,5,8,0:0:0:0:
256,192,34121,5,0,0:0:0:0:
256,192,34221,5,8,0:0:0:0:
256,192,34321,5,0,0:0:0:0:
256,192,34521,5,8,0:0:0:0:
256,192,34721,5,0,0:0:0:0:
256,192,34921,1,0,0:0:0:0:
256,192,35121,1,0,0:0:0:0:
256,192,35221,5,8,0:0:0:0:
256,192,35321,5,0,0:0:0:0:
256,192,35421,1,0,0:0:0:0:
256,192,35521,5,8,0:0:0:0:
256,192,35621,1,8,0:0:0:0:
256,192,35721,5,0,0:0:0:0:
256,192,35821,5,8,0:0:0:0:
256,192,36121,5,0,0:0:0:0:
256,192,36321,1,0,0:0:0:0:
256,192,36421,1,0,0:0:0:0:
256,192,36621,1,0,0:0:0:0:
256,192,36721,5,8,0:0:0:0:
256,192,36921,1,8,0:0:0:0:
256,192,37021,5,0,0:0:0:0:
256,192,37221,1,0,0:0:0:0:
256,192,37321,5,8,0:0:0:0:
256,192,37521,5,0,0:0:0:0:
256,192,37621,5,8,0:0:0:0:
256,192,37821,5,0,0:0:0:0:
256,192,37921,1,0,0:0:0:0:
256,192,38021,5,8,0:0:0:0:
256,192,38121,5,0,0:0:0:0:
256,192,38221,5,8,0:0:0:0:
256,192,38321,5,0,0:0:0:0:
256,192,38421,5,8,0:0:0:0:
256,192,38521,1,8,0:0:0:0:
256,192,38721,1,8,0:0:0:0:
256,192,38821,5,0,0:0:0:0:
256,192,39021,1,0,0:0:0:0:
256,192,39121,5,8,0:0:0:0:
256,192,39421,1,8,0:0:0:0:
256,192,39621,1,8,0:0:0:0:
256,192,39721,5,0,0:0:0:0:
256,192,39821,5,8,0:0:0:0:
256,192,39921,5,0,0:0:0:0:
256,192,40021,1,0,0:0:0:0:
256,192,40221,1,0,0:0:0:0:
256,192,40321,5,8,0:0:0:0:
256,192,40521,1,8,0:0:0:0:
256,192,40621,1,8,0:0:0:0:
256,192,40921,1,12,0:0:0:0:
256,192,41221,5,0,0:0:0:0:
256,192,41421,5,8,0:0:0:0:
256,192,41521,5,0,0:0:0:0:
256,192,41721,1,0,0:0:0:0:
256,192,41821,5,8,0:0:0:0:
256,192,42021,5,0,0:0:0:0:
256,192,42321,1,0,0:0:0:0:
256,192,42421,1,0,0:0:0:0:
256,192,42621,1,0,0:0:0:0:
256,192,42721,5,8,0:0:0:0:
256,192,42921,1,8,0:0:0:0:
256,192,43021,5,0,0:0:0:0:
256,192,43221,1,0,0:0:0:0:
256,192,43321,5,8,0:0:0:0:
256,192,43521,5,0,0:0:0:0:
256,192,43621,5,8,0:0:0:0:
256,192,43721,5,0,0:0:0:0:
256,192,43821,5,8,0:0:0:0:
256,192,43921,5,0,0:0:0:0:
256,192,44121,5,8,0:0:0:0:
256,192,44321,1,8,0:0:0:0:
256,192,44521,5,4,0:0:0:0:
256,192,45121,5,8,0:0:0:0:
256,192,45271,1,8,0:0:0:0:
256,192,45321,1,8,0:0:0:0:
256,192,45371,5,0,0:0:0:0:
256,192,45421,1,0,0:0:0:0:
256,192,45571,1,0,0:0:0:0:
256,192,45621,1,0,0:0:0:0:
256,192,45671,1,0,0:0:0:0:
256,192,45721,1,0,0:0:0:0:
256,192,46021,1,0,0:0:0:0:
256,192,46171,1,0,0:0:0:0:
256,192,46246,1,0,0:0:0:0:
256,192,46321,5,8,0:0:0:0:
256,192,46471,5,0,0:0:0:0:
256,192,46621,5,8,0:0:0:0:
256,192,46771,5,4,0:0:0:0:
256,192,47071,1,0,0:0:0:0:
256,192,47221,5,8,0:0:0:0:
256,192,47371,5,0,0:0:0:0:
256,192,47446,1,0,0:0:0:0:
256,192,47521,5,8,0:0:0:0:
256,192,47671,5,0,0:0:0:0:
256,192,47821,1,0,0:0:0:0:
256,192,47971,5,8,0:0:0:0:
256,192,48121,5,4,0:0:0:0:
256,192,48421,1,0,0:0:0:0:
256,192,48571,5,8,0:0:0:0:
256,192,48646,5,0,0:0:0:0:
256,192,48721,5,8,0:0:0:0:
256,192,48871,5,0,0:0:0:0:
256,192,49021,1,0,0:0:0:0:
256,192,49171,5,12,0:0:0:0:
256,192,49471,5,0,0:0:0:0:
256,192,49621,5,8,0:0:0:0:
256,192,49771,1,8,0:0:0:0:
256,192,49846,1,8,0:0:0:0:
256,192,49921,5,0,0:0:0:0:
256,192,50071,5,8,0:0:0:0:
256,192,50221,5,0,0:0:0:0:
256,192,50371,5,8,0:0:0:0:
256,192,50521,1,12,0:0:0:0:
256,192,50671,5,0,0:0:0:0:
256,192,50746,1,0,0:0:0:0:
256,192,50821,5,8,0:0:0:0:
256,192,50971,5,0,0:0:0:0:
256,192,51121,5,8,0:0:0:0:
256,192,51271,5,0,0:0:0:0:
256,192,51346,1,0,0:0:0:0:
256,192,51421,5,8,0:0:0:0:
256,192,51571,5,0,0:0:0:0:
256,192,51721,5,8,0:0:0:0:
256,192,51871,5,0,0:0:0:0:
256,192,51946,1,0,0:0:0:0:
256,192,52021,5,8,0:0:0:0:
256,192,52171,5,0,0:0:0:0:
256,192,52321,5,8,0:0:0:0:
256,192,52471,1,8,0:0:0:0:
256,192,52546,1,8,0:0:0:0:
256,192,52621,5,0,0:0:0:0:
256,192,52771,1,0,0:0:0:0:
256,192,52921,5,12,0:0:0:0:
256,192,53071,5,0,0:0:0:0:
256,192,53146,1,0,0:0:0:0:
256,192,53221,5,8,0:0:0:0:
256,192,53296,5,0,0:0:0:0:
256,192,53371,1,0,0:0:0:0:
256,192,53521,5,8,0:0:0:0:
256,192,53671,5,0,0:0:0:0:
256,192,53746,1,0,0:0:0:0:
256,192,53821,5,8,0:0:0:0:
256,192,53896,5,0,0:0:0:0:
256,192,53971,1,0,0:0:0:0:
256,192,54121,5,8,0:0:0:0:
256,192,54196,5,0,0:0:0:0:
256,192,54271,1,0,0:0:0:0:
256,192,54346,1,0,0:0:0:0:
256,192,54421,5,8,0:0:0:0:
256,192,54496,5,0,0:0:0:0:
256,192,54571,5,8,0:0:0:0:
256,192,54871,5,4,0:0:0:0:
256,192,55321,5,12,0:0:0:0:
256,192,55621,1,8,0:0:0:0:
256,192,55771,5,0,0:0:0:0:
256,192,56221,5,8,0:0:0:0:
256,192,56821,1,8,0:0:0:0:
256,192,57121,5,0,0:0:0:0:
256,192,57421,1,0,0:0:0:0:
256,192,57571,5,8,0:0:0:0:
256,192,57721,1,12,0:0:0:0:
256,192,58021,1,8,0:0:0:0:
256,192,58171,5,0,0:0:0:0:
256,192,58621,5,8,0:0:0:0:
256,192,59071,1,8,0:0:0:0:
256,192,59221,5,0,0:0:0:0:
256,192,59521,1,0,0:0:0:0:
256,192,59746,1,0,0:0:0:0:
256,192,59971,1,0,0:0:0:0:
256,192,60121,5,12,0:0:0:0:
256,192,60421,1,8,0:0:0:0:
256,192,60571,5,0,0:0:0:0:
256,192,60871,1,0,0:0:0:0:
256,192,61021,5,8,0:0:0:0:
256,192,61321,5,4,0:0:0:0:
256,192,61621,5,8,0:0:0:0:
256,192,61771,5,0,0:0:0:0:
256,192,62071,1,0,0:0:0:0:
256,192,62221,5,8,0:0:0:0:
256,192,62521,1,12,0:0:0:0:
256,192,62821,5,0,0:0:0:0:
256,192,62971,1,0,0:0:0:0:
256,192,63121,5,8,0:0:0:0:
256,192,63271,5,0,0:0:0:0:
256,192,63421,1,0,0:0:0:0:
256,192,63721,5,8,0:0:0:0:
256,192,63871,5,0,0:0:0:0:
256,192,64021,1,0,0:0:0:0:
256,192,64096,1,0,0:0:0:0:
256,192,64171,5,8,0:0:0:0:
256,192,64321,5,0,0:0:0:0:
256,192,64471,1,0,0:0:0:0:
256,192,64546,1,0,0:0:0:0:
256,192,64621,5,8,0:0:0:0:
256,192,64696,5,0,0:0:0:0:
256,192,64771,5,8,0:0:0:0:
256,192,64921,1,12,0:0:0:0:
256,192,65071,5,0,0:0:0:0:
256,192,65221,5,8,0:0:0:0:
256,192,65296,1,8,0:0:0:0:
256,192,65371,5,0,0:0:0:0:
256,192,65521,1,0,0:0:0:0:
256,192,65671,1,0,0:0:0:0:
256,192,65746,5,8,0:0:0:0:
256,192,65821,1,8,0:0:0:0:
256,192,65971,5,0,0:0:0:0:
256,192,66121,5,8,0:0:0:0:
256,192,66271,5,0,0:0:0:0:
256,192,66421,1,0,0:0:0:0:
256,192,66496,5,8,0:0:0:0:
256,192,66571,5,0,0:0:0:0:
256,192,66721,1,0,0:0:0:0:
256,192,66796,5,8,0:0:0:0:
256,192,66871,5,0,0:0:0:0:
256,192,66946,5,8,0:0:0:0:
256,192,67021,5,8,0:0:0:0:
256,192,67171,5,0,0:0:0:0:
256,192,67321,5,12,0:0:0:0:
256,192,67471,5,0,0:0:0:0:
256,192,67621,5,8,0:0:0:0:
256,192,67696,1,8,0:0:0:0:
256,192,67771,1,0,0:0:0:0:
256,192,67921,1,0,0:0:0:0:
256,192,68071,1,0,0:0:0:0:
256,192,68146,5,8,0:0:0:0:
256,192,68221,1,8,0:0:0:0:
256,192,68371,5,0,0:0:0:0:
256,192,68521,5,8,0:0:0:0:
256,192,68671,5,0,0:0:0:0:
256,192,68821,5,0,0:0:0:0:
256,192,68896,5,8,0:0:0:0:
256,192,68971,5,0,0:0:0:0:
256,192,69046,5,8,0:0:0:0:
256,192,69121,1,8,0:0:0:0:
256,192,69271,5,0,0:0:0:0:
256,192,69421,5,8,0:0:0:0:
256,192,69496,1,8,0:0:0:0:
256,192,69571,5,0,0:0:0:0:
256,192,69721,5,12,0:0:0:0:
256,192,69871,5,0,0:0:0:0:
256,192,70021,5,8,0:0:0:0:
256,192,70096,1,8,0:0:0:0:
256,192,70171,5,0,0:0:0:0:
256,192,70321,1,0,0:0:0:0:
256,192,70471,1,0,0:0:0:0:
256,192,70546,1,0,0:0:0:0:
256,192,70621,5,8,0:0:0:0:
256,192,70696,5,0,0:0:0:0:
256,192,70771,1,0,0:0:0:0:
256,192,70921,5,12,0:0:0:0:
256,192,71071,5,0,0:0:0:0:
256,192,71221,1,0,0:0:0:0:
256,192,71296,1,0,0:0:0:0:
256,192,71371,5,8,0:0:0:0:
256,192,71521,5,0,0:0:0:0:
256,192,71671,1,0,0:0:0:0:
256,192,71746,1,0,0:0:0:0:
256,192,71821,1,0,0:0:0:0:
256,192,71896,5,8,0:0:0:0:
256,192,71971,1,8,0:0:0:0:
256,192,72121,1,12,0:0:0:0:
256,192,72271,5,0,0:0:0:0:
256,192,72346,1,0,0:0:0:0:
256,192,72421,5,8,0:0:0:0:
256,192,72496,5,0,0:0:0:0:
256,192,72571,1,0,0:0:0:0:
256,192,72721,1,0,0:0:0:0:
256,192,72796,1,0,0:0:0:0:
256,192,72871,5,8,0:0:0:0:
256,192,72946,5,0,0:0:0:0:
256,192,73021,5,8,0:0:0:0:
256,192,73096,5,0,0:0:0:0:
256,192,73171,1,0,0:0:0:0:
256,192,73321,5,8,0:0:0:0:
256,192,73396,5,0,0:0:0:0:
256,192,73471,1,0,0:0:0:0:
256,192,73546,5,8,0:0:0:0:
256,192,73621,5,0,0:0:0:0:
256,192,73696,1,0,0:0:0:0:
256,192,73771,5,8,0:0:0:0:
256,192,73846,5,0,0:0:0:0:
256,192,73921,5,8,0:0:0:0:
256,192,73996,1,8,0:0:0:0:
256,192,74071,5,0,0:0:0:0:
256,192,74146,1,0,0:0:0:0:
256,192,74221,5,8,0:0:0:0:
256,192,74296,5,0,0:0:0:0:
256,192,74371,1,0,0:0:0:0:
256,192,74446,1,0,0:0:0:0:
256,192,74521,12,0,76471,0:0:0:0:
256,192,76621,5,8,0:0:0:0:
256,192,76921,1,12,0:0:0:0:
256,192,77221,5,0,0:0:0:0:
256,192,77371,1,0,0:0:0:0:
256,192,77446,1,0,0:0:0:0:
256,192,77521,1,0,0:0:0:0:
256,192,77671,1,0,0:0:0:0:
256,192,77821,5,8,0:0:0:0:
256,192,77971,5,0,0:0:0:0:
256,192,78271,5,8,0:0:0:0:
256,192,78421,5,0,0:0:0:0:
256,192,78571,5,8,0:0:0:0:
256,192,78721,5,0,0:0:0:0:
256,192,78871,5,8,0:0:0:0:
256,192,79021,5,0,0:0:0:0:
256,192,79171,1,0,0:0:0:0:
256,192,79246,5,8,0:0:0:0:
256,192,79321,1,8,0:0:0:0:
256,192,79546,5,0,0:0:0:0:
256,192,79621,1,0,0:0:0:0:
256,192,79771,5,8,0:0:0:0:
256,192,79921,1,8,0:0:0:0:
256,192,80071,1,8,0:0:0:0:
256,192,80146,5,0,0:0:0:0:
256,192,80221,1,0,0:0:0:0:
256,192,80371,1,4,0:0:0:0:
256,192,80671,1,0,0:0:0:0:
256,192,80821,5,8,0:0:0:0:
256,192,80971,5,0,0:0:0:0:
256,192,81046,1,0,0:0:0:0:
256,192,81121,1,0,0:0:0:0:
256,192,81271,5,8,0:0:0:0:
256,192,81421,5,0,0:0:0:0:
256,192,81496,1,0,0:0:0:0:
256,192,81571,5,8,0:0:0:0:
256,192,81721,1,12,0:0:0:0:
256,192,81946,5,0,0:0:0:0:
256,192,82021,5,8,0:0:0:0:
256,192,82171,5,0,0:0:0:0:
256,192,82321,1,0,0:0:0:0:
256,192,82471,5,8,0:0:0:0:
256,192,82546,1,8,0:0:0:0:
256,192,82621,5,0,0:0:0:0:
256,192,82771,5,8,0:0:0:0:
256,192,83071,1,8,0:0:0:0:
256,192,83221,5,0,0:0:0:0:
256,192,83371,5,8,0:0:0:0:
256,192,83521,1,8,0:0:0:0:
256,192,83671,5,0,0:0:0:0:
256,192,83746,5,8,0:0:0:0:
256,192,83821,5,0,0:0:0:0:
256,192,83971,1,0,0:0:0:0:
256,192,84121,5,8,0:0:0:0:
256,192,84271,5,0,0:0:0:0:
256,192,84346,1,0,0:0:0:0:
256,192,84421,1,0,0:0:0:0:
256,192,84571,5,8,0:0:0:0:
256,192,84721,5,0,0:0:0:0:
256,192,84796,1,0,0:0:0:0:
256,192,84871,5,8,0:0:0:0:
256,192,84946,1,8,0:0:0:0:
256,192,85021,1,8,0:0:0:0:
256,192,85171,5,4,0:0:0:0:
256,192,85471,1,0,0:0:0:0:
256,192,85621,5,8,0:0:0:0:
256,192,85771,5,0,0:0:0:0:
256,192,85846,1,0,0:0:0:0:
256,192,85921,1,0,0:0:0:0:
256,192,86071,5,8,0:0:0:0:
256,192,86221,1,8,0:0:0:0:
256,192,86296,1,8,0:0:0:0:
256,192,86371,5,0,0:0:0:0:
256,192,86521,5,12,0:0:0:0:
256,192,86746,5,0,0:0:0:0:
256,192,86821,5,8,0:0:0:0:
256,192,86971,1,8,0:0:0:0:
256,192,87121,5,0,0:0:0:0:
256,192,87271,1,0,0:0:0:0:
256,192,87346,5,8,0:0:0:0:
256,192,87421,1,8,0:0:0:0:
256,192,87571,5,0,0:0:0:0:
256,192,87871,1,0,0:0:0:0:
256,192,88021,5,8,0:0:0:0:
256,192,88171,1,8,0:0:0:0:
256,192,88321,5,0,0:0:0:0:
256,192,88471,1,0,0:0:0:0:
256,192,88546,1,0,0:0:0:0:
256,192,88621,5,8,0:0:0:0:
256,192,88771,1,8,0:0:0:0:
256,192,88921,1,8,0:0:0:0:
256,192,89146,1,0,0:0:0:0:
256,192,89221,1,0,0:0:0:0:
256,192,89371,5,8,0:0:0:0:
256,192,89521,5,0,0:0:0:0:
256,192,89671,5,8,0:0:0:0:
256,192,89746,1,8,0:0:0:0:
256,192,89821,5,0,0:0:0:0:
256,192,89971,5,8,0:0:0:0:
256,192,90121,1,8,0:0:0:0:
256,192,90271,5,0,0:0:0:0:
256,192,90346,5,8,0:0:0:0:
256,192,90421,5,0,0:0:0:0:
256,192,90571,5,8,0:0:0:0:
256,192,90721,5,0,0:0:0:0:
256,192,90871,5,8,0:0:0:0:
256,192,90946,5,0,0:0:0:0:
256,192,91021,5,8,0:0:0:0:
256,192,91096,5,0,0:0:0:0:
256,192,91171,1,0,0:0:0:0:
256,192,91321,5,12,0:0:0:0:
256,192,91471,5,0,0:0:0:0:
256,192,91546,1,0,0:0:0:0:
256,192,91621,5,8,0:0:0:0:
256,192,91771,1,12,0:0:0:0:
256,192,91921,5,0,0:0:0:0:
256,192,91996,1,0,0:0:0:0:
256,192,92071,5,8,0:0:0:0:
256,192,92221,1,12,0:0:0:0:
256,192,92371,5,0,0:0:0:0:
256,192,92446,5,8,0:0:0:0:
256,192,92521,1,8,0:0:0:0:
256,192,92671,5,4,0:0:0:0:
256,192,92971,1,0,0:0:0:0:
256,192,93121,5,8,0:0:0:0:
256,192,93196,1,8,0:0:0:0:
256,192,93271,5,0,0:0:0:0:
256,192,93346,1,0,0:0:0:0:
256,192,93421,5,8,0:0:0:0:
256,192,93496,5,0,0:0:0:0:
256,192,93571,1,0,0:0:0:0:
256,192,93721,5,12,0:0:0:0:
256,192,93871,5,0,0:0:0:0:
256,192,93946,1,0,0:0:0:0:
256,192,94021,5,8,0:0:0:0:
256,192,94171,1,12,0:0:0:0:
256,192,94321,5,0,0:0:0:0:
256,192,94396,1,0,0:0:0:0:
256,192,94471,5,8,0:0:0:0:
256,192,94621,1,12,0:0:0:0:
256,192,94771,5,0,0:0:0:0:
256,192,94846,5,8,0:0:0:0:
256,192,94921,1,8,0:0:0:0:
256,192,95071,5,4,0:0:0:0:
256,192,95371,1,0,0:0:0:0:
256,192,95446,1,0,0:0:0:0:
256,192,95521,5,8,0:0:0:0:
256,192,95746,5,0,0:0:0:0:
256,192,95971,1,0,0:0:0:0:
256,192,96121,5,12,0:0:0:0:
256,192,96271,5,0,0:0:0:0:
256,192,96346,1,0,0:0:0:0:
256,192,96421,5,8,0:0:0:0:
256,192,96571,5,0,0:0:0:0:
256,192,96646,1,0,0:0:0:0:
256,192,96721,5,8,0:0:0:0:
256,192,96871,5,0,0:0:0:0:
256,192,96946,1,0,0:0:0:0:
256,192,97021,5,8,0:0:0:0:
256,192,97171,1,12,0:0:0:0:
256,192,97921,1,8,0:0:0:0:
256,192,97996,5,0,0:0:0:0:
256,192,98071,5,8,0:0:0:0:
256,192,98221,1,8,0:0:0:0:
256,192,98296,5,0,0:0:0:0:
256,192,98371,5,8,0:0:0:0:
256,192,98521,1,8,0:0:0:0:
256,192,98596,5,0,0:0:0:0:
256,192,98671,5,8,0:0:0:0:
256,192,98746,5,0,0:0:0:0:
256,192,98821,5,8,0:0:0:0:
256,192,98896,1,8,0:0:0:0:
256,192,98971,1,8,0:0:0:0:
256,192,99046,1,8,0:0:0:0:
256,192,99121,12,0,99571,0:0:0:0:
256,192,99721,5,4,0:0:0:0:
256,192,100021,5,8,0:0:0:0:
256,192,100321,5,0,0:0:0:0:
256,192,100396,1,0,0:0:0:0:
256,192,100471,5,8,0:0:0:0:
256,192,100546,1,8,0:0:0:0:
256,192,100621,5,0,0:0:0:0:
256,192,100921,5,8,0:0:0:0:
256,192,100996,5,0,0:0:0:0:
256,192,101071,1,0,0:0:0:0:
256,192,101221,5,8,0:0:0:0:
256,192,101296,5,0,0:0:0:0:
256,192,101371,5,8,0:0:0:0:
256,192,101521,5,8,0:0:0:0:
256,192,101596,5,0,0:0:0:0:
256,192,101671,1,0,0:0:0:0:
256,192,101746,5,8,0:0:0:0:
256,192,101821,5,0,0:0:0:0:
256,192,101971,1,0,0:0:0:0:
256,192,102046,5,8,0:0:0:0:
256,192,102121,1,8,0:0:0:0:
256,192,102346,5,0,0:0:0:0:
256,192,102571,1,0,0:0:0:0:
256,192,102721,5,8,0:0:0:0:
256,192,102871,5,0,0:0:0:0:
256,192,103021,1,0,0:0:0:0:
256,192,103171,1,0,0:0:0:0:
256,192,103246,1,0,0:0:0:0:
256,192,103321,5,8,0:0:0:0:
256,192,103471,1,8,0:0:0:0:
256,192,103546,5,0,0:0:0:0:
256,192,103621,5,8,0:0:0:0:
256,192,103771,1,8,0:0:0:0:
256,192,103921,5,0,0:0:0:0:
256,192,103996,1,0,0:0:0:0:
256,192,104071,5,8,0:0:0:0:
256,192,104146,1,8,0:0:0:0:
256,192,104221,5,0,0:0:0:0:
256,192,104371,1,0,0:0:0:0:
256,192,104521,5,8,0:0:0:0:
256,192,104596,5,0,0:0:0:0:
256,192,104671,5,8,0:0:0:0:
256,192,104746,5,0,0:0:0:0:
256,192,104821,1,0,0:0:0:0:
256,192,104971,5,8,0:0:0:0:
256,192,105046,5,0,0:0:0:0:
256,192,105121,5,8,0:0:0:0:
256,192,105196,5,0,0:0:0:0:
256,192,105271,1,0,0:0:0:0:
256,192,105421,5,8,0:0:0:0:
256,192,105496,5,0,0:0:0:0:
256,192,105571,5,8,0:0:0:0:
256,192,105646,5,0,0:0:0:0:
256,192,105721,1,0,0:0:0:0:
256,192,105871,1,0,0:0:0:0:
256,192,105946,5,8,0:0:0:0:
256,192,106021,5,0,0:0:0:0:
256,192,106096,1,0,0:0:0:0:
256,192,106171,1,0,0:0:0:0:
256,192,106321,1,0,0:0:0:0:
256,192,106396,1,0,0:0:0:0:
256,192,106471,1,0,0:0:0:0:
256,192,106546,5,8,0:0:0:0:
256,192,106621,5,0,0:0:0:0:
256,192,106696,5,8,0:0:0:0:
256,192,106771,1,8,0:0:0:0:
256,192,106921,5,4,0:0:0:0:
256,192,107221,5,8,0:0:0:0:
256,192,107371,5,0,0:0:0:0:
256,192,107446,1,0,0:0:0:0:
256,192,107521,5,8,0:0:0:0:
256,192,107671,1,8,0:0:0:0:
256,192,107821,5,0,0:0:0:0:
256,192,107896,5,8,0:0:0:0:
256,192,107971,5,0,0:0:0:0:
256,192,108121,5,8,0:0:0:0:
256,192,108196,5,0,0:0:0:0:
256,192,108271,5,8,0:0:0:0:
256,192,108346,1,8,0:0:0:0:
256,192,108421,5,0,0:0:0:0:
256,192,108571,1,0,0:0:0:0:
256,192,108646,5,8,0:0:0:0:
256,192,108721,1,8,0:0:0:0:
256,192,108796,5,0,0:0:0:0:
256,192,108871,5,8,0:0:0:0:
256,192,108946,1,8,0:0:0:0:
256,192,109021,5,0,0:0:0:0:
256,192,109321,5,12,0:0:0:0:
256,192,109471,5,0,0:0:0:0:
256,192,109546,5,8,0:0:0:0:
256,192,109621,1,8,0:0:0:0:
256,192,109696,5,0,0:0:0:0:
256,192,109771,1,0,0:0:0:0:
256,192,109921,5,8,0:0:0:0:
256,192,110071,5,0,0:0:0:0:
256,192,110146,5,8,0:0:0:0:
256,192,110221,5,0,0:0:0:0:
256,192,110296,1,0,0:0:0:0:
256,192,110371,5,8,0:0:0:0:
256,192,110521,1,8,0:0:0:0:
256,192,110671,5,0,0:0:0:0:
256,192,110746,5,8,0:0:0:0:
256,192,110821,1,8,0:0:0:0:
256,192,110896,5,0,0:0:0:0:
256,192,110971,1,0,0:0:0:0:
256,192,111121,5,8,0:0:0:0:
256,192,111196,5,0,0:0:0:0:
256,192,111271,1,0,0:0:0:0:
256,192,111346,5,8,0:0:0:0:
256,192,111421,5,0,0:0:0:0:
256,192,111571,5,12,0:0:0:0:
256,192,111871,5,0,0:0:0:0:
256,192,111946,1,0,0:0:0:0:
256,192,112021,5,8,0:0:0:0:
256,192,112096,1,8,0:0:0:0:
256,192,112171,5,0,0:0:0:0:
256,192,112321,5,8,0:0:0:0:
256,192,112396,1,8,0:0:0:0:
256,192,112471,5,0,0:0:0:0:
256,192,112546,5,8,0:0:0:0:
256,192,112621,5,0,0:0:0:0:
256,192,112771,5,8,0:0:0:0:
256,192,112921,5,0,0:0:0:0:
256,192,112996,5,8,0:0:0:0:
256,192,113071,5,0,0:0:0:0:
256,192,113146,5,8,0:0:0:0:
256,192,113221,1,8,0:0:0:0:
256,192,113371,5,0,0:0:0:0:
256,192,113446,5,8,0:0:0:0:
256,192,113521,5,0,0:0:0:0:
256,192,113596,5,8,0:0:0:0:
256,192,113671,1,8,0:0:0:0:
256,192,113821,1,8,0:0:0:0:
256,192,113971,5,0,0:0:0:0:
256,192,114046,5,8,0:0:0:0:
256,192,114121,1,8,0:0:0:0:
256,192,114271,5,0,0:0:0:0:
256,192,114346,5,8,0:0:0:0:
256,192,114421,1,8,0:0:0:0:
256,192,114496,5,0,0:0:0:0:
256,192,114571,1,0,0:0:0:0:
256,192,114721,5,8,0:0:0:0:
256,192,114796,1,8,0:0:0:0:
256,192,114871,5,0,0:0:0:0:
256,192,114946,5,8,0:0:0:0:
256,192,115021,5,0,0:0:0:0:
256,192,115321,5,8,0:0:0:0:
256,192,115396,5,0,0:0:0:0:
256,192,115471,1,0,0:0:0:0:
256,192,115546,5,8,0:0:0:0:
256,192,115621,5,0,0:0:0:0:
256,192,115696,1,0,0:0:0:0:
256,192,115771,5,8,0:0:0:0:
256,192,115921,1,8,0:0:0:0:
256,192,115996,1,8,0:0:0:0:
256,192,116071,5,0,0:0:0:0:
256,192,116146,5,8,0:0:0:0:
256,192,116221,5,0,0:0:0:0:
256,192,116371,1,0,0:0:0:0:
256,192,116446,1,0,0:0:0:0:
256,192,116521,5,8,0:0:0:0:
256,192,116671,5,0,0:0:0:0:
256,192,116746,1,0,0:0:0:0:
256,192,116821,5,8,0:0:0:0:
256,192,116971,5,0,0:0:0:0:
256,192,117021,1,0,0:0:0:0:
256,192,117071,1,0,0:0:0:0:
256,192,117121,5,8,0:0:0:0:
256,192,117271,5,0,0:0:0:0:
256,192,117321,1,0,0:0:0:0:
256,192,117371,1,0,0:0:0:0:
256,192,117421,5,8,0:0:0:0:
256,192,117571,1,12,0:0:0:0:
256,192,118321,1,8,0:0:0:0:
256,192,118396,5,0,0:0:0:0:
256,192,118471,5,8,0:0:0:0:
256,192,118546,5,0,0:0:0:0:
256,192,118621,5,8,0:0:0:0:
256,192,118696,5,0,0:0:0:0:
256,192,118771,5,8,0:0:0:0:
256,192,118846,5,0,0:0:0:0:
256,192,118921,5,8,0:0:0:0:
256,192,118996,5,0,0:0:0:0:
256,192,119071,5,8,0:0:0:0:
256,192,119146,5,0,0:0:0:0:
256,192,119221,5,8,0:0:0:0:
256,192,119296,5,0,0:0:0:0:
256,192,119371,5,8,0:0:0:0:
256,192,119446,5,0,0:0:0:0:
256,192,119521,12,0,120871,0:0:0:0:
256,192,121021,5,0,0:0:0:0:
256,192,121096,1,0,0:0:0:0:
256,192,121171,1,0,0:0:0:0:
256,192,121246,5,8,0:0:0:0:
256,192,121321,1,8,0:0:0:0:
256,192,121771,5,0,0:0:0:0:
256,192,121846,1,0,0:0:0:0:
256,192,121921,1,0,0:0:0:0:
256,192,122071,1,0,0:0:0:0:
256,192,122221,5,8,0:0:0:0:
256,192,122371,1,8,0:0:0:0:
256,192,122671,5,0,0:0:0:0:
256,192,122971,1,0,0:0:0:0:
256,192,123271,5,8,0:0:0:0:
256,192,123571,5,0,0:0:0:0:
256,192,123721,5,12,0:0:0:0:
256,192,124021,5,0,0:0:0:0:
256,192,124171,5,12,0:0:0:0:
256,192,124471,5,4,0:0:0:0:
256,192,124771,1,4,0:0:0:0:
256,192,125521,1,0,0:0:0:0:
256,192,125671,5,8,0:0:0:0:
256,192,125821,5,0,0:0:0:0:
256,192,125971,5,8,0:0:0:0:
256,192,126121,1,8,0:0:0:0:
256,192,126421,1,12,0:0:0:0:
256,192,126571,5,0,0:0:0:0:
256,192,126721,1,0,0:0:0:0:
256,192,126796,1,0,0:0:0:0:
256,192,126871,5,8,0:0:0:0:
256,192,127021,5,0,0:0:0:0:
256,192,127171,5,8,0:0:0:0:
256,192,127321,1,8,0:0:0:0:
256,192,127471,1,8,0:0:0:0:
256,192,127546,1,8,0:0:0:0:
256,192,127621,5,0,0:0:0:0:
256,192,127771,1,0,0:0:0:0:
256,192,127846,1,0,0:0:0:0:
256,192,127921,5,8,0:0:0:0:
256,192,128071,5,0,0:0:0:0:
256,192,128146,5,8,0:0:0:0:
256,192,128221,5,0,0:0:0:0:
256,192,128371,1,0,0:0:0:0:
256,192,128521,5,8,0:0:0:0:
256,192,128671,1,8,0:0:0:0:
256,192,128746,5,0,0:0:0:0:
256,192,128821,1,0,0:0:0:0:
256,192,128971,1,4,0:0:0:0:
256,192,129271,1,4,0:0:0:0:
256,192,129421,5,8,0:0:0:0:
256,192,129571,5,4,0:0:0:0:
256,192,129871,1,0,0:0:0:0:
256,192,130021,5,8,0:0:0:0:
256,192,130096,1,8,0:0:0:0:
256,192,130171,5,0,0:0:0:0:
256,192,130321,1,0,0:0:0:0:
256,192,130471,1,0,0:0:0:0:
256,192,130521,1,0,0:0:0:0:
256,192,130571,1,0,0:0:0:0:
256,192,130621,5,8,0:0:0:0:
256,192,130771,5,0,0:0:0:0:
256,192,130821,1,0,0:0:0:0:
256,192,130871,1,0,0:0:0:0:
256,192,130921,5,8,0:0:0:0:
256,192,131146,5,0,0:0:0:0:
256,192,131221,5,8,0:0:0:0:
256,192,131371,1,8,0:0:0:0:
256,192,131446,1,8,0:0:0:0:
256,192,131521,5,0,0:0:0:0:
256,192,131671,1,0,0:0:0:0:
256,192,131746,5,8,0:0:0:0:
256,192,131821,1,8,0:0:0:0:
256,192,131971,5,0,0:0:0:0:
256,192,132121,1,0,0:0:0:0:
256,192,132271,1,0,0:0:0:0:
256,192,132346,1,0,0:0:0:0:
256,192,132421,5,8,0:0:0:0:
256,192,132571,1,8,0:0:0:0:
256,192,132646,1,8,0:0:0:0:
256,192,132721,5,0,0:0:0:0:
256,192,132871,1,0,0:0:0:0:
256,192,132946,1,0,0:0:0:0:
256,192,133021,5,8,0:0:0:0:
256,192,133171,1,8,0:0:0:0:
256,192,133321,1,12,0:0:0:0:
256,192,133471,5,0,0:0:0:0:
256,192,133546,1,0,0:0:0:0:
256,192,133621,1,0,0:0:0:0:
256,192,133771,5,8,0:0:0:0:
256,192,133921,5,0,0:0:0:0:
256,192,133996,1,0,0:0:0:0:
256,192,134071,5,8,0:0:0:0:
256,192,134221,5,0,0:0:0:0:
256,192,134371,5,8,0:0:0:0:
256,192,134521,1,12,0:0:0:0:
256,192,134671,5,0,0:0:0:0:
256,192,134746,5,8,0:0:0:0:
256,192,134821,5,0,0:0:0:0:
256,192,134896,1,0,0:0:0:0:
256,192,134971,5,8,0:0:0:0:
256,192,135121,5,4,0:0:0:0:
256,192,135271,5,8,0:0:0:0:
256,192,135346,5,0,0:0:0:0:
256,192,135421,5,8,0:0:0:0:
256,192,135496,5,0,0:0:0:0:
256,192,135571,1,0,0:0:0:0:
256,192,135721,5,12,0:0:0:0:
256,192,135871,5,0,0:0:0:0:
256,192,135946,1,0,0:0:0:0:
256,192,136021,5,8,0:0:0:0:
256,192,136171,1,12,0:0:0:0:
256,192,136321,5,0,0:0:0:0:
256,192,136396,1,0,0:0:0:0:
256,192,136471,5,8,0:0:0:0:
256,192,136621,1,12,0:0:0:0:
256,192,136771,5,0,0:0:0:0:
256,192,136846,5,8,0:0:0:0:
256,192,136921,1,8,0:0:0:0:
256,192,137071,5,4,0:0:0:0:
256,192,137371,1,0,0:0:0:0:
256,192,137521,5,8,0:0:0:0:
256,192,137596,1,8,0:0:0:0:
256,192,137671,5,0,0:0:0:0:
256,192,137746,1,0,0:0:0:0:
256,192,137821,5,8,0:0:0:0:
256,192,137896,5,0,0:0:0:0:
256,192,137971,1,0,0:0:0:0:
256,192,138121,5,12,0:0:0:0:
256,192,138271,5,0,0:0:0:0:
256,192,138346,1,0,0:0:0:0:
256,192,138421,5,8,0:0:0:0:
256,192,138571,1,12,0:0:0:0:
256,192,138721,5,0,0:0:0:0:
256,192,138796,1,0,0:0:0:0:
256,192,138871,5,8,0:0:0:0:
256,192,139021,1,12,0:0:0:0:
256,192,139171,5,0,0:0:0:0:
256,192,139246,5,8,0:0:0:0:
256,192,139321,1,8,0:0:0:0:
256,192,139471,5,4,0:0:0:0:
256,192,139771,1,0,0:0:0:0:
256,192,139846,1,0,0:0:0:0:
256,192,139921,5,8,0:0:0:0:
256,192,140146,5,0,0:0:0:0:
256,192,140371,1,0,0:0:0:0:
256,192,140521,5,12,0:0:0:0:
256,192,140671,5,0,0:0:0:0:
256,192,140746,1,0,0:0:0:0:
256,192,140821,5,8,0:0:0:0:
256,192,140971,5,0,0:0:0:0:
256,192,141046,1,0,0:0:0:0:
256,192,141121,5,8,0:0:0:0:
256,192,141196,1,8,0:0:0:0:
256,192,141271,5,0,0:0:0:0:
256,192,141346,1,0,0:0:0:0:
256,192,141421,5,8,0:0:0:0:
256,192,141571,1,12,0:0:0:0:
256,192,141721,12,0,143521,0:0:0:0:
256,192,143821,5,0,0:0:0:0:
256,192,143896,1,0,0:0:0:0:
256,192,143971,1,0,0:0:0:0:
256,192,144046,5,8,0:0:0:0:
256,192,144121,1,8,0:0:0:0:
256,192,144571,5,0,0:0:0:0:
256,192,144646,1,0,0:0:0:0:
256,192,144721,1,0,0:0:0:0:
256,192,144871,1,0,0:0:0:0:
256,192,145021,5,8,0:0:0:0:
256,192,145171,5,0,0:0:0:0:
256,192,145471,1,0,0:0:0:0:
256,192,145546,5,8,0:0:0:0:
256,192,145621,5,0,0:0:0:0:
256,192,145771,1,0,0:0:0:0:
256,192,145921,5,8,0:0:0:0:
256,192,146071,5,0,0:0:0:0:
256,192,146221,1,0,0:0:0:0:
256,192,146371,1,0,0:0:0:0:
256,192,146446,5,8,0:0:0:0:
256,192,146521,1,8,0:0:0:0:
256,192,146821,5,0,0:0:0:0:
256,192,146971,5,8,0:0:0:0:
256,192,147271,1,8,0:0:0:0:
256,192,147421,5,0,0:0:0:0:
256,192,147571,5,8,0:0:0:0:
256,192,147871,5,0,0:0:0:0:
256,192,148021,5,8,0:0:0:0:
256,192,148171,5,0,0:0:0:0:
256,192,148321,5,8,0:0:0:0:
256,192,148471,5,0,0:0:0:0:
256,192,148621,1,0,0:0:0:0:
256,192,148771,5,8,0:0:0:0:
256,192,148921,5,4,0:0:0:0:
256,192,149371,1,0,0:0:0:0:
256,192,149446,5,8,0:0:0:0:
256,192,149521,5,0,0:0:0:0:
256,192,149746,5,8,0:0:0:0:
256,192,149971,1,8,0:0:0:0:
256,192,150121,5,0,0:0:0:0:
256,192,150421,5,8,0:0:0:0:
256,192,150721,5,0,0:0:0:0:
256,192,150796,5,8,0:0:0:0:
256,192,150871,5,0,0:0:0:0:
256,192,151021,1,0,0:0:0:0:
256,192,151171,5,8,0:0:0:0:
256,192,151321,1,12,0:0:0:0:
256,192,151471,5,0,0:0:0:0:
256,192,151546,1,0,0:0:0:0:
256,192,151621,5,8,0:0:0:0:
256,192,151771,5,0,0:0:0:0:
256,192,151846,1,0,0:0:0:0:
256,192,151921,5,8,0:0:0:0:
256,192,152071,5,0,0:0:0:0:
256,192,152221,5,8,0:0:0:0:
256,192,152371,5,4,0:0:0:0:
256,192,153121,5,8,0:0:0:0:
256,192,153196,5,0,0:0:0:0:
256,192,153271,5,8,0:0:0:0:
256,192,153346,5,0,0:0:0:0:
256,192,153421,5,8,0:0:0:0:
256,192,153496,5,0,0:0:0:0:
256,192,153571,5,8,0:0:0:0:
256,192,153646,5,0,0:0:0:0:
256,192,153721,5,8,0:0:0:0:
256,192,153796,5,0,0:0:0:0:
256,192,153871,5,8,0:0:0:0:
256,192,153946,5,0,0:0:0:0:
256,192,154021,5,8,0:0:0:0:
256,192,154096,5,0,0:0:0:0:
256,192,154171,5,8,0:0:0:0:
256,192,154246,5,0,0:0:0:0:
256,192,154321,5,8,0:0:0:0:
256,192,154396,1,8,0:0:0:0:
256,192,154471,5,0,0:0:0:0:
256,192,154546,5,8,0:0:0:0:
256,192,154621,1,8,0:0:0:0:
256,192,154696,5,0,0:0:0:0:
256,192,154771,5,8,0:0:0:0:
256,192,154846,5,0,0:0:0:0:
256,192,155221,12,0,157321,0:0:0:0:
