osu file format v14

[General]
AudioFilename: audio.mp3
AudioLeadIn: 0
PreviewTime: 76596
Countdown: 0
SampleSet: Normal
StackLeniency: 0.7
Mode: 1
LetterboxInBreaks: 0
WidescreenStoryboard: 0

[Editor]
DistanceSpacing: 1
BeatDivisor: 4
GridSize: 32
TimelineZoom: 2.3

[Metadata]
Title:Sayonara Cosmonaut
TitleUnicode:さよならコスモノート
Artist:AAAA Chazuke
ArtistUnicode:ああああ茶漬け
Creator:D o t
Version:Oni
Source:BMS
Tags:BOFU BMS of Fighters Ultimate 2017 8-bit chiptune Umeboshi Astro Notes _DUSK_ aabc271 Faputa
BeatmapID:1481628
BeatmapSetID:694743

[Difficulty]
HPDrainRate:6
CircleSize:5
OverallDifficulty:6
ApproachRate:5
SliderMultiplier:1.4
SliderTickRate:1

[Events]
//Background and Video events
0,0,"DLyK5P5UMAAmpKW.jpg",0,120
//Break Periods
//Storyboard Layer 0 (Background)
//Storyboard Layer 1 (Fail)
//Storyboard Layer 2 (Pass)
//Storyboard Layer 3 (Foreground)
//Storyboard Sound Samples

[TimingPoints]
121,300,4,1,0,70,1,0
1021,-111.111111111111,4,1,0,70,0,0
6121,-106.382978723404,4,1,0,70,0,0
6571,-104.166666666667,4,1,0,100,0,0
8521,-102.040816326531,4,1,0,100,0,0
10321,-100,4,1,0,100,0,0
29821,-103.092783505155,4,1,0,100,0,0
31396,-105.263157894737,4,1,0,100,0,0
44821,-100,4,1,0,100,0,0
55321,-111.111111111111,4,1,0,100,0,0
64771,-105.263157894737,4,1,0,100,0,0
64921,-100,4,1,0,100,0,0
99721,-100,4,1,0,100,0,1
119521,-100,4,1,0,100,0,0
121021,-106.382978723404,4,1,0,100,0,0
126421,-100,4,1,0,100,0,1
141571,-100,4,1,0,100,0,0
143746,-111.111111111111,4,1,0,70,0,0
148921,-106.382978723404,4,1,0,100,0,0
149221,-104.166666666667,4,1,0,100,0,0
151321,-102.040816326531,4,1,0,100,0,0
153121,-100,4,1,0,100,0,0
154321,-100,4,1,0,75,0,0
155221,-100,4,1,0,40,0,0

[HitObjects]
256,192,1021,5,0,0:0:0:0:
256,192,1096,1,0,0:0:0:0:
256,192,1171,1,0,0:0:0:0:
256,192,1246,1,2,0:0:0:0:
256,192,1321,1,2,0:0:0:0:
256,192,1621,1,0,0:0:0:0:
256,192,1771,1,2,0:0:0:0:
256,192,1846,1,0,0:0:0:0:
256,192,1921,1,2,0:0:0:0:
256,192,2071,1,0,0:0:0:0:
256,192,2221,1,2,0:0:0:0:
256,192,2371,1,2,0:0:0:0:
256,192,2671,1,2,0:0:0:0:
256,192,2971,1,0,0:0:0:0:
256,192,3271,1,2,0:0:0:0:
256,192,3571,1,0,0:0:0:0:
256,192,3646,1,0,0:0:0:0:
256,192,3721,1,2,0:0:0:0:
256,192,4021,1,0,0:0:0:0:
256,192,4171,1,2,0:0:0:0:
256,192,4471,1,2,0:0:0:0:
256,192,4621,1,0,0:0:0:0:
256,192,4771,1,0,0:0:0:0:
256,192,5071,1,0,0:0:0:0:
256,192,5221,1,2,0:0:0:0:
256,192,5371,1,0,0:0:0:0:
256,192,5521,1,2,0:0:0:0:
256,192,5671,1,2,0:0:0:0:
256,192,5746,1,2,0:0:0:0:
256,192,5821,1,0,0:0:0:0:
256,192,5971,1,2,0:0:0:0:
256,192,6121,1,4,0:0:0:0:
256,192,6421,1,2,0:0:0:0:
256,192,6571,1,0,0:0:0:0:
256,192,6646,1,0,0:0:0:0:
256,192,6721,1,2,0:0:0:0:
256,192,6946,1,2,0:0:0:0:
256,192,7171,1,2,0:0:0:0:
256,192,7321,1,0,0:0:0:0:
256,192,7621,1,2,0:0:0:0:
256,192,7921,1,2,0:0:0:0:
256,192,7996,1,2,0:0:0:0:
256,192,8071,1,0,0:0:0:0:
256,192,8146,1,0,0:0:0:0:
256,192,8221,1,2,0:0:0:0:
256,192,8371,1,2,0:0:0:0:
256,192,8521,1,4,0:0:0:0:
256,192,8821,1,2,0:0:0:0:
256,192,8971,1,0,0:0:0:0:
256,192,9046,1,0,0:0:0:0:
256,192,9121,1,2,0:0:0:0:
256,192,9271,1,0,0:0:0:0:
256,192,9421,1,2,0:0:0:0:
256,192,9571,1,6,0:0:0:0:
256,192,10321,2,0,L|192:192,16,35
256,192,12121,1,4,0:0:0:0:
256,192,12271,1,0,0:0:0:0:
256,192,12421,1,2,0:0:0:0:
256,192,12571,1,0,0:0:0:0:
256,192,12646,1,0,0:0:0:0:
256,192,12721,1,2,0:0:0:0:
256,192,12871,1,0,0:0:0:0:
256,192,13021,1,2,0:0:0:0:
256,192,13171,1,2,0:0:0:0:
256,192,13471,1,2,0:0:0:0:
256,192,13621,1,0,0:0:0:0:
256,192,13771,1,0,0:0:0:0:
256,192,13921,1,2,0:0:0:0:
256,192,14071,1,0,0:0:0:0:
256,192,14146,1,2,0:0:0:0:
256,192,14221,1,2,0:0:0:0:
256,192,14371,1,0,0:0:0:0:
256,192,14521,1,2,0:0:0:0:
256,192,14821,1,0,0:0:0:0:
256,192,14971,1,2,0:0:0:0:
256,192,15121,1,0,0:0:0:0:
256,192,15271,1,2,0:0:0:0:
256,192,15346,1,2,0:0:0:0:
256,192,15421,1,0,0:0:0:0:
256,192,15571,1,0,0:0:0:0:
256,192,15871,1,2,0:0:0:0:
256,192,15946,1,2,0:0:0:0:
256,192,16021,1,0,0:0:0:0:
256,192,16171,1,2,0:0:0:0:
256,192,16471,1,2,0:0:0:0:
256,192,16771,1,0,0:0:0:0:
256,192,16846,1,0,0:0:0:0:
256,192,16921,1,2,0:0:0:0:
256,192,17071,1,0,0:0:0:0:
256,192,17221,1,2,0:0:0:0:
256,192,17371,1,0,0:0:0:0:
256,192,17446,1,2,0:0:0:0:
256,192,17521,1,0,0:0:0:0:
256,192,17671,1,0,0:0:0:0:
256,192,17746,1,0,0:0:0:0:
256,192,17821,1,2,0:0:0:0:
256,192,17971,1,2,0:0:0:0:
256,192,18271,1,0,0:0:0:0:
256,192,18421,1,2,0:0:0:0:
256,192,18571,1,2,0:0:0:0:
256,192,18721,1,0,0:0:0:0:
256,192,18871,1,0,0:0:0:0:
256,192,18946,1,0,0:0:0:0:
256,192,19021,1,2,0:0:0:0:
256,192,19171,1,2,0:0:0:0:
256,192,19246,1,0,0:0:0:0:
256,192,19321,1,2,0:0:0:0:
256,192,19471,1,0,0:0:0:0:
256,192,19621,1,2,0:0:0:0:
256,192,19696,1,0,0:0:0:0:
256,192,19771,1,0,0:0:0:0:
256,192,19846,1,2,0:0:0:0:
256,192,19921,1,0,0:0:0:0:
256,192,20071,1,0,0:0:0:0:
256,192,20221,1,0,0:0:0:0:
256,192,20371,1,6,0:0:0:0:
256,192,20971,1,0,0:0:0:0:
256,192,21271,1,0,0:0:0:0:
256,192,21421,1,2,0:0:0:0:
256,192,21496,1,2,0:0:0:0:
256,192,21571,1,2,0:0:0:0:
256,192,21721,1,4,0:0:0:0:
256,192,22021,1,0,0:0:0:0:
256,192,22171,1,0,0:0:0:0:
256,192,22246,1,0,0:0:0:0:
256,192,22321,1,2,0:0:0:0:
256,192,22471,1,2,0:0:0:0:
256,192,22621,1,2,0:0:0:0:
256,192,22771,1,0,0:0:0:0:
256,192,23071,1,0,0:0:0:0:
256,192,23221,1,2,0:0:0:0:
256,192,23371,1,2,0:0:0:0:
256,192,23671,1,0,0:0:0:0:
256,192,23821,1,2,0:0:0:0:
256,192,23971,1,2,0:0:0:0:
256,192,24121,1,4,0:0:0:0:
256,192,24271,1,2,0:0:0:0:
256,192,24346,1,2,0:0:0:0:
256,192,24421,1,2,0:0:0:0:
256,192,24571,1,4,0:0:0:0:
256,192,24721,1,2,0:0:0:0:
256,192,24796,1,2,0:0:0:0:
256,192,24871,1,2,0:0:0:0:
256,192,25021,1,0,0:0:0:0:
256,192,25171,1,6,0:0:0:0:
256,192,25471,1,2,0:0:0:0:
256,192,25621,1,0,0:0:0:0:
256,192,25771,1,6,0:0:0:0:
256,192,26071,1,0,0:0:0:0:
256,192,26221,1,2,0:0:0:0:
256,192,26371,1,2,0:0:0:0:
256,192,26446,1,2,0:0:0:0:
256,192,26521,1,0,0:0:0:0:
256,192,26821,1,2,0:0:0:0:
256,192,26971,1,0,0:0:0:0:
256,192,27046,1,2,0:0:0:0:
256,192,27121,1,0,0:0:0:0:
256,192,27271,1,0,0:0:0:0:
256,192,27421,1,2,0:0:0:0:
256,192,27571,1,2,0:0:0:0:
256,192,27646,1,2,0:0:0:0:
256,192,27721,1,0,0:0:0:0:
256,192,27871,1,0,0:0:0:0:
256,192,28021,1,2,0:0:0:0:
256,192,28171,1,0,0:0:0:0:
256,192,28246,1,0,0:0:0:0:
256,192,28321,1,2,0:0:0:0:
256,192,28396,1,2,0:0:0:0:
256,192,28471,1,0,0:0:0:0:
256,192,28621,1,2,0:0:0:0:
256,192,28771,1,2,0:0:0:0:
256,192,28921,1,0,0:0:0:0:
256,192,29221,1,0,0:0:0:0:
256,192,29371,1,2,0:0:0:0:
256,192,29521,1,2,0:0:0:0:
256,192,29821,1,2,0:0:0:0:
256,192,30021,1,2,0:0:0:0:
256,192,30121,1,0,0:0:0:0:
256,192,30321,1,0,0:0:0:0:
256,192,30521,1,0,0:0:0:0:
256,192,30621,1,0,0:0:0:0:
256,192,30721,1,2,0:0:0:0:
256,192,30921,1,2,0:0:0:0:
256,192,31121,1,2,0:0:0:0:
256,192,31221,1,2,0:0:0:0:
256,192,31321,1,0,0:0:0:0:
256,192,31521,1,0,0:0:0:0:
256,192,31621,1,2,0:0:0:0:
256,192,31821,1,2,0:0:0:0:
256,192,31921,1,0,0:0:0:0:
256,192,32121,1,0,0:0:0:0:
256,192,32221,1,2,0:0:0:0:
256,192,32521,1,0,0:0:0:0:
256,192,32721,1,2,0:0:0:0:
256,192,32821,1,2,0:0:0:0:
256,192,33021,1,2,0:0:0:0:
256,192,33121,1,0,0:0:0:0:
256,192,33321,1,0,0:0:0:0:
256,192,33421,1,2,0:0:0:0:
256,192,33721,1,0,0:0:0:0:
256,192,34021,1,2,0:0:0:0:
256,192,34121,1,0,0:0:0:0:
256,192,34221,1,0,0:0:0:0:
256,192,34321,1,2,0:0:0:0:
256,192,34521,1,2,0:0:0:0:
256,192,34721,1,2,0:0:0:0:
256,192,34921,1,0,0:0:0:0:
256,192,35121,1,0,0:0:0:0:
256,192,35221,1,2,0:0:0:0:
256,192,35421,1,2,0:0:0:0:
256,192,35521,1,0,0:0:0:0:
256,192,35721,1,0,0:0:0:0:
256,192,35821,1,2,0:0:0:0:
256,192,36121,1,0,0:0:0:0:
256,192,36421,1,2,0:0:0:0:
256,192,36621,1,0,0:0:0:0:
256,192,36721,1,0,0:0:0:0:
256,192,36921,1,0,0:0:0:0:
256,192,37021,1,2,0:0:0:0:
256,192,37321,1,0,0:0:0:0:
256,192,37621,1,2,0:0:0:0:
256,192,37821,1,2,0:0:0:0:
256,192,37921,1,0,0:0:0:0:
256,192,38121,1,0,0:0:0:0:
256,192,38221,1,0,0:0:0:0:
256,192,38421,1,0,0:0:0:0:
256,192,38521,1,2,0:0:0:0:
256,192,38821,1,2,0:0:0:0:
256,192,39021,1,2,0:0:0:0:
256,192,39121,1,0,0:0:0:0:
256,192,39321,1,0,0:0:0:0:
256,192,39421,1,2,0:0:0:0:
256,192,39721,1,0,0:0:0:0:
256,192,39921,1,0,0:0:0:0:
256,192,40021,1,2,0:0:0:0:
256,192,40221,1,2,0:0:0:0:
256,192,40321,1,0,0:0:0:0:
256,192,40421,1,0,0:0:0:0:
256,192,40521,1,0,0:0:0:0:
256,192,40621,1,2,0:0:0:0:
256,192,40821,1,2,0:0:0:0:
256,192,40921,1,0,0:0:0:0:
256,192,41221,1,2,0:0:0:0:
256,192,41421,1,2,0:0:0:0:
256,192,41521,1,0,0:0:0:0:
256,192,41721,1,0,0:0:0:0:
256,192,41821,1,2,0:0:0:0:
256,192,42121,1,0,0:0:0:0:
256,192,42321,1,0,0:0:0:0:
256,192,42421,1,2,0:0:0:0:
256,192,42621,1,2,0:0:0:0:
256,192,42721,1,0,0:0:0:0:
256,192,42921,1,0,0:0:0:0:
256,192,43021,1,2,0:0:0:0:
256,192,43321,1,0,0:0:0:0:
256,192,43521,1,0,0:0:0:0:
256,192,43621,1,2,0:0:0:0:
256,192,43821,1,2,0:0:0:0:
256,192,43921,1,0,0:0:0:0:
256,192,44121,1,0,0:0:0:0:
256,192,44321,1,2,0:0:0:0:
256,192,44521,1,2,0:0:0:0:
256,192,45121,1,2,0:0:0:0:
256,192,45271,1,2,0:0:0:0:
256,192,45346,1,2,0:0:0:0:
256,192,45421,1,2,0:0:0:0:
256,192,45571,1,2,0:0:0:0:
256,192,45721,1,4,0:0:0:0:
256,192,45871,1,0,0:0:0:0:
256,192,46021,1,2,0:0:0:0:
256,192,46171,1,0,0:0:0:0:
256,192,46246,1,0,0:0:0:0:
256,192,46321,1,2,0:0:0:0:
256,192,46471,1,0,0:0:0:0:
256,192,46621,1,2,0:0:0:0:
256,192,46771,1,6,0:0:0:0:
256,192,47071,1,2,0:0:0:0:
256,192,47146,1,2,0:0:0:0:
256,192,47221,1,0,0:0:0:0:
256,192,47371,1,0,0:0:0:0:
256,192,47521,1,2,0:0:0:0:
256,192,47671,1,0,0:0:0:0:
256,192,47746,1,2,0:0:0:0:
256,192,47821,1,0,0:0:0:0:
256,192,47896,1,0,0:0:0:0:
256,192,47971,1,2,0:0:0:0:
256,192,48121,1,4,0:0:0:0:
256,192,48271,1,0,0:0:0:0:
256,192,48346,1,0,0:0:0:0:
256,192,48421,1,2,0:0:0:0:
256,192,48571,1,0,0:0:0:0:
256,192,48721,1,2,0:0:0:0:
256,192,48871,1,0,0:0:0:0:
256,192,48946,1,0,0:0:0:0:
256,192,49021,1,0,0:0:0:0:
256,192,49171,1,6,0:0:0:0:
256,192,49471,1,2,0:0:0:0:
256,192,49621,1,0,0:0:0:0:
256,192,49771,1,2,0:0:0:0:
256,192,49846,1,2,0:0:0:0:
256,192,49921,1,0,0:0:0:0:
256,192,50071,1,0,0:0:0:0:
256,192,50146,1,0,0:0:0:0:
256,192,50221,1,2,0:0:0:0:
256,192,50296,1,0,0:0:0:0:
256,192,50371,1,2,0:0:0:0:
256,192,50521,1,6,0:0:0:0:
256,192,50821,1,2,0:0:0:0:
256,192,50971,1,0,0:0:0:0:
256,192,51121,1,2,0:0:0:0:
256,192,51421,1,2,0:0:0:0:
256,192,51571,1,0,0:0:0:0:
256,192,51721,1,2,0:0:0:0:
256,192,52021,1,2,0:0:0:0:
256,192,52171,1,0,0:0:0:0:
256,192,52321,1,2,0:0:0:0:
256,192,52471,1,0,0:0:0:0:
256,192,52546,1,0,0:0:0:0:
256,192,52621,1,2,0:0:0:0:
256,192,52771,1,0,0:0:0:0:
256,192,52921,1,2,0:0:0:0:
256,192,53221,1,2,0:0:0:0:
256,192,53371,1,0,0:0:0:0:
256,192,53521,1,2,0:0:0:0:
256,192,53821,1,2,0:0:0:0:
256,192,53971,1,0,0:0:0:0:
256,192,54121,1,2,0:0:0:0:
256,192,54271,1,0,0:0:0:0:
256,192,54346,1,0,0:0:0:0:
256,192,54421,1,0,0:0:0:0:
256,192,54571,1,2,0:0:0:0:
256,192,54871,1,6,0:0:0:0:
256,192,55321,1,4,0:0:0:0:
256,192,55621,1,2,0:0:0:0:
256,192,56221,1,2,0:0:0:0:
256,192,56821,1,2,0:0:0:0:
256,192,57421,1,2,0:0:0:0:
256,192,57571,1,0,0:0:0:0:
256,192,57721,1,6,0:0:0:0:
256,192,58021,1,2,0:0:0:0:
256,192,58621,1,2,0:0:0:0:
256,192,59071,1,0,0:0:0:0:
256,192,59221,1,2,0:0:0:0:
256,192,59371,1,2,0:0:0:0:
256,192,59521,1,0,0:0:0:0:
256,192,59746,1,0,0:0:0:0:
256,192,59971,1,0,0:0:0:0:
256,192,60121,1,6,0:0:0:0:
256,192,60571,1,0,0:0:0:0:
256,192,60721,1,2,0:0:0:0:
256,192,61171,1,0,0:0:0:0:
256,192,61321,1,0,0:0:0:0:
256,192,61546,1,0,0:0:0:0:
256,192,61771,1,0,0:0:0:0:
256,192,61921,1,2,0:0:0:0:
256,192,62221,1,2,0:0:0:0:
256,192,62371,1,0,0:0:0:0:
256,192,62521,1,6,0:0:0:0:
256,192,62971,1,0,0:0:0:0:
256,192,63121,1,6,0:0:0:0:
256,192,63571,1,0,0:0:0:0:
256,192,63721,1,2,0:0:0:0:
256,192,63871,1,0,0:0:0:0:
256,192,64021,1,2,0:0:0:0:
256,192,64171,1,2,0:0:0:0:
256,192,64321,1,0,0:0:0:0:
256,192,64396,1,0,0:0:0:0:
256,192,64471,1,2,0:0:0:0:
256,192,64546,1,2,0:0:0:0:
256,192,64621,1,0,0:0:0:0:
256,192,64771,1,0,0:0:0:0:
256,192,64921,1,6,0:0:0:0:
256,192,65221,1,2,0:0:0:0:
256,192,65371,1,0,0:0:0:0:
256,192,65521,1,0,0:0:0:0:
256,192,65596,1,2,0:0:0:0:
256,192,65671,1,0,0:0:0:0:
256,192,65821,1,2,0:0:0:0:
256,192,65971,1,0,0:0:0:0:
256,192,66121,1,2,0:0:0:0:
256,192,66271,1,0,0:0:0:0:
256,192,66346,1,0,0:0:0:0:
256,192,66421,1,2,0:0:0:0:
256,192,66571,1,0,0:0:0:0:
256,192,66721,1,0,0:0:0:0:
256,192,66796,1,0,0:0:0:0:
256,192,66871,1,2,0:0:0:0:
256,192,66946,1,2,0:0:0:0:
256,192,67021,1,0,0:0:0:0:
256,192,67171,1,0,0:0:0:0:
256,192,67321,1,2,0:0:0:0:
256,192,67621,1,2,0:0:0:0:
256,192,67771,1,0,0:0:0:0:
256,192,67921,1,0,0:0:0:0:
256,192,67996,1,2,0:0:0:0:
256,192,68071,1,0,0:0:0:0:
256,192,68221,1,2,0:0:0:0:
256,192,68371,1,0,0:0:0:0:
256,192,68521,1,2,0:0:0:0:
256,192,68671,1,0,0:0:0:0:
256,192,68746,1,0,0:0:0:0:
256,192,68821,1,2,0:0:0:0:
256,192,68971,1,0,0:0:0:0:
256,192,69121,1,2,0:0:0:0:
256,192,69196,1,2,0:0:0:0:
256,192,69271,1,2,0:0:0:0:
256,192,69346,1,2,0:0:0:0:
256,192,69421,1,0,0:0:0:0:
256,192,69571,1,0,0:0:0:0:
256,192,69721,1,6,0:0:0:0:
256,192,70021,1,2,0:0:0:0:
256,192,70171,1,0,0:0:0:0:
256,192,70321,1,0,0:0:0:0:
256,192,70396,1,2,0:0:0:0:
256,192,70471,1,0,0:0:0:0:
256,192,70621,1,2,0:0:0:0:
256,192,70771,1,0,0:0:0:0:
256,192,70921,1,2,0:0:0:0:
256,192,71071,1,0,0:0:0:0:
256,192,71146,1,0,0:0:0:0:
256,192,71221,1,2,0:0:0:0:
256,192,71371,1,0,0:0:0:0:
256,192,71521,1,0,0:0:0:0:
256,192,71596,1,0,0:0:0:0:
256,192,71671,1,2,0:0:0:0:
256,192,71746,1,2,0:0:0:0:
256,192,71821,1,0,0:0:0:0:
256,192,71971,1,0,0:0:0:0:
256,192,72121,1,2,0:0:0:0:
256,192,72421,1,2,0:0:0:0:
256,192,72571,1,0,0:0:0:0:
256,192,72721,1,0,0:0:0:0:
256,192,72796,1,2,0:0:0:0:
256,192,72871,1,0,0:0:0:0:
256,192,73021,1,2,0:0:0:0:
256,192,73171,1,0,0:0:0:0:
256,192,73321,1,2,0:0:0:0:
256,192,73471,1,0,0:0:0:0:
256,192,73546,1,0,0:0:0:0:
256,192,73621,1,2,0:0:0:0:
256,192,73771,1,0,0:0:0:0:
256,192,73921,1,2,0:0:0:0:
256,192,73996,1,2,0:0:0:0:
256,192,74071,1,2,0:0:0:0:
256,192,74146,1,2,0:0:0:0:
256,192,74221,1,0,0:0:0:0:
256,192,74371,1,0,0:0:0:0:
256,192,74446,1,2,0:0:0:0:
256,192,74521,1,0,0:0:0:0:
256,192,76621,1,6,0:0:0:0:
256,192,76771,1,2,0:0:0:0:
256,192,76846,1,2,0:0:0:0:
256,192,76921,1,0,0:0:0:0:
256,192,77221,1,0,0:0:0:0:
256,192,77371,1,2,0:0:0:0:
256,192,77446,1,0,0:0:0:0:
256,192,77521,1,2,0:0:0:0:
256,192,77671,1,0,0:0:0:0:
256,192,77746,1,0,0:0:0:0:
256,192,77821,1,2,0:0:0:0:
256,192,77971,1,2,0:0:0:0:
256,192,78271,1,2,0:0:0:0:
256,192,78346,1,2,0:0:0:0:
256,192,78421,1,0,0:0:0:0:
256,192,78571,1,0,0:0:0:0:
256,192,78721,1,2,0:0:0:0:
256,192,78871,1,0,0:0:0:0:
256,192,79021,1,2,0:0:0:0:
256,192,79096,1,0,0:0:0:0:
256,192,79171,1,2,0:0:0:0:
256,192,79246,1,0,0:0:0:0:
256,192,79321,1,2,0:0:0:0:
256,192,79546,1,2,0:0:0:0:
256,192,79621,1,0,0:0:0:0:
256,192,79771,1,2,0:0:0:0:
256,192,80071,1,2,0:0:0:0:
256,192,80221,1,0,0:0:0:0:
256,192,80371,1,6,0:0:0:0:
256,192,80671,1,0,0:0:0:0:
256,192,80821,1,2,0:0:0:0:
256,192,80971,1,2,0:0:0:0:
256,192,81046,1,2,0:0:0:0:
256,192,81121,1,0,0:0:0:0:
256,192,81271,1,0,0:0:0:0:
256,192,81346,1,2,0:0:0:0:
256,192,81421,1,0,0:0:0:0:
256,192,81496,1,0,0:0:0:0:
256,192,81571,1,2,0:0:0:0:
256,192,81721,1,6,0:0:0:0:
256,192,81946,1,0,0:0:0:0:
256,192,82021,1,2,0:0:0:0:
256,192,82171,1,2,0:0:0:0:
256,192,82321,1,0,0:0:0:0:
256,192,82471,1,2,0:0:0:0:
256,192,82546,1,2,0:0:0:0:
256,192,82621,1,0,0:0:0:0:
256,192,82771,1,2,0:0:0:0:
256,192,83071,1,0,0:0:0:0:
256,192,83221,1,2,0:0:0:0:
256,192,83371,1,2,0:0:0:0:
256,192,83446,1,2,0:0:0:0:
256,192,83521,1,0,0:0:0:0:
256,192,83596,1,2,0:0:0:0:
256,192,83671,1,0,0:0:0:0:
256,192,83821,1,2,0:0:0:0:
256,192,83971,1,2,0:0:0:0:
256,192,84046,1,2,0:0:0:0:
256,192,84121,1,0,0:0:0:0:
256,192,84346,1,0,0:0:0:0:
256,192,84421,1,2,0:0:0:0:
256,192,84571,1,0,0:0:0:0:
256,192,84871,1,0,0:0:0:0:
256,192,85021,1,2,0:0:0:0:
256,192,85171,1,6,0:0:0:0:
256,192,85471,1,0,0:0:0:0:
256,192,85546,1,0,0:0:0:0:
256,192,85621,1,2,0:0:0:0:
256,192,85771,1,0,0:0:0:0:
256,192,85921,1,2,0:0:0:0:
256,192,86071,1,2,0:0:0:0:
256,192,86146,1,2,0:0:0:0:
256,192,86221,1,0,0:0:0:0:
256,192,86371,1,0,0:0:0:0:
256,192,86446,1,0,0:0:0:0:
256,192,86521,1,2,0:0:0:0:
256,192,86821,1,0,0:0:0:0:
256,192,86971,1,2,0:0:0:0:
256,192,87046,1,0,0:0:0:0:
256,192,87121,1,2,0:0:0:0:
256,192,87271,1,2,0:0:0:0:
256,192,87421,1,0,0:0:0:0:
256,192,87571,1,2,0:0:0:0:
256,192,87646,1,2,0:0:0:0:
256,192,87721,1,0,0:0:0:0:
256,192,87871,1,0,0:0:0:0:
256,192,88021,1,2,0:0:0:0:
256,192,88171,1,0,0:0:0:0:
256,192,88246,1,0,0:0:0:0:
256,192,88321,1,2,0:0:0:0:
256,192,88396,1,2,0:0:0:0:
256,192,88471,1,0,0:0:0:0:
256,192,88621,1,2,0:0:0:0:
256,192,88771,1,2,0:0:0:0:
256,192,88846,1,2,0:0:0:0:
256,192,88921,1,0,0:0:0:0:
256,192,89146,1,0,0:0:0:0:
256,192,89221,1,2,0:0:0:0:
256,192,89371,1,0,0:0:0:0:
256,192,89521,1,2,0:0:0:0:
256,192,89671,1,2,0:0:0:0:
256,192,89746,1,2,0:0:0:0:
256,192,89821,1,0,0:0:0:0:
256,192,89971,1,2,0:0:0:0:
256,192,90271,1,2,0:0:0:0:
256,192,90346,1,0,0:0:0:0:
256,192,90421,1,2,0:0:0:0:
256,192,90571,1,2,0:0:0:0:
256,192,90721,1,0,0:0:0:0:
256,192,90871,1,2,0:0:0:0:
256,192,90946,1,2,0:0:0:0:
256,192,91021,1,0,0:0:0:0:
256,192,91171,1,0,0:0:0:0:
256,192,91321,1,6,0:0:0:0:
256,192,91471,1,0,0:0:0:0:
256,192,91546,1,0,0:0:0:0:
256,192,91621,1,0,0:0:0:0:
256,192,91771,1,6,0:0:0:0:
256,192,91921,1,0,0:0:0:0:
256,192,91996,1,0,0:0:0:0:
256,192,92071,1,0,0:0:0:0:
256,192,92221,1,6,0:0:0:0:
256,192,92371,1,0,0:0:0:0:
256,192,92446,1,0,0:0:0:0:
256,192,92521,1,2,0:0:0:0:
256,192,92671,1,6,0:0:0:0:
256,192,92971,1,0,0:0:0:0:
256,192,93121,1,2,0:0:0:0:
256,192,93196,1,2,0:0:0:0:
256,192,93271,1,0,0:0:0:0:
256,192,93346,1,0,0:0:0:0:
256,192,93421,1,2,0:0:0:0:
256,192,93571,1,0,0:0:0:0:
256,192,93721,1,6,0:0:0:0:
256,192,93871,1,0,0:0:0:0:
256,192,93946,1,0,0:0:0:0:
256,192,94021,1,0,0:0:0:0:
256,192,94171,1,6,0:0:0:0:
256,192,94321,1,0,0:0:0:0:
256,192,94396,1,0,0:0:0:0:
256,192,94471,1,0,0:0:0:0:
256,192,94621,1,6,0:0:0:0:
256,192,94771,1,0,0:0:0:0:
256,192,94846,1,2,0:0:0:0:
256,192,94921,1,2,0:0:0:0:
256,192,95071,1,6,0:0:0:0:
256,192,95371,1,0,0:0:0:0:
256,192,95446,1,0,0:0:0:0:
256,192,95521,1,2,0:0:0:0:
256,192,95671,1,0,0:0:0:0:
256,192,95746,1,2,0:0:0:0:
256,192,95971,1,2,0:0:0:0:
256,192,96121,1,4,0:0:0:0:
256,192,96421,1,2,0:0:0:0:
256,192,96571,1,0,0:0:0:0:
256,192,96721,1,2,0:0:0:0:
256,192,96871,1,0,0:0:0:0:
256,192,96946,1,0,0:0:0:0:
256,192,97021,1,2,0:0:0:0:
256,192,97171,1,6,0:0:0:0:
256,192,97921,2,0,L|192:192,16,35
256,192,99721,1,4,0:0:0:0:
256,192,100021,1,2,0:0:0:0:
256,192,100171,1,0,0:0:0:0:
256,192,100321,1,2,0:0:0:0:
256,192,100471,1,2,0:0:0:0:
256,192,100546,1,2,0:0:0:0:
256,192,100621,1,0,0:0:0:0:
256,192,100771,1,0,0:0:0:0:
256,192,100921,1,2,0:0:0:0:
256,192,101071,1,2,0:0:0:0:
256,192,101146,1,2,0:0:0:0:
256,192,101221,1,2,0:0:0:0:
256,192,101371,1,0,0:0:0:0:
256,192,101521,1,2,0:0:0:0:
256,192,101821,1,2,0:0:0:0:
256,192,101971,1,0,0:0:0:0:
256,192,102121,1,2,0:0:0:0:
256,192,102271,1,0,0:0:0:0:
256,192,102346,1,0,0:0:0:0:
256,192,102421,1,2,0:0:0:0:
256,192,102571,1,2,0:0:0:0:
256,192,102871,1,0,0:0:0:0:
256,192,103021,1,2,0:0:0:0:
256,192,103096,1,2,0:0:0:0:
256,192,103171,1,0,0:0:0:0:
256,192,103321,1,0,0:0:0:0:
256,192,103471,1,2,0:0:0:0:
256,192,103546,1,0,0:0:0:0:
256,192,103621,1,2,0:0:0:0:
256,192,103771,1,0,0:0:0:0:
256,192,103921,1,2,0:0:0:0:
256,192,103996,1,0,0:0:0:0:
256,192,104071,1,0,0:0:0:0:
256,192,104146,1,2,0:0:0:0:
256,192,104221,1,0,0:0:0:0:
256,192,104371,1,0,0:0:0:0:
256,192,104521,1,2,0:0:0:0:
256,192,104671,1,0,0:0:0:0:
256,192,104746,1,0,0:0:0:0:
256,192,104821,1,2,0:0:0:0:
256,192,104971,1,2,0:0:0:0:
256,192,105271,1,0,0:0:0:0:
256,192,105346,1,0,0:0:0:0:
256,192,105421,1,2,0:0:0:0:
256,192,105571,1,2,0:0:0:0:
256,192,105721,1,0,0:0:0:0:
256,192,105871,1,2,0:0:0:0:
256,192,105946,1,2,0:0:0:0:
256,192,106021,1,0,0:0:0:0:
256,192,106171,1,0,0:0:0:0:
256,192,106321,1,0,0:0:0:0:
256,192,106396,1,0,0:0:0:0:
256,192,106471,1,2,0:0:0:0:
256,192,106546,1,2,0:0:0:0:
256,192,106621,1,0,0:0:0:0:
256,192,106771,1,0,0:0:0:0:
256,192,106921,1,2,0:0:0:0:
256,192,107221,1,2,0:0:0:0:
256,192,107371,1,2,0:0:0:0:
256,192,107446,1,2,0:0:0:0:
256,192,107521,1,0,0:0:0:0:
256,192,107671,1,2,0:0:0:0:
256,192,107821,1,2,0:0:0:0:
256,192,107896,1,0,0:0:0:0:
256,192,107971,1,2,0:0:0:0:
256,192,108271,1,0,0:0:0:0:
256,192,108421,1,2,0:0:0:0:
256,192,108571,1,0,0:0:0:0:
256,192,108646,1,0,0:0:0:0:
256,192,108721,1,2,0:0:0:0:
256,192,108871,1,2,0:0:0:0:
256,192,109021,1,0,0:0:0:0:
256,192,109321,1,6,0:0:0:0:
256,192,109471,1,0,0:0:0:0:
256,192,109546,1,0,0:0:0:0:
256,192,109771,1,0,0:0:0:0:
256,192,109921,1,2,0:0:0:0:
256,192,110071,1,0,0:0:0:0:
256,192,110146,1,0,0:0:0:0:
256,192,110371,1,0,0:0:0:0:
256,192,110521,1,2,0:0:0:0:
256,192,110671,1,0,0:0:0:0:
256,192,110746,1,2,0:0:0:0:
256,192,110896,1,0,0:0:0:0:
256,192,110971,1,2,0:0:0:0:
256,192,111046,1,0,0:0:0:0:
256,192,111121,1,2,0:0:0:0:
256,192,111271,1,0,0:0:0:0:
256,192,111346,1,2,0:0:0:0:
256,192,111421,1,0,0:0:0:0:
256,192,111496,1,0,0:0:0:0:
256,192,111571,1,2,0:0:0:0:
256,192,111871,1,0,0:0:0:0:
256,192,111946,1,0,0:0:0:0:
256,192,112021,1,2,0:0:0:0:
256,192,112171,1,0,0:0:0:0:
256,192,112321,1,2,0:0:0:0:
256,192,112396,1,2,0:0:0:0:
256,192,112471,1,0,0:0:0:0:
256,192,112546,1,0,0:0:0:0:
256,192,112621,1,2,0:0:0:0:
256,192,112771,1,0,0:0:0:0:
256,192,112921,1,2,0:0:0:0:
256,192,112996,1,0,0:0:0:0:
256,192,113071,1,2,0:0:0:0:
256,192,113146,1,0,0:0:0:0:
256,192,113221,1,2,0:0:0:0:
256,192,113371,1,2,0:0:0:0:
256,192,113446,1,0,0:0:0:0:
256,192,113521,1,2,0:0:0:0:
256,192,113596,1,0,0:0:0:0:
256,192,113671,1,2,0:0:0:0:
256,192,113821,1,2,0:0:0:0:
256,192,113971,1,2,0:0:0:0:
256,192,114046,1,2,0:0:0:0:
256,192,114121,1,0,0:0:0:0:
256,192,114421,1,2,0:0:0:0:
256,192,114571,1,0,0:0:0:0:
256,192,114646,1,0,0:0:0:0:
256,192,114721,1,2,0:0:0:0:
256,192,114796,1,2,0:0:0:0:
256,192,114871,1,0,0:0:0:0:
256,192,115021,1,2,0:0:0:0:
256,192,115171,1,2,0:0:0:0:
256,192,115246,1,2,0:0:0:0:
256,192,115321,1,0,0:0:0:0:
256,192,115621,1,2,0:0:0:0:
256,192,115771,1,0,0:0:0:0:
256,192,115846,1,2,0:0:0:0:
256,192,115921,1,0,0:0:0:0:
256,192,115996,1,2,0:0:0:0:
256,192,116071,1,0,0:0:0:0:
256,192,116221,1,2,0:0:0:0:
256,192,116371,1,0,0:0:0:0:
256,192,116521,1,2,0:0:0:0:
256,192,116671,1,0,0:0:0:0:
256,192,116746,1,0,0:0:0:0:
256,192,116821,1,2,0:0:0:0:
256,192,116971,1,0,0:0:0:0:
256,192,117121,1,2,0:0:0:0:
256,192,117196,1,0,0:0:0:0:
256,192,117271,1,0,0:0:0:0:
256,192,117346,1,0,0:0:0:0:
256,192,117421,1,2,0:0:0:0:
256,192,117571,1,6,0:0:0:0:
256,192,118321,2,0,L|192:192,16,35
256,192,121021,1,6,0:0:0:0:
256,192,121171,1,2,0:0:0:0:
256,192,121246,1,2,0:0:0:0:
256,192,121321,1,0,0:0:0:0:
256,192,122371,1,0,0:0:0:0:
256,192,122446,1,0,0:0:0:0:
256,192,122521,1,2,0:0:0:0:
256,192,122971,1,0,0:0:0:0:
256,192,123046,1,0,0:0:0:0:
256,192,123121,1,2,0:0:0:0:
256,192,123346,1,2,0:0:0:0:
256,192,123571,1,0,0:0:0:0:
256,192,123721,1,6,0:0:0:0:
256,192,124021,1,0,0:0:0:0:
256,192,124171,1,6,0:0:0:0:
256,192,124471,1,6,0:0:0:0:
256,192,124771,1,6,0:0:0:0:
256,192,125221,1,2,0:0:0:0:
256,192,125521,1,0,0:0:0:0:
256,192,125671,1,2,0:0:0:0:
256,192,125746,1,2,0:0:0:0:
256,192,125821,1,0,0:0:0:0:
256,192,125896,1,0,0:0:0:0:
256,192,125971,1,2,0:0:0:0:
256,192,126121,1,0,0:0:0:0:
256,192,126421,1,6,0:0:0:0:
256,192,126646,1,2,0:0:0:0:
256,192,126721,1,0,0:0:0:0:
256,192,126871,1,0,0:0:0:0:
256,192,127021,1,2,0:0:0:0:
256,192,127171,1,0,0:0:0:0:
256,192,127246,1,0,0:0:0:0:
256,192,127321,1,2,0:0:0:0:
256,192,127471,1,2,0:0:0:0:
256,192,127621,1,0,0:0:0:0:
256,192,127771,1,2,0:0:0:0:
256,192,127846,1,0,0:0:0:0:
256,192,127921,1,2,0:0:0:0:
256,192,127996,1,2,0:0:0:0:
256,192,128071,1,0,0:0:0:0:
256,192,128221,1,2,0:0:0:0:
256,192,128371,1,0,0:0:0:0:
256,192,128446,1,0,0:0:0:0:
256,192,128521,1,2,0:0:0:0:
256,192,128746,1,2,0:0:0:0:
256,192,128821,1,0,0:0:0:0:
256,192,128971,1,2,0:0:0:0:
256,192,129271,1,0,0:0:0:0:
256,192,129421,1,2,0:0:0:0:
256,192,129571,1,6,0:0:0:0:
256,192,129871,1,0,0:0:0:0:
256,192,129946,1,0,0:0:0:0:
256,192,130021,1,2,0:0:0:0:
256,192,130171,1,0,0:0:0:0:
256,192,130321,1,2,0:0:0:0:
256,192,130471,1,0,0:0:0:0:
256,192,130546,1,2,0:0:0:0:
256,192,130621,1,0,0:0:0:0:
256,192,130771,1,2,0:0:0:0:
256,192,130846,1,2,0:0:0:0:
256,192,130921,1,0,0:0:0:0:
256,192,131221,1,0,0:0:0:0:
256,192,131371,1,2,0:0:0:0:
256,192,131446,1,2,0:0:0:0:
256,192,131521,1,0,0:0:0:0:
256,192,131671,1,0,0:0:0:0:
256,192,131821,1,2,0:0:0:0:
256,192,131971,1,2,0:0:0:0:
256,192,132271,1,2,0:0:0:0:
256,192,132421,1,0,0:0:0:0:
256,192,132571,1,2,0:0:0:0:
256,192,132646,1,2,0:0:0:0:
256,192,132721,1,0,0:0:0:0:
256,192,132796,1,0,0:0:0:0:
256,192,132871,1,2,0:0:0:0:
256,192,133021,1,0,0:0:0:0:
256,192,133171,1,2,0:0:0:0:
256,192,133246,1,2,0:0:0:0:
256,192,133321,1,0,0:0:0:0:
256,192,133546,1,0,0:0:0:0:
256,192,133621,1,2,0:0:0:0:
256,192,133771,1,0,0:0:0:0:
256,192,133921,1,0,0:0:0:0:
256,192,133996,1,2,0:0:0:0:
256,192,134071,1,0,0:0:0:0:
256,192,134146,1,0,0:0:0:0:
256,192,134221,1,2,0:0:0:0:
256,192,134371,1,2,0:0:0:0:
256,192,134671,1,2,0:0:0:0:
256,192,134746,1,2,0:0:0:0:
256,192,134821,1,0,0:0:0:0:
256,192,134971,1,2,0:0:0:0:
256,192,135121,1,0,0:0:0:0:
256,192,135271,1,2,0:0:0:0:
256,192,135346,1,2,0:0:0:0:
256,192,135421,1,0,0:0:0:0:
256,192,135571,1,0,0:0:0:0:
256,192,135721,1,6,0:0:0:0:
256,192,135871,1,0,0:0:0:0:
256,192,135946,1,0,0:0:0:0:
256,192,136021,1,0,0:0:0:0:
256,192,136171,1,6,0:0:0:0:
256,192,136321,1,0,0:0:0:0:
256,192,136396,1,0,0:0:0:0:
256,192,136471,1,0,0:0:0:0:
256,192,136621,1,6,0:0:0:0:
256,192,136771,1,0,0:0:0:0:
256,192,136846,1,0,0:0:0:0:
256,192,136921,1,2,0:0:0:0:
256,192,137071,1,6,0:0:0:0:
256,192,137371,1,0,0:0:0:0:
256,192,137521,1,2,0:0:0:0:
256,192,137596,1,2,0:0:0:0:
256,192,137671,1,0,0:0:0:0:
256,192,137746,1,0,0:0:0:0:
256,192,137821,1,2,0:0:0:0:
256,192,137971,1,0,0:0:0:0:
256,192,138121,1,6,0:0:0:0:
256,192,138271,1,0,0:0:0:0:
256,192,138346,1,0,0:0:0:0:
256,192,138421,1,0,0:0:0:0:
256,192,138571,1,6,0:0:0:0:
256,192,138721,1,0,0:0:0:0:
256,192,138796,1,0,0:0:0:0:
256,192,138871,1,0,0:0:0:0:
256,192,139021,1,6,0:0:0:0:
256,192,139171,1,0,0:0:0:0:
256,192,139246,1,2,0:0:0:0:
256,192,139321,1,2,0:0:0:0:
256,192,139471,1,6,0:0:0:0:
256,192,139771,1,0,0:0:0:0:
256,192,139846,1,0,0:0:0:0:
256,192,139921,1,2,0:0:0:0:
256,192,140071,1,0,0:0:0:0:
256,192,140146,1,2,0:0:0:0:
256,192,140371,1,2,0:0:0:0:
256,192,140521,1,4,0:0:0:0:
256,192,140821,1,2,0:0:0:0:
256,192,140971,1,0,0:0:0:0:
256,192,141121,1,2,0:0:0:0:
256,192,141271,1,0,0:0:0:0:
256,192,141346,1,0,0:0:0:0:
256,192,141421,1,2,0:0:0:0:
256,192,141571,1,6,0:0:0:0:
256,192,143821,1,0,0:0:0:0:
256,192,143896,1,0,0:0:0:0:
256,192,143971,1,0,0:0:0:0:
256,192,144046,1,2,0:0:0:0:
256,192,144121,1,2,0:0:0:0:
256,192,144421,1,0,0:0:0:0:
256,192,144571,1,2,0:0:0:0:
256,192,144646,1,0,0:0:0:0:
256,192,144721,1,2,0:0:0:0:
256,192,144871,1,0,0:0:0:0:
256,192,145021,1,2,0:0:0:0:
256,192,145171,1,2,0:0:0:0:
256,192,145471,1,2,0:0:0:0:
256,192,145771,1,0,0:0:0:0:
256,192,146071,1,2,0:0:0:0:
256,192,146371,1,0,0:0:0:0:
256,192,146446,1,0,0:0:0:0:
256,192,146521,1,2,0:0:0:0:
256,192,146821,1,0,0:0:0:0:
256,192,146971,1,2,0:0:0:0:
256,192,147271,1,2,0:0:0:0:
256,192,147421,1,0,0:0:0:0:
256,192,147571,1,0,0:0:0:0:
256,192,147871,1,0,0:0:0:0:
256,192,148021,1,2,0:0:0:0:
256,192,148171,1,0,0:0:0:0:
256,192,148321,1,2,0:0:0:0:
256,192,148471,1,2,0:0:0:0:
256,192,148546,1,2,0:0:0:0:
256,192,148621,1,0,0:0:0:0:
256,192,148771,1,2,0:0:0:0:
256,192,148921,1,4,0:0:0:0:
256,192,149221,1,2,0:0:0:0:
256,192,149371,1,0,0:0:0:0:
256,192,149446,1,0,0:0:0:0:
256,192,149521,1,2,0:0:0:0:
256,192,149746,1,2,0:0:0:0:
256,192,149971,1,2,0:0:0:0:
256,192,150121,1,0,0:0:0:0:
256,192,150421,1,2,0:0:0:0:
256,192,150721,1,2,0:0:0:0:
256,192,150796,1,2,0:0:0:0:
256,192,150871,1,0,0:0:0:0:
256,192,150946,1,0,0:0:0:0:
256,192,151021,1,2,0:0:0:0:
256,192,151171,1,2,0:0:0:0:
256,192,151321,1,4,0:0:0:0:
256,192,151621,1,2,0:0:0:0:
256,192,151771,1,0,0:0:0:0:
256,192,151846,1,0,0:0:0:0:
256,192,151921,1,2,0:0:0:0:
256,192,152071,1,0,0:0:0:0:
256,192,152221,1,2,0:0:0:0:
256,192,152371,1,6,0:0:0:0:
256,192,153121,2,0,L|192:192,16,35
256,192,155221,12,0,157321,0:0:0:0:
