osu file format v14

[General]
AudioFilename: audio.mp3
AudioLeadIn: 0
PreviewTime: 76596
Countdown: 0
SampleSet: Normal
StackLeniency: 0.7
Mode: 1
LetterboxInBreaks: 0
WidescreenStoryboard: 1

[Editor]
Bookmarks: 12121,21721,31321,40921,64921,76621
DistanceSpacing: 1
BeatDivisor: 2
GridSize: 32
TimelineZoom: 2.3

[Metadata]
Title:Sayonara Cosmonaut
TitleUnicode:さよならコスモノート
Artist:AAAA Chazuke
ArtistUnicode:ああああ茶漬け
Creator:D o t
Version:Fapu's Futsuu
Source:BMS
Tags:BOFU BMS of Fighters Ultimate 2017 8-bit chiptune Umeboshi Astro Notes _DUSK_ aabc271 Faputa
BeatmapID:1554146
BeatmapSetID:694743

[Difficulty]
HPDrainRate:7
CircleSize:2
OverallDifficulty:4
ApproachRate:6
SliderMultiplier:1.4
SliderTickRate:1

[Events]
//Background and Video events
0,0,"DLyK5P5UMAAmpKW.jpg",0,120
//Break Periods
//Storyboard Layer 0 (Background)
//Storyboard Layer 1 (Fail)
//Storyboard Layer 2 (Pass)
//Storyboard Layer 3 (Foreground)
//Storyboard Sound Samples

[TimingPoints]
121,300,4,1,0,70,1,0
6121,-100,4,1,0,100,0,0
99721,-100,4,1,0,100,0,1
119521,-100,4,1,0,100,0,0
126421,-100,4,1,0,100,0,1
141571,-100,4,1,0,100,0,0
143746,-100,4,1,0,70,0,0
148921,-100,4,1,0,100,0,0
155221,-100,4,1,0,40,0,0

[HitObjects]
256,192,1321,5,0,0:0:0:0:
256,192,1771,1,0,0:0:0:0:
256,192,1921,1,0,0:0:0:0:
256,192,2371,1,8,0:0:0:0:
256,192,2671,1,8,0:0:0:0:
256,192,2971,1,0,0:0:0:0:
256,192,3271,1,8,0:0:0:0:
256,192,3721,1,0,0:0:0:0:
256,192,4171,1,8,0:0:0:0:
256,192,4771,1,8,0:0:0:0:
256,192,5671,1,0,0:0:0:0:
256,192,6121,1,12,0:0:0:0:
256,192,6571,1,0,0:0:0:0:
256,192,6721,1,8,0:0:0:0:
256,192,7021,1,8,0:0:0:0:
256,192,7321,1,0,0:0:0:0:
256,192,7621,1,8,0:0:0:0:
256,192,7921,1,8,0:0:0:0:
256,192,8521,1,8,0:0:0:0:
256,192,8821,1,0,0:0:0:0:
256,192,9121,1,0,0:0:0:0:
256,192,9421,1,0,0:0:0:0:
256,192,9571,1,12,0:0:0:0:
256,192,10321,2,0,P|224:96|448:192,1,560
192,192,12121,1,4,0:0:0:0:
192,192,12421,1,8,0:0:0:0:
192,192,12721,1,0,0:0:0:0:
192,192,13171,1,0,0:0:0:0:
192,192,13471,1,0,0:0:0:0:
192,192,13771,1,8,0:0:0:0:
192,192,14071,1,8,0:0:0:0:
192,192,14371,1,0,0:0:0:0:
192,192,14521,1,8,0:0:0:0:
192,192,14971,1,0,0:0:0:0:
192,192,15121,1,0,0:0:0:0:
192,192,15571,1,0,0:0:0:0:
192,192,15871,1,0,0:0:0:0:
192,192,16171,1,8,0:0:0:0:
192,192,16471,1,8,0:0:0:0:
192,192,16921,1,8,0:0:0:0:
192,192,17371,1,0,0:0:0:0:
192,192,17521,1,0,0:0:0:0:
192,192,17971,1,8,0:0:0:0:
192,192,18271,1,0,0:0:0:0:
192,192,18421,1,0,0:0:0:0:
192,192,18721,1,8,0:0:0:0:
192,192,19021,1,0,0:0:0:0:
192,192,19321,1,8,0:0:0:0:
192,192,20071,1,0,0:0:0:0:
192,192,20371,1,0,0:0:0:0:
256,192,21421,1,8,0:0:0:0:
256,192,21721,1,4,0:0:0:0:
256,192,22321,1,8,0:0:0:0:
256,192,22621,1,0,0:0:0:0:
256,192,22771,1,8,0:0:0:0:
256,192,23221,1,8,0:0:0:0:
256,192,23371,1,8,0:0:0:0:
256,192,23671,1,0,0:0:0:0:
256,192,24121,1,8,0:0:0:0:
256,192,24571,1,8,0:0:0:0:
256,192,25021,1,0,0:0:0:0:
256,192,25171,1,8,0:0:0:0:
256,192,25771,1,12,0:0:0:0:
256,192,26071,1,0,0:0:0:0:
256,192,26371,1,8,0:0:0:0:
256,192,26521,1,0,0:0:0:0:
256,192,27121,1,0,0:0:0:0:
256,192,27421,1,8,0:0:0:0:
256,192,27721,1,0,0:0:0:0:
256,192,28021,1,8,0:0:0:0:
256,192,28321,1,0,0:0:0:0:
256,192,28621,1,0,0:0:0:0:
256,192,28921,1,8,0:0:0:0:
32,224,29371,1,0,0:0:0:0:
32,224,29521,1,0,0:0:0:0:
288,128,30121,1,12,0:0:0:0:
288,128,30721,1,12,0:0:0:0:
288,128,31321,1,4,0:0:0:0:
288,128,31921,1,0,0:0:0:0:
288,128,32521,1,8,0:0:0:0:
288,128,33121,1,8,0:0:0:0:
288,128,33721,1,8,0:0:0:0:
288,128,34171,1,0,0:0:0:0:
288,128,34321,1,8,0:0:0:0:
288,128,34921,1,0,0:0:0:0:
288,128,35371,1,8,0:0:0:0:
288,128,35521,1,8,0:0:0:0:
288,128,36421,1,8,0:0:0:0:
288,128,36721,1,8,0:0:0:0:
288,128,37021,1,0,0:0:0:0:
288,128,37321,1,8,0:0:0:0:
288,128,37771,1,0,0:0:0:0:
288,128,37921,1,8,0:0:0:0:
288,128,38221,1,0,0:0:0:0:
288,128,38521,1,8,0:0:0:0:
288,128,40021,1,0,0:0:0:0:
288,128,40321,1,8,0:0:0:0:
288,128,40621,1,8,0:0:0:0:
288,128,40921,1,8,0:0:0:0:
320,128,41371,1,8,0:0:0:0:
320,128,41521,1,0,0:0:0:0:
256,160,42421,1,8,0:0:0:0:
256,160,42721,1,8,0:0:0:0:
256,160,43021,1,0,0:0:0:0:
256,160,43321,1,8,0:0:0:0:
256,160,43771,1,8,0:0:0:0:
256,160,43921,1,0,0:0:0:0:
256,192,44521,1,8,0:0:0:0:
256,192,45121,1,8,0:0:0:0:
256,192,45421,1,8,0:0:0:0:
256,192,45721,1,0,0:0:0:0:
256,192,46171,1,0,0:0:0:0:
256,192,46321,1,8,0:0:0:0:
256,192,46771,1,8,0:0:0:0:
256,192,47221,1,0,0:0:0:0:
256,192,47521,1,8,0:0:0:0:
256,192,47821,1,8,0:0:0:0:
256,192,48121,1,8,0:0:0:0:
256,192,48571,1,0,0:0:0:0:
224,192,48721,1,8,0:0:0:0:
256,192,49171,1,8,0:0:0:0:
256,192,49621,1,8,0:0:0:0:
256,192,49921,1,0,0:0:0:0:
256,192,50221,1,8,0:0:0:0:
256,192,50521,1,8,0:0:0:0:
256,192,51121,1,0,0:0:0:0:
256,192,51421,1,0,0:0:0:0:
256,192,51721,1,8,0:0:0:0:
256,192,52021,1,0,0:0:0:0:
256,192,52321,1,8,0:0:0:0:
256,192,52921,1,8,0:0:0:0:
256,192,53221,1,0,0:0:0:0:
256,192,53521,1,8,0:0:0:0:
256,192,53821,1,0,0:0:0:0:
256,192,54121,1,8,0:0:0:0:
256,192,54421,1,0,0:0:0:0:
256,192,54571,1,0,0:0:0:0:
256,192,54871,1,8,0:0:0:0:
256,192,55321,1,4,0:0:0:0:
256,192,57421,1,8,0:0:0:0:
256,192,57721,1,4,0:0:0:0:
256,192,59521,1,0,0:0:0:0:
256,192,60121,1,12,0:0:0:0:
256,192,60721,1,8,0:0:0:0:
256,192,61321,1,0,0:0:0:0:
256,192,61621,1,0,0:0:0:0:
256,192,61921,1,8,0:0:0:0:
256,192,62521,1,8,0:0:0:0:
256,192,63121,1,8,0:0:0:0:
256,192,63721,1,8,0:0:0:0:
256,192,64021,1,8,0:0:0:0:
256,192,64321,1,8,0:0:0:0:
256,192,64621,1,8,0:0:0:0:
256,192,64921,1,4,0:0:0:0:
224,192,65521,1,8,0:0:0:0:
224,192,65971,1,8,0:0:0:0:
224,192,66121,1,0,0:0:0:0:
256,192,66421,1,0,0:0:0:0:
256,192,66721,1,8,0:0:0:0:
256,192,67321,1,0,0:0:0:0:
256,192,67921,1,8,0:0:0:0:
256,192,68371,1,8,0:0:0:0:
256,192,68521,1,8,0:0:0:0:
256,192,68821,1,0,0:0:0:0:
256,192,69121,1,8,0:0:0:0:
256,192,69721,1,8,0:0:0:0:
256,192,70321,1,0,0:0:0:0:
256,192,70621,1,0,0:0:0:0:
256,192,70921,1,8,0:0:0:0:
256,192,71521,1,8,0:0:0:0:
256,192,71821,1,8,0:0:0:0:
256,192,72121,1,8,0:0:0:0:
256,192,72421,1,0,0:0:0:0:
256,192,72721,1,8,0:0:0:0:
256,192,73171,1,8,0:0:0:0:
256,192,73321,1,0,0:0:0:0:
256,192,73621,1,0,0:0:0:0:
256,192,73921,1,8,0:0:0:0:
256,192,74221,1,8,0:0:0:0:
256,192,74371,1,8,0:0:0:0:
256,192,74521,1,0,0:0:0:0:
256,192,76621,1,8,0:0:0:0:
256,192,76921,1,8,0:0:0:0:
256,192,77521,1,8,0:0:0:0:
256,192,77671,1,0,0:0:0:0:
256,192,77971,1,8,0:0:0:0:
256,192,78271,1,8,0:0:0:0:
288,192,78571,1,0,0:0:0:0:
256,192,78871,1,8,0:0:0:0:
256,192,79321,1,8,0:0:0:0:
256,192,79771,1,8,0:0:0:0:
256,192,80071,1,0,0:0:0:0:
256,192,80371,1,8,0:0:0:0:
256,192,80671,1,0,0:0:0:0:
256,192,80821,1,8,0:0:0:0:
256,192,81121,1,0,0:0:0:0:
256,192,81271,1,0,0:0:0:0:
256,192,81421,1,8,0:0:0:0:
256,192,81721,1,8,0:0:0:0:
256,192,82171,1,0,0:0:0:0:
256,192,82471,1,8,0:0:0:0:
256,192,82771,1,8,0:0:0:0:
256,192,83221,1,8,0:0:0:0:
256,192,83521,1,8,0:0:0:0:
256,192,83821,1,0,0:0:0:0:
256,192,84121,1,8,0:0:0:0:
256,192,84421,1,0,0:0:0:0:
256,192,84571,1,8,0:0:0:0:
256,192,84871,1,8,0:0:0:0:
256,192,85021,1,8,0:0:0:0:
256,192,85171,1,0,0:0:0:0:
256,192,85471,1,0,0:0:0:0:
256,192,85771,1,0,0:0:0:0:
256,192,85921,1,0,0:0:0:0:
256,192,86221,1,8,0:0:0:0:
256,192,86521,1,8,0:0:0:0:
256,192,86971,1,8,0:0:0:0:
256,192,87121,1,8,0:0:0:0:
256,192,87571,1,0,0:0:0:0:
256,192,88021,1,8,0:0:0:0:
256,192,88321,1,0,0:0:0:0:
256,192,88621,1,8,0:0:0:0:
288,192,88921,1,0,0:0:0:0:
288,192,89371,1,0,0:0:0:0:
288,192,89671,1,0,0:0:0:0:
288,192,89971,1,8,0:0:0:0:
288,192,90421,1,0,0:0:0:0:
288,192,90571,1,8,0:0:0:0:
288,192,91021,1,8,0:0:0:0:
288,192,91321,1,4,0:0:0:0:
288,192,91771,1,4,0:0:0:0:
288,192,92221,1,4,0:0:0:0:
288,192,92671,1,4,0:0:0:0:
256,192,93721,1,12,0:0:0:0:
256,192,94171,1,12,0:0:0:0:
256,192,94621,1,12,0:0:0:0:
256,192,95071,1,12,0:0:0:0:
256,192,95671,1,0,0:0:0:0:
256,192,95821,1,8,0:0:0:0:
256,192,96121,1,8,0:0:0:0:
256,192,96421,1,8,0:0:0:0:
256,192,96721,1,0,0:0:0:0:
256,192,97021,1,8,0:0:0:0:
256,192,97171,1,8,0:0:0:0:
256,192,97921,2,0,P|128:256|256:96,1,560
256,192,99721,1,4,0:0:0:0:
256,192,100021,1,8,0:0:0:0:
256,192,100321,1,0,0:0:0:0:
256,192,100621,1,8,0:0:0:0:
224,192,100771,1,8,0:0:0:0:
256,192,100921,1,0,0:0:0:0:
256,192,101221,1,8,0:0:0:0:
256,192,101521,1,8,0:0:0:0:
256,192,102121,1,8,0:0:0:0:
256,192,102421,1,0,0:0:0:0:
256,192,102571,1,0,0:0:0:0:
256,192,102721,1,8,0:0:0:0:
256,192,103021,1,0,0:0:0:0:
256,192,103321,1,8,0:0:0:0:
256,192,103621,1,8,0:0:0:0:
256,192,103921,1,0,0:0:0:0:
256,192,104521,1,8,0:0:0:0:
256,192,104821,1,0,0:0:0:0:
256,192,104971,1,8,0:0:0:0:
256,192,105271,1,8,0:0:0:0:
256,192,105421,1,8,0:0:0:0:
256,192,105721,1,0,0:0:0:0:
256,192,105871,1,8,0:0:0:0:
256,192,106171,1,8,0:0:0:0:
256,192,106321,1,8,0:0:0:0:
256,192,106621,1,8,0:0:0:0:
256,192,106921,1,0,0:0:0:0:
256,192,107221,1,8,0:0:0:0:
256,192,107521,1,0,0:0:0:0:
256,192,107671,1,8,0:0:0:0:
256,192,107971,1,0,0:0:0:0:
256,192,108421,1,0,0:0:0:0:
256,192,108721,1,0,0:0:0:0:
256,192,109321,1,12,0:0:0:0:
256,192,109621,1,0,0:0:0:0:
256,192,109771,1,0,0:0:0:0:
256,192,109921,1,8,0:0:0:0:
256,192,110221,1,8,0:0:0:0:
256,192,110521,1,0,0:0:0:0:
256,192,110821,1,8,0:0:0:0:
256,192,111421,1,0,0:0:0:0:
256,192,111571,1,8,0:0:0:0:
256,192,112021,1,0,0:0:0:0:
256,192,112171,1,0,0:0:0:0:
256,192,112321,1,8,0:0:0:0:
256,192,112621,1,0,0:0:0:0:
256,192,112921,1,8,0:0:0:0:
256,192,113071,1,8,0:0:0:0:
256,192,113371,1,8,0:0:0:0:
288,192,113671,1,0,0:0:0:0:
256,192,113821,1,8,0:0:0:0:
256,192,114121,1,0,0:0:0:0:
256,192,114571,1,0,0:0:0:0:
256,192,114721,1,8,0:0:0:0:
256,192,115021,1,0,0:0:0:0:
256,192,115321,1,8,0:0:0:0:
256,192,115771,1,8,0:0:0:0:
256,192,115921,1,8,0:0:0:0:
256,192,116221,1,0,0:0:0:0:
256,192,116521,1,12,0:0:0:0:
256,192,116821,1,12,0:0:0:0:
256,192,117121,1,12,0:0:0:0:
256,192,117421,1,0,0:0:0:0:
256,192,117571,1,12,0:0:0:0:
256,192,118321,2,0,P|256:288|448:128,1,560
256,192,121021,1,8,0:0:0:0:
256,192,121321,1,8,0:0:0:0:
256,192,122521,1,0,0:0:0:0:
288,192,122971,1,0,0:0:0:0:
256,192,123121,1,8,0:0:0:0:
256,192,123421,1,0,0:0:0:0:
256,192,123721,1,8,0:0:0:0:
256,192,124171,1,8,0:0:0:0:
256,192,124471,1,0,0:0:0:0:
256,192,124771,1,8,0:0:0:0:
256,192,125371,1,8,0:0:0:0:
256,192,125521,1,0,0:0:0:0:
256,192,125821,1,8,0:0:0:0:
256,192,126121,1,0,0:0:0:0:
256,192,126421,1,8,0:0:0:0:
256,192,126571,1,0,0:0:0:0:
256,192,126871,1,8,0:0:0:0:
256,192,127171,1,8,0:0:0:0:
256,192,127621,1,8,0:0:0:0:
256,192,127921,1,8,0:0:0:0:
256,192,128221,1,0,0:0:0:0:
256,192,128521,1,8,0:0:0:0:
256,192,128821,1,0,0:0:0:0:
256,192,128971,1,8,0:0:0:0:
256,192,129271,1,8,0:0:0:0:
256,192,129421,1,8,0:0:0:0:
256,192,129571,1,0,0:0:0:0:
256,192,130171,1,0,0:0:0:0:
256,192,130321,1,0,0:0:0:0:
256,192,130471,1,8,0:0:0:0:
256,192,130621,1,8,0:0:0:0:
256,192,130921,1,8,0:0:0:0:
256,192,131371,1,8,0:0:0:0:
256,192,131521,1,8,0:0:0:0:
256,192,131821,1,8,0:0:0:0:
256,192,131971,1,0,0:0:0:0:
256,192,132421,1,8,0:0:0:0:
256,192,132721,1,0,0:0:0:0:
256,192,133021,1,8,0:0:0:0:
256,192,133321,1,8,0:0:0:0:
224,192,133621,1,8,0:0:0:0:
256,192,133771,1,0,0:0:0:0:
256,192,134071,1,8,0:0:0:0:
256,192,134371,1,8,0:0:0:0:
224,192,134521,1,8,0:0:0:0:
224,192,134821,1,0,0:0:0:0:
224,192,134971,1,0,0:0:0:0:
224,192,135121,1,8,0:0:0:0:
224,192,135421,1,8,0:0:0:0:
224,192,135721,1,4,0:0:0:0:
224,192,136171,1,4,0:0:0:0:
224,192,136621,1,4,0:0:0:0:
224,192,137071,1,4,0:0:0:0:
224,192,137521,1,8,0:0:0:0:
224,192,137671,1,0,0:0:0:0:
224,192,137821,1,8,0:0:0:0:
224,192,138121,1,12,0:0:0:0:
224,192,138571,1,12,0:0:0:0:
224,192,139021,1,12,0:0:0:0:
224,192,139471,1,12,0:0:0:0:
224,192,139921,1,8,0:0:0:0:
224,192,140071,1,0,0:0:0:0:
224,192,140221,1,8,0:0:0:0:
224,192,140521,1,0,0:0:0:0:
224,192,140821,1,0,0:0:0:0:
224,192,141121,1,0,0:0:0:0:
224,192,141421,1,0,0:0:0:0:
224,192,141571,1,12,0:0:0:0:
256,192,143821,1,0,0:0:0:0:
256,192,144121,1,8,0:0:0:0:
224,192,144571,1,0,0:0:0:0:
256,192,144721,1,0,0:0:0:0:
256,192,145171,1,8,0:0:0:0:
256,192,145471,1,8,0:0:0:0:
256,192,145771,1,0,0:0:0:0:
256,192,146071,1,8,0:0:0:0:
256,192,146521,1,0,0:0:0:0:
256,192,146971,1,8,0:0:0:0:
256,192,147571,1,8,0:0:0:0:
256,192,148171,1,8,0:0:0:0:
256,192,148471,1,0,0:0:0:0:
256,192,148921,1,12,0:0:0:0:
256,192,149371,1,0,0:0:0:0:
256,192,149521,1,8,0:0:0:0:
256,192,149821,1,8,0:0:0:0:
256,192,150121,1,0,0:0:0:0:
256,192,150421,1,8,0:0:0:0:
256,192,150721,1,8,0:0:0:0:
256,192,151021,1,0,0:0:0:0:
256,192,151321,1,8,0:0:0:0:
256,192,151621,1,0,0:0:0:0:
256,192,151921,1,0,0:0:0:0:
256,192,152221,1,8,0:0:0:0:
256,192,152371,1,12,0:0:0:0:
256,192,153121,2,0,P|224:96|448:192,1,560
256,192,155221,12,0,157321,0:0:0:0:
