osu file format v14

[General]
AudioFilename: audio.mp3
AudioLeadIn: 0
PreviewTime: 167271
Countdown: 0
SampleSet: Soft
StackLeniency: 0.4
Mode: 0
LetterboxInBreaks: 0
WidescreenStoryboard: 0

[Editor]
Bookmarks: 11226,20778,56599,70927,80479,99584,101972,124659,144062,167644,186748,203465,205853,213017
DistanceSpacing: 0.8
BeatDivisor: 4
GridSize: 16
TimelineZoom: 2.699999

[Metadata]
Title:Sayonara Cosmonaut [Long ver.]
TitleUnicode:さよならコスモノート[Long ver.]
Artist:AAAA Chazuke
ArtistUnicode:ああああ茶漬け
Creator:Azzedd
Version:Cosmos
Source:BMS
Tags:BOFU2017 Astro Notes 8bit electronic bitpop chiptune vgm ああ…翡翠茶漬け… aa... hisui chazuke... ZinedineZidane
BeatmapID:1818097
BeatmapSetID:869960

[Difficulty]
HPDrainRate:5.5
CircleSize:4.2
OverallDifficulty:8.5
ApproachRate:9.3
SliderMultiplier:1.8
SliderTickRate:1

[Events]
//Background and Video events
0,0,"sayonara.jpg",0,0
//Break Periods
2,11426,19179
2,128441,133209
2,211426,212164
//Storyboard Layer 0 (Background)
//Storyboard Layer 1 (Fail)
//Storyboard Layer 2 (Pass)
//Storyboard Layer 3 (Foreground)
//Storyboard Sound Samples

[TimingPoints]
480,298.507462686567,4,2,1,35,1,0
480,-153.846153846154,4,2,1,35,0,0
3912,-153.846153846154,4,2,1,40,0,0
5256,-125,4,2,1,40,0,0
7644,-125,4,2,3,50,0,0
7718,-125,4,2,1,50,0,0
8688,-125,4,2,2,50,0,0
9360,-125,4,2,1,5,0,0
9435,-125,4,2,1,50,0,0
9733,-142.857142857143,4,2,1,40,0,0
10032,-166.666666666667,4,2,1,30,0,0
10330,-200,4,2,1,20,0,0
10629,-200,4,2,1,10,0,0
10778,-200,4,2,1,10,0,0
10927,-200,4,2,1,5,0,0
19733,-200,4,2,1,30,0,0
20479,-200,4,2,1,50,0,0
20778,-153.846153846154,4,2,1,50,0,0
23614,-153.846153846154,4,2,3,50,0,0
23688,-153.846153846154,4,2,1,50,0,0
24211,-125,4,2,2,50,0,0
24808,-76.9230769230769,4,2,3,50,0,0
25106,-153.846153846154,4,2,1,50,0,0
25554,-153.846153846154,4,2,2,50,0,0
26450,-153.846153846154,4,2,1,50,0,0
27345,-153.846153846154,4,2,3,50,0,0
27942,-133.333333333333,4,2,1,50,0,0
29733,-250,4,2,1,50,0,0
30032,-181.818181818182,4,2,1,50,0,0
30330,-133.333333333333,4,2,1,50,0,0
32121,-250,4,2,1,50,0,0
32420,-181.818181818182,4,2,1,50,0,0
32718,-133.333333333333,4,2,1,50,0,0
34509,-250,4,2,1,50,0,0
34808,-181.818181818182,4,2,1,50,0,0
35106,-133.333333333333,4,2,1,50,0,0
36897,-100,4,2,1,50,0,0
37196,-181.818181818182,4,2,1,50,0,0
37494,-133.333333333333,4,2,1,50,0,0
46002,-181.818181818181,4,2,1,30,0,0
47047,-90.9090909090909,4,2,2,50,0,0
47345,-133.333333333333,4,2,1,50,0,0
49435,-86.9565217391303,4,2,1,50,0,0
49882,-86.9565217391303,4,2,3,50,0,0
50479,-166.666666666667,4,2,2,50,0,0
51077,-76.9230769230769,4,2,3,50,0,0
51375,-133.333333333333,4,2,1,50,0,0
51823,-133.333333333333,4,2,2,50,0,0
53017,-133.333333333333,4,2,3,50,0,0
53614,-100,4,2,1,50,0,0
53763,-133.333333333333,4,2,1,50,0,0
54211,-133.333333333333,4,2,2,50,0,0
55405,-133.333333333333,4,2,3,50,0,0
55703,-133.333333333333,4,2,1,60,0,0
56002,-133.333333333333,4,2,3,60,0,0
56300,-133.333333333333,4,2,1,60,0,0
56599,-100,4,2,1,50,0,0
57196,-117.647058823529,4,2,1,50,0,0
57793,-105.263157894737,4,2,1,50,0,0
58390,-95.238095238095,4,2,1,50,0,0
58987,-86.9565217391304,4,2,1,50,0,0
59584,-83.3333333333333,4,2,1,50,0,0
60778,-100,4,2,1,50,0,0
62569,-76.9230769230769,4,2,1,50,0,0
63763,-100,4,2,1,50,0,0
66151,-76.9230769230769,4,2,1,50,0,0
67345,-111.111111111111,4,2,1,50,0,0
67644,-100,4,2,1,50,0,0
68539,-76.9230769230769,4,2,1,50,0,0
69136,-76.9230769230769,4,2,1,50,0,0
69733,-83.3333333333333,4,2,1,50,0,0
70256,-100,4,2,1,5,0,0
70330,-100,4,2,1,40,0,0
70927,-80,4,2,2,50,0,0
71972,-80,4,2,3,50,0,0
73315,-80,4,2,1,50,0,0
74360,-80,4,2,3,50,0,0
75405,-80,4,2,1,50,0,0
75703,-80,4,2,2,65,0,0
76897,-80,4,2,1,65,0,0
78091,-80,4,2,3,65,0,0
78688,-80,4,2,1,65,0,0
79285,-80,4,2,3,65,0,0
80032,-83.3333333333333,4,2,2,65,0,0
80405,-42.5531914893617,4,2,1,5,0,0
80479,-42.5531914893617,4,2,1,40,0,0
82868,-42.5531914893617,4,2,3,40,0,0
85256,-166.666666666667,4,2,1,50,0,0
86450,-166.666666666667,4,2,3,50,0,0
87644,-166.666666666667,4,2,1,50,0,0
88241,-166.666666666667,4,2,3,50,0,0
88838,-166.666666666667,4,2,1,50,0,0
89435,-166.666666666667,4,2,3,50,0,0
89733,-166.666666666667,4,2,1,50,0,0
90032,-90.909090909091,4,2,1,60,0,0
91823,-166.666666666667,4,2,3,60,0,0
91972,-125,4,2,3,60,0,0
92121,-125,4,2,1,60,0,0
92420,-90.9090909090909,4,2,2,60,0,0
93465,-90.9090909090909,4,2,1,60,0,0
94211,-166.666666666667,4,2,3,60,0,0
94360,-125,4,2,3,60,0,0
94509,-125,4,2,1,60,0,0
94808,-90.9090909090909,4,2,2,60,0,0
96002,-90.9090909090909,4,2,1,60,0,0
96599,-166.666666666667,4,2,1,60,0,0
96897,-125,4,2,1,60,0,0
97196,-90.9090909090909,4,2,2,65,0,0
97793,-90.9090909090909,4,2,3,65,0,0
98390,-90.9090909090909,4,2,1,65,0,0
98987,-90.9090909090909,4,2,3,65,0,0
99584,-133.333333333333,4,2,2,30,0,0
101674,-133.333333333333,4,2,1,60,0,0
101972,-74.0740740740741,4,2,1,70,0,1
104360,-66.6666666666667,4,2,1,70,0,1
105405,-66.6666666666667,4,2,2,70,0,1
105853,-74.0740740740741,4,2,1,70,0,1
110181,-66.6666666666667,4,2,3,70,0,1
110405,-74.0740740740741,4,2,1,70,0,1
111226,-74.0740740740741,4,2,2,70,0,1
111524,-74.0740740740741,4,2,1,75,0,1
114360,-90.9090909090909,4,2,1,75,0,1
116300,-76.9230769230769,4,2,6,75,0,1
116450,-76.9230769230769,4,2,1,75,0,1
116748,-76.9230769230769,4,2,5,75,0,1
116897,-76.9230769230769,4,2,1,75,0,1
117196,-76.9230769230769,4,2,4,75,0,1
117345,-76.9230769230769,4,2,1,75,0,1
117644,-76.9230769230769,4,2,6,75,0,1
117942,-76.9230769230769,4,2,0,55,0,1
118688,-76.9230769230769,4,2,4,75,0,1
118838,-76.9230769230769,4,2,1,75,0,1
119136,-76.9230769230769,4,2,6,75,0,1
119285,-76.9230769230769,4,2,1,75,0,1
119584,-76.9230769230769,4,2,4,75,0,1
119733,-76.9230769230769,4,2,1,75,0,1
120032,-76.9230769230769,4,2,5,75,0,1
120181,-76.9230769230769,4,2,0,75,0,1
120629,-76.9230769230769,4,2,1,75,0,1
120778,-76.9230769230769,4,2,3,75,0,1
121077,-76.9230769230769,4,2,4,75,0,1
121226,-76.9230769230769,4,2,1,75,0,1
121375,-76.9230769230769,4,2,6,75,0,1
121524,-76.9230769230769,4,2,1,75,0,1
121674,-76.9230769230769,4,2,4,75,0,1
121823,-76.9230769230769,4,2,1,75,0,1
121972,-76.9230769230769,4,2,1,75,0,1
122121,-142.857142857143,4,2,5,75,0,1
122868,-256.410256410256,4,2,1,45,0,1
124062,-256.410256410256,4,2,1,25,0,1
124659,-79.9999999999999,4,2,1,60,0,0
128241,-79.9999999999999,4,2,1,5,0,0
133763,-79.9999999999999,4,2,3,40,0,0
134211,-79.9999999999999,4,2,2,40,0,0
134509,-105.263157894737,4,2,1,50,0,0
138987,-105.263157894737,4,2,1,60,0,0
140181,-105.263157894737,4,2,3,60,0,0
140778,-105.263157894737,4,2,2,60,0,0
141375,-105.263157894737,4,2,3,60,0,0
141972,-105.263157894737,4,2,1,60,0,0
143315,-105.263157894737,4,2,2,60,0,0
143987,-105.263157894737,4,2,1,5,0,0
144062,-66.6666666666667,4,2,1,60,0,0
146151,-76.9230769230769,4,2,1,60,0,0
152718,-76.9230769230769,4,2,1,60,0,0
155554,-62.5,4,2,1,60,0,0
156897,-76.9230769230769,4,2,1,60,0,0
158091,-76.9230769230769,4,2,2,60,0,0
159285,-62.5,4,2,1,60,0,0
160181,-62.5,4,2,3,60,0,0
160479,-62.5,4,2,1,60,0,0
161226,-76.9230769230769,4,2,1,60,0,0
161524,-74.0740740740741,4,2,2,60,0,0
162271,-131.578947368421,4,2,1,35,0,0
163465,-200,4,2,1,35,0,0
164957,-200,4,2,2,20,0,0
167345,-166.666666666667,4,2,0,45,0,0
177196,-125,4,2,0,45,0,0
181226,-125,4,2,1,50,0,0
181524,-80,4,2,1,50,0,0
181972,-66.6666666666667,4,2,6,60,0,1
182121,-66.6666666666667,4,2,1,60,0,1
182420,-66.6666666666667,4,2,5,60,0,1
182569,-66.6666666666667,4,2,1,60,0,1
182868,-66.6666666666667,4,2,4,60,0,1
183017,-66.6666666666667,4,2,1,60,0,1
183315,-66.6666666666667,4,2,6,60,0,1
183614,-66.6666666666667,4,2,0,45,0,1
184360,-66.6666666666667,4,2,4,60,0,1
184509,-66.6666666666667,4,2,1,60,0,1
184808,-66.6666666666667,4,2,6,60,0,1
184957,-66.6666666666667,4,2,1,60,0,1
185256,-66.6666666666667,4,2,4,60,0,1
185405,-66.6666666666667,4,2,1,60,0,1
185703,-66.6666666666667,4,2,5,60,0,1
185853,-66.6666666666667,4,2,0,60,0,0
186300,-66.6666666666667,4,2,1,60,0,0
186748,-66.6666666666667,4,2,1,75,0,1
193912,-66.6666666666667,4,2,2,75,0,1
194360,-66.6666666666667,4,2,1,75,0,1
194957,-66.6666666666667,4,2,3,75,0,1
196002,-66.6666666666667,4,2,1,75,0,1
196300,-66.6666666666667,4,2,2,80,0,1
198688,-66.6666666666667,4,2,2,80,0,1
199882,-66.6666666666667,4,2,1,80,0,1
200479,-66.6666666666667,4,2,3,80,0,1
200629,-66.6666666666667,4,2,1,70,0,1
200778,-66.6666666666667,4,2,1,70,0,1
201077,-66.6666666666667,4,2,6,75,0,1
201226,-66.6666666666667,4,2,1,75,0,1
201524,-66.6666666666667,4,2,5,75,0,1
201674,-66.6666666666667,4,2,1,75,0,1
201972,-66.6666666666667,4,2,4,75,0,1
202121,-66.6666666666667,4,2,1,75,0,1
202420,-66.6666666666667,4,2,6,75,0,1
202718,-66.6666666666667,4,2,0,55,0,1
203465,-153.846153846153,4,2,0,40,0,0
205106,-222.22222222222,4,2,0,40,0,0
205853,-66.6666666666667,4,2,4,75,0,1
206002,-66.6666666666667,4,2,1,75,0,1
206300,-66.6666666666667,4,2,6,75,0,1
206450,-66.6666666666667,4,2,1,75,0,1
206748,-66.6666666666667,4,2,4,75,0,1
206897,-66.6666666666667,4,2,1,75,0,1
207196,-66.6666666666667,4,2,5,75,0,1
207494,-66.6666666666667,4,2,0,75,0,1
207793,-66.6666666666667,4,2,3,75,0,1
208241,-66.6666666666667,4,2,4,75,0,1
208390,-66.6666666666667,4,2,1,75,0,1
208539,-66.6666666666667,4,2,6,75,0,1
208688,-66.6666666666667,4,2,1,75,0,1
208838,-66.6666666666667,4,2,4,75,0,1
208987,-66.6666666666667,4,2,1,75,0,1
209136,-66.6666666666667,4,2,1,75,0,1
209285,-133.333333333333,4,2,5,75,0,1
211226,-142.857142857143,4,2,1,5,0,0
212718,-142.857142857143,4,2,1,35,0,0
213017,-153.846153846154,4,2,1,35,0,0
216450,-153.846153846154,4,2,1,40,0,0
217793,-125,4,2,1,50,0,0
220181,-125,4,2,3,50,0,0
221226,-125,4,2,2,50,0,0
221897,-125,4,2,1,5,0,0
221972,-222.222222222222,4,2,1,50,0,0
223166,-222.222222222222,4,2,1,30,0,0
226151,-222.222222222222,4,2,1,5,0,0

[Colours]
Combo1 : 224,230,255
Combo2 : 255,220,78
Combo3 : 107,81,155
Combo4 : 254,117,65
Combo5 : 74,83,158

[HitObjects]
30,28,181,5,2,0:0:0:0:
28,40,256,1,2,0:0:0:0:
14,46,330,1,2,0:0:0:0:
5,35,405,1,2,0:0:0:0:
13,24,480,6,0,P|62:5|132:39,1,116.999994644165,2|0,0:1|0:0,0:0:0:0:
188,113,927,1,2,0:0:0:0:
188,113,1002,1,0,0:0:0:0:
188,113,1077,1,2,0:0:0:0:
95,104,1226,1,2,0:0:0:0:
213,36,1375,1,2,0:0:0:0:
235,183,1524,6,0,L|201:135,1,58.4999973220826,2|0,0:0|0:0,0:0:0:0:
408,83,1823,2,0,L|383:29,1,58.4999973220826,2|0,0:0|0:0,0:0:0:0:
259,175,2121,2,0,L|225:127,1,58.4999973220826,2|0,0:0|0:0,0:0:0:0:
389,95,2420,2,0,L|364:41,1,58.4999973220826,2|0,0:0|0:0,0:0:0:0:
365,192,2718,5,2,0:0:0:0:
365,192,2793,1,0,0:0:0:0:
365,192,2868,2,0,B|388:224|388:224|388:254|388:254|421:293,1,116.999994644165,2|0,0:1|0:0,0:0:0:0:
495,361,3315,1,2,0:0:0:0:
495,361,3614,5,2,0:0:0:0:
494,268,3763,1,2,0:0:0:0:
370,346,3912,2,0,B|327:360|327:360|282:348,1,87.749995983124,2|0,0:0|0:0,0:0:0:0:
241,353,4211,2,0,P|269:327|274:296,1,58.4999973220826
202,118,4510,5,2,0:0:0:0:
101,257,4659,1,2,0:0:0:0:
265,206,4808,1,2,0:0:0:0:
101,152,4957,1,2,0:0:0:0:
202,290,5106,1,2,0:0:0:0:
78,74,5256,6,0,P|34:106|30:192,1,144,6|0,3:2|0:0,0:0:0:0:
170,41,5703,1,2,3:2:0:0:
194,35,5777,1,2,3:2:0:0:
219,36,5853,2,0,P|254:54|285:119,2,108,10|2|2,0:0|0:0|0:0,0:0:0:0:
372,165,6450,6,0,P|392:116|438:88,1,108,0|0,3:0|3:0,0:0:0:0:
469,106,6748,2,0,P|433:127|414:159,1,72,0|0,0:0|3:0,0:0:0:0:
410,254,7047,2,0,P|405:271|408:298,3,24,10|0|0|0,0:0|0:0|0:0|0:0,0:0:0:0:
404,310,7271,1,0,3:0:0:0:
404,310,7345,2,0,P|373:291|331:288,1,72,10|0,0:0|3:0,0:0:0:0:
61,318,7644,6,0,P|78:308|104:300,1,36,12|0,0:0|0:0,0:0:0:0:
222,287,7793,1,0,3:0:0:0:
211,321,7867,1,0,0:0:0:0:
216,356,7942,2,0,P|230:369|247:378,1,36,8|0,0:0|0:0,0:0:0:0:
187,199,8091,5,0,3:0:0:0:
163,174,8165,1,0,0:0:0:0:
130,160,8240,2,0,P|111:165|94:175,1,36,8|0,0:0|0:0,0:0:0:0:
280,214,8390,5,0,3:0:0:0:
314,206,8464,1,0,0:0:0:0:
342,184,8539,2,0,P|346:165|346:145,1,36,8|0,0:0|3:0,0:0:0:0:
40,101,8688,6,0,B|111:47|183:81|183:81|196:54|196:54|263:104|343:62,1,324,4|0,3:2|0:0,0:0:0:0:
357,63,9435,1,2,3:2:0:0:
377,57,9509,1,2,3:0:0:0:
398,61,9584,1,2,3:0:0:0:
415,74,9658,1,2,3:0:0:0:
426,93,9733,1,2,3:2:0:0:
417,109,9807,1,2,3:0:0:0:
415,127,9882,1,2,3:0:0:0:
420,145,9956,1,2,3:0:0:0:
432,161,10031,1,2,3:2:0:0:
441,174,10106,1,2,3:0:0:0:
447,189,10181,1,2,3:0:0:0:
448,205,10255,1,2,3:0:0:0:
445,220,10330,1,2,3:2:0:0:
437,231,10404,1,2,3:0:0:0:
433,244,10479,1,2,3:0:0:0:
433,257,10553,1,2,3:0:0:0:
438,270,10629,6,0,L|449:296,12,15,2|0|0|0|0|0|0|0|0|0|0|0|0,3:2|0:0|0:0|0:0|0:0|0:0|0:0|0:0|0:0|0:0|0:0|0:0|0:0,0:0:0:0:
87,301,19733,6,0,L|73:320,3,22.5,2|0|0|0,0:0|0:0|0:0|0:0,0:0:0:0:
97,262,20032,2,0,L|73:265,3,22.5,2|0|0|0,0:0|0:0|0:0|0:0,0:0:0:0:
131,240,20330,2,0,L|112:225,1,22.5,2|0,0:0|0:0,0:0:0:0:
59,169,20479,5,0,3:0:0:0:
44,162,20553,1,0,3:0:0:0:
32,151,20628,1,0,3:0:0:0:
23,139,20702,1,0,3:0:0:0:
18,124,20778,6,0,L|139:109,1,116.999994644165,6|0,0:1|0:0,0:0:0:0:
256,95,21226,1,2,3:2:0:0:
256,95,21300,1,0,0:0:0:0:
256,95,21375,1,10,0:0:0:0:
188,41,21524,1,0,0:0:0:0:
134,109,21674,1,0,0:0:0:0:
202,163,21823,2,0,L|251:206,1,58.4999973220826,2|0,3:2|3:0,0:0:0:0:
343,159,22121,6,0,L|347:130,1,29.2499986610413,2|0,0:0|3:0,0:0:0:0:
353,100,22271,1,2,0:0:0:0:
350,251,22420,2,0,L|288:271,1,58.4999973220826,2|8,3:2|0:0,0:0:0:0:
384,348,22718,2,0,L|467:319,1,87.749995983124,2|0,0:0|0:0,0:0:0:0:
496,309,23017,1,2,3:2:0:0:
496,309,23091,1,2,3:2:0:0:
496,309,23166,6,0,P|464:286|457:208,1,116.999994644165,6|0,3:2|3:0,0:0:0:0:
495,144,23614,1,6,3:2:0:0:
495,144,23688,1,0,0:0:0:0:
495,144,23763,1,2,0:0:0:0:
383,158,23912,2,0,P|376:173|372:191,2,29.2499986610413,2|0|0,3:2|3:0|3:0,0:0:0:0:
474,50,24211,2,0,B|495:25|495:25|432:-27|321:47,1,216,14|0,0:0|0:0,0:0:0:0:
187,113,24808,6,0,P|201:82|210:149,1,175.499991966248,6|0,3:2|0:0,0:0:0:0:
222,172,25106,2,0,L|161:137,1,58.4999973220826,10|8,0:0|0:0,0:0:0:0:
70,105,25405,1,2,3:2:0:0:
55,119,25479,1,0,3:0:0:0:
50,139,25554,2,0,P|79:125|101:38,2,116.999994644165,6|0|0,3:2|0:0|3:0,0:0:0:0:
0,231,26450,5,2,0:0:0:0:
50,139,26599,1,0,3:0:0:0:
74,281,26748,2,0,P|36:314|-15:322,1,87.749995983124,6|0,3:2|0:0,0:0:0:0:
10,360,27047,2,0,P|39:357|66:341,1,58.4999973220826,0|0,0:0|3:0,0:0:0:0:
219,268,27345,6,0,P|215:256|204:244,1,29.2499986610413,14|0,0:0|0:0,0:0:0:0:
124,189,27494,1,8,0:0:0:0:
166,334,27644,1,2,3:2:0:0:
192,345,27718,1,0,3:0:0:0:
221,349,27793,1,0,3:0:0:0:
250,346,27867,1,0,3:0:0:0:
277,334,27942,6,0,P|311:319|347:323,1,67.5000025749208,6|0,0:1|0:0,0:0:0:0:
441,196,28241,2,0,P|406:209|383:237,1,67.5000025749208,10|0,0:0|0:0,0:0:0:0:
476,311,28539,1,2,3:2:0:0:
476,311,28614,1,0,0:0:0:0:
476,311,28688,1,2,0:0:0:0:
491,120,28838,6,0,P|457:104|421:109,1,67.5000025749208,10|0,0:0|0:0,0:0:0:0:
237,229,29136,2,0,P|250:194|278:171,1,67.5000025749208,2|0,3:2|0:0,0:0:0:0:
323,87,29435,1,10,0:0:0:0:
323,87,29509,1,0,0:0:0:0:
323,87,29584,1,2,0:0:0:0:
134,27,29733,5,2,3:2:0:0:
151,22,29807,1,2,0:0:0:0:
168,17,29882,1,2,0:0:0:0:
186,12,29956,1,2,0:0:0:0:
204,8,30032,1,10,0:0:0:0:
190,27,30106,1,2,0:0:0:0:
183,51,30181,1,2,0:0:0:0:
185,76,30256,1,2,0:0:0:0:
196,98,30330,6,0,P|213:131|214:172,1,67.5000025749208,2|0,3:2|0:0,0:0:0:0:
67,208,30629,2,0,P|50:175|49:134,1,67.5000025749208,10|0,0:0|0:0,0:0:0:0:
185,254,30927,1,2,3:2:0:0:
185,254,31002,1,0,0:0:0:0:
185,254,31077,1,2,0:0:0:0:
0,238,31226,6,0,P|-5:274|8:313,1,67.5000025749208,10|0,0:0|0:0,0:0:0:0:
155,355,31524,2,0,P|188:358|230:346,1,67.5000025749208,2|0,3:2|0:0,0:0:0:0:
60,377,31823,1,10,0:0:0:0:
60,377,31897,1,0,0:0:0:0:
60,377,31972,1,2,0:0:0:0:
202,248,32121,5,2,3:2:0:0:
219,242,32196,1,2,0:0:0:0:
236,236,32271,1,2,0:0:0:0:
253,230,32345,1,2,0:0:0:0:
271,225,32420,1,10,0:0:0:0:
274,249,32494,1,2,0:0:0:0:
286,271,32569,1,2,0:0:0:0:
306,285,32644,1,2,0:0:0:0:
330,290,32718,6,0,P|369:282|400:293,1,67.5000025749208,2|0,3:2|0:0,0:0:0:0:
512,182,33017,2,0,P|478:203|464:232,1,67.5000025749208,10|0,0:0|0:0,0:0:0:0:
496,337,33315,1,2,3:2:0:0:
496,337,33390,1,0,0:0:0:0:
496,337,33465,1,2,0:0:0:0:
384,208,33614,6,0,P|375:169|386:138,1,67.5000025749208,10|0,0:0|0:0,0:0:0:0:
270,132,33912,2,0,P|291:98|320:84,1,67.5000025749208,2|0,3:2|0:0,0:0:0:0:
446,67,34211,1,10,0:0:0:0:
446,67,34285,1,0,0:0:0:0:
446,67,34360,1,2,0:0:0:0:
209,0,34509,5,2,3:2:0:0:
193,9,34583,1,2,0:0:0:0:
178,18,34658,1,2,0:0:0:0:
162,28,34732,1,2,0:0:0:0:
148,38,34808,1,10,0:0:0:0:
168,52,34882,1,2,0:0:0:0:
181,72,34957,1,2,0:0:0:0:
184,97,35031,1,2,0:0:0:0:
178,121,35106,6,0,P|163:161|169:188,1,67.5000025749208,2|0,3:2|0:0,0:0:0:0:
185,318,35405,2,0,P|200:278|194:251,1,67.5000025749208,10|0,0:0|0:0,0:0:0:0:
82,235,35703,1,2,3:2:0:0:
82,235,35778,1,0,0:0:0:0:
82,235,35853,1,2,0:0:0:0:
321,239,36002,6,0,P|351:225|370:198,1,67.5000025749208,10|0,0:0|3:0,0:0:0:0:
338,37,36300,2,0,P|370:64|379:90,1,67.5000025749208,2|0,3:2|0:0,0:0:0:0:
271,135,36599,1,10,0:0:0:0:
271,135,36674,1,0,0:0:0:0:
271,135,36748,1,2,0:0:0:0:
118,129,36897,5,2,3:2:0:0:
100,134,36971,1,2,0:0:0:0:
83,139,37047,2,0,L|35:147,1,45,2|2,0:0|3:2,0:0:0:0:
81,43,37196,1,10,0:0:0:0:
103,33,37270,1,2,0:0:0:0:
128,32,37345,1,2,3:2:0:0:
152,38,37419,1,2,0:0:0:0:
172,52,37494,6,0,P|196:47|232:20,1,67.5000025749208,6|0,3:1|0:0,0:0:0:0:
379,162,37793,2,0,P|352:120|339:31,1,135.000005149842,10|0,0:0|3:0,0:0:0:0:
245,136,38241,1,2,0:0:0:0:
377,185,38390,1,10,0:0:0:0:
271,243,38539,6,0,P|274:277|290:315,1,67.5000025749208,2|0,0:0|3:0,0:0:0:0:
452,314,38838,2,0,P|425:336|386:351,1,67.5000025749208,2|8,0:0|0:0,0:0:0:0:
254,227,39136,2,0,P|251:262|261:302,1,67.5000025749208,2|0,0:0|3:0,0:0:0:0:
481,320,39435,2,0,P|458:346|423:368,1,67.5000025749208,2|8,0:0|0:0,0:0:0:0:
374,265,39733,5,2,0:0:0:0:
316,384,39882,2,0,P|266:335|191:350,1,135.000005149842,2|8,3:2|0:0,0:0:0:0:
51,199,40330,1,2,0:0:0:0:
51,199,40479,2,0,P|123:205|169:267,1,135.000005149842,2|8,3:2|0:0,0:0:0:0:
80,287,40927,1,0,0:0:0:0:
57,119,41077,2,0,P|93:114|128:122,1,67.5000025749208,0|0,3:0|0:0,0:0:0:0:
302,160,41375,5,10,0:0:0:0:
188,0,41524,1,2,3:2:0:0:
319,141,41823,6,0,L|378:100,1,67.5000025749208,2|8,3:2|0:0,0:0:0:0:
487,121,42121,1,0,3:0:0:0:
492,154,42195,1,0,3:0:0:0:
497,187,42271,6,0,B|500:221|500:221|458:249|386:219,1,135.000005149842,2|8,3:2|0:0,0:0:0:0:
452,32,42718,1,2,0:0:0:0:
452,32,42793,1,0,0:0:0:0:
452,32,42868,5,2,3:2:0:0:
374,102,43017,1,2,0:0:0:0:
499,221,43166,1,10,0:0:0:0:
416,303,43315,2,0,P|371:303|342:295,1,67.5000025749208,2|0,0:0|3:0,0:0:0:0:
384,195,43614,5,2,0:0:0:0:
481,248,43763,1,10,0:0:0:0:
401,336,43912,2,0,P|358:324|332:309,1,67.5000025749208,2|0,0:0|3:0,0:0:0:0:
261,173,44211,2,0,P|272:216|272:246,1,67.5000025749208,2|8,0:0|0:0,0:0:0:0:
205,321,44509,5,2,0:0:0:0:
189,334,44583,1,0,0:0:0:0:
171,342,44659,2,0,P|127:330|101:315,1,67.5000025749208,2|0,3:2|0:0,0:0:0:0:
141,177,44957,1,10,0:0:0:0:
148,188,45032,1,2,0:0:0:0:
141,199,45106,1,2,0:0:0:0:
128,194,45181,1,2,3:2:0:0:
128,181,45256,5,2,3:2:0:0:
101,278,45405,1,2,3:2:0:0:
70,104,45553,1,10,0:0:0:0:
234,165,45703,1,2,3:2:0:0:
424,42,46002,5,2,0:0:0:0:
402,53,46076,1,2,0:0:0:0:
384,70,46151,1,2,0:0:0:0:
373,92,46225,1,2,0:0:0:0:
368,111,46300,1,2,3:2:0:0:
388,124,46374,1,2,0:0:0:0:
412,130,46449,1,2,0:0:0:0:
437,129,46523,1,2,0:0:0:0:
460,121,46598,1,2,3:2:0:0:
456,98,46673,1,2,0:0:0:0:
449,74,46748,1,2,3:2:0:0:
436,53,46822,1,2,0:0:0:0:
424,42,46897,2,0,L|405:29,2,12.375000377655,2|0|0,3:2|3:0|3:0,0:0:0:0:
390,154,47047,6,0,B|431:172|468:144|468:144|538:197|473:282,1,198.000006042481,6|8,3:2|0:0,0:0:0:0:
359,325,47494,1,2,0:0:0:0:
359,325,47569,1,0,0:0:0:0:
359,325,47644,1,2,3:2:0:0:
470,373,47793,1,2,3:2:0:0:
359,235,47942,1,10,0:0:0:0:
251,370,48091,2,0,P|213:381|180:365,1,67.5000025749208,2|0,0:0|0:0,0:0:0:0:
250,211,48390,5,2,3:2:0:0:
339,309,48539,1,10,0:0:0:0:
198,213,48688,1,2,0:0:0:0:
223,203,48762,1,8,0:0:0:0:
250,211,48837,1,0,3:0:0:0:
70,304,48987,1,2,3:2:0:0:
162,91,49136,1,8,0:0:0:0:
7,149,49285,1,2,0:0:0:0:
7,149,49360,1,0,0:0:0:0:
7,149,49435,6,0,P|-5:193|11:257,1,103.500001974106,14|0,0:0|3:0,0:0:0:0:
94,285,49659,1,0,3:0:0:0:
94,285,49733,1,0,3:0:0:0:
162,91,49882,1,14,0:0:0:0:
162,91,49957,1,0,0:0:0:0:
162,91,50032,2,0,P|190:76|220:77,1,51.7500009870529,0|0,3:0|3:0,0:0:0:0:
318,36,50181,2,0,P|297:82|315:130,1,103.500001974106,0|0,3:0|3:0,0:0:0:0:
466,187,50479,6,0,B|372:198|433:269|317:273,1,161.999995056153,14|0,0:0|3:0,0:0:0:0:
223,273,51002,1,0,0:0:0:0:
231,260,51077,6,0,P|290:245|289:333,1,175.499991966248,14|0,0:0|0:0,0:0:0:0:
256,350,51375,2,0,P|223:344|180:361,1,67.5000025749208,2|8,3:2|0:0,0:0:0:0:
380,354,51674,1,0,0:0:0:0:
388,339,51748,1,0,0:0:0:0:
394,323,51823,6,0,P|402:287|394:253,1,67.5000025749208,6|0,3:2|0:0,0:0:0:0:
469,167,52121,2,0,P|441:141|407:131,1,67.5000025749208,8|0,0:0|0:0,0:0:0:0:
370,24,52420,2,0,P|334:35|308:59,1,67.5000025749208,0|0,3:0|0:0,0:0:0:0:
199,145,52718,2,0,P|221:144|240:152,2,33.7500012874604,10|0|0,0:0|0:0|0:0,0:0:0:0:
171,277,53017,5,6,3:2:0:0:
171,277,53166,1,0,3:0:0:0:
115,154,53315,2,0,P|83:170|57:196,1,67.5000025749208,10|0,0:0|0:0,0:0:0:0:
142,368,53614,2,0,P|200:367|242:338,1,90,6|0,3:2|0:0,0:0:0:0:
305,356,53838,1,0,3:0:0:0:
305,356,53912,2,0,P|268:336|249:297,1,67.5000025749208,10|0,0:0|3:0,0:0:0:0:
342,214,54211,6,0,P|381:202|335:256,1,202.500007724762,6|2,3:2|0:0,0:0:0:0:
240,107,54808,2,0,P|206:40|200:115,1,202.500007724762,2|0,0:0|0:0,0:0:0:0:
221,217,55405,2,0,L|151:273,1,90.0000034332277,12|0,0:0|3:0,0:0:0:0:
35,364,55703,5,12,0:0:0:0:
14,307,55803,1,0,3:0:0:0:
72,317,55902,1,0,3:0:0:0:
23,359,56002,5,12,0:0:0:0:
23,299,56102,1,0,3:0:0:0:
74,328,56201,1,0,3:0:0:0:
37,329,56300,5,12,0:0:0:0:
305,116,56599,6,0,P|287:59|240:23,1,120,6|0,3:1|0:0,0:0:0:0:
136,135,56897,1,8,0:0:0:0:
175,122,56996,1,0,0:0:0:0:
215,109,57096,1,0,0:0:0:0:
122,52,57196,6,0,B|69:69|69:69|37:106,1,102.000001945496,2|0,3:2|3:0,0:0:0:0:
136,249,57494,1,8,0:0:0:0:
175,262,57593,1,0,0:0:0:0:
215,275,57693,1,0,0:0:0:0:
108,346,57793,6,0,B|50:326|50:326|20:284,1,113.999996955872,2|0,3:2|3:0,0:0:0:0:
297,275,58091,1,8,0:0:0:0:
337,262,58191,1,0,0:0:0:0:
376,249,58290,1,0,0:0:0:0:
498,298,58390,6,0,B|458:342|458:342|388:365,1,125.999996154785,2|0,3:2|3:0,0:0:0:0:
297,109,58688,1,8,0:0:0:0:
337,122,58788,1,0,0:0:0:0:
376,135,58887,1,0,0:0:0:0:
512,107,58987,6,0,B|475:47|475:47|413:27,1,138.000002632141,2|0,3:2|3:0,0:0:0:0:
228,59,59285,1,8,0:0:0:0:
202,88,59385,1,2,0:0:0:0:
217,138,59484,1,2,0:0:0:0:
171,207,59584,6,0,P|145:234|98:251,1,71.9999978027344,2|0,3:2|0:0,0:0:0:0:
30,141,59783,2,0,P|65:149|104:181,1,71.9999978027344,2|8,3:2|0:0,0:0:0:0:
42,296,59982,2,0,P|30:260|38:211,1,71.9999978027344,2|0,0:0|0:0,0:0:0:0:
274,213,60181,6,0,P|211:292|100:337,1,215.999993408203,2|8,3:2|0:0,0:0:0:0:
398,44,60679,1,2,0:0:0:0:
398,44,60728,1,0,0:0:0:0:
398,44,60778,2,0,P|427:61|442:97,1,60,2|0,3:2|0:0,0:0:0:0:
493,242,60977,5,0,3:0:0:0:
512,162,61077,1,8,0:0:0:0:
476,159,61176,1,0,3:0:0:0:
443,173,61276,1,8,0:0:0:0:
420,200,61375,2,0,P|412:271|442:310,1,120,0|0,3:0|0:0,0:0:0:0:
397,382,61674,5,10,0:0:0:0:
370,357,61773,1,0,0:0:0:0:
338,342,61873,1,0,0:0:0:0:
302,339,61972,2,0,P|276:338|235:347,1,60,2|0,3:2|0:0,0:0:0:0:
158,324,62171,1,0,3:0:0:0:
160,287,62271,2,0,P|158:257|150:229,1,60,10|0,0:0|0:0,0:0:0:0:
100,125,62470,1,0,0:0:0:0:
72,91,62569,6,0,B|37:38|37:38|-40:98|5:199,1,233.999989288331,2|8,3:2|0:0,0:0:0:0:
272,108,63067,1,2,0:0:0:0:
272,108,63166,5,2,3:2:0:0:
253,73,63265,1,2,0:0:0:0:
234,39,63365,1,2,3:2:0:0:
207,148,63465,5,10,0:0:0:0:
271,187,63564,1,2,0:0:0:0:
338,154,63664,1,2,0:0:0:0:
346,78,63763,6,0,L|318:22,2,60,2|0|0,3:2|0:0|0:0,0:0:0:0:
414,189,64062,2,0,L|470:160,2,60,8|0|0,0:0|0:0|0:0,0:0:0:0:
347,279,64360,2,0,B|292:283|326:340|238:340,1,120,0|0,3:0|3:0,0:0:0:0:
144,342,64659,1,8,0:0:0:0:
112,327,64758,1,0,0:0:0:0:
91,298,64858,1,0,0:0:0:0:
60,283,64957,2,0,P|30:288|-3:304,2,60,0|0|0,3:0|0:0|0:0,0:0:0:0:
213,208,65256,5,10,0:0:0:0:
252,164,65355,1,0,0:0:0:0:
253,105,65455,1,0,0:0:0:0:
88,133,65554,5,2,3:2:0:0:
108,188,65654,1,0,3:0:0:0:
154,215,65753,1,0,3:0:0:0:
217,59,65853,5,10,0:0:0:0:
159,48,65952,1,0,0:0:0:0:
108,77,66052,1,8,0:0:0:0:
174,131,66151,6,0,B|280:45|279:196|407:63,1,233.999989288331,6|8,3:2|0:0,0:0:0:0:
512,296,66649,1,2,0:0:0:0:
512,296,66748,2,0,P|513:259|497:220,1,77.9999964294435,2|0,3:2|0:0,0:0:0:0:
415,188,66947,1,0,3:0:0:0:
354,242,67047,5,8,0:0:0:0:
350,280,67146,1,0,0:0:0:0:
357,318,67246,1,0,0:0:0:0:
375,353,67345,2,0,P|304:336|266:353,1,107.999996704102,0|0,3:0|0:0,0:0:0:0:
165,240,67644,5,10,0:0:0:0:
121,201,67743,1,0,0:0:0:0:
62,200,67843,1,0,0:0:0:0:
90,365,67942,5,2,3:2:0:0:
145,345,68042,1,0,0:0:0:0:
172,299,68141,1,0,3:0:0:0:
15,236,68241,5,10,0:0:0:0:
5,294,68340,1,0,0:0:0:0:
34,345,68440,1,0,0:0:0:0:
88,279,68539,6,0,B|2:173|153:174|19:46,1,233.999989288331,2|8,3:2|0:0,0:0:0:0:
257,17,69037,1,2,0:0:0:0:
257,17,69136,2,0,P|278:51|281:93,1,77.9999964294435,2|0,3:2|0:0,0:0:0:0:
211,181,69335,2,0,P|171:182|133:163,1,77.9999964294435,2|8,3:2|0:0,0:0:0:0:
60,101,69534,2,0,P|67:61|93:28,1,77.9999964294435,2|0,0:0|0:0,0:0:0:0:
211,181,69733,6,0,B|308:128|285:228|376:224|453:193|449:128|417:72|364:63|311:97,1,377.999988464356,6|0,3:2|0:0,0:0:0:0:
314,94,70330,5,2,3:2:0:0:
479,14,70479,2,0,P|464:0|447:-6,2,22.5,0|0|0,3:0|3:0|3:0,0:0:0:0:
504,111,70629,1,2,3:2:0:0:
325,190,70778,2,0,P|315:195|308:204,2,22.5,0|0|0,3:0|3:0|3:0,0:0:0:0:
387,279,70927,6,0,B|415:302|446:304|446:304|389:360|274:319,1,225,4|8,0:0|0:0,0:0:0:0:
127,206,71375,1,2,0:0:0:0:
146,226,71449,1,0,0:0:0:0:
158,252,71524,2,0,P|170:318|146:377,1,112.5,2|0,3:2|0:0,0:0:0:0:
0,225,71823,1,10,0:0:0:0:
46,364,71972,2,0,P|17:285|34:204,1,168.75,6|0,3:2|0:0,0:0:0:0:
83,148,72271,5,0,3:0:0:0:
109,258,72420,1,10,0:0:0:0:
0,225,72569,1,2,0:0:0:0:
238,184,72718,5,2,3:2:0:0:
158,108,72868,1,2,0:0:0:0:
310,24,73016,1,10,0:0:0:0:
204,10,73165,1,2,0:0:0:0:
332,129,73315,6,0,L|454:149,2,112.5,6|0|8,3:2|3:0|0:0,0:0:0:0:
450,254,73763,1,2,0:0:0:0:
450,254,73838,1,0,0:0:0:0:
450,254,73912,2,0,L|338:272,1,112.5,2|0,3:2|0:0,0:0:0:0:
214,187,74211,1,8,0:0:0:0:
39,288,74360,2,0,B|134:302|134:302|161:336|161:336|265:352,1,225,4|0,3:2|3:0,0:0:0:0:
177,109,74808,6,0,P|132:155|128:202,1,112.5,10|0,0:0|0:0,0:0:0:0:
306,42,75106,2,0,P|370:42|406:73,1,112.5,2|0,3:2|0:0,0:0:0:0:
419,109,75330,1,0,3:0:0:0:
419,109,75405,1,14,0:0:0:0:
267,124,75554,1,0,3:0:0:0:
402,292,75703,6,0,P|379:320|293:347,1,112.5,14|0,0:0|0:0,0:0:0:0:
82,245,76002,1,8,0:0:0:0:
315,259,76151,1,0,3:0:0:0:
53,139,76300,5,8,0:0:0:0:
283,258,76450,1,0,3:0:0:0:
12,334,76599,5,8,0:0:0:0:
251,257,76748,1,0,3:0:0:0:
197,19,76897,6,0,P|254:4|310:32,1,112.5,12|0,0:0|0:0,0:0:0:0:
347,260,77196,1,8,0:0:0:0:
512,95,77345,1,2,3:2:0:0:
483,92,77419,1,0,0:0:0:0:
456,99,77494,6,0,P|405:128|385:188,1,112.5,10|0,0:0|3:0,0:0:0:0:
379,261,77718,1,2,3:2:0:0:
379,261,77793,1,8,0:0:0:0:
157,81,77942,1,2,3:2:0:0:
145,106,78016,1,0,0:0:0:0:
137,134,78091,6,0,P|134:198|163:248,1,112.5,14|0,0:0|0:0,0:0:0:0:
476,238,78390,1,8,0:0:0:0:
250,98,78539,1,0,3:0:0:0:
382,351,78688,6,0,P|437:354|483:321,1,112.5,12|0,0:0|3:0,0:0:0:0:
370,122,78987,1,8,0:0:0:0:
222,339,79136,1,0,3:0:0:0:
370,122,79285,6,0,L|432:23,1,112.5,4|0,3:2|0:0,0:0:0:0:
246,127,79584,1,0,3:0:0:0:
422,238,79733,1,0,3:0:0:0:
422,238,80032,6,0,B|399:372|399:372|345:242,1,269.999991760254,12|0,0:0|0:0,0:0:0:0:
372,174,80479,5,6,3:1:0:0:
256,192,80554,12,0,82718,3:0:0:0:
256,278,82868,5,12,0:0:0:0:
256,192,82942,12,0,85106,0:0:0:0:
256,307,85256,6,0,P|296:349|409:335,1,161.999995056153,4|0,3:2|3:0,0:0:0:0:
256,198,85853,2,0,P|216:240|103:226,1,161.999995056153,8|0,0:0|3:0,0:0:0:0:
256,120,86450,5,4,3:2:0:0:
256,80,86674,5,0,3:0:0:0:
256,28,86897,5,0,3:0:0:0:
177,47,87047,6,0,L|142:60,3,26.9999991760254,8|0|0|0,0:0|0:0|0:0|0:0,0:0:0:0:
335,47,87345,2,0,L|370:60,3,26.9999991760254,0|0|0|0,0:0|0:0|3:0|0:0,0:0:0:0:
438,84,87644,6,0,P|463:117|462:194,1,107.999996704102,4|0,3:2|0:0,0:0:0:0:
411,243,88091,1,0,3:0:0:0:
274,153,88241,2,0,P|279:194|334:247,1,107.999996704102,12|0,0:0|0:0,0:0:0:0:
411,243,88688,1,0,3:0:0:0:
372,161,88838,5,4,3:2:0:0:
355,327,88987,1,0,3:0:0:0:
508,259,89136,1,12,0:0:0:0:
508,259,89211,1,0,0:0:0:0:
508,259,89285,1,0,3:0:0:0:
363,132,89435,5,14,0:0:0:0:
344,112,89509,1,2,3:2:0:0:
326,92,89584,1,2,3:2:0:0:
308,72,89658,1,2,3:2:0:0:
290,52,89733,1,6,3:2:0:0:
251,74,89807,1,2,3:2:0:0:
205,81,89882,1,2,3:2:0:0:
161,70,89956,1,2,3:2:0:0:
123,44,90032,6,0,P|90:39|28:70,1,99.0000030212403,6|0,3:1|0:0,0:0:0:0:
80,255,90330,2,0,P|47:244|6:191,1,99.0000030212403,10|0,0:0|0:3,0:3:0:0:
108,152,90629,1,2,0:0:0:0:
120,159,90703,1,0,0:0:0:0:
133,166,90778,1,2,0:0:0:0:
142,337,90927,5,10,0:0:0:0:
225,190,91077,1,4,3:0:0:0:
246,351,91226,2,0,P|299:362|347:328,1,99.0000030212403,6|0,3:0|0:0,0:0:0:0:
274,190,91524,1,10,0:0:0:0:
249,186,91598,1,0,0:0:0:0:
225,190,91673,1,2,0:0:0:0:
336,341,91823,5,2,0:0:0:0:
357,338,91897,1,2,0:0:0:0:
385,342,91972,2,0,P|406:345|427:362,1,36,6|2,3:2|0:0,0:0:0:0:
476,282,92121,1,10,0:0:0:0:
453,255,92195,1,2,0:0:0:0:
440,221,92270,1,2,3:2:0:0:
439,185,92344,1,2,0:0:0:0:
449,151,92420,6,0,P|482:95|513:81,1,99.0000030212403,6|0,3:2|0:0,0:0:0:0:
245,91,92718,2,0,P|244:26|224:-1,1,99.0000030212403,10|0,0:2|0:0,0:0:0:0:
392,28,93017,1,2,0:0:0:0:
398,14,93091,1,0,0:0:0:0:
404,0,93166,1,2,0:0:0:0:
316,170,93315,5,10,0:0:0:0:
386,42,93465,1,4,3:0:0:0:
324,253,93614,2,0,P|269:239|235:191,1,99.0000030212403,6|0,3:0|0:0,0:0:0:0:
206,89,93912,1,10,0:0:0:0:
214,76,93987,1,0,0:0:0:0:
225,66,94062,1,2,0:0:0:0:
18,168,94211,5,2,0:0:0:0:
8,148,94285,1,2,0:0:0:0:
0,120,94360,2,0,P|0:103|6:77,1,36,6|0,3:2|0:0,0:0:0:0:
99,52,94509,1,10,0:0:0:0:
86,85,94583,1,2,0:0:0:0:
87,121,94658,1,2,3:2:0:0:
101,154,94732,1,2,0:0:0:0:
127,179,94808,6,0,P|158:223|159:269,1,99.0000030212403,6|0,3:2|0:0,0:0:0:0:
397,278,95106,2,0,P|344:291|314:326,1,99.0000030212403,10|0,0:0|0:0,0:0:0:0:
209,371,95405,1,2,3:2:0:0:
214,357,95479,1,0,0:0:0:0:
220,343,95554,1,2,0:0:0:0:
353,194,95703,6,0,P|315:163|265:159,1,99.0000030212403,10|0,0:0|0:0,0:0:0:0:
415,61,96002,2,0,P|453:30|503:26,1,99.0000030212403,6|0,3:2|0:0,0:0:0:0:
482,218,96300,1,10,0:0:0:0:
482,203,96374,1,0,0:0:0:0:
482,188,96449,1,2,0:0:0:0:
376,346,96599,5,2,3:2:0:0:
402,350,96673,1,2,0:0:0:0:
429,354,96748,1,2,0:0:0:0:
456,358,96822,1,2,0:0:0:0:
483,363,96897,1,10,0:0:0:0:
463,333,96971,1,2,0:0:0:0:
456,298,97046,1,2,0:0:0:0:
462,263,97120,1,2,0:0:0:0:
482,233,97195,5,6,3:2:0:0:
335,142,97345,1,0,3:0:0:0:
195,292,97494,1,10,0:0:0:0:
302,156,97644,1,0,3:0:0:0:
384,326,97793,1,6,3:2:0:0:
384,326,97868,1,0,0:0:0:0:
384,326,97942,1,2,3:2:0:0:
213,172,98091,1,10,0:0:0:0:
407,89,98241,1,0,3:0:0:0:
353,227,98390,5,6,3:2:0:0:
355,191,98464,1,0,3:0:0:0:
347,157,98539,1,0,3:0:0:0:
330,128,98613,1,0,3:0:0:0:
306,104,98688,1,6,3:2:0:0:
302,138,98763,1,0,3:0:0:0:
307,172,98838,1,2,3:2:0:0:
325,202,98912,1,0,3:0:0:0:
353,227,98987,5,6,3:2:0:0:
364,249,99061,1,2,3:2:0:0:
368,273,99136,1,2,3:2:0:0:
365,297,99210,1,2,3:2:0:0:
355,320,99285,1,6,3:2:0:0:
341,332,99360,1,2,3:2:0:0:
327,341,99434,1,2,3:2:0:0:
310,346,99509,1,2,3:2:0:0:
293,346,99584,6,0,P|274:344|259:337,3,33.7500012874604,6|0|0|0,3:2|0:0|0:0|0:0,0:0:0:0:
192,373,99882,2,0,P|181:357|178:340,3,33.7500012874604,2|0|0|0,0:0|0:0|0:0|0:0,0:0:0:0:
108,310,100181,2,0,P|114:292|124:279,3,33.7500012874604,2|0|0|0,0:0|0:0|0:0|0:0,0:0:0:0:
105,205,100479,2,0,P|122:198|139:199,3,33.7500012874604,2|0|0|0,0:0|0:0|0:0|0:0,0:0:0:0:
185,137,100778,2,0,P|200:147|210:160,3,33.7500012874604,2|0|0|0,0:0|0:0|0:0|0:0,0:0:0:0:
287,158,101077,2,0,P|288:176|284:193,3,33.7500012874604,2|0|0|0,0:0|0:0|0:0|0:0,0:0:0:0:
333,251,101375,2,0,P|319:263|303:270,3,33.7500012874604,2|0|0|0,0:0|0:0|0:0|0:0,0:0:0:0:
217,264,101674,5,10,0:3:0:0:
204,259,101749,1,2,0:0:0:0:
204,246,101823,1,2,0:0:0:0:
217,242,101898,1,2,0:0:0:0:
224,253,101972,6,0,B|106:249|179:377|-17:340,1,243.000000926971,6|8,3:1|0:0,0:0:0:0:
162,124,102420,1,2,0:0:0:0:
186,124,102494,1,0,0:0:0:0:
208,132,102569,1,2,3:2:0:0:
57,262,102718,5,2,3:2:0:0:
19,66,102868,1,10,0:0:0:0:
229,141,103017,2,0,P|291:154|345:123,1,121.500000463486,2|0,3:1|0:0,0:0:0:0:
512,0,103315,2,0,P|525:62|494:116,1,121.500000463486,2|8,3:1|0:0,0:0:0:0:
233,268,103614,2,0,P|295:280|349:249,1,121.500000463486,2|0,0:1|3:0,0:0:0:0:
512,202,103912,2,0,P|497:263|446:299,1,121.500000463486,2|8,3:1|0:0,0:0:0:0:
278,282,104211,1,2,0:0:0:0:
254,278,104286,1,0,0:0:0:0:
233,268,104360,6,0,B|176:258|147:309|147:309|162:370|237:365,1,202.500007724762,2|0,3:2|0:0,0:0:0:0:
251,368,104659,1,10,0:0:0:0:
2,168,104808,2,0,B|56:148|93:194|93:194|89:256|14:265,1,202.500007724762,2|0,3:0|0:0,0:0:0:0:
1,269,105107,1,0,3:0:0:0:
128,189,105256,1,2,0:0:0:0:
110,0,105405,6,0,B|73:26|84:79|84:79|204:49|248:169,1,270.000010299683,14|0,3:2|3:0,0:0:0:0:
370,139,105853,2,0,P|388:110|416:86,2,60.7500002317429,8|0|0,0:0|0:0|0:0,0:0:0:0:
258,277,106151,5,2,0:0:0:0:
302,92,106300,1,2,3:2:0:0:
357,277,106450,1,10,0:0:0:0:
303,62,106599,1,2,3:2:0:0:
307,362,106748,6,0,B|364:349|370:298|370:298|422:311|474:258,1,182.250000695229,6|0,3:2|0:0,0:0:0:0:
480,254,107047,1,10,0:0:0:0:
306,176,107196,2,0,P|248:208|226:270,1,121.500000463486,2|0,0:0|3:0,0:0:0:0:
2,237,107494,2,0,P|67:244|111:294,1,121.500000463486,2|8,3:2|0:0,0:0:0:0:
146,165,107793,1,2,0:0:0:0:
141,141,107867,1,0,0:0:0:0:
136,117,107942,1,0,3:0:0:0:
177,334,108091,1,0,3:0:0:0:
131,93,108241,6,0,B|121:54|121:54|82:47|41:84,1,121.500000463486,10|0,0:1|3:0,0:0:0:0:
252,203,108539,2,0,B|290:213|290:213|316:183|304:129,1,121.500000463486,2|0,0:1|3:0,0:0:0:0:
96,252,108838,2,0,B|67:280|67:280|80:317|133:334,1,121.500000463486,10|0,0:1|0:0,0:0:0:0:
358,325,109136,6,0,B|402:315|444:352|444:352|443:300|480:268,1,182.250000695229,2|0,3:2|0:0,0:0:0:0:
398,243,109435,1,10,0:0:0:0:
455,383,109584,1,2,3:2:0:0:
438,76,109882,5,2,3:2:0:0:
326,178,110032,1,2,0:0:0:0:
397,6,110181,2,0,P|489:16|498:131,1,202.500007724762,14|0,0:0|0:0,0:0:0:0:
387,128,110479,1,0,3:0:0:0:
405,111,110553,1,0,3:0:0:0:
423,94,110628,1,8,0:0:0:0:
398,244,110778,5,2,3:2:0:0:
266,99,110927,1,2,0:0:0:0:
423,94,111077,1,2,3:2:0:0:
416,261,111226,1,14,0:0:0:0:
251,85,111375,1,2,3:2:0:0:
264,251,111524,6,0,B|227:295|177:287|177:287|138:327|138:327|93:313|43:356,1,243.000000926971,6|8,3:2|0:0,0:0:0:0:
198,378,111972,1,2,0:0:0:0:
219,181,112121,1,2,3:2:0:0:
45,251,112271,1,2,0:0:0:0:
198,378,112420,1,10,0:0:0:0:
105,156,112569,1,2,0:0:0:0:
105,156,112644,1,0,0:0:0:0:
105,156,112718,6,0,P|88:119|56:38,1,121.500000463486,0|0,3:0|0:0,0:0:0:0:
207,19,113017,1,10,0:1:0:0:
241,7,113091,1,0,0:0:0:0:
277,10,113166,1,0,0:0:0:0:
309,26,113240,1,0,0:0:0:0:
328,55,113315,2,0,L|255:152,1,121.500000463486,2|0,3:1|0:0,0:0:0:0:
332,279,113614,2,0,L|453:294,1,121.500000463486,10|0,0:1|0:0,0:0:0:0:
407,151,113912,5,2,3:1:0:0:
239,244,114062,1,0,3:0:0:0:
407,151,114211,1,8,0:0:0:0:
461,323,114360,6,0,L|340:308,1,99.0000030212403,2|0,0:0|3:0,0:0:0:0:
179,357,114659,2,0,L|252:259,1,99.0000030212403,2|8,0:0|0:0,0:0:0:0:
290,95,114957,1,2,0:0:0:0:
290,95,115032,1,0,0:0:0:0:
290,95,115106,6,0,L|313:151,1,49.5000015106202,0|0,3:0|0:0,0:0:0:0:
147,21,115256,2,0,L|90:43,1,49.5000015106202,2|0,0:0|0:0,0:0:0:0:
114,204,115405,2,0,L|151:154,1,49.5000015106202,10|0,0:0|0:0,0:0:0:0:
200,91,115554,1,2,0:0:0:0:
200,91,115629,1,0,3:0:0:0:
200,91,115703,1,0,3:0:0:0:
0,218,115853,5,2,3:2:0:0:
3,264,115927,1,2,3:2:0:0:
34,302,116002,1,10,0:0:0:0:
78,325,116076,1,2,0:0:0:0:
127,328,116151,1,2,3:2:0:0:
175,315,116226,1,2,3:2:0:0:
218,276,116300,6,0,P|144:272|98:310,1,116.999994644165,14|2,0:0|3:0,0:0:0:0:
62,365,116524,1,0,3:0:0:0:
62,365,116599,1,2,3:2:0:0:
292,185,116748,6,0,P|366:181|412:219,1,116.999994644165,14|2,0:0|3:2,0:0:0:0:
448,274,116972,1,0,3:0:0:0:
448,274,117047,1,2,3:2:0:0:
197,109,117196,6,0,P|123:105|77:143,1,116.999994644165,14|2,0:0|3:2,0:0:0:0:
41,198,117420,1,0,3:0:0:0:
41,198,117495,1,2,3:2:0:0:
292,3,117644,6,0,P|366:-1|412:37,1,116.999994644165,14|0,0:0|0:0,0:0:0:0:
169,181,117942,1,2,0:0:0:0:
140,174,118016,1,2,0:0:0:0:
116,158,118091,5,10,0:0:0:0:
154,144,118165,1,2,0:0:0:0:
194,149,118240,1,2,0:0:0:0:
227,173,118314,1,2,0:0:0:0:
244,210,118389,1,10,0:0:0:0:
249,239,118464,1,2,0:0:0:0:
262,265,118539,1,2,0:0:0:0:
282,286,118613,1,10,0:0:0:0:
307,300,118688,6,0,P|337:262|323:181,1,116.999994644165,14|2,0:0|3:2,0:0:0:0:
264,104,118912,1,0,3:0:0:0:
264,104,118987,1,2,3:2:0:0:
3,136,119136,6,0,P|41:106|122:120,1,116.999994644165,14|2,0:0|3:2,0:0:0:0:
199,179,119360,1,0,3:0:0:0:
199,179,119435,1,2,3:2:0:0:
301,362,119584,6,0,P|295:313|228:266,1,116.999994644165,14|2,0:0|3:2,0:0:0:0:
132,253,119808,1,0,3:0:0:0:
132,253,119883,1,2,3:2:0:0:
0,384,120032,6,0,P|-19:339|15:264,1,116.999994644165,14|0,0:0|0:0,0:0:0:0:
208,355,120330,1,0,0:0:0:0:
208,355,120405,1,0,0:0:0:0:
208,355,120479,1,10,0:0:0:0:
65,327,120629,1,0,3:0:0:0:
273,283,120778,2,0,B|324:239|328:303|406:245,1,116.999994644165,12|0,0:0|0:0,0:0:0:0:
333,88,121077,5,14,0:0:0:0:
128,68,121226,1,0,3:0:0:0:
100,104,121300,1,0,3:0:0:0:
108,149,121375,5,14,0:0:0:0:
315,267,121524,1,2,3:2:0:0:
296,225,121598,1,0,3:0:0:0:
253,210,121673,5,14,0:0:0:0:
46,330,121823,1,0,3:0:0:0:
93,335,121897,1,0,3:0:0:0:
127,305,121972,5,6,0:3:0:0:
213,49,122121,6,0,B|288:32|321:112|321:112|343:25|441:42,1,283.499991348267,14|0,0:0|0:0,0:0:0:0:
426,40,122868,5,2,3:2:0:0:
409,39,122943,1,2,3:2:0:0:
391,40,123018,1,2,3:2:0:0:
374,45,123092,1,2,3:2:0:0:
359,52,123167,1,2,3:2:0:0:
345,63,123240,1,2,3:2:0:0:
334,77,123315,1,2,3:2:0:0:
327,93,123390,1,2,3:2:0:0:
321,110,123464,1,2,3:2:0:0:
314,97,123539,1,2,3:2:0:0:
305,82,123614,1,2,3:2:0:0:
294,69,123688,1,2,3:2:0:0:
280,58,123763,1,2,3:2:0:0:
264,50,123837,1,2,3:2:0:0:
247,46,123912,1,2,3:2:0:0:
230,46,123987,1,2,3:2:0:0:
213,49,124062,6,0,L|199:57,6,8.77500029457093,2|0|0|0|0|0|0,0:0|0:0|0:0|0:0|0:0|0:0|0:0,0:0:0:0:
232,127,124360,2,0,L|246:135,6,8.77500029457093,2|0|0|0|0|0|0,0:0|0:0|0:0|0:0|0:0|0:0|0:0,0:0:0:0:
213,205,124659,5,4,0:1:0:0:
256,192,124733,12,0,128241,0:0:0:0:
377,302,133763,5,0,3:0:0:0:
377,302,133838,1,0,3:0:0:0:
377,302,133912,2,0,P|407:227|316:270,1,225,12|4,0:0|3:2,0:0:0:0:
73,343,134509,6,0,B|160:311|151:402|258:343,1,170.999995433807,2|8,0:0|0:0,0:0:0:0:
197,279,134957,1,2,0:0:0:0:
44,338,135106,1,2,0:0:0:0:
96,239,135256,6,0,P|155:241|199:274,1,85.4999977169037,2|0,3:2|3:0,0:0:0:0:
373,167,135554,2,0,P|315:179|277:219,1,85.4999977169037,2|0,0:0|0:0,0:0:0:0:
110,46,135853,2,0,P|150:89|158:143,1,85.4999977169037,2|8,3:2|0:0,0:0:0:0:
333,11,136151,2,0,P|300:60|302:115,1,85.4999977169037,2|8,0:0|0:0,0:0:0:0:
401,94,136450,1,2,3:2:0:0:
265,26,136599,1,0,3:0:0:0:
494,19,136748,5,2,0:0:0:0:
508,45,136822,1,0,0:0:0:0:
512,74,136897,1,2,0:0:0:0:
470,171,137047,1,2,3:2:0:0:
455,197,137121,1,0,0:0:0:0:
445,226,137196,2,0,P|433:268|443:317,1,85.4999977169037,10|2,0:0|0:0,0:0:0:0:
512,384,137494,5,2,0:0:0:0:
357,346,137644,1,2,3:2:0:0:
339,319,137718,1,0,3:0:0:0:
318,297,137793,2,0,P|285:268|236:256,1,85.4999977169037,2|0,3:2|0:0,0:0:0:0:
128,282,138091,1,2,0:0:0:0:
128,282,138166,1,0,0:0:0:0:
128,282,138241,1,2,3:2:0:0:
226,366,138390,5,8,0:0:0:0:
199,172,138539,1,2,3:2:0:0:
124,316,138688,1,10,0:0:0:0:
111,106,138838,1,10,0:0:0:0:
123,89,138912,1,8,0:0:0:0:
141,78,138987,5,6,3:2:0:0:
66,222,139136,1,0,0:0:0:0:
37,23,139285,1,8,0:0:0:0:
0,172,139435,1,0,0:0:0:0:
114,7,139584,1,8,0:0:0:0:
219,158,139733,5,0,0:0:0:0:
241,161,139807,1,8,0:0:0:0:
261,153,139882,2,0,P|279:143|291:125,1,42.7499988584519,2|0,3:2|0:0,0:0:0:0:
268,0,140032,1,8,0:0:0:0:
462,55,140181,5,6,3:2:0:0:
292,20,140330,1,2,3:2:0:0:
365,88,140479,2,0,L|406:126,2,28.4999992389679,10|0|0,0:0|0:0|0:0,0:0:0:0:
359,179,140629,2,0,P|334:214|326:256,1,85.4999977169037,0|12,0:0|0:0,0:0:0:0:
488,365,140927,5,0,0:0:0:0:
488,365,141002,1,8,0:0:0:0:
488,365,141077,2,0,L|445:373,1,42.7499988584519,2|0,3:2|0:0,0:0:0:0:
172,319,141226,2,0,L|215:327,1,42.7499988584519,10|2,0:0|0:0,0:0:0:0:
328,377,141375,5,6,3:2:0:0:
434,243,141524,1,8,0:0:0:0:
294,108,141674,5,4,3:2:0:0:
400,242,141823,1,8,0:0:0:0:
201,239,141972,6,0,L|247:240,1,42.7499988584519,6|0,3:2|0:0,0:0:0:0:
366,241,142121,1,10,0:0:0:0:
292,83,142271,2,0,P|258:50|207:43,1,85.4999977169037,6|10,3:2|0:0,0:0:0:0:
12,188,142569,5,6,3:0:0:0:
189,166,142718,1,8,0:0:0:0:
82,23,142868,1,4,3:0:0:0:
98,117,143017,1,8,0:0:0:0:
96,105,143315,5,6,3:2:0:0:
94,92,143389,1,10,0:0:0:0:
91,78,143464,1,10,0:0:0:0:
88,63,143539,1,10,0:0:0:0:
86,50,143613,1,10,0:0:0:0:
84,36,143688,1,10,0:0:0:0:
82,23,143763,2,0,P|30:48|0:137,1,128.249996575356
48,231,144062,6,0,B|125:237|84:292|167:297,1,135.000005149842,14|0,0:1|0:0,0:0:0:0:
309,162,144360,1,2,3:2:0:0:
294,131,144434,1,2,0:0:0:0:
271,107,144509,1,2,0:0:0:0:
241,92,144583,1,2,0:0:0:0:
207,90,144658,5,8,0:0:0:0:
206,136,144733,1,0,0:0:0:0:
222,181,144808,1,2,0:0:0:0:
251,218,144882,1,2,0:0:0:0:
291,242,144957,5,2,3:2:0:0:
299,217,145031,1,0,0:0:0:0:
312,194,145106,1,2,0:0:0:0:
331,174,145180,1,2,0:0:0:0:
354,161,145255,5,10,0:0:0:0:
339,182,145330,1,0,0:0:0:0:
330,208,145405,1,2,0:0:0:0:
329,234,145479,1,2,0:0:0:0:
335,261,145554,5,2,3:2:0:0:
344,236,145628,1,0,0:0:0:0:
361,215,145703,1,2,0:0:0:0:
385,202,145777,1,2,0:0:0:0:
411,195,145853,5,10,0:0:0:0:
395,237,145927,1,2,0:0:0:0:
418,277,146002,1,2,0:0:0:0:
464,284,146076,1,2,0:0:0:0:
498,253,146151,6,0,P|458:268|423:339,1,116.999994644165,2|0,3:2|0:0,0:0:0:0:
416,359,146375,2,0,P|356:366|297:335,1,116.999994644165,2|0,0:0|0:0,0:0:0:0:
256,273,146599,2,0,P|180:253|228:347,1,233.999989288331,2|2,0:0|0:0,0:0:0:0:
78,256,147047,1,10,0:0:0:0:
78,256,147121,1,2,0:0:0:0:
78,256,147196,2,0,P|103:204|152:173,1,116.999994644165,2|0,0:0|3:0,0:0:0:0:
331,174,147494,5,2,0:0:0:0:
357,179,147569,1,0,0:0:0:0:
382,194,147643,1,10,0:0:0:0:
354,197,147718,1,2,0:0:0:0:
326,189,147793,1,2,0:0:0:0:
303,171,147867,1,2,0:0:0:0:
287,147,147942,5,2,3:2:0:0:
267,111,148016,1,2,0:0:0:0:
237,83,148091,1,2,0:0:0:0:
199,68,148165,1,2,0:0:0:0:
159,65,148241,2,0,P|124:69|95:83,1,58.4999973220826,10|0,0:0|0:0,0:0:0:0:
40,150,148390,2,0,P|30:177|28:207,1,58.4999973220826,2|0,3:0|0:0,0:0:0:0:
147,226,148539,6,0,L|180:208,2,29.2499986610413,2|0|0,3:2|0:0|0:0,0:0:0:0:
145,322,148688,1,2,0:0:0:0:
145,322,148763,1,2,0:0:0:0:
145,322,148838,2,0,L|201:291,1,58.4999973220826,10|0,0:0|0:0,0:0:0:0:
276,263,148987,6,0,L|295:231,2,29.2499986610413,2|0|0,0:0|0:0|0:0,0:0:0:0:
323,346,149136,1,2,3:2:0:0:
323,346,149211,1,2,0:0:0:0:
323,346,149286,2,0,L|356:291,1,58.4999973220826,2|0,0:0|0:0,0:0:0:0:
398,221,149435,6,0,L|399:183,2,29.2499986610413,10|0|0,0:0|0:0|0:0,0:0:0:0:
480,269,149584,1,2,0:0:0:0:
480,269,149659,1,2,0:0:0:0:
480,269,149734,2,0,L|482:205,1,58.4999973220826,2|0,3:2|0:0,0:0:0:0:
478,122,149882,5,2,0:0:0:0:
478,122,149957,1,2,0:0:0:0:
478,122,150032,2,0,L|434:75,3,58.4999973220826,10|0|0|0,0:0|0:0|0:0|0:0,0:0:0:0:
374,27,150330,1,2,3:0:0:0:
358,18,150404,1,0,0:0:0:0:
341,13,150479,1,2,0:0:0:0:
324,11,150553,1,2,0:0:0:0:
307,13,150628,5,10,0:0:0:0:
279,22,150703,1,2,0:0:0:0:
254,54,150778,1,2,0:0:0:0:
252,106,150853,1,2,0:0:0:0:
289,156,150927,6,0,B|341:235|228:231|329:359,1,175.499991966248,2|0,3:2|0:0,0:0:0:0:
326,370,151226,2,0,P|277:330|212:341,1,116.999994644165,10|0,0:0|0:0,0:0:0:0:
36,384,151524,1,2,3:2:0:0:
158,245,151674,1,2,0:0:0:0:
16,365,151823,1,10,0:0:0:0:
3,338,151897,1,0,0:0:0:0:
6,310,151972,2,0,P|39:248|27:193,1,116.999994644165,2|0,0:0|3:0,0:0:0:0:
0,109,152271,6,0,P|10:90|26:76,2,38.9999982147218,2|0|0,3:2|0:0|0:0,0:0:0:0:
60,8,152420,2,0,P|83:17|94:29,2,38.9999982147218,10|0|0,0:0|0:0|0:0,0:0:0:0:
171,46,152569,2,0,P|174:67|171:85,2,38.9999982147218,2|0|0,0:0|0:0|0:0,0:0:0:0:
182,166,152718,6,0,P|206:160|239:134,5,38.9999982147218,2|0|0|0|0|0,3:2|0:0|0:0|0:0|0:0|0:0,0:0:0:0:
305,130,153017,2,0,P|325:135|342:143,5,38.9999982147218,10|0|0|0|0|0,0:0|0:0|0:0|3:0|0:0|0:0,0:0:0:0:
396,220,153315,5,6,3:2:0:0:
423,189,153389,1,0,0:0:0:0:
432,150,153464,1,0,0:0:0:0:
422,111,153538,1,2,0:0:0:0:
395,80,153614,1,8,0:0:0:0:
367,110,153688,1,0,0:0:0:0:
358,149,153763,1,2,0:0:0:0:
368,188,153837,1,0,0:0:0:0:
396,220,153912,5,2,3:2:0:0:
423,251,153986,1,0,0:0:0:0:
433,290,154061,1,0,0:0:0:0:
424,329,154135,1,2,0:0:0:0:
397,360,154211,1,8,0:0:0:0:
369,328,154285,1,0,0:0:0:0:
359,289,154360,1,2,0:0:0:0:
368,250,154434,1,2,0:0:0:0:
396,220,154509,6,0,P|430:216|465:222,1,58.4999973220826,2|0,3:2|0:0,0:0:0:0:
283,208,154659,1,0,0:0:0:0:
277,177,154733,1,2,0:0:0:0:
273,142,154808,2,0,P|280:108|298:77,3,58.4999973220826,8|0|0|0,0:0|0:0|0:0|0:0,0:0:0:0:
180,194,155106,1,2,3:2:0:0:
174,225,155180,1,0,0:0:0:0:
170,260,155255,2,0,P|177:293|195:324,3,58.4999973220826,0|0|8|0,0:0|0:0|0:0|0:0,0:0:0:0:
72,217,155554,6,0,B|-18:184|-45:95|11:46|54:58|85:83|87:137,1,288,2|2,0:0|0:0,0:0:0:0:
124,151,155927,1,0,0:0:0:0:
121,130,156001,1,10,0:0:0:0:
123,108,156076,1,0,0:0:0:0:
130,88,156150,1,2,0:0:0:0:
141,69,156225,1,0,0:0:0:0:
155,53,156300,6,0,P|176:37|203:25,3,48,2|0|0|2,3:0|0:0|0:0|0:0,0:0:0:0:
315,14,156524,1,2,0:0:0:0:
315,14,156599,2,0,P|340:23|363:41,3,48,10|0|0|2,0:0|0:0|0:0|0:0,0:0:0:0:
261,90,156823,1,2,0:0:0:0:
261,90,156897,6,0,P|272:122|275:165,1,58.4999973220826,2|0,3:2|0:0,0:0:0:0:
295,259,157046,1,2,0:0:0:0:
295,259,157121,1,2,0:0:0:0:
295,259,157196,2,0,P|296:292|304:320,1,58.4999973220826,10|0,0:0|0:0,0:0:0:0:
127,229,157345,2,0,P|110:223|90:222,2,38.9999982147218,2|0|2,0:0|0:0|0:0,0:0:0:0:
144,199,157494,2,0,P|170:189|216:196,1,58.4999973220826,2|0,3:2|3:0,0:0:0:0:
344,190,157644,6,0,P|372:187|400:179,1,58.4999973220826,2|0,0:0|3:0,0:0:0:0:
357,35,157793,1,10,0:0:0:0:
512,210,157942,2,0,P|490:217|475:233,2,38.9999982147218,2|0|0,3:2|0:0|0:0,0:0:0:0:
461,254,158091,6,0,P|496:298|490:355,1,116.999994644165,6|2,3:2|0:0,0:0:0:0:
383,346,158315,1,2,0:0:0:0:
352,344,158389,1,10,0:0:0:0:
323,343,158465,2,0,L|276:336,4,29.2499986610413,2|0|0|0|0,0:0|0:0|0:0|0:0|0:0,0:0:0:0:
211,279,158688,2,0,L|217:240,4,38.9999982147218,2|0|0|0|0,3:2|0:0|0:0|0:0|0:0,0:0:0:0:
205,359,158987,1,10,0:0:0:0:
177,352,159061,1,0,0:0:0:0:
153,336,159136,1,2,0:0:0:0:
137,311,159211,1,0,0:0:0:0:
131,282,159285,5,6,3:2:0:0:
128,232,159359,1,2,0:0:0:0:
100,191,159434,1,2,0:0:0:0:
55,171,159508,1,2,0:0:0:0:
5,175,159584,5,10,0:0:0:0:
46,216,159658,1,2,0:0:0:0:
111,237,159733,1,2,0:0:0:0:
171,205,159807,1,2,0:0:0:0:
217,152,159882,6,0,P|230:136|240:111,2,48,2|0|0,3:2|0:0|0:0,0:0:0:0:
264,33,160032,1,2,0:0:0:0:
264,33,160106,1,2,0:0:0:0:
264,33,160181,2,0,P|321:-7|419:21,1,144,12|0,0:0|0:0,0:0:0:0:
462,69,160405,1,0,0:0:0:0:
462,69,160479,5,6,3:2:0:0:
449,98,160553,1,0,3:0:0:0:
448,133,160628,1,0,3:0:0:0:
458,164,160702,1,0,3:0:0:0:
481,190,160778,6,0,L|519:215,2,36,10|8|8,0:0|0:0|0:0,0:0:0:0:
383,238,160927,1,0,3:0:0:0:
357,217,161001,1,0,3:0:0:0:
324,208,161077,6,0,P|308:203|289:202,2,36,10|8|8,0:0|0:0|0:0,0:0:0:0:
324,102,161226,2,0,P|341:78|366:63,2,58.4999973220826,0|0|2,3:0|3:0|3:0,0:0:0:0:
192,184,161524,6,0,B|122:123|18:188|18:188|75:290|183:268|183:268|236:263|302:319|248:430,1,546.750002085686,14|0,0:0|0:0,0:0:0:0:
265,378,162271,5,2,3:2:0:0:
267,345,162346,1,2,3:2:0:0:
258,312,162421,1,2,3:2:0:0:
236,285,162495,1,2,3:2:0:0:
207,270,162570,1,2,3:2:0:0:
172,269,162643,1,2,3:2:0:0:
137,272,162718,1,2,3:2:0:0:
105,267,162793,1,2,3:2:0:0:
74,252,162867,1,2,3:2:0:0:
48,231,162942,1,2,3:2:0:0:
27,204,163017,1,2,3:2:0:0:
31,180,163091,1,2,3:2:0:0:
62,165,163166,1,2,3:2:0:0:
95,156,163240,1,2,3:2:0:0:
129,155,163315,1,2,3:2:0:0:
163,165,163390,1,2,3:2:0:0:
192,184,163465,6,0,B|229:197|281:214|369:219|424:184|470:121|448:55|399:28|337:43|299:73|296:117,1,450,2|4,3:2|0:1,0:0:0:0:
245,64,166450,5,0,0:0:0:0:
235,69,166748,5,0,0:0:0:0:
235,57,167047,5,0,0:0:0:0:
355,17,167345,5,2,0:0:0:0:
374,38,167419,1,2,0:0:0:0:
384,65,167494,1,2,0:0:0:0:
384,95,167568,1,2,0:0:0:0:
373,121,167644,6,0,P|357:165|380:234,1,107.999996704102,4|0,0:0|0:0,0:0:0:0:
443,294,168091,1,2,3:2:0:0:
443,294,168166,1,0,0:0:0:0:
443,294,168241,1,10,0:0:0:0:
439,173,168390,1,2,0:0:0:0:
512,236,168539,1,2,0:0:0:0:
371,222,168688,6,0,P|340:218|309:230,1,53.9999983520508,2|0,3:2|3:0,0:0:0:0:
250,150,168987,2,0,P|225:169|211:199,1,53.9999983520508,2|0,0:0|0:0,0:0:0:0:
236,281,169285,2,0,P|247:305|248:332,1,53.9999983520508,2|8,3:2|0:0,0:0:0:0:
157,369,169584,2,0,P|131:375|104:371,1,53.9999983520508,2|0,0:0|0:0,0:0:0:0:
84,235,169882,5,2,3:2:0:0:
84,235,169957,1,0,0:0:0:0:
84,235,170032,2,0,P|51:191|56:135,1,107.999996704102,2|2,3:2|3:2,0:0:0:0:
238,65,170479,2,0,P|194:32|138:37,1,107.999996704102,10|10,0:0|0:0,0:0:0:0:
37,47,170927,1,2,0:0:0:0:
134,115,171077,6,0,B|190:127|142:163|223:196,1,107.999996704102,6|8,0:0|0:0,0:0:0:0:
317,199,171524,2,0,P|341:187|358:156,1,53.9999983520508,0|0,0:0|3:0,0:0:0:0:
370,51,171823,5,10,0:0:0:0:
483,65,171972,1,2,0:0:0:0:
355,164,172121,1,10,0:0:0:0:
468,179,172271,1,2,0:0:0:0:
468,179,172345,1,0,0:0:0:0:
468,179,172420,6,0,P|495:199|509:272,1,107.999996704102,6|2,0:0|0:0,0:0:0:0:
484,355,172868,2,0,L|424:324,1,53.9999983520508,2|8,3:2|0:0,0:0:0:0:
325,325,173166,2,0,L|277:349,1,53.9999983520508,2|0,0:0|0:0,0:0:0:0:
166,355,173465,1,2,3:2:0:0:
166,355,173539,1,0,0:0:0:0:
166,355,173614,2,0,B|136:323|136:323|139:279,1,80.9999975280763,0|0,3:2|3:0,0:0:0:0:
145,252,173912,6,0,P|132:227|108:213,1,53.9999983520508,2|0,0:0|3:0,0:0:0:0:
58,122,174211,2,0,P|86:123|110:109,1,53.9999983520508,10|0,0:0|0:0,0:0:0:0:
214,111,174509,2,0,P|198:134|198:162,1,53.9999983520508,2|0,0:0|3:0,0:0:0:0:
317,199,174808,6,0,B|382:207|347:246|413:254,1,107.999996704102,2|2,3:2|3:2,0:0:0:0:
512,123,175256,1,10,0:0:0:0:
512,123,175554,5,10,0:0:0:0:
425,183,175703,1,2,0:0:0:0:
451,37,175853,2,0,B|454:9|454:9|420:36|367:40,1,107.999996704102,6|8,0:0|0:0,0:0:0:0:
279,23,176300,1,0,0:0:0:0:
316,119,176450,5,2,3:2:0:0:
279,23,176599,1,10,0:0:0:0:
121,113,176748,1,2,0:0:0:0:
121,113,176823,1,0,0:0:0:0:
121,113,176897,1,10,0:0:0:0:
158,17,177047,1,2,0:0:0:0:
216,196,177196,6,0,L|271:257,2,72,6|0|8,0:0|0:0|0:0,0:0:0:0:
84,209,177644,1,2,0:0:0:0:
32,319,177793,2,0,L|87:380,1,72,2|2,3:2|0:0,0:0:0:0:
106,230,178091,1,8,0:0:0:0:
212,359,178241,2,0,P|238:305|326:284,1,144,2|0,0:0|0:0,0:0:0:0:
407,272,178688,6,0,P|441:281|465:308,1,72,10|0,0:0|0:0,0:0:0:0:
314,281,178987,2,0,P|290:307|256:316,1,72,2|0,3:2|0:0,0:0:0:0:
353,197,179285,2,0,P|342:163|354:130,1,72,10|0,0:0|0:0,0:0:0:0:
475,146,179584,6,0,P|477:94|395:28,1,144,2|8,3:2|0:0,0:0:0:0:
256,24,180032,2,0,P|250:55|267:105,1,72,0|0,0:0|3:0,0:0:0:0:
131,93,180330,2,0,P|148:119|196:142,1,72,2|8,0:0|0:0,0:0:0:0:
99,257,180629,2,0,P|130:263|180:246,1,72,2|0,0:0|3:0,0:0:0:0:
277,189,180927,5,2,3:2:0:0:
182,139,181077,1,10,0:0:0:0:
273,281,181226,1,2,3:2:0:0:
279,289,181300,1,0,3:0:0:0:
285,298,181375,1,0,3:0:0:0:
292,306,181449,1,0,3:0:0:0:
298,315,181524,5,10,0:0:0:0:
316,263,181598,1,10,0:0:0:0:
365,238,181673,1,10,0:0:0:0:
418,252,181747,1,10,0:0:0:0:
446,299,181822,1,10,0:0:0:0:
435,353,181897,1,10,0:0:0:0:
390,384,181972,6,0,P|325:364|295:299,1,135.000005149842,14|0,0:0|3:0,0:0:0:0:
334,230,182196,1,0,3:0:0:0:
334,230,182271,1,0,3:0:0:0:
122,384,182420,6,0,P|187:364|217:299,1,135.000005149842,14|0,0:0|3:0,0:0:0:0:
178,230,182644,1,0,3:0:0:0:
178,230,182719,1,0,3:0:0:0:
122,0,182868,6,0,P|187:20|217:85,1,135.000005149842,14|0,0:0|3:0,0:0:0:0:
178,154,183092,1,0,3:0:0:0:
178,154,183167,1,0,3:0:0:0:
390,0,183315,6,0,P|325:20|295:85,1,135.000005149842,14|0,0:0|0:0,0:0:0:0:
498,117,183614,1,2,3:2:0:0:
481,94,183688,1,2,0:0:0:0:
459,76,183763,5,10,0:0:0:0:
443,112,183837,1,2,0:0:0:0:
437,151,183912,1,2,3:2:0:0:
440,190,183986,1,2,0:0:0:0:
453,227,184062,1,10,0:0:0:0:
466,252,184136,1,2,0:0:0:0:
469,279,184211,1,2,0:0:0:0:
459,306,184285,1,10,0:0:0:0:
440,326,184360,6,0,P|388:347|314:324,1,135.000005149842,14|0,0:0|3:0,0:0:0:0:
257,257,184584,1,0,3:0:0:0:
257,257,184658,1,0,3:0:0:0:
0,159,184808,6,0,P|30:206|104:229,1,135.000005149842,14|2,0:0|3:2,0:0:0:0:
188,205,185032,1,0,3:0:0:0:
188,205,185106,1,0,3:0:0:0:
266,4,185256,6,0,P|212:-12|140:16,1,135.000005149842,14|2,0:0|3:2,0:0:0:0:
92,89,185480,1,0,3:0:0:0:
92,89,185554,1,2,3:2:0:0:
392,49,185703,6,0,P|441:75|471:146,1,135.000005149842,14|0,0:0|0:0,0:0:0:0:
482,173,185927,1,2,0:0:0:0:
457,158,186001,1,2,0:0:0:0:
430,151,186077,1,2,0:0:0:0:
394,155,186150,1,10,0:0:0:0:
373,162,186225,1,2,0:0:0:0:
354,174,186300,1,2,3:0:0:0:
339,190,186374,1,2,0:0:0:0:
321,221,186450,5,14,0:0:0:0:
299,272,186524,1,2,0:0:0:0:
253,304,186599,1,2,0:0:0:0:
198,306,186673,1,2,0:0:0:0:
150,279,186748,6,0,B|117:193|195:115|195:115|243:151|231:225,1,270.000010299683,6|8,3:1|0:0,0:0:0:0:
92,364,187196,1,2,0:0:0:0:
67,340,187270,1,0,0:0:0:0:
54,309,187345,1,2,3:2:0:0:
234,221,187494,5,2,0:0:0:0:
118,378,187644,1,10,0:0:0:0:
60,156,187793,2,0,P|95:89|147:46,1,135.000005149842,2|0,0:1|3:0,0:0:0:0:
440,89,188091,2,0,P|384:38|320:15,1,135.000005149842,2|8,0:1|0:0,0:0:0:0:
236,273,188390,2,0,P|213:200|219:133,1,135.000005149842,2|0,0:1|3:0,0:0:0:0:
441,265,188688,2,0,P|411:204|362:159,1,135.000005149842,2|8,0:1|0:0,0:0:0:0:
198,371,188987,1,2,0:0:0:0:
230,357,189061,1,0,0:0:0:0:
263,357,189136,6,0,B|381:319|345:417|471:376,1,202.500007724762,2|0,3:2|0:0,0:0:0:0:
488,366,189435,1,8,0:0:0:0:
138,151,189584,2,0,B|256:113|220:211|346:170,1,202.500007724762,2|0,0:0|0:0,0:0:0:0:
363,160,189883,1,2,0:0:0:0:
352,325,190032,5,10,0:0:0:0:
449,165,190181,1,2,0:0:0:0:
446,124,190255,1,0,0:0:0:0:
427,89,190330,2,0,P|355:53|298:71,1,135.000005149842,0|0,3:0|0:0,0:0:0:0:
128,106,190629,2,0,P|205:131|232:184,1,135.000005149842,8|0,0:0|0:0,0:0:0:0:
155,373,190927,5,2,3:2:0:0:
140,198,191077,1,2,0:0:0:0:
0,384,191226,1,10,0:0:0:0:
152,181,191375,1,2,3:2:0:0:
310,362,191524,6,0,P|335:293|466:248,1,202.500007724762,2|0,3:2|0:0,0:0:0:0:
481,250,191823,1,10,0:0:0:0:
255,265,191972,2,0,P|286:217|361:178,1,135.000005149842,2|0,0:0|3:0,0:0:0:0:
493,122,192271,2,0,P|459:65|400:32,1,135.000005149842,2|8,0:0|0:0,0:0:0:0:
221,0,192569,1,2,0:0:0:0:
198,24,192643,1,0,0:0:0:0:
183,54,192718,2,0,P|170:121|199:193,1,135.000005149842,0|0,3:0|0:0,0:0:0:0:
329,337,193017,6,0,P|266:308|203:327,1,135.000005149842,10|0,0:1|0:0,0:0:0:0:
25,352,193315,2,0,P|42:288|97:251,1,135.000005149842,2|0,3:1|0:0,0:0:0:0:
275,224,193614,1,10,0:1:0:0:
114,336,193763,1,0,3:0:0:0:
267,114,193912,6,0,P|234:52|166:27,1,135.000005149842,6|0,3:2|0:0,0:0:0:0:
137,32,194136,1,0,3:0:0:0:
137,32,194211,1,10,0:0:0:0:
355,46,194360,1,6,3:0:0:0:
132,318,194659,5,6,3:0:0:0:
178,118,194808,1,2,0:0:0:0:
231,361,194957,2,0,B|327:293|318:429|439:341,1,202.500007724762,14|0,0:0|0:0,0:0:0:0:
439,278,195256,1,0,3:0:0:0:
405,279,195330,1,0,3:0:0:0:
374,292,195405,1,8,0:0:0:0:
512,384,195554,5,2,0:0:0:0:
351,315,195703,1,2,3:2:0:0:
501,214,195853,2,0,P|518:217|535:227,2,33.7500012874604,2|0|0,3:2|3:0|3:0,0:0:0:0:
384,205,196002,1,14,0:0:0:0:
444,34,196151,2,0,P|459:24|478:19,2,33.7500012874604,2|0|0,3:0|3:0|3:0,0:0:0:0:
355,110,196300,6,0,P|292:147|212:132,1,135.000005149842,14|0,0:0|0:0,0:0:0:0:
166,115,196524,1,0,0:0:0:0:
166,115,196599,1,8,0:0:0:0:
267,9,196748,1,2,3:2:0:0:
271,214,196897,1,8,0:0:0:0:
66,218,197047,1,2,3:2:0:0:
267,9,197196,1,10,0:0:0:0:
273,252,197345,1,2,3:2:0:0:
273,252,197420,1,0,0:0:0:0:
273,252,197494,6,0,P|204:282|171:347,1,135.000005149842,10|0,0:0|0:0,0:0:0:0:
395,383,197793,1,10,0:0:0:0:
381,155,197942,1,0,3:0:0:0:
381,155,198017,1,0,0:0:0:0:
381,155,198091,2,0,P|450:185|483:250,1,135.000005149842,10|0,0:0|3:0,0:0:0:0:
392,365,198390,1,10,0:0:0:0:
270,149,198539,1,0,3:0:0:0:
270,149,198614,1,0,3:0:0:0:
270,149,198688,6,0,B|202:96|144:131|144:131|145:204|223:226,1,270.000010299683,14|8,0:0|0:0,0:0:0:0:
84,32,199136,2,0,P|31:77|15:140,1,135.000005149842,2|8,3:2|0:0,0:0:0:0:
381,155,199435,2,0,P|363:90|311:48,1,135.000005149842,2|8,3:2|0:0,0:0:0:0:
192,214,199733,1,2,3:2:0:0:
188,247,199807,1,0,0:0:0:0:
184,281,199882,6,0,L|174:349,1,67.5000025749208,12|0,0:0|0:0,0:0:0:0:
296,247,200032,2,0,L|305:180,1,67.5000025749208,2|0,3:2|3:0,0:0:0:0:
79,166,200181,2,0,L|69:232,1,67.5000025749208,10|0,0:0|0:0,0:0:0:0:
196,181,200330,1,2,3:2:0:0:
196,181,200405,1,0,0:0:0:0:
196,181,200480,1,12,0:0:0:0:
467,43,200629,5,2,3:2:0:0:
418,23,200703,1,2,3:2:0:0:
372,49,200778,1,14,0:0:0:0:
364,100,200852,1,2,0:0:0:0:
398,139,200927,1,2,0:0:0:0:
450,137,201002,1,2,0:0:0:0:
481,95,201077,6,0,P|421:128|415:203,1,135.000005149842,14|2,0:0|3:2,0:0:0:0:
455,271,201300,1,0,3:0:0:0:
455,271,201375,1,2,3:2:0:0:
194,256,201524,6,0,P|259:235|317:284,1,135.000005149842,14|2,0:0|3:2,0:0:0:0:
336,361,201747,1,0,3:0:0:0:
336,361,201822,1,2,3:2:0:0:
364,100,201972,6,0,P|298:79|240:128,1,135.000005149842,14|2,0:0|3:2,0:0:0:0:
221,205,202195,1,0,3:0:0:0:
221,205,202270,1,2,3:2:0:0:
19,71,202420,6,0,P|79:103|85:178,1,135.000005149842,14|0,0:0|0:0,0:0:0:0:
82,309,202718,1,2,3:2:0:0:
73,341,202792,1,2,0:0:0:0:
51,366,202867,5,10,0:0:0:0:
46,320,202942,1,2,0:0:0:0:
65,277,203017,1,2,0:0:0:0:
102,249,203091,1,2,0:0:0:0:
149,242,203166,1,10,0:0:0:0:
174,264,203240,1,2,0:0:0:0:
205,276,203315,1,2,0:0:0:0:
239,276,203389,1,10,0:0:0:0:
269,263,203465,6,0,P|298:247|337:249,2,58.4999973220826,6|2|2,0:0|0:0|0:0,0:0:0:0:
408,245,203912,2,0,P|406:277|385:310,2,58.4999973220826,2|2|2,0:0|0:0|0:0,0:0:0:0:
354,373,204360,2,0,P|326:355|308:320,2,58.4999973220826,2|2|2,0:0|0:0|0:0,0:0:0:0:
501,377,204808,1,2,0:0:0:0:
493,369,205106,5,2,3:2:0:0:
485,351,205180,1,2,0:0:0:0:
485,334,205256,1,10,0:0:0:0:
494,316,205330,1,2,0:0:0:0:
499,296,205405,1,2,0:0:0:0:
499,276,205479,1,2,0:0:0:0:
499,260,205554,1,10,0:0:0:0:
486,243,205628,1,2,0:0:0:0:
478,225,205703,1,10,0:0:0:0:
475,205,205777,1,10,0:0:0:0:
477,185,205853,6,0,P|418:148|350:156,1,135.000005149842,14|2,0:0|3:2,0:0:0:0:
278,205,206077,1,0,3:0:0:0:
278,205,206151,1,2,3:2:0:0:
186,384,206300,6,0,P|148:324|156:256,1,135.000005149842,14|2,0:0|3:2,0:0:0:0:
205,184,206524,1,0,3:0:0:0:
205,184,206598,1,2,3:2:0:0:
260,8,206748,6,0,P|191:23|149:77,1,135.000005149842,14|2,0:0|3:2,0:0:0:0:
132,163,206972,1,0,3:0:0:0:
132,163,207046,1,2,3:2:0:0:
0,384,207196,6,0,P|-8:314|27:256,1,135.000005149842,14|0,0:0|0:0,0:0:0:0:
153,262,207494,1,0,0:0:0:0:
153,262,207569,1,0,0:0:0:0:
153,262,207644,1,10,0:0:0:0:
70,330,207793,1,0,3:0:0:0:
230,196,207942,2,0,P|287:235|304:308,1,135.000005149842,12|0,0:0|0:0,0:0:0:0:
174,384,208241,5,14,0:0:0:0:
387,268,208390,1,0,3:0:0:0:
393,309,208464,1,0,3:0:0:0:
381,349,208539,5,14,0:0:0:0:
230,196,208688,1,0,3:0:0:0:
189,206,208763,1,0,3:0:0:0:
157,232,208837,5,14,0:0:0:0:
382,108,208987,1,0,3:0:0:0:
359,140,209061,1,0,3:0:0:0:
340,175,209136,5,6,0:3:0:0:
447,3,209285,5,12,0:0:0:0:
256,192,209360,12,0,211226,0:0:0:0:
43,127,212718,6,0,L|61:87,3,31.4999990386963,2|2|2|2,0:0|0:0|0:0|0:0,0:0:0:0:
73,70,213017,6,0,P|126:100|158:158,1,116.999994644165,2|0,0:0|0:0,0:0:0:0:
146,238,213465,1,2,0:0:0:0:
146,238,213539,1,0,0:0:0:0:
146,238,213614,1,2,0:0:0:0:
231,275,213763,1,2,0:0:0:0:
244,125,213912,1,2,0:0:0:0:
291,204,214062,6,0,L|358:214,1,58.4999973220826,2|0,0:0|0:0,0:0:0:0:
496,139,214360,2,0,L|446:185,1,58.4999973220826,2|0,0:0|0:0,0:0:0:0:
304,236,214659,2,0,L|371:246,1,58.4999973220826,2|0,0:0|0:0,0:0:0:0:
510,174,214957,2,0,L|460:220,1,58.4999973220826,2|0,0:0|0:0,0:0:0:0:
446,319,215256,5,2,0:0:0:0:
446,319,215330,1,0,0:0:0:0:
446,319,215405,2,0,B|466:375|466:375|405:353,1,116.999994644165,2|0,0:0|0:0,0:0:0:0:
299,326,215853,1,2,0:0:0:0:
299,326,216151,5,2,0:0:0:0:
304,236,216300,1,2,0:0:0:0:
310,134,216450,2,0,L|312:37,1,87.749995983124,2|0,0:0|0:0,0:0:0:0:
302,20,216748,2,0,P|266:14|239:27,1,58.4999973220826
228,194,217047,5,2,0:0:0:0:
246,23,217196,1,2,0:0:0:0:
130,149,217345,1,2,0:0:0:0:
299,114,217494,1,2,0:0:0:0:
142,45,217643,1,2,0:0:0:0:
357,170,217793,6,0,P|379:120|339:43,1,144,6|0,3:2|0:0,0:0:0:0:
294,245,218240,1,2,3:2:0:0:
276,262,218314,1,0,3:0:0:0:
254,274,218390,2,0,P|214:275|155:235,2,108,10|2|2,0:0|0:0|3:2,0:0:0:0:
57,239,218987,6,0,P|64:291|38:338,1,108,2|0,0:0|3:0,0:0:0:0:
3,338,219285,2,0,P|23:301|24:264,1,72,2|0,0:0|3:0,0:0:0:0:
26,97,219584,2,0,P|36:111|42:137,3,24,10|0|0|0,0:0|0:0|0:0|0:0,0:0:0:0:
50,147,219808,1,0,3:0:0:0:
50,147,219882,2,0,P|72:118|111:101,1,72,10|2,0:0|3:0,0:0:0:0:
388,35,220181,6,0,P|370:34|351:38,1,36,14|0,0:0|0:0,0:0:0:0:
230,88,220330,1,0,3:0:0:0:
261,104,220404,1,0,0:0:0:0:
283,132,220479,2,0,P|282:151|276:169,1,36,8|0,0:0|0:0,0:0:0:0:
366,190,220628,5,0,3:0:0:0:
367,224,220702,1,0,0:0:0:0:
354,257,220778,2,0,P|337:265|318:270,1,36,8|0,0:0|0:0,0:0:0:0:
340,361,220927,5,2,3:2:0:0:
311,379,221001,1,0,0:0:0:0:
276,384,221076,2,0,P|259:373|246:359,1,36,10|0,0:0|3:0,0:0:0:0:
467,315,221226,6,0,B|532:265|516:165|465:124|421:105|342:135|370:208,1,324,14|0,0:0|0:0,0:0:0:0:
365,189,221972,1,2,3:2:0:0:
367,169,222047,1,2,3:2:0:0:
376,151,222122,1,2,3:2:0:0:
392,139,222196,1,2,3:2:0:0:
412,134,222271,1,2,3:2:0:0:
432,135,222346,1,2,3:2:0:0:
451,142,222420,1,2,3:2:0:0:
467,154,222495,1,2,3:2:0:0:
481,168,222569,1,2,3:2:0:0:
492,186,222644,1,2,3:2:0:0:
499,205,222719,1,2,3:2:0:0:
502,225,222793,1,2,3:2:0:0:
503,245,222868,1,2,3:2:0:0:
499,265,222943,1,2,3:2:0:0:
492,284,223017,1,2,3:2:0:0:
481,300,223092,1,2,3:2:0:0:
467,315,223166,6,0,L|451:326,5,13.4999995880127,2|0|0|0|0|0,0:0|0:0|0:0|0:0|0:0|0:0,0:0:0:0:
381,334,223465,2,0,L|361:330,6,13.4999995880127,2|0|0|0|0|0|0,0:0|0:0|0:0|0:0|0:0|0:0|0:0,0:0:0:0:
245,281,224062,6,0,P|190:244|315:276,1,566.999982696534,4|0,0:1|0:0,0:0:0:0:
