osu file format v14

[General]
AudioFilename: audio.mp3
AudioLeadIn: 0
PreviewTime: 55177
Countdown: 0
SampleSet: Normal
StackLeniency: 0.7
Mode: 1
LetterboxInBreaks: 0
WidescreenStoryboard: 1

[Editor]
Bookmarks: 7771,15513,23255,38739,56159,67771,75513,106481,114223,121965,129707,147126,172288,187771
DistanceSpacing: 0.9
BeatDivisor: 4
GridSize: 32
TimelineZoom: 3.019999

[Metadata]
Title:Myosotis no Hanataba
TitleUnicode:ミオソティスの花束
Artist:AAAA Chazuke
ArtistUnicode:ああああ茶漬け
Creator:_DUSK_
Version:Genjusk's Oni
Source:
Tags:umeboshi flower chiptune bitpop yassu- genjuro frenz2019 pxtone 合作is楽しい 8bit electronic instrumental
BeatmapID:2455719
BeatmapSetID:1153450

[Difficulty]
HPDrainRate:6
CircleSize:2
OverallDifficulty:6
ApproachRate:10
SliderMultiplier:1.4
SliderTickRate:1

[Events]
//Background and Video events
0,0,"tree.jpg",0,-90
//Break Periods
2,106721,113813
//Storyboard Layer 0 (Background)
//Storyboard Layer 1 (Fail)
//Storyboard Layer 2 (Pass)
//Storyboard Layer 3 (Foreground)
//Storyboard Layer 4 (Overlay)
//Storyboard Sound Samples

[TimingPoints]
70.022346368715,322.58064516129,3,1,0,100,1,0
56199,-100,3,1,0,100,0,1
67811,-100,3,1,0,100,0,0
75553,-100,3,1,0,100,0,1
106521,-100,3,1,0,100,0,0
147489,-100,3,1,0,100,0,1
158779,-100,3,1,0,100,0,0
172650,-100,3,1,0,100,0,1
183940,-100,3,1,0,100,0,0
187932,-100,3,1,0,80,0,0
188739,-100,3,1,0,70,0,0

[HitObjects]
256,192,70,5,12,0:0:0:0:
256,192,1682,1,0,0:0:0:0:
256,192,1844,1,0,0:0:0:0:
256,192,2005,1,12,0:0:0:0:
256,224,3134,1,0,0:0:0:0:
256,224,3215,1,0,0:0:0:0:
256,224,3295,1,0,0:0:0:0:
256,224,3457,1,0,0:0:0:0:
256,224,3618,1,0,0:0:0:0:
256,224,3779,1,0,0:0:0:0:
256,224,3940,1,12,0:0:0:0:
256,224,4908,1,12,0:0:0:0:
256,224,5876,1,12,0:0:0:0:
256,224,6360,1,12,0:0:0:0:
256,224,6844,1,12,0:0:0:0:
256,224,7166,1,12,0:0:0:0:
256,224,7489,1,12,0:0:0:0:
256,224,7811,1,12,0:0:0:0:
256,224,8134,1,0,0:0:0:0:
256,224,8295,1,8,0:0:0:0:
256,224,8376,1,8,0:0:0:0:
256,224,8457,1,8,0:0:0:0:
256,224,8618,1,0,0:0:0:0:
256,224,8779,1,8,0:0:0:0:
256,224,9102,1,0,0:0:0:0:
256,224,9424,1,8,0:0:0:0:
256,224,9747,1,0,0:0:0:0:
256,224,10070,1,0,0:0:0:0:
256,224,10231,1,8,0:0:0:0:
256,224,10392,1,0,0:0:0:0:
256,224,10553,1,0,0:0:0:0:
256,224,10715,1,8,0:0:0:0:
256,224,11037,1,8,0:0:0:0:
256,224,11360,1,0,0:0:0:0:
256,224,11682,1,8,0:0:0:0:
256,224,12005,1,0,0:0:0:0:
256,224,12166,1,8,0:0:0:0:
256,224,12247,1,8,0:0:0:0:
256,224,12328,1,8,0:0:0:0:
256,224,12489,1,0,0:0:0:0:
256,224,12650,1,8,0:0:0:0:
256,224,12973,1,0,0:0:0:0:
256,224,13295,1,0,0:0:0:0:
256,224,13457,1,0,0:0:0:0:
256,224,13618,1,8,0:0:0:0:
256,224,13779,1,8,0:0:0:0:
256,224,13940,1,0,0:0:0:0:
256,224,14102,1,8,0:0:0:0:
256,224,14424,1,8,0:0:0:0:
256,224,14586,1,0,0:0:0:0:
256,224,14666,1,0,0:0:0:0:
256,224,14747,1,0,0:0:0:0:
256,224,14908,1,8,0:0:0:0:
256,224,14989,1,8,0:0:0:0:
256,224,15070,1,0,0:0:0:0:
256,224,15231,1,8,0:0:0:0:
256,224,15392,1,8,0:0:0:0:
256,224,15553,1,4,0:0:0:0:
256,192,18618,1,0,0:0:0:0:
256,192,18779,1,8,0:0:0:0:
256,192,18940,1,0,0:0:0:0:
256,192,19102,1,8,0:0:0:0:
256,192,19263,1,0,0:0:0:0:
256,192,19424,1,8,0:0:0:0:
256,192,19586,1,0,0:0:0:0:
256,192,19666,1,0,0:0:0:0:
256,192,19747,1,0,0:0:0:0:
256,192,19908,1,8,0:0:0:0:
256,192,19989,1,8,0:0:0:0:
256,192,20070,1,8,0:0:0:0:
256,192,20231,1,0,0:0:0:0:
256,192,20392,1,8,0:0:0:0:
256,192,20553,1,0,0:0:0:0:
256,192,20634,1,0,0:0:0:0:
256,192,20715,1,8,0:0:0:0:
256,192,20876,1,8,0:0:0:0:
256,192,20957,1,8,0:0:0:0:
256,192,21037,1,0,0:0:0:0:
256,192,21199,1,0,0:0:0:0:
256,192,21360,1,8,0:0:0:0:
256,192,21521,1,0,0:0:0:0:
256,192,21602,1,0,0:0:0:0:
256,192,21682,1,0,0:0:0:0:
256,192,21844,1,8,0:0:0:0:
256,192,22005,1,0,0:0:0:0:
256,192,22086,1,0,0:0:0:0:
256,192,22166,1,0,0:0:0:0:
256,192,22328,1,8,0:0:0:0:
256,192,22489,1,0,0:0:0:0:
256,192,22570,1,0,0:0:0:0:
256,192,22650,1,8,0:0:0:0:
256,192,22731,1,8,0:0:0:0:
256,192,22811,1,0,0:0:0:0:
256,192,22973,1,8,0:0:0:0:
256,192,23134,1,8,0:0:0:0:
256,192,23295,1,4,0:0:0:0:
256,192,23618,1,8,0:0:0:0:
256,192,24102,1,8,0:0:0:0:
256,192,24263,1,0,0:0:0:0:
256,192,24586,1,8,0:0:0:0:
256,192,24908,1,8,0:0:0:0:
256,192,25231,1,0,0:0:0:0:
256,192,25553,1,8,0:0:0:0:
256,192,26037,1,0,0:0:0:0:
256,192,26199,1,8,0:0:0:0:
256,192,26521,1,0,0:0:0:0:
256,192,26844,1,0,0:0:0:0:
256,192,27166,1,8,0:0:0:0:
256,192,27489,1,0,0:0:0:0:
256,192,27973,1,0,0:0:0:0:
256,192,28134,1,8,0:0:0:0:
256,192,28457,1,0,0:0:0:0:
256,192,28779,1,0,0:0:0:0:
256,192,28940,1,0,0:0:0:0:
256,192,29102,1,8,0:0:0:0:
256,192,29424,1,0,0:0:0:0:
256,192,29747,1,8,0:0:0:0:
256,192,29908,1,0,0:0:0:0:
256,192,30070,1,8,0:0:0:0:
256,192,30392,1,8,0:0:0:0:
256,192,30553,1,0,0:0:0:0:
256,192,30715,1,8,0:0:0:0:
256,192,30876,1,8,0:0:0:0:
256,192,31037,1,0,0:0:0:0:
256,192,31360,1,2,0:0:0:0:
256,192,31521,1,2,0:0:0:0:
256,192,31682,1,2,0:0:0:0:
256,192,32005,1,2,0:0:0:0:
256,192,32489,1,2,0:0:0:0:
256,192,32650,1,2,0:0:0:0:
256,192,32973,1,2,0:0:0:0:
256,192,33618,1,2,0:0:0:0:
256,192,33940,1,2,0:0:0:0:
256,192,34586,1,0,0:0:0:0:
256,192,34908,1,8,0:0:0:0:
256,192,35070,1,0,0:0:0:0:
256,192,35231,1,8,0:0:0:0:
256,192,35392,1,8,0:0:0:0:
256,192,35553,1,0,0:0:0:0:
256,192,35876,1,8,0:0:0:0:
256,192,36037,1,8,0:0:0:0:
256,192,36199,1,0,0:0:0:0:
256,192,36360,1,8,0:0:0:0:
256,192,36521,1,0,0:0:0:0:
256,192,36844,1,8,0:0:0:0:
256,192,37005,1,0,0:0:0:0:
256,192,37086,1,0,0:0:0:0:
256,192,37166,1,8,0:0:0:0:
256,192,37328,1,0,0:0:0:0:
256,192,37408,1,0,0:0:0:0:
256,192,37489,1,8,0:0:0:0:
256,192,37650,1,0,0:0:0:0:
256,192,37811,1,8,0:0:0:0:
256,192,37973,1,8,0:0:0:0:
256,192,38053,1,0,0:0:0:0:
256,192,38134,1,8,0:0:0:0:
256,192,38295,1,8,0:0:0:0:
256,192,38376,1,0,0:0:0:0:
256,192,38457,1,8,0:0:0:0:
256,192,38537,1,8,0:0:0:0:
256,192,38618,1,0,0:0:0:0:
256,192,38779,1,12,0:0:0:0:
256,192,39102,1,0,0:0:0:0:
256,192,39182,1,0,0:0:0:0:
256,192,39263,1,0,0:0:0:0:
256,192,39424,1,8,0:0:0:0:
256,192,39586,1,0,0:0:0:0:
256,192,39747,1,0,0:0:0:0:
256,192,39908,1,8,0:0:0:0:
256,192,40231,1,0,0:0:0:0:
256,192,40392,1,8,0:0:0:0:
256,192,40715,1,0,0:0:0:0:
256,192,41037,1,0,0:0:0:0:
256,192,41118,1,0,0:0:0:0:
256,192,41199,1,0,0:0:0:0:
256,192,41360,1,8,0:0:0:0:
256,192,41521,1,0,0:0:0:0:
256,192,41682,1,0,0:0:0:0:
256,192,41844,1,8,0:0:0:0:
256,192,42166,1,0,0:0:0:0:
256,192,42328,1,8,0:0:0:0:
256,192,42489,1,8,0:0:0:0:
256,192,42650,1,0,0:0:0:0:
256,192,42973,1,0,0:0:0:0:
256,192,43053,1,0,0:0:0:0:
256,192,43134,1,0,0:0:0:0:
256,192,43295,1,8,0:0:0:0:
256,192,43457,1,0,0:0:0:0:
256,192,43618,1,12,0:0:0:0:
256,192,44102,1,12,0:0:0:0:
256,192,44586,1,12,0:0:0:0:
256,192,44908,1,0,0:0:0:0:
256,192,44989,1,0,0:0:0:0:
256,192,45070,1,0,0:0:0:0:
256,192,45231,1,8,0:0:0:0:
256,192,45392,1,0,0:0:0:0:
256,192,45553,1,0,0:0:0:0:
256,192,45634,1,0,0:0:0:0:
256,192,45715,1,8,0:0:0:0:
256,192,45876,1,8,0:0:0:0:
256,192,45957,1,8,0:0:0:0:
256,192,46037,1,0,0:0:0:0:
256,192,46199,1,8,0:0:0:0:
256,192,46360,1,0,0:0:0:0:
256,192,46521,1,12,0:0:0:0:
256,192,46844,1,0,0:0:0:0:
256,192,46924,1,0,0:0:0:0:
256,192,47005,1,0,0:0:0:0:
256,192,47166,1,8,0:0:0:0:
256,192,47328,1,0,0:0:0:0:
256,192,47489,1,8,0:0:0:0:
256,192,47650,1,8,0:0:0:0:
256,192,47811,1,0,0:0:0:0:
256,192,47973,1,0,0:0:0:0:
256,192,48134,1,8,0:0:0:0:
256,192,48457,1,0,0:0:0:0:
256,192,48779,1,0,0:0:0:0:
256,192,48860,1,0,0:0:0:0:
256,192,48940,1,0,0:0:0:0:
256,192,49102,1,8,0:0:0:0:
256,192,49263,1,0,0:0:0:0:
256,192,49424,1,0,0:0:0:0:
256,192,49586,1,8,0:0:0:0:
256,192,49908,1,0,0:0:0:0:
256,192,50070,1,8,0:0:0:0:
256,192,50392,1,0,0:0:0:0:
256,192,50715,1,0,0:0:0:0:
256,192,50795,1,0,0:0:0:0:
256,192,50876,1,0,0:0:0:0:
256,192,51037,1,8,0:0:0:0:
256,192,51199,1,0,0:0:0:0:
256,192,51360,1,8,0:0:0:0:
256,192,51521,1,8,0:0:0:0:
256,192,51682,1,0,0:0:0:0:
256,192,51844,1,0,0:0:0:0:
256,192,52005,1,8,0:0:0:0:
256,192,52328,1,0,0:0:0:0:
256,192,52650,1,0,0:0:0:0:
256,192,52731,1,0,0:0:0:0:
256,192,52811,1,0,0:0:0:0:
256,192,52973,1,8,0:0:0:0:
256,192,53134,1,0,0:0:0:0:
256,192,53295,1,0,0:0:0:0:
256,192,53457,1,8,0:0:0:0:
256,192,53779,1,0,0:0:0:0:
256,192,53940,1,8,0:0:0:0:
256,192,54102,1,8,0:0:0:0:
256,192,54263,1,4,0:0:0:0:
256,192,55231,1,0,0:0:0:0:
256,192,55553,1,0,0:0:0:0:
256,192,55876,1,0,0:0:0:0:
256,192,56199,1,12,0:0:0:0:
256,192,56360,1,0,0:0:0:0:
256,192,56440,1,0,0:0:0:0:
256,192,56521,1,0,0:0:0:0:
256,192,56682,1,8,0:0:0:0:
256,192,56844,1,0,0:0:0:0:
256,192,57005,1,8,0:0:0:0:
256,192,57166,1,0,0:0:0:0:
256,192,57328,1,8,0:0:0:0:
256,192,57408,1,8,0:0:0:0:
256,192,57489,1,8,0:0:0:0:
256,192,57650,1,0,0:0:0:0:
256,192,57811,1,8,0:0:0:0:
256,192,57973,1,0,0:0:0:0:
256,192,58134,1,8,0:0:0:0:
256,192,58295,1,0,0:0:0:0:
256,192,58376,1,0,0:0:0:0:
256,192,58457,1,0,0:0:0:0:
256,192,58618,1,8,0:0:0:0:
256,192,58779,1,0,0:0:0:0:
256,192,58940,1,0,0:0:0:0:
256,192,59102,1,12,0:0:0:0:
256,192,59263,1,4,0:0:0:0:
256,192,59586,1,12,0:0:0:0:
256,192,59747,1,4,0:0:0:0:
256,192,60070,1,12,0:0:0:0:
256,192,60231,1,0,0:0:0:0:
256,192,60392,1,0,0:0:0:0:
256,192,60553,1,8,0:0:0:0:
256,192,60876,1,0,0:0:0:0:
256,192,60957,1,0,0:0:0:0:
256,192,61037,1,0,0:0:0:0:
256,192,61199,1,8,0:0:0:0:
256,192,61360,1,8,0:0:0:0:
256,192,61521,1,0,0:0:0:0:
256,192,61682,1,8,0:0:0:0:
256,192,61844,1,0,0:0:0:0:
256,192,62005,1,8,0:0:0:0:
256,192,62086,1,0,0:0:0:0:
256,192,62166,1,8,0:0:0:0:
256,192,62247,1,0,0:0:0:0:
256,192,62328,1,8,0:0:0:0:
256,192,62489,1,0,0:0:0:0:
256,192,62650,1,8,0:0:0:0:
256,192,62811,1,0,0:0:0:0:
256,192,62973,1,12,0:0:0:0:
256,192,63215,1,12,0:0:0:0:
256,192,63457,1,12,0:0:0:0:
256,192,63618,1,4,0:0:0:0:
256,192,63940,1,12,0:0:0:0:
256,192,64102,1,0,0:0:0:0:
256,192,64182,1,0,0:0:0:0:
256,192,64263,1,8,0:0:0:0:
256,192,64424,1,0,0:0:0:0:
256,192,64505,1,8,0:0:0:0:
256,192,64666,1,8,0:0:0:0:
256,192,64747,1,0,0:0:0:0:
256,192,64908,1,8,0:0:0:0:
256,192,65070,1,8,0:0:0:0:
256,192,65150,1,0,0:0:0:0:
256,192,65231,1,8,0:0:0:0:
256,192,65392,1,0,0:0:0:0:
256,192,65473,1,8,0:0:0:0:
256,192,65634,1,8,0:0:0:0:
256,192,65715,1,0,0:0:0:0:
256,192,65876,1,8,0:0:0:0:
256,192,65957,1,0,0:0:0:0:
256,192,66037,1,8,0:0:0:0:
256,192,66118,1,0,0:0:0:0:
256,192,66279,1,0,0:0:0:0:
256,192,66360,1,0,0:0:0:0:
256,192,66521,1,8,0:0:0:0:
256,192,66602,1,8,0:0:0:0:
256,192,66682,1,0,0:0:0:0:
256,192,66844,1,8,0:0:0:0:
256,192,67005,1,0,0:0:0:0:
256,192,67086,1,0,0:0:0:0:
256,192,67166,1,8,0:0:0:0:
256,192,67328,1,0,0:0:0:0:
256,192,67489,1,8,0:0:0:0:
256,192,67570,1,8,0:0:0:0:
256,192,67650,1,8,0:0:0:0:
256,192,67811,1,4,0:0:0:0:
256,192,68779,1,0,0:0:0:0:
256,192,69747,1,0,0:0:0:0:
256,192,70715,1,0,0:0:0:0:
256,192,71199,1,0,0:0:0:0:
256,192,71360,1,12,0:0:0:0:
256,192,71682,1,0,0:0:0:0:
256,192,71844,1,8,0:0:0:0:
256,192,71924,1,8,0:0:0:0:
256,192,72005,1,0,0:0:0:0:
256,192,72166,1,8,0:0:0:0:
256,192,72247,1,0,0:0:0:0:
256,192,72328,1,8,0:0:0:0:
256,192,72489,1,0,0:0:0:0:
256,192,72650,1,12,0:0:0:0:
256,192,72973,1,12,0:0:0:0:
256,192,73295,1,12,0:0:0:0:
256,192,73618,1,12,0:0:0:0:
256,192,73779,1,0,0:0:0:0:
256,192,73860,1,0,0:0:0:0:
256,192,73940,1,8,0:0:0:0:
256,192,74102,1,0,0:0:0:0:
256,192,74182,1,0,0:0:0:0:
256,192,74263,1,8,0:0:0:0:
256,192,74424,1,0,0:0:0:0:
256,192,74586,1,8,0:0:0:0:
256,192,74747,1,8,0:0:0:0:
256,192,74828,1,0,0:0:0:0:
256,192,74908,1,8,0:0:0:0:
256,192,75070,1,8,0:0:0:0:
256,192,75150,1,0,0:0:0:0:
256,192,75231,1,8,0:0:0:0:
256,192,75311,1,8,0:0:0:0:
256,192,75392,1,0,0:0:0:0:
256,192,75553,1,12,0:0:0:0:
256,192,75876,1,8,0:0:0:0:
256,192,75957,1,8,0:0:0:0:
256,192,76037,1,8,0:0:0:0:
256,192,76199,1,0,0:0:0:0:
256,192,76279,1,0,0:0:0:0:
256,192,76360,1,0,0:0:0:0:
256,192,76440,1,0,0:0:0:0:
256,192,76521,1,8,0:0:0:0:
256,192,76682,1,8,0:0:0:0:
256,192,76763,1,8,0:0:0:0:
256,192,76844,1,0,0:0:0:0:
256,192,76924,1,0,0:0:0:0:
256,192,77005,1,8,0:0:0:0:
256,192,77166,1,0,0:0:0:0:
256,192,77247,1,0,0:0:0:0:
256,192,77328,1,0,0:0:0:0:
256,192,77489,1,8,0:0:0:0:
256,192,77811,1,8,0:0:0:0:
256,192,77892,1,8,0:0:0:0:
256,192,77973,1,8,0:0:0:0:
256,192,78134,1,0,0:0:0:0:
256,192,78215,1,8,0:0:0:0:
256,192,78295,1,0,0:0:0:0:
256,192,78457,1,8,0:0:0:0:
256,192,78537,1,0,0:0:0:0:
256,192,78618,1,8,0:0:0:0:
256,192,78699,1,0,0:0:0:0:
256,192,78779,1,8,0:0:0:0:
256,192,78940,1,8,0:0:0:0:
256,192,79021,1,8,0:0:0:0:
256,192,79102,1,0,0:0:0:0:
256,192,79263,1,0,0:0:0:0:
256,192,79424,1,8,0:0:0:0:
256,192,79586,1,0,0:0:0:0:
256,192,79666,1,0,0:0:0:0:
256,192,79747,1,8,0:0:0:0:
256,192,79908,1,8,0:0:0:0:
256,192,79989,1,8,0:0:0:0:
256,192,80070,1,0,0:0:0:0:
256,192,80231,1,0,0:0:0:0:
256,192,80392,1,8,0:0:0:0:
256,192,80715,1,8,0:0:0:0:
256,192,80876,1,0,0:0:0:0:
256,192,81037,1,8,0:0:0:0:
256,192,81199,1,8,0:0:0:0:
256,192,81360,1,0,0:0:0:0:
256,192,81682,1,8,0:0:0:0:
256,192,82005,1,0,0:0:0:0:
256,192,82166,1,0,0:0:0:0:
256,192,82328,1,8,0:0:0:0:
256,192,82489,1,8,0:0:0:0:
256,192,82570,1,8,0:0:0:0:
256,192,82650,1,0,0:0:0:0:
256,192,82811,1,0,0:0:0:0:
256,192,82973,1,0,0:0:0:0:
256,192,83053,1,8,0:0:0:0:
256,192,83134,1,0,0:0:0:0:
256,192,83295,1,12,0:0:0:0:
256,192,83537,1,8,0:0:0:0:
256,192,83618,1,0,0:0:0:0:
256,192,83779,1,8,0:0:0:0:
256,192,84021,1,8,0:0:0:0:
256,192,84102,1,0,0:0:0:0:
256,192,84263,1,8,0:0:0:0:
256,192,84344,1,0,0:0:0:0:
256,192,84424,1,0,0:0:0:0:
256,192,84586,1,8,0:0:0:0:
256,192,84666,1,8,0:0:0:0:
256,192,84747,1,0,0:0:0:0:
256,192,84908,1,0,0:0:0:0:
256,192,84989,1,0,0:0:0:0:
256,192,85070,1,8,0:0:0:0:
256,192,85231,1,8,0:0:0:0:
256,192,85473,1,8,0:0:0:0:
256,192,85553,1,0,0:0:0:0:
256,192,85715,1,8,0:0:0:0:
256,192,85957,1,0,0:0:0:0:
256,192,86037,1,8,0:0:0:0:
256,192,86199,1,8,0:0:0:0:
256,192,86279,1,8,0:0:0:0:
256,192,86360,1,0,0:0:0:0:
256,192,86440,1,0,0:0:0:0:
256,192,86521,1,8,0:0:0:0:
256,192,86682,1,0,0:0:0:0:
256,192,86763,1,0,0:0:0:0:
256,192,86844,1,8,0:0:0:0:
256,192,87005,1,8,0:0:0:0:
256,192,87166,1,0,0:0:0:0:
256,192,87328,1,0,0:0:0:0:
256,192,87489,1,8,0:0:0:0:
256,192,87973,1,8,0:0:0:0:
256,192,88053,1,8,0:0:0:0:
256,192,88134,1,8,0:0:0:0:
256,192,88295,1,0,0:0:0:0:
256,192,88376,1,0,0:0:0:0:
256,192,88457,1,0,0:0:0:0:
256,192,88537,1,0,0:0:0:0:
256,192,88618,1,8,0:0:0:0:
256,192,88779,1,8,0:0:0:0:
256,192,88860,1,0,0:0:0:0:
256,192,88940,1,8,0:0:0:0:
256,192,89102,1,0,0:0:0:0:
256,192,89263,1,8,0:0:0:0:
256,192,89344,1,8,0:0:0:0:
256,192,89424,1,0,0:0:0:0:
256,192,89586,1,0,0:0:0:0:
256,192,89747,1,8,0:0:0:0:
256,192,89828,1,8,0:0:0:0:
256,192,89908,1,0,0:0:0:0:
256,192,89989,1,0,0:0:0:0:
256,192,90070,1,8,0:0:0:0:
256,192,90231,1,8,0:0:0:0:
256,192,90311,1,0,0:0:0:0:
256,192,90392,1,0,0:0:0:0:
256,192,90553,1,8,0:0:0:0:
256,192,90715,1,0,0:0:0:0:
256,192,90795,1,0,0:0:0:0:
256,192,90876,1,0,0:0:0:0:
256,192,91037,1,12,0:0:0:0:
256,192,91360,1,8,0:0:0:0:
256,192,91440,1,0,0:0:0:0:
256,192,91521,1,8,0:0:0:0:
256,192,91682,1,8,0:0:0:0:
256,192,91763,1,8,0:0:0:0:
256,192,91844,1,0,0:0:0:0:
256,192,92005,1,8,0:0:0:0:
256,192,92166,1,0,0:0:0:0:
256,192,92328,1,8,0:0:0:0:
256,192,92408,1,8,0:0:0:0:
256,192,92489,1,8,0:0:0:0:
256,192,92650,1,8,0:0:0:0:
256,192,92811,1,0,0:0:0:0:
256,192,92973,1,8,0:0:0:0:
256,192,93134,1,8,0:0:0:0:
256,192,93215,1,0,0:0:0:0:
256,192,93295,1,8,0:0:0:0:
256,192,93376,1,0,0:0:0:0:
256,192,93457,1,8,0:0:0:0:
256,192,93618,1,8,0:0:0:0:
256,192,93699,1,8,0:0:0:0:
256,192,93779,1,8,0:0:0:0:
256,192,93860,1,8,0:0:0:0:
256,192,93940,1,0,0:0:0:0:
256,192,94102,1,0,0:0:0:0:
256,192,94182,1,0,0:0:0:0:
256,192,94263,1,8,0:0:0:0:
256,192,94424,1,0,0:0:0:0:
256,192,94586,1,8,0:0:0:0:
256,192,94747,1,8,0:0:0:0:
256,192,94908,1,0,0:0:0:0:
256,192,95150,1,0,0:0:0:0:
256,192,95392,1,0,0:0:0:0:
256,192,95553,1,8,0:0:0:0:
256,192,95715,1,0,0:0:0:0:
256,192,95795,1,0,0:0:0:0:
256,192,95876,1,0,0:0:0:0:
256,192,96118,1,0,0:0:0:0:
256,192,96360,1,0,0:0:0:0:
256,192,96521,1,8,0:0:0:0:
256,192,96682,1,0,0:0:0:0:
256,192,96844,1,0,0:0:0:0:
256,192,97086,1,0,0:0:0:0:
256,192,97328,1,0,0:0:0:0:
256,192,97489,1,8,0:0:0:0:
256,192,97650,1,0,0:0:0:0:
256,192,97731,1,0,0:0:0:0:
256,192,97811,1,0,0:0:0:0:
256,192,97973,1,8,0:0:0:0:
256,192,98053,1,0,0:0:0:0:
256,192,98134,1,8,0:0:0:0:
256,192,98295,1,0,0:0:0:0:
256,192,98457,1,8,0:0:0:0:
256,192,98537,1,8,0:0:0:0:
256,192,98618,1,0,0:0:0:0:
256,192,98779,1,12,0:0:0:0:
256,192,99102,1,8,0:0:0:0:
256,192,99263,1,0,0:0:0:0:
256,192,99424,1,8,0:0:0:0:
256,192,99505,1,8,0:0:0:0:
256,192,99586,1,0,0:0:0:0:
256,192,99747,1,0,0:0:0:0:
256,192,99828,1,0,0:0:0:0:
256,192,99908,1,0,0:0:0:0:
256,192,99989,1,0,0:0:0:0:
256,192,100070,1,8,0:0:0:0:
256,192,100231,1,0,0:0:0:0:
256,192,100392,1,8,0:0:0:0:
256,192,100473,1,8,0:0:0:0:
256,192,100553,1,0,0:0:0:0:
256,192,100715,1,12,0:0:0:0:
256,192,101037,1,8,0:0:0:0:
256,192,101199,1,0,0:0:0:0:
256,192,101360,1,0,0:0:0:0:
256,192,101440,1,8,0:0:0:0:
256,192,101521,1,0,0:0:0:0:
256,192,101682,1,8,0:0:0:0:
256,192,101763,1,0,0:0:0:0:
256,192,101844,1,8,0:0:0:0:
256,192,101924,1,0,0:0:0:0:
256,192,102005,1,8,0:0:0:0:
256,192,102166,1,0,0:0:0:0:
256,192,102247,1,0,0:0:0:0:
256,192,102328,1,8,0:0:0:0:
256,192,102489,1,0,0:0:0:0:
256,192,102650,1,12,0:0:0:0:
256,192,102892,1,8,0:0:0:0:
256,192,103134,1,8,0:0:0:0:
256,192,103295,1,0,0:0:0:0:
256,192,103376,1,8,0:0:0:0:
256,192,103457,1,0,0:0:0:0:
256,192,103618,1,12,0:0:0:0:
256,192,103860,1,8,0:0:0:0:
256,192,104102,1,8,0:0:0:0:
256,192,104263,1,8,0:0:0:0:
256,192,104344,1,0,0:0:0:0:
256,192,104424,1,8,0:0:0:0:
256,192,104586,1,12,0:0:0:0:
256,192,104747,1,0,0:0:0:0:
256,192,104828,1,8,0:0:0:0:
256,192,104908,1,0,0:0:0:0:
256,192,105070,1,12,0:0:0:0:
256,192,105231,1,0,0:0:0:0:
256,192,105311,1,0,0:0:0:0:
256,192,105392,1,0,0:0:0:0:
256,192,105553,1,8,0:0:0:0:
256,192,105634,1,0,0:0:0:0:
256,192,105715,1,8,0:0:0:0:
256,192,105876,1,8,0:0:0:0:
256,192,105957,1,0,0:0:0:0:
256,192,106037,1,8,0:0:0:0:
256,192,106118,1,0,0:0:0:0:
256,192,106199,1,8,0:0:0:0:
256,192,106360,1,0,0:0:0:0:
256,192,106521,1,12,0:0:0:0:
256,192,114263,5,12,0:0:0:0:
256,192,114586,1,8,0:0:0:0:
256,192,114908,1,8,0:0:0:0:
256,192,115016,1,8,0:0:0:0:
256,192,115123,1,8,0:0:0:0:
256,192,115231,1,8,0:0:0:0:
256,192,115553,1,8,0:0:0:0:
256,192,115715,1,8,0:0:0:0:
256,192,115876,1,8,0:0:0:0:
256,192,116199,1,8,0:0:0:0:
256,192,116521,1,8,0:0:0:0:
256,192,116844,1,8,0:0:0:0:
256,192,116951,1,8,0:0:0:0:
256,192,117059,1,8,0:0:0:0:
256,192,117166,1,8,0:0:0:0:
256,192,117489,1,8,0:0:0:0:
256,192,117811,1,8,0:0:0:0:
256,192,118134,1,12,0:0:0:0:
256,192,118457,1,8,0:0:0:0:
256,192,118779,1,8,0:0:0:0:
256,192,118887,1,8,0:0:0:0:
256,192,118994,1,8,0:0:0:0:
256,192,119102,1,8,0:0:0:0:
256,192,119424,1,8,0:0:0:0:
256,192,119586,1,8,0:0:0:0:
256,192,119747,1,8,0:0:0:0:
256,192,120070,1,8,0:0:0:0:
256,192,120231,1,0,0:0:0:0:
256,192,120392,1,0,0:0:0:0:
256,192,120715,1,0,0:0:0:0:
256,192,120822,1,0,0:0:0:0:
256,192,120930,1,0,0:0:0:0:
256,192,121037,1,8,0:0:0:0:
256,192,121252,1,0,0:0:0:0:
256,192,121360,1,8,0:0:0:0:
256,192,121575,1,0,0:0:0:0:
256,192,121682,1,8,0:0:0:0:
256,192,121790,1,0,0:0:0:0:
256,192,121897,1,0,0:0:0:0:
256,192,122005,1,12,0:0:0:0:
256,192,125070,1,0,0:0:0:0:
256,192,125231,1,8,0:0:0:0:
256,192,125392,1,0,0:0:0:0:
256,192,125553,1,8,0:0:0:0:
256,192,125715,1,0,0:0:0:0:
256,192,125876,1,12,0:0:0:0:
256,192,126037,1,0,0:0:0:0:
256,192,126118,1,0,0:0:0:0:
256,192,126199,1,0,0:0:0:0:
256,192,126360,1,8,0:0:0:0:
256,192,126440,1,8,0:0:0:0:
256,192,126521,1,8,0:0:0:0:
256,192,126682,1,0,0:0:0:0:
256,192,126844,1,8,0:0:0:0:
256,192,127005,1,0,0:0:0:0:
256,192,127086,1,0,0:0:0:0:
256,192,127166,1,8,0:0:0:0:
256,192,127328,1,8,0:0:0:0:
256,192,127408,1,8,0:0:0:0:
256,192,127489,1,0,0:0:0:0:
256,192,127650,1,0,0:0:0:0:
256,192,127811,1,8,0:0:0:0:
256,192,127973,1,0,0:0:0:0:
256,192,128134,1,0,0:0:0:0:
256,192,128295,1,8,0:0:0:0:
256,192,128457,1,0,0:0:0:0:
256,192,128618,1,0,0:0:0:0:
256,192,128779,1,8,0:0:0:0:
256,192,128940,1,0,0:0:0:0:
256,192,129021,1,0,0:0:0:0:
256,192,129102,1,8,0:0:0:0:
256,192,129263,1,0,0:0:0:0:
256,192,129424,1,8,0:0:0:0:
256,192,129505,1,8,0:0:0:0:
256,192,129586,1,8,0:0:0:0:
256,192,129747,1,4,0:0:0:0:
256,192,130070,1,8,0:0:0:0:
256,192,130231,1,8,0:0:0:0:
256,192,130392,1,0,0:0:0:0:
256,192,130553,1,8,0:0:0:0:
256,192,130715,1,0,0:0:0:0:
256,192,131037,1,8,0:0:0:0:
256,192,131199,1,8,0:0:0:0:
256,192,131360,1,0,0:0:0:0:
256,192,131521,1,0,0:0:0:0:
256,192,131682,1,8,0:0:0:0:
256,192,132005,1,8,0:0:0:0:
256,192,132166,1,0,0:0:0:0:
256,192,132328,1,8,0:0:0:0:
256,192,132650,1,8,0:0:0:0:
256,192,132811,1,8,0:0:0:0:
256,192,132973,1,8,0:0:0:0:
256,192,133134,1,0,0:0:0:0:
256,192,133295,1,0,0:0:0:0:
256,192,133457,1,0,0:0:0:0:
256,192,133618,1,8,0:0:0:0:
256,192,133779,1,8,0:0:0:0:
256,192,133940,1,0,0:0:0:0:
256,192,134102,1,8,0:0:0:0:
256,192,134424,1,0,0:0:0:0:
256,192,134586,1,8,0:0:0:0:
256,192,134747,1,8,0:0:0:0:
256,192,134908,1,0,0:0:0:0:
256,192,135070,1,0,0:0:0:0:
256,192,135231,1,8,0:0:0:0:
256,192,135392,1,8,0:0:0:0:
256,192,135553,1,0,0:0:0:0:
256,192,136037,1,0,0:0:0:0:
256,192,136199,1,8,0:0:0:0:
256,192,136360,1,0,0:0:0:0:
256,192,136521,1,12,0:0:0:0:
256,192,136763,1,12,0:0:0:0:
256,192,137005,1,12,0:0:0:0:
256,192,137166,1,12,0:0:0:0:
256,192,137489,1,0,0:0:0:0:
256,192,137650,1,8,0:0:0:0:
256,192,137731,1,0,0:0:0:0:
256,192,137811,1,8,0:0:0:0:
256,192,137973,1,0,0:0:0:0:
256,192,138053,1,8,0:0:0:0:
256,192,138295,1,0,0:0:0:0:
256,192,138457,1,8,0:0:0:0:
256,192,138537,1,8,0:0:0:0:
256,192,138618,1,8,0:0:0:0:
256,192,138779,1,8,0:0:0:0:
256,192,138940,1,8,0:0:0:0:
256,192,139021,1,0,0:0:0:0:
256,192,139182,1,0,0:0:0:0:
256,192,139263,1,0,0:0:0:0:
256,192,139424,1,8,0:0:0:0:
256,192,139586,1,8,0:0:0:0:
256,192,139666,1,8,0:0:0:0:
256,192,139828,1,0,0:0:0:0:
256,192,139908,1,8,0:0:0:0:
256,192,139989,1,8,0:0:0:0:
256,192,140070,1,0,0:0:0:0:
256,192,140231,1,0,0:0:0:0:
256,192,140311,1,0,0:0:0:0:
256,192,140392,1,8,0:0:0:0:
256,192,140715,1,0,0:0:0:0:
256,192,140876,1,8,0:0:0:0:
256,192,141037,1,0,0:0:0:0:
256,192,141199,1,0,0:0:0:0:
256,192,141360,1,12,0:0:0:0:
256,192,142328,1,8,0:0:0:0:
256,192,143295,1,8,0:0:0:0:
256,192,143618,1,8,0:0:0:0:
256,192,143940,1,8,0:0:0:0:
256,192,144263,1,8,0:0:0:0:
256,192,145231,1,12,0:0:0:0:
256,192,145392,1,0,0:0:0:0:
256,192,145473,1,0,0:0:0:0:
256,192,145553,1,8,0:0:0:0:
256,192,145715,1,0,0:0:0:0:
256,192,145876,1,8,0:0:0:0:
256,192,146037,1,0,0:0:0:0:
256,192,146118,1,0,0:0:0:0:
256,192,146199,1,8,0:0:0:0:
256,192,146440,1,12,0:0:0:0:
256,192,146682,1,12,0:0:0:0:
256,192,146924,1,12,0:0:0:0:
256,192,147166,1,0,0:0:0:0:
256,192,147247,1,0,0:0:0:0:
256,192,147328,1,0,0:0:0:0:
256,192,147408,1,0,0:0:0:0:
256,192,147489,1,12,0:0:0:0:
256,192,147650,1,8,0:0:0:0:
256,192,147811,1,0,0:0:0:0:
256,192,147973,1,8,0:0:0:0:
256,192,148134,1,0,0:0:0:0:
256,192,148295,1,8,0:0:0:0:
256,192,148376,1,8,0:0:0:0:
256,192,148457,1,8,0:0:0:0:
256,192,148618,1,0,0:0:0:0:
256,192,148779,1,8,0:0:0:0:
256,192,148940,1,0,0:0:0:0:
256,192,149102,1,8,0:0:0:0:
256,192,149263,1,0,0:0:0:0:
256,192,149344,1,0,0:0:0:0:
256,192,149424,1,0,0:0:0:0:
256,192,149586,1,8,0:0:0:0:
256,192,149747,1,0,0:0:0:0:
256,192,149908,1,0,0:0:0:0:
256,192,150070,1,8,0:0:0:0:
256,192,150231,1,8,0:0:0:0:
256,192,150392,1,8,0:0:0:0:
256,192,150553,1,0,0:0:0:0:
256,192,150715,1,0,0:0:0:0:
256,192,150876,1,0,0:0:0:0:
256,192,151037,1,8,0:0:0:0:
256,192,151118,1,8,0:0:0:0:
256,192,151199,1,0,0:0:0:0:
256,192,151360,1,0,0:0:0:0:
256,192,151521,1,8,0:0:0:0:
256,192,151844,1,0,0:0:0:0:
256,192,151924,1,0,0:0:0:0:
256,192,152005,1,0,0:0:0:0:
256,192,152166,1,8,0:0:0:0:
256,192,152247,1,8,0:0:0:0:
256,192,152328,1,8,0:0:0:0:
256,192,152408,1,8,0:0:0:0:
256,192,152489,1,0,0:0:0:0:
256,192,152650,1,8,0:0:0:0:
256,192,152758,1,8,0:0:0:0:
256,192,152865,1,8,0:0:0:0:
256,192,152973,1,0,0:0:0:0:
256,192,153295,1,0,0:0:0:0:
256,192,153457,1,0,0:0:0:0:
256,192,153618,1,8,0:0:0:0:
256,192,153779,1,0,0:0:0:0:
256,192,153940,1,8,0:0:0:0:
256,192,154102,1,0,0:0:0:0:
256,192,154182,1,0,0:0:0:0:
256,192,154263,1,8,0:0:0:0:
256,192,154424,1,0,0:0:0:0:
256,192,154586,1,8,0:0:0:0:
256,192,154747,1,0,0:0:0:0:
256,192,154828,1,0,0:0:0:0:
256,192,154908,1,8,0:0:0:0:
256,192,155070,1,8,0:0:0:0:
256,192,155150,1,0,0:0:0:0:
256,192,155231,1,8,0:0:0:0:
256,192,155392,1,0,0:0:0:0:
256,192,155473,1,8,0:0:0:0:
256,192,155634,1,8,0:0:0:0:
256,192,155715,1,0,0:0:0:0:
256,192,155795,1,0,0:0:0:0:
256,192,155876,1,8,0:0:0:0:
256,192,156037,1,8,0:0:0:0:
256,192,156118,1,0,0:0:0:0:
256,192,156199,1,8,0:0:0:0:
256,192,156360,1,8,0:0:0:0:
256,192,156440,1,0,0:0:0:0:
256,192,156602,1,0,0:0:0:0:
256,192,156682,1,0,0:0:0:0:
256,192,156844,1,8,0:0:0:0:
256,192,157005,1,8,0:0:0:0:
256,192,157086,1,0,0:0:0:0:
256,192,157328,1,0,0:0:0:0:
256,192,157489,1,8,0:0:0:0:
256,192,157570,1,8,0:0:0:0:
256,192,157650,1,0,0:0:0:0:
256,192,157811,1,8,0:0:0:0:
256,192,157973,1,0,0:0:0:0:
256,192,158053,1,0,0:0:0:0:
256,192,158134,1,8,0:0:0:0:
256,192,158295,1,0,0:0:0:0:
256,192,158457,1,8,0:0:0:0:
256,192,158537,1,8,0:0:0:0:
256,192,158618,1,8,0:0:0:0:
256,192,158779,1,4,0:0:0:0:
256,192,159747,1,8,0:0:0:0:
256,192,160715,1,8,0:0:0:0:
256,192,161682,1,8,0:0:0:0:
256,192,162166,1,0,0:0:0:0:
256,192,162328,1,8,0:0:0:0:
256,192,162650,1,8,0:0:0:0:
256,192,162892,1,0,0:0:0:0:
256,192,162973,1,8,0:0:0:0:
256,192,163134,1,0,0:0:0:0:
256,192,163295,1,8,0:0:0:0:
256,192,163457,1,0,0:0:0:0:
256,192,163537,1,0,0:0:0:0:
256,192,163618,1,8,0:0:0:0:
256,192,163940,1,8,0:0:0:0:
256,192,164263,1,8,0:0:0:0:
256,192,164586,1,8,0:0:0:0:
256,192,164747,1,0,0:0:0:0:
256,192,164908,1,8,0:0:0:0:
256,192,165070,1,0,0:0:0:0:
256,192,165150,1,0,0:0:0:0:
256,192,165231,1,8,0:0:0:0:
256,192,165392,1,0,0:0:0:0:
256,192,165473,1,0,0:0:0:0:
256,192,165553,1,8,0:0:0:0:
256,192,165876,1,8,0:0:0:0:
256,192,166199,1,8,0:0:0:0:
256,192,166521,1,8,0:0:0:0:
256,192,167489,1,0,0:0:0:0:
256,192,168457,1,8,0:0:0:0:
256,192,168779,1,0,0:0:0:0:
256,192,168940,1,8,0:0:0:0:
256,192,169102,1,0,0:0:0:0:
256,192,169424,1,8,0:0:0:0:
256,192,169747,1,0,0:0:0:0:
256,192,169908,1,8,0:0:0:0:
256,192,170070,1,0,0:0:0:0:
256,192,170231,1,0,0:0:0:0:
256,192,170392,1,8,0:0:0:0:
256,192,170715,1,8,0:0:0:0:
256,192,170876,1,0,0:0:0:0:
256,192,171037,1,8,0:0:0:0:
256,192,171199,1,0,0:0:0:0:
256,192,171360,1,8,0:0:0:0:
256,192,171682,1,8,0:0:0:0:
256,192,171844,1,0,0:0:0:0:
256,192,172005,1,8,0:0:0:0:
256,192,172166,1,0,0:0:0:0:
256,192,172328,1,0,0:0:0:0:
256,192,172408,1,0,0:0:0:0:
256,192,172489,1,0,0:0:0:0:
256,192,172570,1,0,0:0:0:0:
256,192,172650,1,12,0:0:0:0:
256,192,172811,1,8,0:0:0:0:
256,192,172973,1,0,0:0:0:0:
256,192,173053,1,0,0:0:0:0:
256,192,173134,1,8,0:0:0:0:
256,192,173295,1,8,0:0:0:0:
256,192,173457,1,0,0:0:0:0:
256,192,173618,1,8,0:0:0:0:
256,192,173699,1,8,0:0:0:0:
256,192,173779,1,0,0:0:0:0:
256,192,173860,1,0,0:0:0:0:
256,192,173940,1,8,0:0:0:0:
256,192,174102,1,0,0:0:0:0:
256,192,174182,1,0,0:0:0:0:
256,192,174263,1,8,0:0:0:0:
256,192,174586,1,8,0:0:0:0:
256,192,174666,1,8,0:0:0:0:
256,192,174747,1,8,0:0:0:0:
256,192,174908,1,0,0:0:0:0:
256,192,174989,1,0,0:0:0:0:
256,192,175070,1,0,0:0:0:0:
256,192,175231,1,0,0:0:0:0:
256,192,175311,1,8,0:0:0:0:
256,192,175392,1,0,0:0:0:0:
256,192,175553,1,8,0:0:0:0:
256,192,175634,1,0,0:0:0:0:
256,192,175715,1,8,0:0:0:0:
256,192,175795,1,8,0:0:0:0:
256,192,175876,1,0,0:0:0:0:
256,192,176037,1,0,0:0:0:0:
256,192,176118,1,0,0:0:0:0:
256,192,176199,1,8,0:0:0:0:
256,192,176360,1,8,0:0:0:0:
256,192,176440,1,8,0:0:0:0:
256,192,176521,1,8,0:0:0:0:
256,192,176682,1,8,0:0:0:0:
256,192,176763,1,8,0:0:0:0:
256,192,176844,1,0,0:0:0:0:
256,192,177005,1,0,0:0:0:0:
256,192,177166,1,8,0:0:0:0:
256,192,177489,1,0,0:0:0:0:
256,192,177650,1,0,0:0:0:0:
256,192,177811,1,8,0:0:0:0:
256,192,177919,1,8,0:0:0:0:
256,192,178027,1,8,0:0:0:0:
256,192,178134,1,0,0:0:0:0:
256,192,178457,1,8,0:0:0:0:
256,192,178779,1,8,0:0:0:0:
256,192,178940,1,0,0:0:0:0:
256,192,179102,1,8,0:0:0:0:
256,192,179263,1,0,0:0:0:0:
256,192,179344,1,0,0:0:0:0:
256,192,179424,1,8,0:0:0:0:
256,192,179586,1,0,0:0:0:0:
256,192,179666,1,0,0:0:0:0:
256,192,179747,1,8,0:0:0:0:
256,192,179828,1,8,0:0:0:0:
256,192,179908,1,0,0:0:0:0:
256,192,180070,1,8,0:0:0:0:
256,192,180150,1,0,0:0:0:0:
256,192,180231,1,0,0:0:0:0:
256,192,180392,1,8,0:0:0:0:
256,192,180553,1,8,0:0:0:0:
256,192,180715,1,0,0:0:0:0:
256,192,180795,1,8,0:0:0:0:
256,192,180876,1,8,0:0:0:0:
256,192,181037,1,0,0:0:0:0:
256,192,181118,1,0,0:0:0:0:
256,192,181199,1,0,0:0:0:0:
256,192,181279,1,0,0:0:0:0:
256,192,181360,1,8,0:0:0:0:
256,192,181521,1,0,0:0:0:0:
256,192,181602,1,0,0:0:0:0:
256,192,181682,1,8,0:0:0:0:
256,192,181763,1,0,0:0:0:0:
256,192,181844,1,8,0:0:0:0:
256,192,182005,1,8,0:0:0:0:
256,192,182086,1,8,0:0:0:0:
256,192,182166,1,0,0:0:0:0:
256,192,182328,1,8,0:0:0:0:
256,192,182489,1,0,0:0:0:0:
256,192,182650,1,8,0:0:0:0:
256,192,182731,1,8,0:0:0:0:
256,192,182811,1,0,0:0:0:0:
256,192,182973,1,8,0:0:0:0:
256,192,183053,1,0,0:0:0:0:
256,192,183134,1,8,0:0:0:0:
256,192,183215,1,0,0:0:0:0:
256,192,183295,1,8,0:0:0:0:
256,192,183457,1,0,0:0:0:0:
256,192,183618,1,8,0:0:0:0:
256,192,183699,1,8,0:0:0:0:
256,192,183779,1,8,0:0:0:0:
256,192,183860,1,8,0:0:0:0:
256,192,183940,1,0,0:0:0:0:
256,192,184908,1,0,0:0:0:0:
256,192,185876,1,12,0:0:0:0:
256,192,186199,1,0,0:0:0:0:
256,192,186360,1,8,0:0:0:0:
256,192,186521,1,0,0:0:0:0:
256,192,186602,1,0,0:0:0:0:
256,192,186844,1,8,0:0:0:0:
256,192,187005,1,0,0:0:0:0:
256,192,187086,1,0,0:0:0:0:
256,192,187166,1,8,0:0:0:0:
256,192,187328,1,0,0:0:0:0:
256,192,187408,1,0,0:0:0:0:
256,192,187489,1,8,0:0:0:0:
256,192,187650,1,0,0:0:0:0:
256,192,187811,1,12,0:0:0:0:
256,192,187973,12,0,192650,0:0:0:0:
