osu file format v14

[General]
AudioFilename: audio.mp3
AudioLeadIn: 0
PreviewTime: 55177
Countdown: 0
SampleSet: Normal
StackLeniency: 0.7
Mode: 1
LetterboxInBreaks: 0
WidescreenStoryboard: 0

[Editor]
Bookmarks: 30,15513,38739,56159,75513,106481,129707,147449,158739,172610,187771
DistanceSpacing: 0.9
BeatDivisor: 6
GridSize: 32
TimelineZoom: 2.799999

[Metadata]
Title:Myosotis no Hanataba
TitleUnicode:ミオソティスの花束
Artist:AAAA Chazuke
ArtistUnicode:ああああ茶漬け
Creator:_DUSK_
Version:Futsuu
Source:
Tags:umeboshi flower chiptune bitpop yassu- genjuro frenz2019 pxtone 合作is楽しい 8bit electronic instrumental
BeatmapID:2445379
BeatmapSetID:1153450

[Difficulty]
HPDrainRate:7
CircleSize:5
OverallDifficulty:4
ApproachRate:9
SliderMultiplier:1.3
SliderTickRate:1

[Events]
//Background and Video events
0,0,"tree.jpg",0,-90
//Break Periods
2,106721,113663
//Storyboard Layer 0 (Background)
//Storyboard Layer 1 (Fail)
//Storyboard Layer 2 (Pass)
//Storyboard Layer 3 (Foreground)
//Storyboard Layer 4 (Overlay)
//Storyboard Sound Samples

[TimingPoints]
70.022346368715,322.58064516129,3,1,0,100,1,0
56199,-100,3,1,0,100,0,1
67811,-100,3,1,0,100,0,0
75553,-100,3,1,0,100,0,1
106521,-100,3,1,0,100,0,0
147489,-100,3,1,0,100,0,1
158779,-100,3,1,0,100,0,0
172650,-100,3,1,0,100,0,1
183940,-100,3,1,0,100,0,0
187932,-100,3,1,0,80,0,0
188739,-100,3,1,0,70,0,0

[HitObjects]
256,192,70,5,12,0:0:0:0:
256,192,2005,1,12,0:0:0:0:
256,192,3134,1,0,0:0:0:0:
256,192,3618,1,0,0:0:0:0:
256,192,3940,1,12,0:0:0:0:
256,192,4908,1,12,0:0:0:0:
256,192,5876,1,12,0:0:0:0:
256,192,6360,1,12,0:0:0:0:
256,192,6844,1,12,0:0:0:0:
256,192,7811,1,12,0:0:0:0:
256,192,8457,1,0,0:0:0:0:
256,192,8779,1,8,0:0:0:0:
256,192,9424,1,8,0:0:0:0:
256,192,9747,1,0,0:0:0:0:
256,192,10231,1,8,0:0:0:0:
256,192,10715,1,8,0:0:0:0:
256,192,11037,1,8,0:0:0:0:
256,192,11360,1,0,0:0:0:0:
256,192,11682,1,8,0:0:0:0:
256,192,12166,1,0,0:0:0:0:
256,192,12328,1,0,0:0:0:0:
256,192,12650,1,8,0:0:0:0:
256,192,13295,1,0,0:0:0:0:
256,192,13618,1,8,0:0:0:0:
256,192,13779,1,0,0:0:0:0:
256,192,13940,1,0,0:0:0:0:
256,192,14263,1,0,0:0:0:0:
256,192,14586,1,8,0:0:0:0:
256,192,14747,1,8,0:0:0:0:
256,192,14908,1,0,0:0:0:0:
256,192,15070,1,0,0:0:0:0:
256,192,15231,1,8,0:0:0:0:
256,192,15553,1,12,0:0:0:0:
256,192,19424,1,12,0:0:0:0:
256,192,20070,1,0,0:0:0:0:
256,192,20392,1,8,0:0:0:0:
256,192,20715,1,0,0:0:0:0:
256,192,21037,1,0,0:0:0:0:
256,192,21360,1,8,0:0:0:0:
256,192,21682,1,0,0:0:0:0:
256,192,21844,1,8,0:0:0:0:
256,192,22005,1,0,0:0:0:0:
256,192,22328,1,8,0:0:0:0:
256,192,22489,1,8,0:0:0:0:
256,192,22650,1,0,0:0:0:0:
256,192,22811,1,8,0:0:0:0:
256,192,22973,1,0,0:0:0:0:
256,192,23295,1,12,0:0:0:0:
256,192,24263,1,8,0:0:0:0:
256,192,24908,1,8,0:0:0:0:
256,192,25231,1,0,0:0:0:0:
256,192,26199,1,0,0:0:0:0:
256,192,27166,1,8,0:0:0:0:
256,192,28134,1,8,0:0:0:0:
256,192,28779,1,8,0:0:0:0:
256,192,29102,1,0,0:0:0:0:
256,192,30070,1,0,0:0:0:0:
256,192,30392,1,0,0:0:0:0:
256,192,30715,1,0,0:0:0:0:
256,192,31037,1,8,0:0:0:0:
256,192,32005,1,8,0:0:0:0:
256,192,32973,1,8,0:0:0:0:
256,192,33618,1,8,0:0:0:0:
256,192,33940,1,8,0:0:0:0:
256,192,34586,1,0,0:0:0:0:
256,192,34908,1,12,0:0:0:0:
256,192,35553,1,0,0:0:0:0:
256,192,35876,1,8,0:0:0:0:
256,192,36199,1,0,0:0:0:0:
256,192,36682,1,0,0:0:0:0:
256,192,36844,1,8,0:0:0:0:
256,192,37166,1,0,0:0:0:0:
256,192,37328,1,0,0:0:0:0:
256,192,37489,1,8,0:0:0:0:
256,192,37811,1,8,0:0:0:0:
256,192,38134,1,0,0:0:0:0:
256,192,38295,1,0,0:0:0:0:
256,192,38457,1,8,0:0:0:0:
256,192,38618,1,0,0:0:0:0:
256,192,38779,1,12,0:0:0:0:
256,192,39263,1,8,0:0:0:0:
256,192,39424,1,0,0:0:0:0:
256,192,39586,1,8,0:0:0:0:
256,192,39747,1,8,0:0:0:0:
256,192,40070,1,8,0:0:0:0:
256,192,40231,1,0,0:0:0:0:
256,192,40392,1,0,0:0:0:0:
256,192,40715,1,8,0:0:0:0:
256,192,41199,1,0,0:0:0:0:
256,192,41360,1,8,0:0:0:0:
256,192,41521,1,8,0:0:0:0:
256,192,41682,1,0,0:0:0:0:
256,192,42005,1,8,0:0:0:0:
256,192,42166,1,8,0:0:0:0:
256,192,42328,1,0,0:0:0:0:
256,192,42650,1,8,0:0:0:0:
256,192,43134,1,8,0:0:0:0:
256,192,43295,1,0,0:0:0:0:
256,192,43457,1,0,0:0:0:0:
256,192,43618,1,12,0:0:0:0:
256,192,44102,1,12,0:0:0:0:
256,192,44586,1,12,0:0:0:0:
256,192,45231,1,8,0:0:0:0:
256,192,45553,1,8,0:0:0:0:
256,192,45876,1,0,0:0:0:0:
256,192,46037,1,0,0:0:0:0:
256,192,46199,1,8,0:0:0:0:
256,192,46521,1,12,0:0:0:0:
256,192,47005,1,8,0:0:0:0:
256,192,47166,1,0,0:0:0:0:
256,192,47489,1,8,0:0:0:0:
256,192,47811,1,8,0:0:0:0:
256,192,47973,1,0,0:0:0:0:
256,192,48134,1,8,0:0:0:0:
256,192,48457,1,0,0:0:0:0:
256,192,48940,1,0,0:0:0:0:
256,192,49102,1,8,0:0:0:0:
256,192,49424,1,8,0:0:0:0:
256,192,49586,1,8,0:0:0:0:
256,192,49747,1,0,0:0:0:0:
256,192,50070,1,0,0:0:0:0:
256,192,50392,1,8,0:0:0:0:
256,192,50876,1,0,0:0:0:0:
256,192,51037,1,8,0:0:0:0:
256,192,51360,1,8,0:0:0:0:
256,192,51682,1,8,0:0:0:0:
256,192,52005,1,0,0:0:0:0:
256,192,52166,1,0,0:0:0:0:
256,192,52328,1,8,0:0:0:0:
256,192,52811,1,0,0:0:0:0:
256,192,52973,1,8,0:0:0:0:
256,192,53134,1,8,0:0:0:0:
256,192,53295,1,0,0:0:0:0:
256,192,53618,1,8,0:0:0:0:
256,192,53940,1,0,0:0:0:0:
256,192,54263,1,12,0:0:0:0:
256,192,56199,1,12,0:0:0:0:
256,192,56682,1,0,0:0:0:0:
256,192,56844,1,8,0:0:0:0:
256,192,57005,1,0,0:0:0:0:
256,192,57166,1,8,0:0:0:0:
256,192,57489,1,8,0:0:0:0:
256,192,57650,1,8,0:0:0:0:
256,192,57811,1,0,0:0:0:0:
256,192,57973,1,8,0:0:0:0:
256,192,58134,1,0,0:0:0:0:
256,192,58457,1,0,0:0:0:0:
256,192,58618,1,0,0:0:0:0:
256,192,58779,1,8,0:0:0:0:
256,192,59102,1,12,0:0:0:0:
256,192,59586,1,12,0:0:0:0:
256,192,60070,1,12,0:0:0:0:
256,192,60553,1,0,0:0:0:0:
256,192,60876,1,8,0:0:0:0:
256,192,61037,1,0,0:0:0:0:
256,192,61360,1,8,0:0:0:0:
256,192,61521,1,0,0:0:0:0:
256,192,61682,1,8,0:0:0:0:
256,192,61844,1,8,0:0:0:0:
256,192,62005,1,0,0:0:0:0:
256,192,62650,1,0,0:0:0:0:
256,192,62811,1,0,0:0:0:0:
256,192,62973,1,8,0:0:0:0:
256,192,63215,1,8,0:0:0:0:
256,192,63457,1,8,0:0:0:0:
256,192,63940,1,8,0:0:0:0:
256,192,64102,1,8,0:0:0:0:
256,192,64424,1,0,0:0:0:0:
256,192,64747,1,0,0:0:0:0:
256,192,64908,1,8,0:0:0:0:
256,192,65070,1,8,0:0:0:0:
256,192,65231,1,0,0:0:0:0:
256,192,65553,1,0,0:0:0:0:
256,192,65715,1,0,0:0:0:0:
256,192,65876,1,8,0:0:0:0:
256,192,66037,1,0,0:0:0:0:
256,192,66199,1,8,0:0:0:0:
256,192,66521,1,0,0:0:0:0:
256,192,66682,1,0,0:0:0:0:
256,192,66844,1,8,0:0:0:0:
256,192,67166,1,0,0:0:0:0:
256,192,67328,1,8,0:0:0:0:
256,192,67489,1,0,0:0:0:0:
256,192,67650,1,0,0:0:0:0:
256,192,67811,1,12,0:0:0:0:
256,192,68779,1,0,0:0:0:0:
256,192,69747,1,0,0:0:0:0:
256,192,70715,1,0,0:0:0:0:
256,192,71199,1,0,0:0:0:0:
256,192,71360,1,8,0:0:0:0:
256,192,71682,1,8,0:0:0:0:
256,192,71844,1,0,0:0:0:0:
256,192,72005,1,0,0:0:0:0:
256,192,72328,1,0,0:0:0:0:
256,192,72489,1,0,0:0:0:0:
256,192,72650,1,8,0:0:0:0:
256,192,72973,1,8,0:0:0:0:
256,192,73295,1,8,0:0:0:0:
256,192,73618,1,12,0:0:0:0:
256,192,73940,1,8,0:0:0:0:
256,192,74102,1,0,0:0:0:0:
256,192,74424,1,0,0:0:0:0:
256,192,74586,1,8,0:0:0:0:
256,192,74908,1,8,0:0:0:0:
256,192,75070,1,0,0:0:0:0:
256,192,75231,1,8,0:0:0:0:
256,192,75392,1,0,0:0:0:0:
256,192,75553,1,12,0:0:0:0:
256,192,75876,1,8,0:0:0:0:
256,192,76199,1,0,0:0:0:0:
256,192,76360,1,0,0:0:0:0:
256,192,76521,1,8,0:0:0:0:
256,192,76844,1,8,0:0:0:0:
256,192,77005,1,0,0:0:0:0:
256,192,77166,1,8,0:0:0:0:
256,192,77328,1,8,0:0:0:0:
256,192,77489,1,0,0:0:0:0:
256,192,77811,1,8,0:0:0:0:
256,192,78134,1,0,0:0:0:0:
256,192,78295,1,0,0:0:0:0:
256,192,78457,1,8,0:0:0:0:
256,192,78940,1,8,0:0:0:0:
256,192,79102,1,0,0:0:0:0:
256,192,79263,1,0,0:0:0:0:
256,192,79424,1,8,0:0:0:0:
256,192,79747,1,0,0:0:0:0:
256,192,79908,1,0,0:0:0:0:
256,192,80070,1,8,0:0:0:0:
256,192,80231,1,8,0:0:0:0:
256,192,80392,1,0,0:0:0:0:
256,192,80715,1,8,0:0:0:0:
256,192,80876,1,8,0:0:0:0:
256,192,81037,1,0,0:0:0:0:
256,192,81199,1,8,0:0:0:0:
256,192,81360,1,0,0:0:0:0:
256,192,82005,1,8,0:0:0:0:
256,192,82328,1,0,0:0:0:0:
256,192,82489,1,8,0:0:0:0:
256,192,82650,1,8,0:0:0:0:
256,192,82811,1,0,0:0:0:0:
256,192,82973,1,8,0:0:0:0:
256,192,83295,1,12,0:0:0:0:
256,192,83618,1,0,0:0:0:0:
256,192,83779,1,8,0:0:0:0:
256,192,84102,1,0,0:0:0:0:
256,192,84263,1,8,0:0:0:0:
256,192,84424,1,8,0:0:0:0:
256,192,84586,1,0,0:0:0:0:
256,192,84908,1,8,0:0:0:0:
256,192,85070,1,8,0:0:0:0:
256,192,85231,1,0,0:0:0:0:
256,192,85553,1,8,0:0:0:0:
256,192,85715,1,0,0:0:0:0:
256,192,85876,1,8,0:0:0:0:
256,192,86199,1,0,0:0:0:0:
256,192,86360,1,8,0:0:0:0:
256,192,86521,1,0,0:0:0:0:
256,192,86682,1,0,0:0:0:0:
256,192,86844,1,8,0:0:0:0:
256,192,87005,1,8,0:0:0:0:
256,192,87166,1,0,0:0:0:0:
256,192,87811,1,0,0:0:0:0:
256,192,87973,1,8,0:0:0:0:
256,192,88134,1,0,0:0:0:0:
256,192,88457,1,8,0:0:0:0:
256,192,88618,1,0,0:0:0:0:
256,192,88779,1,8,0:0:0:0:
256,192,88940,1,0,0:0:0:0:
256,192,89102,1,0,0:0:0:0:
256,192,89424,1,8,0:0:0:0:
256,192,89747,1,0,0:0:0:0:
256,192,89908,1,8,0:0:0:0:
256,192,90070,1,0,0:0:0:0:
256,192,90231,1,0,0:0:0:0:
256,192,90392,1,8,0:0:0:0:
256,192,90715,1,8,0:0:0:0:
256,192,90876,1,0,0:0:0:0:
256,192,91037,1,12,0:0:0:0:
256,192,91360,1,0,0:0:0:0:
256,192,91521,1,0,0:0:0:0:
256,192,91682,1,8,0:0:0:0:
256,192,91844,1,0,0:0:0:0:
256,192,92005,1,8,0:0:0:0:
256,192,92328,1,8,0:0:0:0:
256,192,92489,1,0,0:0:0:0:
256,192,92650,1,8,0:0:0:0:
256,192,92811,1,8,0:0:0:0:
256,192,92973,1,0,0:0:0:0:
256,192,93295,1,0,0:0:0:0:
256,192,93457,1,0,0:0:0:0:
256,192,93618,1,8,0:0:0:0:
256,192,93940,1,8,0:0:0:0:
256,192,94263,1,0,0:0:0:0:
256,192,94424,1,0,0:0:0:0:
256,192,94586,1,8,0:0:0:0:
256,192,94747,1,0,0:0:0:0:
256,192,94908,1,8,0:0:0:0:
256,192,95553,1,0,0:0:0:0:
256,192,95876,1,8,0:0:0:0:
256,192,96521,1,0,0:0:0:0:
256,192,96844,1,8,0:0:0:0:
256,192,97489,1,0,0:0:0:0:
256,192,97811,1,8,0:0:0:0:
256,192,98134,1,0,0:0:0:0:
256,192,98457,1,0,0:0:0:0:
256,192,98618,1,0,0:0:0:0:
256,192,98779,1,8,0:0:0:0:
256,192,99424,1,8,0:0:0:0:
256,192,99747,1,8,0:0:0:0:
256,192,99908,1,8,0:0:0:0:
256,192,100070,1,0,0:0:0:0:
256,192,100231,1,0,0:0:0:0:
256,192,100392,1,0,0:0:0:0:
256,192,100715,1,8,0:0:0:0:
256,192,101360,1,8,0:0:0:0:
256,192,101682,1,0,0:0:0:0:
256,192,101844,1,0,0:0:0:0:
256,192,102005,1,8,0:0:0:0:
256,192,102166,1,8,0:0:0:0:
256,192,102328,1,0,0:0:0:0:
256,192,102650,1,8,0:0:0:0:
256,192,103134,1,8,0:0:0:0:
256,192,103295,1,0,0:0:0:0:
256,192,103457,1,0,0:0:0:0:
256,192,103618,1,8,0:0:0:0:
256,192,104102,1,8,0:0:0:0:
256,192,104263,1,0,0:0:0:0:
256,192,104424,1,0,0:0:0:0:
256,192,104586,1,8,0:0:0:0:
256,192,105070,1,8,0:0:0:0:
256,192,105231,1,0,0:0:0:0:
256,192,105553,1,8,0:0:0:0:
256,192,105715,1,0,0:0:0:0:
256,192,105876,1,8,0:0:0:0:
256,192,106037,1,0,0:0:0:0:
256,192,106199,1,8,0:0:0:0:
256,192,106360,1,0,0:0:0:0:
256,192,106521,1,12,0:0:0:0:
256,192,114263,5,12,0:0:0:0:
256,192,114908,1,8,0:0:0:0:
256,192,115231,1,8,0:0:0:0:
256,192,115876,1,8,0:0:0:0:
256,192,116199,1,8,0:0:0:0:
256,192,116844,1,8,0:0:0:0:
256,192,117166,1,8,0:0:0:0:
256,192,117489,1,8,0:0:0:0:
256,192,117811,1,8,0:0:0:0:
256,192,118134,1,12,0:0:0:0:
256,192,118779,1,8,0:0:0:0:
256,192,119102,1,8,0:0:0:0:
256,192,119747,1,8,0:0:0:0:
256,192,120070,1,8,0:0:0:0:
256,192,120392,1,0,0:0:0:0:
256,192,121037,1,0,0:0:0:0:
256,192,121360,1,0,0:0:0:0:
256,192,121682,1,0,0:0:0:0:
256,192,122005,1,12,0:0:0:0:
256,192,125876,1,12,0:0:0:0:
256,192,126521,1,0,0:0:0:0:
256,192,126844,1,8,0:0:0:0:
256,192,127166,1,0,0:0:0:0:
256,192,127811,1,8,0:0:0:0:
256,192,128134,1,0,0:0:0:0:
256,192,128295,1,0,0:0:0:0:
256,192,128457,1,0,0:0:0:0:
256,192,128779,1,8,0:0:0:0:
256,192,129102,1,0,0:0:0:0:
256,192,129263,1,8,0:0:0:0:
256,192,129424,1,0,0:0:0:0:
256,192,129586,1,0,0:0:0:0:
256,192,129747,1,12,0:0:0:0:
256,192,130392,1,0,0:0:0:0:
256,192,130553,1,0,0:0:0:0:
256,192,130715,1,8,0:0:0:0:
256,192,131360,1,8,0:0:0:0:
256,192,131682,1,0,0:0:0:0:
256,192,132328,1,0,0:0:0:0:
256,192,132489,1,0,0:0:0:0:
256,192,132650,1,8,0:0:0:0:
256,192,132811,1,8,0:0:0:0:
256,192,133134,1,8,0:0:0:0:
256,192,133295,1,0,0:0:0:0:
256,192,133618,1,0,0:0:0:0:
256,192,133779,1,0,0:0:0:0:
256,192,133940,1,8,0:0:0:0:
256,192,134263,1,0,0:0:0:0:
256,192,134586,1,8,0:0:0:0:
256,192,134908,1,0,0:0:0:0:
256,192,135231,1,8,0:0:0:0:
256,192,135392,1,0,0:0:0:0:
256,192,135553,1,8,0:0:0:0:
256,192,136199,1,0,0:0:0:0:
256,192,136360,1,0,0:0:0:0:
256,192,136521,1,8,0:0:0:0:
256,192,137005,1,8,0:0:0:0:
256,192,137489,1,12,0:0:0:0:
256,192,138134,1,0,0:0:0:0:
256,192,138295,1,0,0:0:0:0:
256,192,138457,1,8,0:0:0:0:
256,192,138779,1,8,0:0:0:0:
256,192,138940,1,8,0:0:0:0:
256,192,139102,1,0,0:0:0:0:
256,192,139424,1,8,0:0:0:0:
256,192,140070,1,0,0:0:0:0:
256,192,140231,1,0,0:0:0:0:
256,192,140392,1,0,0:0:0:0:
256,192,140715,1,8,0:0:0:0:
256,192,141037,1,0,0:0:0:0:
256,192,141199,1,0,0:0:0:0:
256,192,141360,1,12,0:0:0:0:
256,192,142328,1,8,0:0:0:0:
256,192,143295,1,8,0:0:0:0:
256,192,144263,1,8,0:0:0:0:
256,192,145231,1,12,0:0:0:0:
256,192,145553,1,0,0:0:0:0:
256,192,145715,1,0,0:0:0:0:
256,192,145876,1,8,0:0:0:0:
256,192,146199,1,8,0:0:0:0:
256,192,146440,1,8,0:0:0:0:
256,192,146682,1,8,0:0:0:0:
256,192,147166,1,0,0:0:0:0:
256,192,147489,1,12,0:0:0:0:
256,192,147811,1,0,0:0:0:0:
256,192,147973,1,8,0:0:0:0:
256,192,148134,1,0,0:0:0:0:
256,192,148457,1,0,0:0:0:0:
256,192,148779,1,8,0:0:0:0:
256,192,148940,1,0,0:0:0:0:
256,192,149102,1,8,0:0:0:0:
256,192,149424,1,8,0:0:0:0:
256,192,149586,1,0,0:0:0:0:
256,192,149747,1,0,0:0:0:0:
256,192,150070,1,8,0:0:0:0:
256,192,150231,1,8,0:0:0:0:
256,192,150553,1,0,0:0:0:0:
256,192,150715,1,0,0:0:0:0:
256,192,151037,1,8,0:0:0:0:
256,192,151199,1,0,0:0:0:0:
256,192,151360,1,0,0:0:0:0:
256,192,151521,1,8,0:0:0:0:
256,192,151844,1,0,0:0:0:0:
256,192,152005,1,8,0:0:0:0:
256,192,152328,1,8,0:0:0:0:
256,192,152489,1,0,0:0:0:0:
256,192,152650,1,8,0:0:0:0:
256,192,152973,1,8,0:0:0:0:
256,192,153618,1,8,0:0:0:0:
256,192,153779,1,8,0:0:0:0:
256,192,153940,1,0,0:0:0:0:
256,192,154102,1,0,0:0:0:0:
256,192,154424,1,8,0:0:0:0:
256,192,154586,1,0,0:0:0:0:
256,192,154747,1,0,0:0:0:0:
256,192,154908,1,8,0:0:0:0:
256,192,155231,1,8,0:0:0:0:
256,192,155392,1,8,0:0:0:0:
256,192,155553,1,0,0:0:0:0:
256,192,155715,1,0,0:0:0:0:
256,192,155876,1,8,0:0:0:0:
256,192,156199,1,8,0:0:0:0:
256,192,156360,1,0,0:0:0:0:
256,192,156521,1,8,0:0:0:0:
256,192,156682,1,8,0:0:0:0:
256,192,156844,1,0,0:0:0:0:
256,192,157166,1,0,0:0:0:0:
256,192,157328,1,8,0:0:0:0:
256,192,157489,1,0,0:0:0:0:
256,192,157650,1,0,0:0:0:0:
256,192,157811,1,8,0:0:0:0:
256,192,158134,1,8,0:0:0:0:
256,192,158295,1,0,0:0:0:0:
256,192,158457,1,0,0:0:0:0:
256,192,158618,1,0,0:0:0:0:
256,192,158779,1,12,0:0:0:0:
256,192,159747,1,8,0:0:0:0:
256,192,160715,1,8,0:0:0:0:
256,192,161682,1,8,0:0:0:0:
256,192,162166,1,0,0:0:0:0:
256,192,162328,1,8,0:0:0:0:
256,192,162650,1,12,0:0:0:0:
256,192,162973,1,0,0:0:0:0:
256,192,163134,1,0,0:0:0:0:
256,192,163295,1,8,0:0:0:0:
256,192,163457,1,0,0:0:0:0:
256,192,163618,1,8,0:0:0:0:
256,192,163940,1,8,0:0:0:0:
256,192,164263,1,0,0:0:0:0:
256,192,164586,1,8,0:0:0:0:
256,192,164908,1,8,0:0:0:0:
256,192,165070,1,0,0:0:0:0:
256,192,165231,1,8,0:0:0:0:
256,192,165392,1,8,0:0:0:0:
256,192,165553,1,8,0:0:0:0:
256,192,165876,1,8,0:0:0:0:
256,192,166199,1,0,0:0:0:0:
256,192,166521,1,12,0:0:0:0:
256,192,167489,1,8,0:0:0:0:
256,192,168457,1,12,0:0:0:0:
256,192,168940,1,8,0:0:0:0:
256,192,169424,1,8,0:0:0:0:
256,192,169747,1,0,0:0:0:0:
256,192,169908,1,8,0:0:0:0:
256,192,170231,1,0,0:0:0:0:
256,192,170392,1,8,0:0:0:0:
256,192,170715,1,8,0:0:0:0:
256,192,170876,1,0,0:0:0:0:
256,192,171037,1,8,0:0:0:0:
256,192,171360,1,8,0:0:0:0:
256,192,171521,1,0,0:0:0:0:
256,192,171682,1,8,0:0:0:0:
256,192,171844,1,0,0:0:0:0:
256,192,172005,1,8,0:0:0:0:
256,192,172166,1,8,0:0:0:0:
256,192,172328,1,0,0:0:0:0:
256,192,172650,1,12,0:0:0:0:
256,192,172973,1,0,0:0:0:0:
256,192,173134,1,0,0:0:0:0:
256,192,173295,1,8,0:0:0:0:
256,192,173618,1,8,0:0:0:0:
256,192,173779,1,0,0:0:0:0:
256,192,173940,1,8,0:0:0:0:
256,192,174102,1,8,0:0:0:0:
256,192,174263,1,0,0:0:0:0:
256,192,174586,1,8,0:0:0:0:
256,192,174747,1,8,0:0:0:0:
256,192,174908,1,0,0:0:0:0:
256,192,175070,1,0,0:0:0:0:
256,192,175231,1,8,0:0:0:0:
256,192,175392,1,0,0:0:0:0:
256,192,175553,1,8,0:0:0:0:
256,192,175876,1,8,0:0:0:0:
256,192,176037,1,8,0:0:0:0:
256,192,176199,1,0,0:0:0:0:
256,192,176844,1,8,0:0:0:0:
256,192,177005,1,0,0:0:0:0:
256,192,177166,1,8,0:0:0:0:
256,192,177489,1,0,0:0:0:0:
256,192,177650,1,0,0:0:0:0:
256,192,177811,1,8,0:0:0:0:
256,192,177973,1,0,0:0:0:0:
256,192,178134,1,8,0:0:0:0:
256,192,178457,1,0,0:0:0:0:
256,192,178779,1,8,0:0:0:0:
256,192,179102,1,0,0:0:0:0:
256,192,179263,1,8,0:0:0:0:
256,192,179424,1,8,0:0:0:0:
256,192,179747,1,0,0:0:0:0:
256,192,179908,1,8,0:0:0:0:
256,192,180070,1,0,0:0:0:0:
256,192,180231,1,0,0:0:0:0:
256,192,180392,1,8,0:0:0:0:
256,192,180715,1,0,0:0:0:0:
256,192,180876,1,0,0:0:0:0:
256,192,181037,1,8,0:0:0:0:
256,192,181199,1,0,0:0:0:0:
256,192,181360,1,8,0:0:0:0:
256,192,181521,1,8,0:0:0:0:
256,192,181682,1,0,0:0:0:0:
256,192,182005,1,0,0:0:0:0:
256,192,182166,1,0,0:0:0:0:
256,192,182328,1,8,0:0:0:0:
256,192,182650,1,8,0:0:0:0:
256,192,182811,1,0,0:0:0:0:
256,192,182973,1,8,0:0:0:0:
256,192,183134,1,0,0:0:0:0:
256,192,183295,1,8,0:0:0:0:
256,192,183457,1,8,0:0:0:0:
256,192,183618,1,8,0:0:0:0:
256,192,183940,1,12,0:0:0:0:
256,192,184908,1,0,0:0:0:0:
256,192,185876,1,12,0:0:0:0:
256,192,186199,1,0,0:0:0:0:
256,192,186360,1,8,0:0:0:0:
256,192,186521,1,0,0:0:0:0:
256,192,186844,1,8,0:0:0:0:
256,192,187005,1,0,0:0:0:0:
256,192,187166,1,8,0:0:0:0:
256,192,187328,1,0,0:0:0:0:
256,192,187489,1,8,0:0:0:0:
256,192,187650,1,0,0:0:0:0:
256,192,187811,1,12,0:0:0:0:
256,192,187973,12,0,192650,0:0:0:0:
