osu file format v14

[General]
AudioFilename: Myosotis no hanataba.mp3
AudioLeadIn: 0
PreviewTime: 55206
Countdown: 0
SampleSet: Soft
StackLeniency: 0.7
Mode: 3
LetterboxInBreaks: 0
SpecialStyle: 0
WidescreenStoryboard: 1

[Editor]
Bookmarks: 68432,141980,159399,192625
DistanceSpacing: 0.8
BeatDivisor: 4
GridSize: 8
TimelineZoom: 1.599999

[Metadata]
Title:Myosotis no Hanataba
TitleUnicode:ミオソティスの花束
Artist:AAAA Chazuke
ArtistUnicode:ああああ茶漬け
Creator:LeiN-
Version:Hard
Source:
Tags:LEINISM Lude Interlude- Hoto Cocoa komugii Manwon 10Dollar Presents chiptune bitpop 8bit Frenzy for Friends FRENZ2019 Stepmania Umeboshi Chazuke 梅干茶漬け ああああ electronic instrumental fa featured artist
BeatmapID:4295203
BeatmapSetID:678182

[Difficulty]
HPDrainRate:7.5
CircleSize:4
OverallDifficulty:7.5
ApproachRate:5
SliderMultiplier:1.4
SliderTickRate:1

[Events]
//Background and Video events
0,0,"bg_wide.jpg",0,0
//Break Periods
//Storyboard Layer 0 (Background)
//Storyboard Layer 1 (Fail)
//Storyboard Layer 2 (Pass)
//Storyboard Layer 3 (Foreground)
//Storyboard Layer 4 (Overlay)
//Storyboard Sound Samples

[TimingPoints]
45,322.58064516129,3,2,1,66,1,0
75528,-100,3,2,1,66,0,1
106496,-100,3,2,1,66,0,0
147464,-100,3,2,1,66,0,1
172625,-100,3,2,1,66,0,0

[HitObjects]
448,192,45,5,0,0:0:0:0:
192,192,45,1,0,0:0:0:0:
192,192,528,1,0,0:0:0:0:
320,192,609,1,0,0:0:0:0:
192,192,690,1,0,0:0:0:0:
320,192,851,1,0,0:0:0:0:
448,192,1012,1,0,0:0:0:0:
64,192,1335,1,0,0:0:0:0:
320,192,1657,1,0,0:0:0:0:
448,192,1657,1,0,0:0:0:0:
320,192,1819,1,0,0:0:0:0:
448,192,1980,1,0,0:0:0:0:
64,192,1980,1,0,0:0:0:0:
64,192,2464,1,0,0:0:0:0:
320,192,2544,1,0,0:0:0:0:
64,192,2625,1,0,0:0:0:0:
448,192,2786,1,0,0:0:0:0:
64,192,2948,1,0,0:0:0:0:
320,192,3109,1,0,0:0:0:0:
192,192,3190,1,0,0:0:0:0:
320,192,3270,1,0,0:0:0:0:
448,192,3432,1,0,0:0:0:0:
64,192,3593,1,0,0:0:0:0:
320,192,3754,1,0,0:0:0:0:
64,192,3915,1,0,0:0:0:0:
192,192,3915,1,0,0:0:0:0:
448,192,4077,1,0,0:0:0:0:
320,192,4238,1,0,0:0:0:0:
192,192,4399,1,0,0:0:0:0:
64,192,4722,1,0,0:0:0:0:
448,192,4883,1,0,0:0:0:0:
320,192,4883,1,0,0:0:0:0:
192,192,5206,1,0,0:0:0:0:
64,192,5690,1,0,0:0:0:0:
320,192,5770,1,0,0:0:0:0:
64,192,5851,1,0,0:0:0:0:
192,192,5851,1,0,0:0:0:0:
448,192,6012,1,0,0:0:0:0:
192,192,6174,1,0,0:0:0:0:
448,192,6335,1,0,0:0:0:0:
320,192,6335,1,0,0:0:0:0:
64,192,6657,1,0,0:0:0:0:
192,192,6819,1,0,0:0:0:0:
448,192,6819,1,0,0:0:0:0:
192,192,7141,1,0,0:0:0:0:
320,192,7141,1,0,0:0:0:0:
320,192,7464,1,0,0:0:0:0:
64,192,7786,1,0,0:0:0:0:
192,192,7786,1,0,0:0:0:0:
448,192,7786,1,0,0:0:0:0:
64,192,7948,1,0,0:0:0:0:
448,192,8109,1,0,0:0:0:0:
192,192,8270,1,0,0:0:0:0:
320,192,8351,1,0,0:0:0:0:
192,192,8432,1,0,0:0:0:0:
320,192,8593,1,0,0:0:0:0:
448,192,8754,1,0,0:0:0:0:
64,192,8754,1,0,0:0:0:0:
192,192,8915,1,0,0:0:0:0:
64,192,9077,1,0,0:0:0:0:
448,192,9238,1,0,0:0:0:0:
192,192,9399,1,0,0:0:0:0:
320,192,9561,1,0,0:0:0:0:
448,192,9722,1,0,0:0:0:0:
64,192,9722,1,0,0:0:0:0:
192,192,9883,1,0,0:0:0:0:
448,192,10044,1,0,0:0:0:0:
64,192,10206,1,0,0:0:0:0:
192,192,10367,1,0,0:0:0:0:
320,192,10528,1,0,0:0:0:0:
64,192,10690,1,0,0:0:0:0:
448,192,10690,1,0,0:0:0:0:
192,192,10851,1,0,0:0:0:0:
448,192,11012,1,0,0:0:0:0:
64,192,11174,1,0,0:0:0:0:
320,192,11335,1,0,0:0:0:0:
192,192,11496,1,0,0:0:0:0:
64,192,11657,1,0,0:0:0:0:
448,192,11657,1,0,0:0:0:0:
320,192,11819,1,0,0:0:0:0:
64,192,11980,1,0,0:0:0:0:
320,192,12141,1,0,0:0:0:0:
192,192,12222,1,0,0:0:0:0:
320,192,12303,1,0,0:0:0:0:
192,192,12464,1,0,0:0:0:0:
320,192,12625,1,0,0:0:0:0:
448,192,12625,1,0,0:0:0:0:
64,192,12786,1,0,0:0:0:0:
448,192,12948,1,0,0:0:0:0:
64,192,13109,1,0,0:0:0:0:
192,192,13270,1,0,0:0:0:0:
320,192,13432,1,0,0:0:0:0:
64,192,13593,1,0,0:0:0:0:
448,192,13593,1,0,0:0:0:0:
64,192,13754,1,0,0:0:0:0:
320,192,13915,1,0,0:0:0:0:
64,192,13915,1,0,0:0:0:0:
320,192,14077,1,0,0:0:0:0:
64,192,14238,1,0,0:0:0:0:
64,192,14399,1,0,0:0:0:0:
320,192,14399,1,0,0:0:0:0:
448,192,14561,1,0,0:0:0:0:
64,192,14561,1,0,0:0:0:0:
192,192,14641,1,0,0:0:0:0:
320,192,14722,1,0,0:0:0:0:
448,192,14803,1,0,0:0:0:0:
192,192,14883,128,0,15044:0:0:0:0:
320,192,15044,1,0,0:0:0:0:
192,192,15125,1,0,0:0:0:0:
448,192,15206,1,0,0:0:0:0:
192,192,15367,1,0,0:0:0:0:
64,192,15528,1,0,0:0:0:0:
320,192,15528,1,0,0:0:0:0:
448,192,15528,1,0,0:0:0:0:
448,192,15851,1,0,0:0:0:0:
192,192,16012,1,0,0:0:0:0:
448,192,16174,1,0,0:0:0:0:
192,192,16335,1,0,0:0:0:0:
320,192,16496,1,0,0:0:0:0:
320,192,16819,1,0,0:0:0:0:
64,192,16980,1,0,0:0:0:0:
320,192,17141,1,0,0:0:0:0:
64,192,17303,1,0,0:0:0:0:
192,192,17464,1,0,0:0:0:0:
192,192,17786,1,0,0:0:0:0:
320,192,17948,1,0,0:0:0:0:
192,192,18109,1,0,0:0:0:0:
320,192,18270,1,0,0:0:0:0:
64,192,18432,1,0,0:0:0:0:
192,192,18593,128,0,18754:0:0:0:0:
448,192,18754,128,0,18915:0:0:0:0:
64,192,18915,128,0,19077:0:0:0:0:
320,192,19077,128,0,19238:0:0:0:0:
192,192,19238,128,0,19399:0:0:0:0:
64,192,19399,1,0,0:0:0:0:
448,192,19399,1,0,0:0:0:0:
192,192,19480,1,0,0:0:0:0:
320,192,19561,1,0,0:0:0:0:
448,192,19641,1,0,0:0:0:0:
64,192,19722,1,0,0:0:0:0:
192,192,19803,1,0,0:0:0:0:
320,192,19883,1,0,0:0:0:0:
192,192,19964,1,0,0:0:0:0:
448,192,20044,1,0,0:0:0:0:
64,192,20125,1,0,0:0:0:0:
192,192,20206,1,0,0:0:0:0:
320,192,20286,1,0,0:0:0:0:
64,192,20367,1,0,0:0:0:0:
448,192,20367,1,0,0:0:0:0:
192,192,20448,1,0,0:0:0:0:
64,192,20528,1,0,0:0:0:0:
320,192,20609,1,0,0:0:0:0:
448,192,20690,1,0,0:0:0:0:
192,192,20770,1,0,0:0:0:0:
320,192,20851,1,0,0:0:0:0:
192,192,20932,1,0,0:0:0:0:
64,192,21012,1,0,0:0:0:0:
448,192,21093,1,0,0:0:0:0:
320,192,21174,1,0,0:0:0:0:
192,192,21254,1,0,0:0:0:0:
64,192,21335,1,0,0:0:0:0:
448,192,21335,1,0,0:0:0:0:
320,192,21415,1,0,0:0:0:0:
448,192,21496,1,0,0:0:0:0:
192,192,21577,1,0,0:0:0:0:
448,192,21657,1,0,0:0:0:0:
192,192,21738,1,0,0:0:0:0:
64,192,21819,1,0,0:0:0:0:
320,192,21819,1,0,0:0:0:0:
448,192,21899,1,0,0:0:0:0:
64,192,21980,1,0,0:0:0:0:
320,192,22061,1,0,0:0:0:0:
64,192,22141,1,0,0:0:0:0:
192,192,22222,1,0,0:0:0:0:
320,192,22303,1,0,0:0:0:0:
448,192,22303,1,0,0:0:0:0:
64,192,22383,1,0,0:0:0:0:
192,192,22464,1,0,0:0:0:0:
448,192,22544,1,0,0:0:0:0:
64,192,22625,1,0,0:0:0:0:
320,192,22625,1,0,0:0:0:0:
192,192,22706,1,0,0:0:0:0:
320,192,22786,1,0,0:0:0:0:
448,192,22867,1,0,0:0:0:0:
64,192,22948,1,0,0:0:0:0:
192,192,22948,128,0,23109:0:0:0:0:
320,192,23109,1,0,0:0:0:0:
64,192,23270,1,0,0:0:0:0:
448,192,23270,128,0,23593:0:0:0:0:
192,192,23754,1,0,0:0:0:0:
320,192,23915,1,0,0:0:0:0:
448,192,24077,1,0,0:0:0:0:
64,192,24238,128,0,24561:0:0:0:0:
320,192,24561,128,0,24883:0:0:0:0:
448,192,24883,128,0,25206:0:0:0:0:
192,192,25206,128,0,25528:0:0:0:0:
64,192,25690,1,0,0:0:0:0:
320,192,25851,1,0,0:0:0:0:
64,192,26012,1,0,0:0:0:0:
192,192,26174,128,0,26819:0:0:0:0:
320,192,27141,128,0,27464:0:0:0:0:
192,192,27625,1,0,0:0:0:0:
320,192,27786,1,0,0:0:0:0:
64,192,27948,1,0,0:0:0:0:
192,192,28109,128,0,28432:0:0:0:0:
320,192,28432,128,0,28754:0:0:0:0:
448,192,28754,128,0,29077:0:0:0:0:
64,192,29077,128,0,30690:0:0:0:0:
192,192,31335,1,0,0:0:0:0:
320,192,31496,1,0,0:0:0:0:
64,192,31657,1,0,0:0:0:0:
448,192,31819,1,0,0:0:0:0:
192,192,31980,1,0,0:0:0:0:
320,192,32464,1,0,0:0:0:0:
448,192,32625,1,0,0:0:0:0:
64,192,32948,1,0,0:0:0:0:
320,192,33593,1,0,0:0:0:0:
192,192,33915,1,0,0:0:0:0:
448,192,34238,1,0,0:0:0:0:
320,192,34561,1,0,0:0:0:0:
192,192,34722,1,0,0:0:0:0:
64,192,34883,1,0,0:0:0:0:
448,192,34883,1,0,0:0:0:0:
320,192,35044,1,0,0:0:0:0:
64,192,35206,1,0,0:0:0:0:
192,192,35367,1,0,0:0:0:0:
64,192,35528,1,0,0:0:0:0:
320,192,35690,1,0,0:0:0:0:
64,192,35851,1,0,0:0:0:0:
448,192,35851,1,0,0:0:0:0:
192,192,36012,1,0,0:0:0:0:
448,192,36174,1,0,0:0:0:0:
320,192,36335,1,0,0:0:0:0:
448,192,36496,1,0,0:0:0:0:
192,192,36657,1,0,0:0:0:0:
64,192,36819,1,0,0:0:0:0:
448,192,36819,1,0,0:0:0:0:
320,192,36980,1,0,0:0:0:0:
192,192,37061,1,0,0:0:0:0:
320,192,37141,1,0,0:0:0:0:
64,192,37303,1,0,0:0:0:0:
192,192,37303,1,0,0:0:0:0:
320,192,37383,1,0,0:0:0:0:
192,192,37464,1,0,0:0:0:0:
448,192,37625,1,0,0:0:0:0:
192,192,37706,1,0,0:0:0:0:
320,192,37786,1,0,0:0:0:0:
448,192,37786,1,0,0:0:0:0:
64,192,37948,1,0,0:0:0:0:
320,192,38028,1,0,0:0:0:0:
64,192,38109,1,0,0:0:0:0:
192,192,38109,1,0,0:0:0:0:
448,192,38270,1,0,0:0:0:0:
192,192,38351,1,0,0:0:0:0:
448,192,38432,1,0,0:0:0:0:
320,192,38432,1,0,0:0:0:0:
64,192,38512,1,0,0:0:0:0:
192,192,38593,1,0,0:0:0:0:
320,192,38674,1,0,0:0:0:0:
64,192,38754,1,0,0:0:0:0:
448,192,38754,1,0,0:0:0:0:
192,192,38915,1,0,0:0:0:0:
448,192,39077,1,0,0:0:0:0:
320,192,39157,1,0,0:0:0:0:
448,192,39238,1,0,0:0:0:0:
64,192,39399,1,0,0:0:0:0:
192,192,39399,1,0,0:0:0:0:
320,192,39561,1,0,0:0:0:0:
64,192,39722,1,0,0:0:0:0:
448,192,39883,1,0,0:0:0:0:
320,192,39883,1,0,0:0:0:0:
192,192,39964,1,0,0:0:0:0:
448,192,40044,1,0,0:0:0:0:
192,192,40206,1,0,0:0:0:0:
320,192,40286,1,0,0:0:0:0:
448,192,40367,1,0,0:0:0:0:
64,192,40367,1,0,0:0:0:0:
192,192,40528,1,0,0:0:0:0:
320,192,40609,1,0,0:0:0:0:
192,192,40690,1,0,0:0:0:0:
448,192,40851,1,0,0:0:0:0:
64,192,41012,1,0,0:0:0:0:
320,192,41093,1,0,0:0:0:0:
64,192,41174,1,0,0:0:0:0:
320,192,41335,1,0,0:0:0:0:
448,192,41335,1,0,0:0:0:0:
192,192,41496,1,0,0:0:0:0:
64,192,41657,1,0,0:0:0:0:
320,192,41819,1,0,0:0:0:0:
448,192,41819,1,0,0:0:0:0:
192,192,41899,1,0,0:0:0:0:
448,192,41980,1,0,0:0:0:0:
192,192,42141,1,0,0:0:0:0:
320,192,42222,1,0,0:0:0:0:
64,192,42303,1,0,0:0:0:0:
192,192,42303,1,0,0:0:0:0:
320,192,42464,1,0,0:0:0:0:
192,192,42544,1,0,0:0:0:0:
64,192,42625,1,0,0:0:0:0:
320,192,42786,1,0,0:0:0:0:
64,192,42948,1,0,0:0:0:0:
192,192,43028,1,0,0:0:0:0:
64,192,43109,1,0,0:0:0:0:
448,192,43270,1,0,0:0:0:0:
320,192,43270,1,0,0:0:0:0:
192,192,43432,1,0,0:0:0:0:
448,192,43593,1,0,0:0:0:0:
64,192,43593,1,0,0:0:0:0:
320,192,43754,1,0,0:0:0:0:
64,192,43915,1,0,0:0:0:0:
192,192,44077,1,0,0:0:0:0:
320,192,44077,1,0,0:0:0:0:
448,192,44238,1,0,0:0:0:0:
192,192,44399,1,0,0:0:0:0:
320,192,44561,1,0,0:0:0:0:
64,192,44561,1,0,0:0:0:0:
448,192,44722,1,0,0:0:0:0:
64,192,44883,1,0,0:0:0:0:
320,192,44964,1,0,0:0:0:0:
64,192,45044,1,0,0:0:0:0:
320,192,45206,1,0,0:0:0:0:
448,192,45206,1,0,0:0:0:0:
192,192,45367,1,0,0:0:0:0:
448,192,45528,1,0,0:0:0:0:
64,192,45609,1,0,0:0:0:0:
320,192,45690,1,0,0:0:0:0:
448,192,45690,1,0,0:0:0:0:
192,192,45770,1,0,0:0:0:0:
64,192,45851,1,0,0:0:0:0:
448,192,45932,1,0,0:0:0:0:
192,192,46012,1,0,0:0:0:0:
320,192,46093,1,0,0:0:0:0:
64,192,46174,1,0,0:0:0:0:
448,192,46174,1,0,0:0:0:0:
192,192,46254,1,0,0:0:0:0:
320,192,46335,1,0,0:0:0:0:
448,192,46415,1,0,0:0:0:0:
64,192,46496,1,0,0:0:0:0:
192,192,46496,1,0,0:0:0:0:
320,192,46657,1,0,0:0:0:0:
192,192,46819,1,0,0:0:0:0:
320,192,46899,1,0,0:0:0:0:
192,192,46980,1,0,0:0:0:0:
448,192,47141,1,0,0:0:0:0:
320,192,47141,1,0,0:0:0:0:
64,192,47303,1,0,0:0:0:0:
320,192,47383,1,0,0:0:0:0:
64,192,47464,1,0,0:0:0:0:
192,192,47625,1,0,0:0:0:0:
320,192,47706,1,0,0:0:0:0:
192,192,47786,1,0,0:0:0:0:
64,192,47948,1,0,0:0:0:0:
320,192,48028,1,0,0:0:0:0:
448,192,48109,1,0,0:0:0:0:
64,192,48109,1,0,0:0:0:0:
192,192,48270,1,0,0:0:0:0:
320,192,48351,1,0,0:0:0:0:
64,192,48432,1,0,0:0:0:0:
448,192,48593,1,0,0:0:0:0:
320,192,48754,1,0,0:0:0:0:
192,192,48835,1,0,0:0:0:0:
320,192,48915,1,0,0:0:0:0:
64,192,49077,1,0,0:0:0:0:
192,192,49077,1,0,0:0:0:0:
448,192,49238,1,0,0:0:0:0:
192,192,49319,1,0,0:0:0:0:
448,192,49399,1,0,0:0:0:0:
64,192,49561,1,0,0:0:0:0:
192,192,49561,1,0,0:0:0:0:
320,192,49641,1,0,0:0:0:0:
64,192,49722,1,0,0:0:0:0:
448,192,49883,1,0,0:0:0:0:
192,192,49964,1,0,0:0:0:0:
64,192,50044,1,0,0:0:0:0:
448,192,50044,1,0,0:0:0:0:
320,192,50206,1,0,0:0:0:0:
192,192,50286,1,0,0:0:0:0:
320,192,50367,1,0,0:0:0:0:
448,192,50528,1,0,0:0:0:0:
64,192,50690,1,0,0:0:0:0:
320,192,50770,1,0,0:0:0:0:
64,192,50851,1,0,0:0:0:0:
320,192,51012,1,0,0:0:0:0:
448,192,51012,1,0,0:0:0:0:
192,192,51174,1,0,0:0:0:0:
320,192,51254,1,0,0:0:0:0:
192,192,51335,1,0,0:0:0:0:
448,192,51496,1,0,0:0:0:0:
192,192,51577,1,0,0:0:0:0:
448,192,51657,1,0,0:0:0:0:
64,192,51819,1,0,0:0:0:0:
320,192,51899,1,0,0:0:0:0:
64,192,51980,1,0,0:0:0:0:
448,192,51980,1,0,0:0:0:0:
320,192,52141,1,0,0:0:0:0:
192,192,52222,1,0,0:0:0:0:
320,192,52303,1,0,0:0:0:0:
64,192,52464,1,0,0:0:0:0:
448,192,52625,1,0,0:0:0:0:
192,192,52706,1,0,0:0:0:0:
448,192,52786,1,0,0:0:0:0:
64,192,52948,1,0,0:0:0:0:
192,192,52948,1,0,0:0:0:0:
320,192,53109,1,0,0:0:0:0:
192,192,53190,1,0,0:0:0:0:
448,192,53270,1,0,0:0:0:0:
64,192,53432,1,0,0:0:0:0:
192,192,53432,1,0,0:0:0:0:
320,192,53512,1,0,0:0:0:0:
64,192,53593,1,0,0:0:0:0:
448,192,53754,1,0,0:0:0:0:
192,192,53835,1,0,0:0:0:0:
320,192,53915,1,0,0:0:0:0:
448,192,53915,1,0,0:0:0:0:
64,192,54077,1,0,0:0:0:0:
320,192,54157,1,0,0:0:0:0:
64,192,54238,1,0,0:0:0:0:
448,192,54238,1,0,0:0:0:0:
64,192,55206,128,0,55528:0:0:0:0:
192,192,55528,128,0,55851:0:0:0:0:
320,192,55851,128,0,56174:0:0:0:0:
64,192,56174,1,0,0:0:0:0:
448,192,56174,1,0,0:0:0:0:
192,192,56335,1,0,0:0:0:0:
64,192,56415,1,0,0:0:0:0:
320,192,56496,1,0,0:0:0:0:
64,192,56657,1,0,0:0:0:0:
192,192,56819,1,0,0:0:0:0:
448,192,56819,1,0,0:0:0:0:
320,192,56980,1,0,0:0:0:0:
64,192,57141,1,0,0:0:0:0:
448,192,57303,1,0,0:0:0:0:
192,192,57383,1,0,0:0:0:0:
320,192,57464,1,0,0:0:0:0:
64,192,57625,1,0,0:0:0:0:
320,192,57786,1,0,0:0:0:0:
448,192,57786,1,0,0:0:0:0:
192,192,57948,1,0,0:0:0:0:
64,192,58109,1,0,0:0:0:0:
448,192,58270,1,0,0:0:0:0:
320,192,58351,1,0,0:0:0:0:
64,192,58432,1,0,0:0:0:0:
192,192,58593,1,0,0:0:0:0:
64,192,58754,1,0,0:0:0:0:
320,192,58754,1,0,0:0:0:0:
448,192,58915,1,0,0:0:0:0:
192,192,59077,1,0,0:0:0:0:
64,192,59077,128,0,59157:0:0:0:0:
64,192,59238,1,0,0:0:0:0:
320,192,59238,128,0,59319:0:0:0:0:
448,192,59399,128,0,59480:0:0:0:0:
192,192,59561,1,0,0:0:0:0:
64,192,59561,128,0,59641:0:0:0:0:
64,192,59722,1,0,0:0:0:0:
320,192,59722,128,0,59803:0:0:0:0:
192,192,59883,128,0,59964:0:0:0:0:
64,192,60044,1,0,0:0:0:0:
448,192,60044,1,0,0:0:0:0:
320,192,60125,1,0,0:0:0:0:
448,192,60206,1,0,0:0:0:0:
64,192,60367,1,0,0:0:0:0:
320,192,60528,1,0,0:0:0:0:
192,192,60690,1,0,0:0:0:0:
448,192,60690,1,0,0:0:0:0:
64,192,60851,1,0,0:0:0:0:
320,192,60932,1,0,0:0:0:0:
192,192,61012,1,0,0:0:0:0:
320,192,61174,1,0,0:0:0:0:
448,192,61335,1,0,0:0:0:0:
192,192,61496,1,0,0:0:0:0:
320,192,61657,1,0,0:0:0:0:
64,192,61657,1,0,0:0:0:0:
448,192,61819,1,0,0:0:0:0:
192,192,61980,1,0,0:0:0:0:
320,192,62141,1,0,0:0:0:0:
64,192,62303,1,0,0:0:0:0:
448,192,62464,1,0,0:0:0:0:
320,192,62625,1,0,0:0:0:0:
192,192,62625,1,0,0:0:0:0:
64,192,62786,1,0,0:0:0:0:
320,192,62948,1,0,0:0:0:0:
448,192,62948,1,0,0:0:0:0:
192,192,63109,1,0,0:0:0:0:
320,192,63190,1,0,0:0:0:0:
448,192,63190,1,0,0:0:0:0:
64,192,63270,1,0,0:0:0:0:
448,192,63432,1,0,0:0:0:0:
320,192,63432,1,0,0:0:0:0:
192,192,63512,1,0,0:0:0:0:
448,192,63593,1,0,0:0:0:0:
64,192,63593,1,0,0:0:0:0:
320,192,63754,1,0,0:0:0:0:
448,192,63915,1,0,0:0:0:0:
64,192,63915,1,0,0:0:0:0:
192,192,63996,1,0,0:0:0:0:
64,192,64077,1,0,0:0:0:0:
320,192,64157,1,0,0:0:0:0:
448,192,64238,1,0,0:0:0:0:
192,192,64399,1,0,0:0:0:0:
448,192,64480,1,0,0:0:0:0:
64,192,64561,1,0,0:0:0:0:
320,192,64641,1,0,0:0:0:0:
192,192,64722,1,0,0:0:0:0:
448,192,64803,1,0,0:0:0:0:
64,192,64883,1,0,0:0:0:0:
320,192,64883,1,0,0:0:0:0:
192,192,64964,1,0,0:0:0:0:
64,192,65044,1,0,0:0:0:0:
320,192,65125,1,0,0:0:0:0:
448,192,65206,128,0,65367:0:0:0:0:
64,192,65367,1,0,0:0:0:0:
320,192,65448,1,0,0:0:0:0:
192,192,65528,1,0,0:0:0:0:
448,192,65528,1,0,0:0:0:0:
64,192,65609,1,0,0:0:0:0:
320,192,65690,1,0,0:0:0:0:
448,192,65770,1,0,0:0:0:0:
64,192,65851,1,0,0:0:0:0:
320,192,65932,1,0,0:0:0:0:
192,192,66012,1,0,0:0:0:0:
448,192,66093,1,0,0:0:0:0:
64,192,66174,1,0,0:0:0:0:
320,192,66174,1,0,0:0:0:0:
192,192,66254,1,0,0:0:0:0:
320,192,66335,1,0,0:0:0:0:
448,192,66415,1,0,0:0:0:0:
192,192,66496,1,0,0:0:0:0:
64,192,66577,1,0,0:0:0:0:
320,192,66657,1,0,0:0:0:0:
448,192,66738,1,0,0:0:0:0:
64,192,66819,1,0,0:0:0:0:
192,192,66819,128,0,66980:0:0:0:0:
320,192,66980,1,0,0:0:0:0:
192,192,67061,1,0,0:0:0:0:
320,192,67141,1,0,0:0:0:0:
64,192,67303,1,0,0:0:0:0:
192,192,67464,1,0,0:0:0:0:
448,192,67544,1,0,0:0:0:0:
192,192,67625,1,0,0:0:0:0:
320,192,67706,1,0,0:0:0:0:
64,192,67786,1,0,0:0:0:0:
448,192,67786,128,0,68109:0:0:0:0:
192,192,68109,1,0,0:0:0:0:
192,192,68432,128,0,68593:0:0:0:0:
320,192,68593,128,0,68754:0:0:0:0:
64,192,68754,128,0,69077:0:0:0:0:
192,192,69077,128,0,69399:0:0:0:0:
320,192,69399,128,0,69722:0:0:0:0:
448,192,69722,1,0,0:0:0:0:
192,192,69803,1,0,0:0:0:0:
448,192,69883,1,0,0:0:0:0:
192,192,69964,1,0,0:0:0:0:
320,192,70044,128,0,70367:0:0:0:0:
64,192,70367,1,0,0:0:0:0:
448,192,70448,128,0,70690:0:0:0:0:
192,192,70690,128,0,71012:0:0:0:0:
320,192,71012,1,0,0:0:0:0:
448,192,71093,1,0,0:0:0:0:
64,192,71174,1,0,0:0:0:0:
320,192,71335,1,0,0:0:0:0:
448,192,71335,1,0,0:0:0:0:
64,192,71415,1,0,0:0:0:0:
192,192,71496,1,0,0:0:0:0:
320,192,71577,1,0,0:0:0:0:
64,192,71657,1,0,0:0:0:0:
448,192,71657,1,0,0:0:0:0:
192,192,71819,1,0,0:0:0:0:
320,192,71899,1,0,0:0:0:0:
64,192,71980,1,0,0:0:0:0:
192,192,71980,1,0,0:0:0:0:
320,192,72141,1,0,0:0:0:0:
192,192,72222,1,0,0:0:0:0:
320,192,72303,1,0,0:0:0:0:
448,192,72303,1,0,0:0:0:0:
192,192,72464,1,0,0:0:0:0:
320,192,72544,1,0,0:0:0:0:
64,192,72625,1,0,0:0:0:0:
448,192,72625,1,0,0:0:0:0:
64,192,72948,1,0,0:0:0:0:
448,192,72948,1,0,0:0:0:0:
64,192,73270,1,0,0:0:0:0:
448,192,73270,1,0,0:0:0:0:
448,192,73593,1,0,0:0:0:0:
320,192,73593,1,0,0:0:0:0:
64,192,73593,1,0,0:0:0:0:
192,192,73754,1,0,0:0:0:0:
448,192,73915,1,0,0:0:0:0:
320,192,74077,1,0,0:0:0:0:
192,192,74077,1,0,0:0:0:0:
64,192,74238,1,0,0:0:0:0:
320,192,74399,1,0,0:0:0:0:
448,192,74561,1,0,0:0:0:0:
192,192,74561,1,0,0:0:0:0:
64,192,74722,1,0,0:0:0:0:
320,192,74803,1,0,0:0:0:0:
192,192,74883,1,0,0:0:0:0:
64,192,74883,1,0,0:0:0:0:
448,192,75044,1,0,0:0:0:0:
192,192,75125,1,0,0:0:0:0:
448,192,75206,1,0,0:0:0:0:
320,192,75206,1,0,0:0:0:0:
64,192,75286,1,0,0:0:0:0:
192,192,75367,1,0,0:0:0:0:
320,192,75448,1,0,0:0:0:0:
448,192,75528,1,0,0:0:0:0:
64,192,75528,1,0,0:0:0:0:
192,192,75690,1,0,0:0:0:0:
448,192,75770,1,0,0:0:0:0:
192,192,75851,1,0,0:0:0:0:
448,192,75932,1,0,0:0:0:0:
192,192,76012,1,0,0:0:0:0:
448,192,76093,1,0,0:0:0:0:
64,192,76174,1,0,0:0:0:0:
192,192,76254,1,0,0:0:0:0:
320,192,76335,1,0,0:0:0:0:
192,192,76415,1,0,0:0:0:0:
448,192,76496,1,0,0:0:0:0:
320,192,76577,1,0,0:0:0:0:
64,192,76657,1,0,0:0:0:0:
320,192,76738,1,0,0:0:0:0:
192,192,76819,1,0,0:0:0:0:
448,192,76899,1,0,0:0:0:0:
320,192,76980,1,0,0:0:0:0:
64,192,77061,1,0,0:0:0:0:
448,192,77141,1,0,0:0:0:0:
192,192,77222,1,0,0:0:0:0:
320,192,77303,1,0,0:0:0:0:
192,192,77383,1,0,0:0:0:0:
64,192,77464,1,0,0:0:0:0:
320,192,77625,1,0,0:0:0:0:
64,192,77706,1,0,0:0:0:0:
320,192,77786,1,0,0:0:0:0:
64,192,77867,1,0,0:0:0:0:
320,192,77948,1,0,0:0:0:0:
64,192,78028,1,0,0:0:0:0:
448,192,78109,1,0,0:0:0:0:
320,192,78190,1,0,0:0:0:0:
192,192,78270,1,0,0:0:0:0:
320,192,78351,1,0,0:0:0:0:
64,192,78432,1,0,0:0:0:0:
192,192,78512,1,0,0:0:0:0:
448,192,78593,1,0,0:0:0:0:
192,192,78674,1,0,0:0:0:0:
320,192,78754,1,0,0:0:0:0:
64,192,78835,1,0,0:0:0:0:
192,192,78915,1,0,0:0:0:0:
448,192,78996,1,0,0:0:0:0:
64,192,79077,1,0,0:0:0:0:
320,192,79157,1,0,0:0:0:0:
192,192,79238,1,0,0:0:0:0:
320,192,79319,1,0,0:0:0:0:
448,192,79399,1,0,0:0:0:0:
320,192,79561,1,0,0:0:0:0:
448,192,79641,1,0,0:0:0:0:
192,192,79722,1,0,0:0:0:0:
320,192,79883,1,0,0:0:0:0:
448,192,79964,1,0,0:0:0:0:
64,192,80044,1,0,0:0:0:0:
320,192,80206,1,0,0:0:0:0:
192,192,80367,128,0,80528:0:0:0:0:
320,192,80528,128,0,80690:0:0:0:0:
64,192,80690,128,0,80851:0:0:0:0:
192,192,80851,128,0,81012:0:0:0:0:
320,192,81012,128,0,81174:0:0:0:0:
448,192,81174,128,0,81335:0:0:0:0:
64,192,81335,128,0,82303:0:0:0:0:
320,192,81496,1,0,0:0:0:0:
448,192,81657,1,0,0:0:0:0:
192,192,81819,1,0,0:0:0:0:
448,192,81980,1,0,0:0:0:0:
320,192,82141,1,0,0:0:0:0:
192,192,82464,1,0,0:0:0:0:
448,192,82544,1,0,0:0:0:0:
320,192,82625,1,0,0:0:0:0:
192,192,82706,1,0,0:0:0:0:
64,192,82786,1,0,0:0:0:0:
320,192,82867,1,0,0:0:0:0:
192,192,82948,1,0,0:0:0:0:
448,192,83028,1,0,0:0:0:0:
320,192,83109,1,0,0:0:0:0:
192,192,83190,1,0,0:0:0:0:
64,192,83270,1,0,0:0:0:0:
448,192,83270,1,0,0:0:0:0:
320,192,83351,1,0,0:0:0:0:
64,192,83432,1,0,0:0:0:0:
320,192,83512,1,0,0:0:0:0:
192,192,83593,1,0,0:0:0:0:
448,192,83674,1,0,0:0:0:0:
64,192,83754,1,0,0:0:0:0:
192,192,83835,1,0,0:0:0:0:
448,192,83915,1,0,0:0:0:0:
192,192,83996,1,0,0:0:0:0:
320,192,84077,1,0,0:0:0:0:
64,192,84157,1,0,0:0:0:0:
448,192,84238,1,0,0:0:0:0:
320,192,84319,1,0,0:0:0:0:
192,192,84399,1,0,0:0:0:0:
64,192,84480,1,0,0:0:0:0:
320,192,84561,1,0,0:0:0:0:
192,192,84641,1,0,0:0:0:0:
320,192,84722,1,0,0:0:0:0:
448,192,84803,1,0,0:0:0:0:
64,192,84883,1,0,0:0:0:0:
192,192,84964,1,0,0:0:0:0:
320,192,85044,1,0,0:0:0:0:
448,192,85125,1,0,0:0:0:0:
64,192,85206,1,0,0:0:0:0:
192,192,85286,1,0,0:0:0:0:
448,192,85367,1,0,0:0:0:0:
192,192,85448,1,0,0:0:0:0:
320,192,85528,1,0,0:0:0:0:
64,192,85609,1,0,0:0:0:0:
448,192,85690,1,0,0:0:0:0:
320,192,85770,1,0,0:0:0:0:
64,192,85851,1,0,0:0:0:0:
320,192,85932,1,0,0:0:0:0:
192,192,86012,1,0,0:0:0:0:
448,192,86093,1,0,0:0:0:0:
64,192,86174,1,0,0:0:0:0:
192,192,86254,1,0,0:0:0:0:
320,192,86335,1,0,0:0:0:0:
448,192,86415,1,0,0:0:0:0:
192,192,86496,1,0,0:0:0:0:
320,192,86577,1,0,0:0:0:0:
192,192,86657,1,0,0:0:0:0:
64,192,86738,1,0,0:0:0:0:
448,192,86819,1,0,0:0:0:0:
320,192,86899,1,0,0:0:0:0:
192,192,86980,1,0,0:0:0:0:
64,192,87061,1,0,0:0:0:0:
448,192,87141,128,0,87786:0:0:0:0:
192,192,87303,1,0,0:0:0:0:
320,192,87464,1,0,0:0:0:0:
192,192,87625,1,0,0:0:0:0:
64,192,87786,1,0,0:0:0:0:
320,192,87948,1,0,0:0:0:0:
448,192,88028,1,0,0:0:0:0:
192,192,88109,1,0,0:0:0:0:
64,192,88190,1,0,0:0:0:0:
320,192,88270,1,0,0:0:0:0:
192,192,88351,1,0,0:0:0:0:
448,192,88432,1,0,0:0:0:0:
64,192,88512,1,0,0:0:0:0:
320,192,88593,1,0,0:0:0:0:
192,192,88674,1,0,0:0:0:0:
64,192,88754,1,0,0:0:0:0:
448,192,88835,1,0,0:0:0:0:
192,192,88915,1,0,0:0:0:0:
320,192,88996,1,0,0:0:0:0:
64,192,89077,1,0,0:0:0:0:
448,192,89157,1,0,0:0:0:0:
192,192,89238,1,0,0:0:0:0:
320,192,89319,1,0,0:0:0:0:
64,192,89399,1,0,0:0:0:0:
448,192,89480,1,0,0:0:0:0:
192,192,89561,1,0,0:0:0:0:
320,192,89641,1,0,0:0:0:0:
448,192,89722,1,0,0:0:0:0:
64,192,89803,1,0,0:0:0:0:
192,192,89883,1,0,0:0:0:0:
320,192,89964,1,0,0:0:0:0:
448,192,90044,1,0,0:0:0:0:
320,192,90125,1,0,0:0:0:0:
448,192,90206,1,0,0:0:0:0:
320,192,90286,1,0,0:0:0:0:
448,192,90367,1,0,0:0:0:0:
192,192,90448,1,0,0:0:0:0:
320,192,90528,1,0,0:0:0:0:
64,192,90609,1,0,0:0:0:0:
448,192,90690,1,0,0:0:0:0:
192,192,90770,1,0,0:0:0:0:
320,192,90851,1,0,0:0:0:0:
192,192,90932,1,0,0:0:0:0:
64,192,91012,1,0,0:0:0:0:
448,192,91012,1,0,0:0:0:0:
320,192,91174,1,0,0:0:0:0:
192,192,91254,1,0,0:0:0:0:
320,192,91335,1,0,0:0:0:0:
64,192,91415,1,0,0:0:0:0:
192,192,91496,1,0,0:0:0:0:
320,192,91577,1,0,0:0:0:0:
448,192,91657,1,0,0:0:0:0:
192,192,91738,1,0,0:0:0:0:
64,192,91819,1,0,0:0:0:0:
320,192,91899,1,0,0:0:0:0:
448,192,91980,1,0,0:0:0:0:
192,192,92061,1,0,0:0:0:0:
448,192,92141,1,0,0:0:0:0:
320,192,92303,1,0,0:0:0:0:
192,192,92383,1,0,0:0:0:0:
320,192,92464,1,0,0:0:0:0:
448,192,92625,1,0,0:0:0:0:
192,192,92706,1,0,0:0:0:0:
448,192,92786,1,0,0:0:0:0:
64,192,92948,1,0,0:0:0:0:
320,192,93109,1,0,0:0:0:0:
192,192,93190,1,0,0:0:0:0:
320,192,93270,1,0,0:0:0:0:
192,192,93351,1,0,0:0:0:0:
320,192,93432,1,0,0:0:0:0:
192,192,93512,1,0,0:0:0:0:
448,192,93593,1,0,0:0:0:0:
64,192,93674,1,0,0:0:0:0:
448,192,93754,1,0,0:0:0:0:
64,192,93835,1,0,0:0:0:0:
320,192,93915,1,0,0:0:0:0:
192,192,93996,1,0,0:0:0:0:
64,192,94077,1,0,0:0:0:0:
448,192,94157,1,0,0:0:0:0:
192,192,94238,1,0,0:0:0:0:
320,192,94319,1,0,0:0:0:0:
64,192,94399,1,0,0:0:0:0:
448,192,94480,1,0,0:0:0:0:
192,192,94561,128,0,94722:0:0:0:0:
320,192,94722,128,0,94883:0:0:0:0:
64,192,94883,1,0,0:0:0:0:
448,192,95044,1,0,0:0:0:0:
192,192,95125,1,0,0:0:0:0:
448,192,95206,1,0,0:0:0:0:
64,192,95367,1,0,0:0:0:0:
320,192,95448,1,0,0:0:0:0:
64,192,95528,1,0,0:0:0:0:
192,192,95528,1,0,0:0:0:0:
448,192,95609,1,0,0:0:0:0:
320,192,95690,1,0,0:0:0:0:
64,192,95770,1,0,0:0:0:0:
192,192,95851,1,0,0:0:0:0:
320,192,95932,1,0,0:0:0:0:
192,192,96012,1,0,0:0:0:0:
64,192,96093,1,0,0:0:0:0:
448,192,96174,1,0,0:0:0:0:
320,192,96254,1,0,0:0:0:0:
64,192,96335,1,0,0:0:0:0:
448,192,96415,1,0,0:0:0:0:
320,192,96496,1,0,0:0:0:0:
192,192,96496,1,0,0:0:0:0:
64,192,96577,1,0,0:0:0:0:
320,192,96657,1,0,0:0:0:0:
448,192,96738,1,0,0:0:0:0:
192,192,96819,1,0,0:0:0:0:
64,192,96980,1,0,0:0:0:0:
320,192,97061,1,0,0:0:0:0:
64,192,97141,1,0,0:0:0:0:
448,192,97303,1,0,0:0:0:0:
64,192,97464,1,0,0:0:0:0:
192,192,97464,1,0,0:0:0:0:
448,192,97625,1,0,0:0:0:0:
192,192,97706,1,0,0:0:0:0:
64,192,97786,1,0,0:0:0:0:
448,192,97786,1,0,0:0:0:0:
320,192,97867,1,0,0:0:0:0:
192,192,97948,1,0,0:0:0:0:
64,192,98028,1,0,0:0:0:0:
320,192,98109,1,0,0:0:0:0:
448,192,98109,1,0,0:0:0:0:
192,192,98190,1,0,0:0:0:0:
64,192,98270,1,0,0:0:0:0:
320,192,98351,1,0,0:0:0:0:
192,192,98432,1,0,0:0:0:0:
448,192,98432,1,0,0:0:0:0:
64,192,98512,1,0,0:0:0:0:
320,192,98593,1,0,0:0:0:0:
448,192,98674,1,0,0:0:0:0:
64,192,98754,1,0,0:0:0:0:
192,192,98754,1,0,0:0:0:0:
320,192,98835,1,0,0:0:0:0:
64,192,98915,1,0,0:0:0:0:
448,192,98996,1,0,0:0:0:0:
192,192,99077,1,0,0:0:0:0:
448,192,99238,1,0,0:0:0:0:
192,192,99399,1,0,0:0:0:0:
320,192,99480,1,0,0:0:0:0:
64,192,99561,1,0,0:0:0:0:
448,192,99641,1,0,0:0:0:0:
64,192,99722,1,0,0:0:0:0:
192,192,99803,1,0,0:0:0:0:
320,192,99883,1,0,0:0:0:0:
448,192,99964,1,0,0:0:0:0:
64,192,100044,1,0,0:0:0:0:
320,192,100125,1,0,0:0:0:0:
192,192,100206,1,0,0:0:0:0:
448,192,100286,1,0,0:0:0:0:
64,192,100367,1,0,0:0:0:0:
192,192,100448,1,0,0:0:0:0:
320,192,100528,1,0,0:0:0:0:
64,192,100609,1,0,0:0:0:0:
448,192,100690,1,0,0:0:0:0:
320,192,100690,1,0,0:0:0:0:
192,192,100770,1,0,0:0:0:0:
448,192,100851,1,0,0:0:0:0:
64,192,100932,1,0,0:0:0:0:
320,192,101012,1,0,0:0:0:0:
64,192,101174,1,0,0:0:0:0:
320,192,101335,1,0,0:0:0:0:
192,192,101415,1,0,0:0:0:0:
448,192,101496,1,0,0:0:0:0:
64,192,101577,1,0,0:0:0:0:
448,192,101657,1,0,0:0:0:0:
192,192,101738,1,0,0:0:0:0:
320,192,101819,1,0,0:0:0:0:
192,192,101899,1,0,0:0:0:0:
448,192,101980,1,0,0:0:0:0:
64,192,102061,1,0,0:0:0:0:
320,192,102141,1,0,0:0:0:0:
64,192,102222,1,0,0:0:0:0:
448,192,102303,1,0,0:0:0:0:
192,192,102383,1,0,0:0:0:0:
320,192,102464,1,0,0:0:0:0:
192,192,102544,1,0,0:0:0:0:
64,192,102625,1,0,0:0:0:0:
448,192,102625,1,0,0:0:0:0:
320,192,102786,1,0,0:0:0:0:
192,192,102867,1,0,0:0:0:0:
320,192,102948,1,0,0:0:0:0:
448,192,103109,1,0,0:0:0:0:
320,192,103270,1,0,0:0:0:0:
64,192,103351,1,0,0:0:0:0:
320,192,103432,1,0,0:0:0:0:
192,192,103512,1,0,0:0:0:0:
448,192,103593,1,0,0:0:0:0:
64,192,103593,1,0,0:0:0:0:
192,192,103754,1,0,0:0:0:0:
320,192,103835,1,0,0:0:0:0:
192,192,103915,1,0,0:0:0:0:
64,192,104077,1,0,0:0:0:0:
192,192,104238,1,0,0:0:0:0:
448,192,104319,1,0,0:0:0:0:
192,192,104399,1,0,0:0:0:0:
320,192,104480,1,0,0:0:0:0:
64,192,104561,1,0,0:0:0:0:
448,192,104561,1,0,0:0:0:0:
192,192,104641,1,0,0:0:0:0:
320,192,104722,1,0,0:0:0:0:
64,192,104803,1,0,0:0:0:0:
448,192,104883,1,0,0:0:0:0:
192,192,104964,1,0,0:0:0:0:
64,192,105044,1,0,0:0:0:0:
320,192,105044,1,0,0:0:0:0:
448,192,105125,1,0,0:0:0:0:
192,192,105206,1,0,0:0:0:0:
320,192,105286,1,0,0:0:0:0:
64,192,105367,1,0,0:0:0:0:
192,192,105448,1,0,0:0:0:0:
320,192,105528,1,0,0:0:0:0:
448,192,105528,1,0,0:0:0:0:
64,192,105609,1,0,0:0:0:0:
448,192,105690,1,0,0:0:0:0:
64,192,105770,1,0,0:0:0:0:
448,192,105851,1,0,0:0:0:0:
64,192,105932,1,0,0:0:0:0:
320,192,106012,1,0,0:0:0:0:
192,192,106093,1,0,0:0:0:0:
320,192,106174,1,0,0:0:0:0:
192,192,106254,1,0,0:0:0:0:
320,192,106335,1,0,0:0:0:0:
192,192,106415,1,0,0:0:0:0:
448,192,106496,1,0,0:0:0:0:
64,192,106496,1,0,0:0:0:0:
192,192,106980,1,0,0:0:0:0:
320,192,107061,1,0,0:0:0:0:
192,192,107141,1,0,0:0:0:0:
320,192,107303,1,0,0:0:0:0:
448,192,107464,1,0,0:0:0:0:
64,192,107786,1,0,0:0:0:0:
448,192,108109,1,0,0:0:0:0:
192,192,108432,1,0,0:0:0:0:
192,192,108915,1,0,0:0:0:0:
320,192,108996,1,0,0:0:0:0:
192,192,109077,1,0,0:0:0:0:
448,192,109238,1,0,0:0:0:0:
64,192,109399,1,0,0:0:0:0:
320,192,109561,1,0,0:0:0:0:
192,192,109722,1,0,0:0:0:0:
448,192,109883,1,0,0:0:0:0:
192,192,110044,1,0,0:0:0:0:
320,192,110206,1,0,0:0:0:0:
64,192,110367,1,0,0:0:0:0:
448,192,110528,1,0,0:0:0:0:
320,192,110690,1,0,0:0:0:0:
192,192,110851,1,0,0:0:0:0:
64,192,111174,1,0,0:0:0:0:
320,192,111335,1,0,0:0:0:0:
192,192,111657,1,0,0:0:0:0:
64,192,112141,1,0,0:0:0:0:
320,192,112222,1,0,0:0:0:0:
192,192,112303,1,0,0:0:0:0:
448,192,112464,1,0,0:0:0:0:
64,192,112625,1,0,0:0:0:0:
320,192,112786,1,0,0:0:0:0:
64,192,113109,1,0,0:0:0:0:
448,192,113270,1,0,0:0:0:0:
192,192,113593,1,0,0:0:0:0:
448,192,114238,1,0,0:0:0:0:
192,192,114238,1,0,0:0:0:0:
64,192,114238,1,0,0:0:0:0:
64,192,114561,1,0,0:0:0:0:
192,192,114561,1,0,0:0:0:0:
64,192,114883,1,0,0:0:0:0:
192,192,114883,1,0,0:0:0:0:
320,192,114991,1,0,0:0:0:0:
448,192,114991,1,0,0:0:0:0:
64,192,115098,1,0,0:0:0:0:
192,192,115098,1,0,0:0:0:0:
448,192,115206,1,0,0:0:0:0:
320,192,115206,1,0,0:0:0:0:
320,192,115528,1,0,0:0:0:0:
448,192,115528,1,0,0:0:0:0:
320,192,115690,1,0,0:0:0:0:
448,192,115690,1,0,0:0:0:0:
192,192,115851,1,0,0:0:0:0:
64,192,115851,1,0,0:0:0:0:
448,192,115958,1,0,0:0:0:0:
192,192,116066,1,0,0:0:0:0:
448,192,116174,1,0,0:0:0:0:
64,192,116174,1,0,0:0:0:0:
448,192,116496,1,0,0:0:0:0:
64,192,116496,1,0,0:0:0:0:
64,192,116819,1,0,0:0:0:0:
448,192,116819,1,0,0:0:0:0:
192,192,116926,1,0,0:0:0:0:
320,192,116926,1,0,0:0:0:0:
64,192,117034,1,0,0:0:0:0:
448,192,117034,1,0,0:0:0:0:
192,192,117141,1,0,0:0:0:0:
320,192,117141,1,0,0:0:0:0:
192,192,117464,1,0,0:0:0:0:
320,192,117464,1,0,0:0:0:0:
192,192,117625,1,0,0:0:0:0:
320,192,117625,1,0,0:0:0:0:
64,192,117786,1,0,0:0:0:0:
448,192,117786,1,0,0:0:0:0:
320,192,117894,1,0,0:0:0:0:
64,192,118001,1,0,0:0:0:0:
448,192,118109,1,0,0:0:0:0:
320,192,118109,1,0,0:0:0:0:
192,192,118109,1,0,0:0:0:0:
192,192,118432,1,0,0:0:0:0:
448,192,118432,1,0,0:0:0:0:
192,192,118754,1,0,0:0:0:0:
448,192,118754,1,0,0:0:0:0:
64,192,118862,1,0,0:0:0:0:
320,192,118862,1,0,0:0:0:0:
192,192,118969,1,0,0:0:0:0:
448,192,118969,1,0,0:0:0:0:
320,192,119077,1,0,0:0:0:0:
64,192,119077,1,0,0:0:0:0:
64,192,119399,1,0,0:0:0:0:
320,192,119399,1,0,0:0:0:0:
64,192,119561,1,0,0:0:0:0:
320,192,119561,1,0,0:0:0:0:
192,192,119722,1,0,0:0:0:0:
448,192,119722,1,0,0:0:0:0:
64,192,120044,1,0,0:0:0:0:
448,192,120044,1,0,0:0:0:0:
320,192,120044,1,0,0:0:0:0:
448,192,120206,1,0,0:0:0:0:
320,192,120206,1,0,0:0:0:0:
448,192,120367,1,0,0:0:0:0:
192,192,120367,1,0,0:0:0:0:
448,192,120690,1,0,0:0:0:0:
320,192,120690,1,0,0:0:0:0:
192,192,120797,1,0,0:0:0:0:
64,192,120797,1,0,0:0:0:0:
320,192,120905,1,0,0:0:0:0:
448,192,120905,1,0,0:0:0:0:
192,192,121012,1,0,0:0:0:0:
64,192,121012,1,0,0:0:0:0:
64,192,121120,1,0,0:0:0:0:
448,192,121227,1,0,0:0:0:0:
192,192,121335,1,0,0:0:0:0:
192,192,121442,1,0,0:0:0:0:
448,192,121550,1,0,0:0:0:0:
320,192,121657,1,0,0:0:0:0:
320,192,121765,1,0,0:0:0:0:
192,192,121872,1,0,0:0:0:0:
448,192,121980,1,0,0:0:0:0:
64,192,121980,1,0,0:0:0:0:
320,192,121980,1,0,0:0:0:0:
448,192,122303,1,0,0:0:0:0:
192,192,122464,1,0,0:0:0:0:
448,192,122625,1,0,0:0:0:0:
192,192,122786,1,0,0:0:0:0:
320,192,122948,1,0,0:0:0:0:
320,192,123270,1,0,0:0:0:0:
64,192,123432,1,0,0:0:0:0:
320,192,123593,1,0,0:0:0:0:
64,192,123754,1,0,0:0:0:0:
192,192,123915,1,0,0:0:0:0:
192,192,124238,1,0,0:0:0:0:
320,192,124399,1,0,0:0:0:0:
192,192,124561,1,0,0:0:0:0:
320,192,124722,1,0,0:0:0:0:
64,192,124883,1,0,0:0:0:0:
192,192,125044,128,0,125206:0:0:0:0:
448,192,125206,128,0,125367:0:0:0:0:
64,192,125367,128,0,125528:0:0:0:0:
320,192,125528,128,0,125690:0:0:0:0:
192,192,125690,128,0,125851:0:0:0:0:
448,192,125851,1,0,0:0:0:0:
64,192,125851,1,0,0:0:0:0:
192,192,125932,1,0,0:0:0:0:
320,192,126012,1,0,0:0:0:0:
448,192,126093,1,0,0:0:0:0:
64,192,126174,1,0,0:0:0:0:
192,192,126254,1,0,0:0:0:0:
320,192,126335,1,0,0:0:0:0:
192,192,126415,1,0,0:0:0:0:
448,192,126496,1,0,0:0:0:0:
64,192,126577,1,0,0:0:0:0:
192,192,126657,1,0,0:0:0:0:
320,192,126738,1,0,0:0:0:0:
448,192,126819,1,0,0:0:0:0:
64,192,126819,1,0,0:0:0:0:
192,192,126899,1,0,0:0:0:0:
64,192,126980,1,0,0:0:0:0:
320,192,127061,1,0,0:0:0:0:
448,192,127141,1,0,0:0:0:0:
192,192,127222,1,0,0:0:0:0:
320,192,127303,1,0,0:0:0:0:
192,192,127383,1,0,0:0:0:0:
64,192,127464,1,0,0:0:0:0:
448,192,127544,1,0,0:0:0:0:
320,192,127625,1,0,0:0:0:0:
192,192,127706,1,0,0:0:0:0:
448,192,127786,1,0,0:0:0:0:
64,192,127786,1,0,0:0:0:0:
320,192,127867,1,0,0:0:0:0:
448,192,127948,1,0,0:0:0:0:
192,192,128028,1,0,0:0:0:0:
448,192,128109,1,0,0:0:0:0:
192,192,128190,1,0,0:0:0:0:
320,192,128270,1,0,0:0:0:0:
64,192,128270,1,0,0:0:0:0:
448,192,128351,1,0,0:0:0:0:
64,192,128432,1,0,0:0:0:0:
320,192,128512,1,0,0:0:0:0:
64,192,128593,1,0,0:0:0:0:
192,192,128674,1,0,0:0:0:0:
448,192,128754,1,0,0:0:0:0:
320,192,128754,1,0,0:0:0:0:
64,192,128835,1,0,0:0:0:0:
192,192,128915,1,0,0:0:0:0:
448,192,128996,1,0,0:0:0:0:
320,192,129077,1,0,0:0:0:0:
64,192,129077,1,0,0:0:0:0:
192,192,129157,1,0,0:0:0:0:
320,192,129238,1,0,0:0:0:0:
448,192,129319,1,0,0:0:0:0:
192,192,129399,128,0,129561:0:0:0:0:
64,192,129399,1,0,0:0:0:0:
320,192,129561,1,0,0:0:0:0:
64,192,129722,1,0,0:0:0:0:
448,192,129722,1,0,0:0:0:0:
192,192,129883,1,0,0:0:0:0:
64,192,129964,1,0,0:0:0:0:
320,192,130044,1,0,0:0:0:0:
64,192,130206,1,0,0:0:0:0:
192,192,130367,1,0,0:0:0:0:
320,192,130528,1,0,0:0:0:0:
64,192,130690,1,0,0:0:0:0:
448,192,130851,1,0,0:0:0:0:
192,192,130932,1,0,0:0:0:0:
320,192,131012,1,0,0:0:0:0:
64,192,131174,1,0,0:0:0:0:
448,192,131335,1,0,0:0:0:0:
320,192,131496,1,0,0:0:0:0:
192,192,131657,1,0,0:0:0:0:
448,192,131819,1,0,0:0:0:0:
320,192,131899,1,0,0:0:0:0:
64,192,131980,1,0,0:0:0:0:
192,192,132141,1,0,0:0:0:0:
320,192,132303,1,0,0:0:0:0:
448,192,132464,1,0,0:0:0:0:
64,192,132625,128,0,132706:0:0:0:0:
192,192,132786,128,0,132867:0:0:0:0:
448,192,132948,128,0,133028:0:0:0:0:
64,192,133109,128,0,133190:0:0:0:0:
320,192,133270,128,0,133351:0:0:0:0:
192,192,133432,128,0,133512:0:0:0:0:
448,192,133593,1,0,0:0:0:0:
320,192,133674,1,0,0:0:0:0:
448,192,133754,1,0,0:0:0:0:
64,192,133915,1,0,0:0:0:0:
320,192,134077,128,0,134399:0:0:0:0:
64,192,134399,1,0,0:0:0:0:
320,192,134480,1,0,0:0:0:0:
192,192,134561,1,0,0:0:0:0:
320,192,134722,1,0,0:0:0:0:
448,192,134883,1,0,0:0:0:0:
192,192,135044,1,0,0:0:0:0:
64,192,135206,1,0,0:0:0:0:
448,192,135367,1,0,0:0:0:0:
192,192,135528,128,0,136012:0:0:0:0:
64,192,136012,1,0,0:0:0:0:
448,192,136174,1,0,0:0:0:0:
192,192,136335,1,0,0:0:0:0:
320,192,136496,1,0,0:0:0:0:
448,192,136496,1,0,0:0:0:0:
64,192,136657,1,0,0:0:0:0:
320,192,136738,1,0,0:0:0:0:
448,192,136738,1,0,0:0:0:0:
192,192,136819,1,0,0:0:0:0:
448,192,136980,1,0,0:0:0:0:
320,192,136980,1,0,0:0:0:0:
192,192,137061,1,0,0:0:0:0:
448,192,137141,1,0,0:0:0:0:
64,192,137141,1,0,0:0:0:0:
192,192,137303,1,0,0:0:0:0:
320,192,137383,1,0,0:0:0:0:
64,192,137464,1,0,0:0:0:0:
448,192,137464,1,0,0:0:0:0:
192,192,137544,1,0,0:0:0:0:
64,192,137625,1,0,0:0:0:0:
320,192,137706,1,0,0:0:0:0:
448,192,137786,1,0,0:0:0:0:
192,192,137948,1,0,0:0:0:0:
448,192,138028,1,0,0:0:0:0:
64,192,138109,1,0,0:0:0:0:
320,192,138190,1,0,0:0:0:0:
192,192,138270,1,0,0:0:0:0:
448,192,138351,1,0,0:0:0:0:
64,192,138432,1,0,0:0:0:0:
192,192,138512,1,0,0:0:0:0:
64,192,138593,1,0,0:0:0:0:
320,192,138674,1,0,0:0:0:0:
448,192,138754,128,0,138915:0:0:0:0:
64,192,138915,1,0,0:0:0:0:
320,192,138996,1,0,0:0:0:0:
448,192,139077,1,0,0:0:0:0:
192,192,139157,1,0,0:0:0:0:
320,192,139238,1,0,0:0:0:0:
448,192,139319,1,0,0:0:0:0:
64,192,139399,1,0,0:0:0:0:
320,192,139480,1,0,0:0:0:0:
192,192,139561,1,0,0:0:0:0:
448,192,139641,1,0,0:0:0:0:
64,192,139722,1,0,0:0:0:0:
192,192,139803,1,0,0:0:0:0:
320,192,139883,1,0,0:0:0:0:
448,192,139964,1,0,0:0:0:0:
192,192,140044,1,0,0:0:0:0:
64,192,140125,1,0,0:0:0:0:
320,192,140206,1,0,0:0:0:0:
448,192,140286,1,0,0:0:0:0:
192,192,140367,128,0,140528:0:0:0:0:
320,192,140528,1,0,0:0:0:0:
192,192,140609,1,0,0:0:0:0:
320,192,140690,1,0,0:0:0:0:
64,192,140851,1,0,0:0:0:0:
192,192,141012,1,0,0:0:0:0:
320,192,141174,1,0,0:0:0:0:
64,192,141335,1,0,0:0:0:0:
448,192,141335,128,0,141657:0:0:0:0:
192,192,141657,1,0,0:0:0:0:
192,192,141980,128,0,142141:0:0:0:0:
320,192,142141,128,0,142303:0:0:0:0:
64,192,142303,128,0,142625:0:0:0:0:
192,192,142625,128,0,142948:0:0:0:0:
320,192,142948,128,0,143270:0:0:0:0:
448,192,143270,1,0,0:0:0:0:
192,192,143351,1,0,0:0:0:0:
448,192,143432,1,0,0:0:0:0:
192,192,143512,1,0,0:0:0:0:
320,192,143593,128,0,143915:0:0:0:0:
64,192,143915,1,0,0:0:0:0:
448,192,143996,128,0,144238:0:0:0:0:
192,192,144238,128,0,144722:0:0:0:0:
448,192,144883,1,0,0:0:0:0:
64,192,144964,1,0,0:0:0:0:
192,192,145044,1,0,0:0:0:0:
320,192,145125,1,0,0:0:0:0:
64,192,145206,1,0,0:0:0:0:
448,192,145206,1,0,0:0:0:0:
192,192,145367,1,0,0:0:0:0:
320,192,145448,1,0,0:0:0:0:
64,192,145528,1,0,0:0:0:0:
192,192,145528,1,0,0:0:0:0:
320,192,145690,1,0,0:0:0:0:
192,192,145770,1,0,0:0:0:0:
320,192,145851,1,0,0:0:0:0:
448,192,145851,1,0,0:0:0:0:
192,192,146012,1,0,0:0:0:0:
320,192,146093,1,0,0:0:0:0:
64,192,146174,1,0,0:0:0:0:
448,192,146174,1,0,0:0:0:0:
448,192,146415,1,0,0:0:0:0:
64,192,146415,1,0,0:0:0:0:
64,192,146657,1,0,0:0:0:0:
448,192,146657,1,0,0:0:0:0:
64,192,146899,1,0,0:0:0:0:
448,192,146899,1,0,0:0:0:0:
192,192,147141,128,0,147464:0:0:0:0:
320,192,147464,1,0,0:0:0:0:
448,192,147464,1,0,0:0:0:0:
64,192,147625,1,0,0:0:0:0:
192,192,147786,1,0,0:0:0:0:
320,192,147948,1,0,0:0:0:0:
64,192,148109,1,0,0:0:0:0:
192,192,148109,1,0,0:0:0:0:
448,192,148270,1,0,0:0:0:0:
192,192,148351,1,0,0:0:0:0:
320,192,148432,1,0,0:0:0:0:
64,192,148593,1,0,0:0:0:0:
448,192,148754,1,0,0:0:0:0:
320,192,148754,1,0,0:0:0:0:
192,192,148915,1,0,0:0:0:0:
64,192,149077,1,0,0:0:0:0:
448,192,149238,1,0,0:0:0:0:
320,192,149319,1,0,0:0:0:0:
64,192,149399,1,0,0:0:0:0:
192,192,149399,1,0,0:0:0:0:
320,192,149561,1,0,0:0:0:0:
192,192,149722,1,0,0:0:0:0:
448,192,149883,1,0,0:0:0:0:
192,192,150044,1,0,0:0:0:0:
64,192,150044,128,0,150125:0:0:0:0:
320,192,150206,128,0,150286:0:0:0:0:
448,192,150367,128,0,150448:0:0:0:0:
64,192,150528,128,0,150609:0:0:0:0:
320,192,150690,128,0,150770:0:0:0:0:
448,192,150690,1,0,0:0:0:0:
192,192,150851,128,0,150932:0:0:0:0:
448,192,151012,1,0,0:0:0:0:
64,192,151012,1,0,0:0:0:0:
320,192,151093,1,0,0:0:0:0:
448,192,151174,1,0,0:0:0:0:
64,192,151335,1,0,0:0:0:0:
192,192,151335,1,0,0:0:0:0:
320,192,151496,1,0,0:0:0:0:
64,192,151657,1,0,0:0:0:0:
192,192,151819,1,0,0:0:0:0:
320,192,151899,1,0,0:0:0:0:
192,192,151980,1,0,0:0:0:0:
448,192,152141,1,0,0:0:0:0:
64,192,152222,1,0,0:0:0:0:
192,192,152303,1,0,0:0:0:0:
448,192,152383,1,0,0:0:0:0:
192,192,152464,1,0,0:0:0:0:
320,192,152544,1,0,0:0:0:0:
64,192,152625,1,0,0:0:0:0:
448,192,152625,1,0,0:0:0:0:
320,192,152733,1,0,0:0:0:0:
192,192,152840,1,0,0:0:0:0:
64,192,152948,1,0,0:0:0:0:
448,192,152948,128,0,153432:0:0:0:0:
64,192,153270,1,0,0:0:0:0:
320,192,153432,1,0,0:0:0:0:
192,192,153593,1,0,0:0:0:0:
64,192,153754,1,0,0:0:0:0:
448,192,153915,1,0,0:0:0:0:
320,192,153915,1,0,0:0:0:0:
64,192,154077,1,0,0:0:0:0:
192,192,154157,1,0,0:0:0:0:
448,192,154238,1,0,0:0:0:0:
320,192,154238,1,0,0:0:0:0:
192,192,154399,1,0,0:0:0:0:
64,192,154480,1,0,0:0:0:0:
320,192,154561,1,0,0:0:0:0:
448,192,154561,1,0,0:0:0:0:
192,192,154722,1,0,0:0:0:0:
320,192,154803,1,0,0:0:0:0:
64,192,154883,1,0,0:0:0:0:
448,192,154883,1,0,0:0:0:0:
192,192,154964,1,0,0:0:0:0:
64,192,155044,1,0,0:0:0:0:
320,192,155125,1,0,0:0:0:0:
448,192,155206,1,0,0:0:0:0:
192,192,155206,1,0,0:0:0:0:
320,192,155367,1,0,0:0:0:0:
448,192,155448,1,0,0:0:0:0:
64,192,155528,1,0,0:0:0:0:
320,192,155609,1,0,0:0:0:0:
192,192,155690,1,0,0:0:0:0:
448,192,155770,1,0,0:0:0:0:
320,192,155851,1,0,0:0:0:0:
64,192,155851,1,0,0:0:0:0:
192,192,155932,1,0,0:0:0:0:
64,192,156012,1,0,0:0:0:0:
320,192,156093,1,0,0:0:0:0:
448,192,156174,128,0,156335:0:0:0:0:
64,192,156335,1,0,0:0:0:0:
320,192,156415,1,0,0:0:0:0:
448,192,156496,1,0,0:0:0:0:
192,192,156496,1,0,0:0:0:0:
64,192,156577,1,0,0:0:0:0:
320,192,156657,1,0,0:0:0:0:
448,192,156738,1,0,0:0:0:0:
64,192,156819,1,0,0:0:0:0:
320,192,156899,1,0,0:0:0:0:
192,192,156980,1,0,0:0:0:0:
320,192,157061,128,0,157303:0:0:0:0:
64,192,157141,1,0,0:0:0:0:
192,192,157303,1,0,0:0:0:0:
448,192,157383,1,0,0:0:0:0:
320,192,157464,1,0,0:0:0:0:
64,192,157544,1,0,0:0:0:0:
192,192,157625,1,0,0:0:0:0:
320,192,157706,1,0,0:0:0:0:
448,192,157786,128,0,157948:0:0:0:0:
64,192,157786,1,0,0:0:0:0:
192,192,157948,1,0,0:0:0:0:
320,192,158028,1,0,0:0:0:0:
192,192,158109,1,0,0:0:0:0:
448,192,158190,1,0,0:0:0:0:
64,192,158270,1,0,0:0:0:0:
448,192,158351,1,0,0:0:0:0:
192,192,158432,1,0,0:0:0:0:
320,192,158512,1,0,0:0:0:0:
192,192,158593,1,0,0:0:0:0:
320,192,158674,1,0,0:0:0:0:
448,192,158754,128,0,159077:0:0:0:0:
64,192,158754,1,0,0:0:0:0:
192,192,159077,1,0,0:0:0:0:
192,192,159399,128,0,159561:0:0:0:0:
320,192,159561,128,0,159722:0:0:0:0:
64,192,159722,128,0,160044:0:0:0:0:
192,192,160044,128,0,160367:0:0:0:0:
320,192,160367,128,0,160690:0:0:0:0:
448,192,160690,1,0,0:0:0:0:
64,192,160770,1,0,0:0:0:0:
448,192,160851,1,0,0:0:0:0:
64,192,160932,1,0,0:0:0:0:
192,192,161012,128,0,161335:0:0:0:0:
64,192,161335,1,0,0:0:0:0:
320,192,161415,128,0,161657:0:0:0:0:
448,192,161657,128,0,162141:0:0:0:0:
64,192,162141,1,0,0:0:0:0:
448,192,162303,1,0,0:0:0:0:
320,192,162303,1,0,0:0:0:0:
64,192,162383,1,0,0:0:0:0:
192,192,162464,1,0,0:0:0:0:
320,192,162544,1,0,0:0:0:0:
448,192,162625,1,0,0:0:0:0:
64,192,162625,1,0,0:0:0:0:
192,192,162786,1,0,0:0:0:0:
320,192,162867,1,0,0:0:0:0:
192,192,162948,1,0,0:0:0:0:
64,192,162948,1,0,0:0:0:0:
320,192,163109,1,0,0:0:0:0:
192,192,163190,1,0,0:0:0:0:
448,192,163270,1,0,0:0:0:0:
320,192,163270,1,0,0:0:0:0:
192,192,163432,1,0,0:0:0:0:
320,192,163512,1,0,0:0:0:0:
448,192,163593,1,0,0:0:0:0:
64,192,163593,1,0,0:0:0:0:
320,192,163915,1,0,0:0:0:0:
192,192,163915,1,0,0:0:0:0:
448,192,164238,1,0,0:0:0:0:
64,192,164238,1,0,0:0:0:0:
320,192,164561,1,0,0:0:0:0:
448,192,164561,1,0,0:0:0:0:
64,192,164722,1,0,0:0:0:0:
320,192,164803,1,0,0:0:0:0:
64,192,164883,1,0,0:0:0:0:
192,192,164883,1,0,0:0:0:0:
448,192,165044,1,0,0:0:0:0:
192,192,165125,1,0,0:0:0:0:
320,192,165206,1,0,0:0:0:0:
448,192,165206,1,0,0:0:0:0:
64,192,165367,1,0,0:0:0:0:
320,192,165448,1,0,0:0:0:0:
192,192,165528,1,0,0:0:0:0:
448,192,165528,1,0,0:0:0:0:
64,192,165851,1,0,0:0:0:0:
320,192,165851,1,0,0:0:0:0:
448,192,166174,1,0,0:0:0:0:
192,192,166174,1,0,0:0:0:0:
64,192,166496,1,0,0:0:0:0:
192,192,166496,1,0,0:0:0:0:
320,192,166657,1,0,0:0:0:0:
64,192,166819,1,0,0:0:0:0:
192,192,166980,1,0,0:0:0:0:
448,192,167141,1,0,0:0:0:0:
320,192,167222,1,0,0:0:0:0:
64,192,167303,1,0,0:0:0:0:
192,192,167464,128,0,167948:0:0:0:0:
192,192,168109,128,0,168432:0:0:0:0:
448,192,168432,1,0,0:0:0:0:
320,192,168432,1,0,0:0:0:0:
64,192,168432,1,0,0:0:0:0:
192,192,168593,1,0,0:0:0:0:
448,192,168754,1,0,0:0:0:0:
320,192,168915,1,0,0:0:0:0:
192,192,168915,1,0,0:0:0:0:
64,192,169077,1,0,0:0:0:0:
320,192,169238,1,0,0:0:0:0:
448,192,169399,1,0,0:0:0:0:
192,192,169399,1,0,0:0:0:0:
64,192,169561,1,0,0:0:0:0:
320,192,169722,1,0,0:0:0:0:
64,192,169883,1,0,0:0:0:0:
448,192,169883,1,0,0:0:0:0:
192,192,170044,1,0,0:0:0:0:
448,192,170206,1,0,0:0:0:0:
64,192,170367,1,0,0:0:0:0:
320,192,170367,1,0,0:0:0:0:
192,192,170448,1,0,0:0:0:0:
448,192,170528,1,0,0:0:0:0:
64,192,170609,1,0,0:0:0:0:
192,192,170690,1,0,0:0:0:0:
320,192,170690,1,0,0:0:0:0:
448,192,170770,1,0,0:0:0:0:
64,192,170851,1,0,0:0:0:0:
320,192,170932,1,0,0:0:0:0:
192,192,171012,1,0,0:0:0:0:
448,192,171012,1,0,0:0:0:0:
64,192,171093,1,0,0:0:0:0:
320,192,171174,1,0,0:0:0:0:
448,192,171254,1,0,0:0:0:0:
64,192,171335,1,0,0:0:0:0:
192,192,171335,1,0,0:0:0:0:
320,192,171415,1,0,0:0:0:0:
64,192,171496,1,0,0:0:0:0:
320,192,171577,1,0,0:0:0:0:
192,192,171657,1,0,0:0:0:0:
448,192,171657,1,0,0:0:0:0:
64,192,171738,1,0,0:0:0:0:
448,192,171819,1,0,0:0:0:0:
64,192,171899,1,0,0:0:0:0:
192,192,171980,1,0,0:0:0:0:
320,192,171980,1,0,0:0:0:0:
448,192,172061,1,0,0:0:0:0:
192,192,172141,1,0,0:0:0:0:
448,192,172222,1,0,0:0:0:0:
64,192,172303,128,0,172625:0:0:0:0:
192,192,172625,1,0,0:0:0:0:
320,192,172625,1,0,0:0:0:0:
448,192,172706,1,0,0:0:0:0:
192,192,172786,1,0,0:0:0:0:
448,192,172867,1,0,0:0:0:0:
64,192,172948,1,0,0:0:0:0:
192,192,173028,1,0,0:0:0:0:
320,192,173109,1,0,0:0:0:0:
192,192,173190,1,0,0:0:0:0:
448,192,173270,1,0,0:0:0:0:
320,192,173351,1,0,0:0:0:0:
64,192,173432,1,0,0:0:0:0:
320,192,173512,1,0,0:0:0:0:
192,192,173593,1,0,0:0:0:0:
448,192,173674,1,0,0:0:0:0:
320,192,173754,1,0,0:0:0:0:
64,192,173835,1,0,0:0:0:0:
448,192,173915,1,0,0:0:0:0:
192,192,173996,1,0,0:0:0:0:
320,192,174077,1,0,0:0:0:0:
192,192,174157,1,0,0:0:0:0:
64,192,174238,1,0,0:0:0:0:
320,192,174399,1,0,0:0:0:0:
64,192,174480,1,0,0:0:0:0:
320,192,174561,1,0,0:0:0:0:
64,192,174641,1,0,0:0:0:0:
320,192,174722,1,0,0:0:0:0:
64,192,174803,1,0,0:0:0:0:
448,192,174883,1,0,0:0:0:0:
320,192,174964,1,0,0:0:0:0:
192,192,175044,1,0,0:0:0:0:
320,192,175125,1,0,0:0:0:0:
64,192,175206,1,0,0:0:0:0:
192,192,175286,1,0,0:0:0:0:
448,192,175367,1,0,0:0:0:0:
192,192,175448,1,0,0:0:0:0:
320,192,175528,1,0,0:0:0:0:
64,192,175609,1,0,0:0:0:0:
192,192,175690,1,0,0:0:0:0:
448,192,175770,1,0,0:0:0:0:
64,192,175851,1,0,0:0:0:0:
320,192,175932,1,0,0:0:0:0:
192,192,176012,1,0,0:0:0:0:
320,192,176093,1,0,0:0:0:0:
448,192,176174,1,0,0:0:0:0:
320,192,176335,1,0,0:0:0:0:
448,192,176415,1,0,0:0:0:0:
192,192,176496,1,0,0:0:0:0:
320,192,176657,1,0,0:0:0:0:
448,192,176738,1,0,0:0:0:0:
64,192,176819,1,0,0:0:0:0:
320,192,176980,1,0,0:0:0:0:
192,192,177141,128,0,177303:0:0:0:0:
320,192,177303,128,0,177464:0:0:0:0:
64,192,177464,128,0,177625:0:0:0:0:
192,192,177625,128,0,177786:0:0:0:0:
320,192,177786,1,0,0:0:0:0:
448,192,177786,1,0,0:0:0:0:
64,192,177894,1,0,0:0:0:0:
192,192,177894,1,0,0:0:0:0:
320,192,178001,1,0,0:0:0:0:
448,192,178001,1,0,0:0:0:0:
64,192,178109,128,0,179077:0:0:0:0:
192,192,178109,1,0,0:0:0:0:
320,192,178270,1,0,0:0:0:0:
448,192,178432,1,0,0:0:0:0:
192,192,178593,1,0,0:0:0:0:
448,192,178754,1,0,0:0:0:0:
320,192,178915,1,0,0:0:0:0:
192,192,179077,1,0,0:0:0:0:
448,192,179077,1,0,0:0:0:0:
64,192,179238,1,0,0:0:0:0:
320,192,179319,1,0,0:0:0:0:
64,192,179399,1,0,0:0:0:0:
448,192,179399,1,0,0:0:0:0:
320,192,179561,1,0,0:0:0:0:
192,192,179641,1,0,0:0:0:0:
64,192,179722,1,0,0:0:0:0:
320,192,179722,1,0,0:0:0:0:
192,192,179883,1,0,0:0:0:0:
448,192,179964,1,0,0:0:0:0:
64,192,180044,1,0,0:0:0:0:
192,192,180044,1,0,0:0:0:0:
320,192,180125,1,0,0:0:0:0:
64,192,180206,1,0,0:0:0:0:
448,192,180286,1,0,0:0:0:0:
192,192,180367,1,0,0:0:0:0:
320,192,180367,1,0,0:0:0:0:
448,192,180528,1,0,0:0:0:0:
192,192,180690,1,0,0:0:0:0:
320,192,180770,1,0,0:0:0:0:
64,192,180851,1,0,0:0:0:0:
448,192,181012,1,0,0:0:0:0:
320,192,181012,1,0,0:0:0:0:
192,192,181093,1,0,0:0:0:0:
320,192,181174,1,0,0:0:0:0:
448,192,181254,1,0,0:0:0:0:
64,192,181335,1,0,0:0:0:0:
320,192,181415,1,0,0:0:0:0:
64,192,181496,1,0,0:0:0:0:
192,192,181577,1,0,0:0:0:0:
320,192,181657,1,0,0:0:0:0:
448,192,181657,1,0,0:0:0:0:
192,192,181738,1,0,0:0:0:0:
320,192,181819,1,0,0:0:0:0:
64,192,181899,1,0,0:0:0:0:
448,192,181980,1,0,0:0:0:0:
192,192,182061,1,0,0:0:0:0:
448,192,182141,1,0,0:0:0:0:
64,192,182222,1,0,0:0:0:0:
320,192,182303,1,0,0:0:0:0:
192,192,182303,1,0,0:0:0:0:
448,192,182464,1,0,0:0:0:0:
192,192,182625,1,0,0:0:0:0:
320,192,182706,1,0,0:0:0:0:
64,192,182786,1,0,0:0:0:0:
448,192,182948,1,0,0:0:0:0:
192,192,182948,1,0,0:0:0:0:
64,192,183028,1,0,0:0:0:0:
320,192,183109,1,0,0:0:0:0:
64,192,183190,1,0,0:0:0:0:
448,192,183270,1,0,0:0:0:0:
192,192,183351,1,0,0:0:0:0:
320,192,183432,1,0,0:0:0:0:
64,192,183512,1,0,0:0:0:0:
448,192,183593,1,0,0:0:0:0:
320,192,183593,1,0,0:0:0:0:
192,192,183674,1,0,0:0:0:0:
448,192,183754,1,0,0:0:0:0:
192,192,183835,1,0,0:0:0:0:
64,192,183915,1,0,0:0:0:0:
448,192,183915,1,0,0:0:0:0:
192,192,184077,1,0,0:0:0:0:
320,192,184157,1,0,0:0:0:0:
192,192,184319,1,0,0:0:0:0:
448,192,184399,1,0,0:0:0:0:
320,192,184561,1,0,0:0:0:0:
64,192,184641,1,0,0:0:0:0:
320,192,184722,1,0,0:0:0:0:
192,192,184803,1,0,0:0:0:0:
64,192,184883,1,0,0:0:0:0:
320,192,185044,1,0,0:0:0:0:
192,192,185125,1,0,0:0:0:0:
320,192,185286,1,0,0:0:0:0:
64,192,185367,1,0,0:0:0:0:
192,192,185528,1,0,0:0:0:0:
448,192,185609,1,0,0:0:0:0:
192,192,185690,1,0,0:0:0:0:
320,192,185770,1,0,0:0:0:0:
64,192,185851,1,0,0:0:0:0:
448,192,185851,1,0,0:0:0:0:
192,192,185932,1,0,0:0:0:0:
320,192,186012,1,0,0:0:0:0:
64,192,186093,1,0,0:0:0:0:
448,192,186174,1,0,0:0:0:0:
192,192,186254,1,0,0:0:0:0:
64,192,186335,1,0,0:0:0:0:
320,192,186335,1,0,0:0:0:0:
448,192,186415,1,0,0:0:0:0:
192,192,186496,1,0,0:0:0:0:
320,192,186577,1,0,0:0:0:0:
64,192,186657,1,0,0:0:0:0:
192,192,186738,1,0,0:0:0:0:
320,192,186819,1,0,0:0:0:0:
448,192,186819,1,0,0:0:0:0:
64,192,186899,1,0,0:0:0:0:
448,192,186980,1,0,0:0:0:0:
64,192,187061,1,0,0:0:0:0:
320,192,187141,1,0,0:0:0:0:
192,192,187222,1,0,0:0:0:0:
320,192,187303,1,0,0:0:0:0:
192,192,187383,1,0,0:0:0:0:
448,192,187464,1,0,0:0:0:0:
64,192,187544,1,0,0:0:0:0:
448,192,187625,1,0,0:0:0:0:
64,192,187706,1,0,0:0:0:0:
320,192,187786,128,0,192625:0:0:0:0:
448,192,187786,1,0,0:0:0:0:
