osu file format v14

[General]
AudioFilename: step.mp3
AudioLeadIn: 0
PreviewTime: 65402
Countdown: 0
SampleSet: Normal
StackLeniency: 0.2
Mode: 0
LetterboxInBreaks: 0
WidescreenStoryboard: 1

[Editor]
DistanceSpacing: 1.3
BeatDivisor: 6
GridSize: 4
TimelineZoom: 4.899997

[Metadata]
Title:Hop Step Adventure*
TitleUnicode:Hop Step Adventure☆
Artist:AAAA Chazuke
ArtistUnicode:ああああ茶漬け
Creator:whosthebox
Version:Hop Stream Adventure
Source:VOEZ
Tags:
BeatmapID:1936512
BeatmapSetID:927165

[Difficulty]
HPDrainRate:7
CircleSize:4
OverallDifficulty:9
ApproachRate:9.7
SliderMultiplier:2
SliderTickRate:1

[Events]
//Background and Video events
0,0,"34359706.jpg",0,0
//Break Periods
//Storyboard Layer 0 (Background)
//Storyboard Layer 1 (Fail)
//Storyboard Layer 2 (Pass)
//Storyboard Layer 3 (Foreground)
//Storyboard Layer 4 (Overlay)
//Storyboard Sound Samples

[TimingPoints]
1290,322.58064516129,4,1,0,45,1,0
1290,-133.333333333333,4,1,0,45,0,0
5806,-90.9090909090909,4,1,0,45,0,0
5967,-133.333333333333,4,1,0,45,0,0
6451,-100,4,1,0,75,0,0
11612,-100,4,1,0,70,0,0
32257,-133.333333333333,4,1,0,40,0,0
34838,-25,4,1,0,60,0,0
36128,-100,4,1,0,60,0,0
42580,-100,4,1,0,70,0,0
42902,-100,4,1,0,35,0,0
43225,-100,4,1,0,70,0,0
45483,-100,4,1,0,35,0,0
45806,-100,4,1,0,70,0,0
48064,-100,4,1,0,35,0,0
48386,-100,4,1,0,70,0,0
50644,-100,4,1,0,35,0,0
50967,-100,4,1,0,70,0,0
61612,-100,4,1,0,80,0,0
63870,-100,4,1,0,40,0,0
64515,-100,4,1,0,70,0,0
65806,-80,4,1,0,80,0,1
96773,-80,4,1,0,80,0,0
99193,-100,4,1,0,60,0,0
112257,-100,4,1,0,20,0,0
113548,-66.6666666666667,4,1,0,100,0,1
114031,-50,4,1,0,100,0,1
114838,-100,4,1,0,10,0,0

[Colours]
Combo1 : 255,255,255
Combo2 : 255,0,0
Combo3 : 255,128,64
Combo4 : 0,255,0

[HitObjects]
36,33,1290,6,0,P|40:69|65:96,1,75.0000028610231,8|0,0:0|0:0,0:0:0:0:
64,96,1531,1,0,0:0:0:0:
64,96,1612,1,8,0:0:0:0:
112,197,1773,5,0,0:0:0:0:
112,197,1854,1,0,0:0:0:0:
112,197,1935,1,8,0:0:0:0:
217,235,2096,5,0,0:0:0:0:
217,235,2177,1,0,0:0:0:0:
217,235,2257,1,8,0:0:0:0:
329,229,2419,5,0,0:0:0:0:
329,229,2499,1,0,0:0:0:0:
329,229,2580,1,8,0:0:0:0:
423,167,2741,5,0,0:0:0:0:
423,167,2822,1,0,0:0:0:0:
423,167,2902,1,8,0:0:0:0:
359,73,3064,1,8,0:0:0:0:
337,94,3144,1,8,0:0:0:0:
315,115,3225,2,0,B|249:171,1,75.0000028610231
236,184,3467,1,0,0:0:0:0:
214,205,3548,1,8,0:0:0:0:
217,92,3709,1,8,0:0:0:0:
242,76,3789,1,0,0:0:0:0:
270,60,3870,6,0,P|319:65|357:89,1,75.0000028610231,8|0,0:0|0:0,0:0:0:0:
341,76,4112,1,0,0:0:0:0:
341,76,4193,1,8,0:0:0:0:
458,143,4354,5,0,0:0:0:0:
458,143,4435,1,0,0:0:0:0:
458,143,4515,1,8,0:0:0:0:
350,178,4677,5,0,0:0:0:0:
350,178,4757,1,0,0:0:0:0:
350,178,4838,1,8,0:0:0:0:
452,222,4999,5,0,0:0:0:0:
452,222,5080,1,0,0:0:0:0:
452,222,5160,1,8,0:0:0:0:
344,257,5322,5,0,0:0:0:0:
344,257,5402,1,0,0:0:0:0:
344,257,5483,1,8,0:0:0:0:
233,236,5644,1,8,0:0:0:0:
233,236,5725,1,0,0:0:0:0:
233,236,5806,2,0,P|218:178|162:149,1,110.000003356934,8|8,0:0|0:0,0:0:0:0:
149,142,6048,1,8,0:0:0:0:
120,148,6128,1,0,0:0:0:0:
215,96,6289,1,8,0:0:0:0:
215,96,6370,1,0,0:0:0:0:
215,96,6451,5,8,0:0:0:0:
254,129,6531,1,8,0:0:0:0:
304,142,6612,1,0,0:0:0:0:
355,129,6693,1,0,0:0:0:0:
386,87,6773,1,8,0:0:0:0:
416,223,6935,5,0,0:0:0:0:
418,262,7015,1,0,0:0:0:0:
405,300,7096,1,0,0:0:0:0:
375,327,7177,1,0,0:0:0:0:
336,338,7257,1,0,0:0:0:0:
296,332,7338,1,0,0:0:0:0:
258,316,7419,6,0,P|209:285|198:231,1,100,8|0,0:0|0:0,0:0:0:0:
196,247,7660,1,0,0:0:0:0:
196,247,7741,1,8,0:0:0:0:
209,117,7902,5,0,0:0:0:0:
245,108,7983,1,0,0:0:0:0:
282,109,8064,1,8,0:0:0:0:
411,128,8225,5,8,0:0:0:0:
437,154,8306,1,8,0:0:0:0:
448,189,8386,2,0,P|447:214|434:234,3,50
414,258,8709,1,8,0:0:0:0:
286,279,8870,1,8,0:0:0:0:
286,243,8951,1,0,0:0:0:0:
271,211,9031,6,0,P|245:175|187:155,1,100,8|0,0:0|0:0,0:0:0:0:
159,152,9273,1,0,0:0:0:0:
125,162,9354,1,8,0:0:0:0:
167,284,9515,5,0,0:0:0:0:
134,301,9596,1,0,0:0:0:0:
97,302,9677,1,8,0:0:0:0:
64,286,9757,1,0,0:0:0:0:
42,256,9838,1,0,0:0:0:0:
37,219,9919,1,0,0:0:0:0:
49,184,9999,1,8,0:0:0:0:
96,63,10160,5,0,0:0:0:0:
131,51,10241,1,0,0:0:0:0:
168,50,10322,1,8,0:0:0:0:
301,35,10483,5,0,0:0:0:0:
338,41,10564,1,0,0:0:0:0:
367,63,10644,1,8,0:0:0:0:
358,198,10806,5,8,0:0:0:0:
408,184,10886,1,0,0:0:0:0:
452,155,10967,5,12,0:0:0:0:
336,292,11128,5,4,0:0:0:0:
202,92,11289,5,12,0:0:0:0:
408,72,11612,5,8,0:0:0:0:
342,184,11773,2,0,P|302:155|276:91,1,100,0|8,0:0|0:0,0:0:0:0:
170,183,12096,1,0,0:0:0:0:
166,53,12257,2,0,P|111:66|61:100,1,100,8|8,0:0|0:0,0:0:0:0:
44,115,12499,1,0,0:0:0:0:
25,150,12580,1,8,0:0:0:0:
231,306,12902,5,8,0:0:0:0:
315,206,13064,1,8,0:0:0:0:
330,242,13144,1,0,0:0:0:0:
356,269,13225,2,0,P|399:294|448:290,1,100
470,161,13548,1,8,0:0:0:0:
355,100,13709,1,0,0:0:0:0:
467,35,13870,2,0,L|354:35,1,100,8|8,0:0|0:0,0:0:0:0:
244,77,14193,5,0,0:0:0:0:
202,200,14354,1,0,0:0:0:0:
108,110,14515,1,8,0:0:0:0:
66,233,14676,1,0,0:0:0:0:
162,320,14838,2,0,P|213:329|275:305,1,100,8|8,0:0|0:0,0:0:0:0:
294,298,15080,1,0,0:0:0:0:
321,269,15160,1,0,0:0:0:0:
475,57,15483,6,0,P|469:104|421:144,1,100,8|0,0:0|0:0,0:0:0:0:
393,149,15725,1,0,0:0:0:0:
353,145,15806,1,8,0:0:0:0:
262,238,15967,1,0,0:0:0:0:
264,108,16128,1,8,0:0:0:0:
153,176,16289,1,0,0:0:0:0:
43,104,16451,1,8,0:0:0:0:
160,49,16612,1,8,0:0:0:0:
245,146,16773,5,0,0:0:0:0:
168,251,16935,1,0,0:0:0:0:
277,320,17096,2,0,P|330:342|391:336,1,100,8|0,0:0|0:0,0:0:0:0:
449,236,17419,2,0,P|471:187|455:133,1,100,8|0,0:0|0:0,0:0:0:0:
443,108,17660,1,0,0:0:0:0:
410,84,17741,1,8,0:0:0:0:
174,76,18064,5,8,0:0:0:0:
301,52,18225,1,8,0:0:0:0:
284,88,18306,1,0,0:0:0:0:
286,127,18386,2,0,P|303:172|357:200,1,100
462,139,18709,1,12,0:0:0:0:
425,263,18870,1,4,0:0:0:0:
328,176,19031,1,12,0:0:0:0:
201,203,19193,1,4,0:0:0:0:
298,288,19354,6,0,P|253:299|195:275,1,100,8|0,0:0|0:0,0:0:0:0:
169,261,19596,1,0,0:0:0:0:
148,226,19677,1,8,0:0:0:0:
50,339,19838,1,0,0:0:0:0:
28,210,19999,1,8,0:0:0:0:
106,82,20160,2,0,P|125:85|147:80,3,33.3333333333333
214,215,20483,1,8,0:0:0:0:
253,210,20564,1,8,0:0:0:0:
288,193,20644,6,0,P|334:170|378:128,1,100
475,61,20967,1,8,0:0:0:0:
470,190,21128,1,8,0:0:0:0:
459,228,21209,1,0,0:0:0:0:
436,260,21289,1,0,0:0:0:0:
255,243,21451,1,0,0:0:0:0:
89,312,21612,5,0,0:0:0:0:
66,261,21693,1,0,0:0:0:0:
58,206,21773,1,8,0:0:0:0:
66,151,21854,1,0,0:0:0:0:
87,100,21935,5,8,0:0:0:0:
199,164,22096,1,0,0:0:0:0:
306,90,22257,2,0,P|320:142|375:174,1,100,8|0,0:0|0:0,0:0:0:0:
480,205,22580,1,8,0:0:0:0:
404,310,22741,1,0,0:0:0:0:
372,334,22822,1,0,0:0:0:0:
333,343,22902,1,8,0:0:0:0:
244,72,23225,5,8,0:0:0:0:
121,115,23386,1,8,0:0:0:0:
90,141,23467,1,0,0:0:0:0:
75,178,23548,1,0,0:0:0:0:
159,277,23709,1,0,0:0:0:0:
254,189,23870,1,8,0:0:0:0:
342,284,24031,1,0,0:0:0:0:
431,189,24193,2,8,P|454:143|439:80,1,100
333,35,24515,5,0,0:0:0:0:
223,106,24677,1,0,0:0:0:0:
109,42,24838,2,0,P|77:80|60:140,1,100,8|0,0:0|0:0,0:0:0:0:
221,45,25160,1,8,0:0:0:0:
344,85,25322,1,8,0:0:0:0:
373,111,25402,1,0,0:0:0:0:
387,148,25483,1,0,0:0:0:0:
211,340,25806,6,0,P|160:338|113:311,1,100,8|0,0:0|0:0,0:0:0:0:
88,287,26048,1,0,0:0:0:0:
76,249,26128,1,8,0:0:0:0:
203,223,26289,1,0,0:0:0:0:
128,115,26451,2,8,B|128:113|127:115|127:115|129:115|129:115|127:114|127:113|127:113|128:114|128:114|126:115|126:115|126:113|126:113|129:113|129:113|129:114|129:114|125:115|125:115|130:113|130:114,4,25,8|8|8|8|0,0:0|0:0|0:0|0:0|0:0,0:0:0:0:
241,51,26773,2,0,P|293:53|348:90,1,100,8|0,0:0|0:0,0:0:0:0:
461,45,27096,5,8,0:0:0:0:
442,173,27257,1,0,0:0:0:0:
313,149,27419,2,0,P|338:204|313:254,1,100,8|0,0:0|0:0,0:0:0:0:
215,306,27741,2,0,P|190:251|210:198,1,100,8|8,0:0|0:0,0:0:0:0:
220,180,27983,1,0,0:0:0:0:
255,162,28064,1,8,0:0:0:0:
451,74,28386,6,0,L|451:174,1,100,8|8,0:0|0:0,0:0:0:0:
451,214,28628,1,0,0:0:0:0:
451,254,28709,1,0,0:0:0:0:
344,327,28870,1,0,0:0:0:0:
301,204,29031,2,0,P|253:217|223:266,1,100,8|0,0:0|0:0,0:0:0:0:
108,314,29354,1,0,0:0:0:0:
96,265,29435,1,0,0:0:0:0:
83,217,29515,1,8,0:0:0:0:
71,168,29596,1,0,0:0:0:0:
58,119,29677,5,8,0:0:0:0:
166,48,29838,1,8,0:0:0:0:
220,41,29919,1,8,0:0:0:0:
272,57,29999,1,0,0:0:0:0:
309,97,30080,1,0,0:0:0:0:
358,119,30160,1,8,0:0:0:0:
413,117,30241,1,0,0:0:0:0:
459,86,30322,1,8,0:0:0:0:
421,210,30483,2,0,P|400:216|388:224,3,33.3333333333333
262,196,30806,2,0,P|255:247|198:278,1,100,8|0,0:0|0:0,0:0:0:0:
98,324,31128,5,0,0:0:0:0:
58,301,31209,1,0,0:0:0:0:
43,264,31289,1,0,0:0:0:0:
54,133,31451,1,0,0:0:0:0:
97,99,31531,1,0,0:0:0:0:
148,81,31611,1,0,0:0:0:0:
201,92,31692,1,0,0:0:0:0:
253,106,31772,1,8,0:0:0:0:
307,96,31853,1,0,0:0:0:0:
350,62,31934,1,8,0:0:0:0:
175,222,32257,6,0,P|247:304|366:315,1,225.000008583069,8|0,0:0|0:0,0:0:0:0:
386,309,32822,1,0,0:0:0:0:
412,294,32902,2,0,P|452:259|462:191,2,112.500004291535,8|8|0,0:0|0:0|0:0,0:0:0:0:
353,214,33548,2,0,P|334:152|258:106,1,150.000005722046,8|0,0:0|0:0,0:0:0:0:
213,189,34031,1,0,0:0:0:0:
160,106,34193,2,0,P|90:126|17:93,1,150.000005722046,8|8,0:0|0:0,0:0:0:0:
98,37,34677,1,0,0:0:0:0:
96,168,34838,2,0,B|92:168|92:168|100:168|100:168|88:168|88:168|104:168|104:168|84:168|84:168|108:168|108:168|80:168|80:168|112:168|112:168|76:168|76:168|116:168|116:168|72:168|72:168|120:168|120:168|68:168|68:168|124:168|124:168|64:168|64:168|128:168|128:168|60:168|60:168|132:168|132:168|56:168|56:168|96:168,4,800
256,344,36451,5,0,0:0:0:0:
256,32,36773,5,8,0:0:0:0:
36,192,37096,5,0,0:0:0:0:
480,192,37419,6,0,P|428:200|376:176,1,100,8|0,0:0|0:0,0:0:0:0:
399,54,37741,1,8,0:0:0:0:
303,141,37902,1,0,0:0:0:0:
267,112,37983,1,0,0:0:0:0:
222,104,38064,2,0,P|177:95|119:106,1,100,8|0,0:0|0:0,0:0:0:0:
91,166,38306,2,0,P|139:174|188:165,1,100,8|0,0:0|0:0,0:0:0:0:
188,165,38548,1,8,0:0:0:0:
317,157,38709,6,0,P|341:201|333:253,1,100,8|0,0:0|0:0,0:0:0:0:
177,126,39031,1,8,0:0:0:0:
85,280,39193,1,0,0:0:0:0:
335,126,39354,1,8,0:0:0:0:
427,280,39516,1,0,0:0:0:0:
430,240,39596,1,0,0:0:0:0:
412,204,39677,1,0,0:0:0:0:
283,183,39838,1,0,0:0:0:0:
347,69,39999,6,0,P|308:92|250:97,1,100,8|0,0:0|0:0,0:0:0:0:
209,90,40241,1,0,0:0:0:0:
169,67,40322,1,8,0:0:0:0:
123,193,40483,1,0,0:0:0:0:
40,92,40644,2,0,L|40:202,1,100,8|0,0:0|0:0,0:0:0:0:
44,237,40886,2,0,P|79:274|141:274,1,100,8|0,0:0|0:0,0:0:0:0:
125,279,41128,1,8,0:0:0:0:
293,317,41289,5,8,0:0:0:0:
336,342,41370,1,0,0:0:0:0:
386,345,41451,1,0,0:0:0:0:
433,331,41531,1,0,0:0:0:0:
466,293,41612,1,8,0:0:0:0:
470,243,41693,1,8,0:0:0:0:
449,197,41773,1,0,0:0:0:0:
405,171,41854,1,0,0:0:0:0:
354,166,41935,1,8,0:0:0:0:
311,191,42015,1,8,0:0:0:0:
262,202,42096,1,0,0:0:0:0:
213,190,42177,1,0,0:0:0:0:
177,155,42257,1,8,0:0:0:0:
152,111,42338,1,8,0:0:0:0:
106,90,42419,1,8,0:0:0:0:
58,104,42499,1,0,0:0:0:0:
33,147,42580,6,0,P|46:198|88:230,1,100,8|0,0:0|0:0,0:0:0:0:
174,91,42902,2,8,B|175:91|175:91|172:91|172:91|173:90|173:90|174:93|174:93|173:94|173:94|176:90,1,12.5
350,91,43064,2,8,B|351:91|351:91|348:91|348:91|349:90|349:90|350:93|350:93|349:94|349:94|352:90,1,12.5
256,239,43225,1,8,0:0:0:0:
297,266,43306,1,8,0:0:0:0:
345,276,43386,1,8,0:0:0:0:
394,267,43467,1,8,0:0:0:0:
436,241,43548,1,0,0:0:0:0:
470,115,43709,1,0,0:0:0:0:
367,35,43870,5,8,0:0:0:0:
334,79,43951,1,0,0:0:0:0:
280,91,44031,1,0,0:0:0:0:
225,81,44112,1,0,0:0:0:0:
175,56,44193,1,8,0:0:0:0:
120,54,44273,1,0,0:0:0:0:
70,77,44354,1,8,0:0:0:0:
38,122,44435,1,0,0:0:0:0:
27,175,44515,1,8,0:0:0:0:
42,228,44596,1,8,0:0:0:0:
81,267,44677,1,0,0:0:0:0:
133,283,44757,1,0,0:0:0:0:
188,283,44838,6,0,P|246:286|290:270,1,100,8|0,0:0|0:0,0:0:0:0:
410,306,45160,6,0,P|436:261|423:203,1,100,8|0,0:0|0:0,0:0:0:0:
312,104,45483,2,8,B|313:104|313:104|310:104|310:104|311:103|311:103|312:106|312:106|311:107|311:107|314:103,1,12.5
318,279,45644,2,8,B|319:279|319:279|316:279|316:279|317:278|317:278|318:281|318:281|317:282|317:282|320:278,1,12.5
193,162,45806,2,8,L|193:110,1,50
193,222,45967,2,8,L|193:272,1,50
132,191,46128,2,0,L|30:191,1,100
68,64,46451,6,8,L|112:100,1,50
164,64,46612,6,8,L|208:100,1,50
260,64,46773,6,8,L|304:100,1,50
356,64,46935,6,8,L|397:95,1,50
428,128,47096,1,0,0:0:0:0:
456,172,47177,1,0,0:0:0:0:
452,220,47257,1,8,0:0:0:0:
428,264,47338,1,0,0:0:0:0:
384,292,47419,1,8,0:0:0:0:
336,300,47499,1,8,0:0:0:0:
288,292,47580,1,0,0:0:0:0:
248,264,47660,1,0,0:0:0:0:
228,220,47741,6,0,P|216:168|172:128,1,100,8|0,0:0|0:0,0:0:0:0:
332,124,48064,2,8,B|333:124|333:124|330:124|330:124|331:123|331:123|332:126|332:126|331:127|331:127|334:123,1,12.5
164,264,48225,2,8,B|165:264|165:264|162:264|162:264|163:263|163:263|164:266|164:266|163:267|163:267|166:263,1,12.5
256,48,48386,1,8,0:0:0:0:
256,98,48467,1,8,0:0:0:0:
256,148,48548,1,8,0:0:0:0:
256,197,48628,1,8,0:0:0:0:
256,248,48709,2,0,L|256:352,1,100
380,300,49031,5,0,0:0:0:0:
406,257,49112,1,0,0:0:0:0:
417,208,49193,1,8,0:0:0:0:
402,160,49273,1,0,0:0:0:0:
377,116,49354,1,8,0:0:0:0:
335,87,49435,1,0,0:0:0:0:
286,76,49515,1,8,0:0:0:0:
235,77,49596,1,8,0:0:0:0:
189,98,49677,1,8,0:0:0:0:
161,139,49757,1,0,0:0:0:0:
155,188,49838,1,8,0:0:0:0:
181,230,49919,1,0,0:0:0:0:
192,278,49999,1,8,0:0:0:0:
159,316,50080,1,8,0:0:0:0:
111,330,50160,1,0,0:0:0:0:
63,313,50241,1,0,0:0:0:0:
38,269,50322,6,0,P|37:220|70:180,1,100,8|0,0:0|0:0,0:0:0:0:
360,232,50644,2,8,B|361:232|361:232|358:232|358:232|359:231|359:231|360:234|360:234|359:235|359:235|362:231,1,12.5
140,232,50806,2,8,B|141:232|141:232|138:232|138:232|139:231|139:231|140:234|140:234|139:235|139:235|142:231,1,12.5
252,44,50967,1,8,0:0:0:0:
302,42,51048,1,8,0:0:0:0:
349,55,51128,1,8,0:0:0:0:
390,82,51209,1,8,0:0:0:0:
413,125,51289,1,0,0:0:0:0:
382,251,51451,1,0,0:0:0:0:
256,288,51612,6,8,L|200:288,1,50
256,232,51773,6,8,L|308:232,1,50
256,176,51935,6,8,L|200:176,1,50
256,120,52096,6,8,L|312:120,1,50
356,120,52257,5,8,0:0:0:0:
356,120,52338,2,0,P|380:136|392:164,1,50
284,296,52499,5,8,0:0:0:0:
284,296,52580,2,0,P|244:296|220:272,1,50
136,148,52741,5,8,0:0:0:0:
136,148,52822,1,8,0:0:0:0:
136,148,52902,6,0,P|192:108|236:104,2,100,0|0|8,0:0|0:0|0:0,0:0:0:0:
205,258,53386,2,0,P|248:294|310:307,1,100
410,256,53709,1,0,0:0:0:0:
435,213,53789,1,0,0:0:0:0:
442,163,53870,1,8,0:0:0:0:
414,120,53951,1,0,0:0:0:0:
371,94,54031,1,0,0:0:0:0:
321,87,54112,1,8,0:0:0:0:
273,103,54193,6,0,P|225:131|212:184,1,100,0|8,0:0|0:0,0:0:0:0:
171,47,54515,1,0,0:0:0:0:
121,42,54596,1,8,0:0:0:0:
74,60,54677,1,0,0:0:0:0:
52,104,54757,1,0,0:0:0:0:
67,151,54838,1,8,0:0:0:0:
66,280,54999,5,8,0:0:0:0:
105,310,55080,1,0,0:0:0:0:
153,321,55160,1,8,0:0:0:0:
201,307,55241,1,8,0:0:0:0:
236,271,55322,1,8,0:0:0:0:
283,255,55402,1,0,0:0:0:0:
332,264,55483,1,8,0:0:0:0:
378,282,55564,1,8,0:0:0:0:
427,278,55644,1,0,0:0:0:0:
464,244,55725,1,0,0:0:0:0:
479,196,55806,1,8,0:0:0:0:
466,148,55886,1,0,0:0:0:0:
436,107,55967,1,0,0:0:0:0:
393,79,56048,1,0,0:0:0:0:
343,73,56128,1,8,0:0:0:0:
297,94,56209,1,0,0:0:0:0:
266,133,56289,1,8,0:0:0:0:
250,180,56370,1,8,0:0:0:0:
210,211,56451,1,0,0:0:0:0:
161,223,56531,1,0,0:0:0:0:
112,210,56612,1,0,0:0:0:0:
87,165,56693,1,0,0:0:0:0:
87,115,56773,6,0,P|86:84|110:51,1,50,0|8,0:0|0:0,0:0:0:0:
186,105,56935,1,8,0:0:0:0:
186,105,57015,6,0,P|194:72|214:54,1,50,0|8,0:0|0:0,0:0:0:0:
296,102,57177,1,8,0:0:0:0:
296,102,57257,6,8,P|308:71|336:59,1,50,0|8,0:0|0:0,0:0:0:0:
406,117,57419,6,0,P|434:72|482:68,2,100,0|8|0,0:0|0:0|0:0,0:0:0:0:
313,208,57902,2,0,P|261:223|206:207,1,100
123,122,58225,1,0,0:0:0:0:
78,145,58306,1,8,0:0:0:0:
48,185,58386,1,0,0:0:0:0:
47,235,58467,1,8,0:0:0:0:
70,279,58548,1,0,0:0:0:0:
111,305,58628,1,0,0:0:0:0:
160,313,58709,2,0,P|212:312|257:297,1,100,8|0,0:0|0:0,0:0:0:0:
212,249,58951,2,0,P|264:248|309:233,1,100,8|0,0:0|0:0,0:0:0:0:
252,191,59193,1,8,0:0:0:0:
365,118,59354,6,0,P|325:102|284:110,2,66.6666666666667
407,150,59677,1,8,0:0:0:0:
440,186,59757,1,8,0:0:0:0:
443,236,59838,1,0,0:0:0:0:
426,283,59919,1,0,0:0:0:0:
381,304,59999,6,0,P|327:311|272:284,1,100,8|0,0:0|0:0,0:0:0:0:
252,271,60241,1,8,0:0:0:0:
230,238,60322,1,8,0:0:0:0:
115,298,60483,5,8,0:0:0:0:
80,261,60564,1,8,0:0:0:0:
75,211,60644,1,8,0:0:0:0:
100,167,60725,1,0,0:0:0:0:
145,146,60806,1,0,0:0:0:0:
193,155,60886,1,8,0:0:0:0:
241,142,60967,1,0,0:0:0:0:
271,101,61048,1,0,0:0:0:0:
270,51,61128,6,0,P|317:37|375:51,1,100,8|0,0:0|0:0,0:0:0:0:
476,116,61451,1,8,0:0:0:0:
442,241,61612,5,8,0:0:0:0:
429,294,61693,1,8,0:0:0:0:
389,331,61773,1,0,0:0:0:0:
335,343,61854,1,0,0:0:0:0:
280,333,61935,1,8,0:0:0:0:
237,298,62015,1,8,0:0:0:0:
219,245,62096,1,0,0:0:0:0:
223,189,62177,1,8,0:0:0:0:
211,135,62257,1,8,0:0:0:0:
175,92,62338,1,0,0:0:0:0:
120,83,62419,1,8,0:0:0:0:
70,105,62499,1,0,0:0:0:0:
49,156,62580,1,8,0:0:0:0:
69,206,62660,1,8,0:0:0:0:
118,230,62741,1,8,0:0:0:0:
173,225,62822,1,0,0:0:0:0:
220,197,62902,1,8,0:0:0:0:
262,162,62983,1,0,0:0:0:0:
316,152,63064,1,8,0:0:0:0:
369,164,63144,1,8,0:0:0:0:
409,201,63225,1,0,0:0:0:0:
258,214,63870,6,0,L|258:144,1,50,0|8,0:0|0:0,0:0:0:0:
65,74,64515,6,8,L|65:123,1,50
177,39,64757,1,8,0:0:0:0:
317,39,64919,1,8,0:0:0:0:
241,156,65080,2,0,L|242:218,1,50,8|0,0:0|0:0,0:0:0:0:
241,346,65322,1,0,0:0:0:0:
380,337,65483,1,0,0:0:0:0:
428,323,65564,1,0,0:0:0:0:
460,285,65644,1,8,0:0:0:0:
474,236,65725,1,0,0:0:0:0:
471,185,65806,6,0,P|455:131|391:89,1,125,8|0,0:0|0:0,0:0:0:0:
270,50,66128,1,8,0:0:0:0:
200,168,66289,1,8,0:0:0:0:
109,63,66451,6,0,P|47:215|144:272,1,250
229,345,66935,1,0,0:0:0:0:
277,334,67015,1,0,0:0:0:0:
320,309,67096,2,0,P|375:272|397:217,1,125,8|0,0:0|0:0,0:0:0:0:
324,169,67338,2,0,P|268:199|234:258,1,125,8|0,0:0|0:0,0:0:0:0:
197,328,67580,2,0,P|166:320|146:297,1,62.5,8|0,0:0|0:0,0:0:0:0:
59,308,67741,6,0,P|46:244|67:188,1,125,8|8,0:0|0:0,0:0:0:0:
139,72,68064,1,0,0:0:0:0:
182,47,68144,1,0,0:0:0:0:
231,36,68225,1,0,0:0:0:0:
280,46,68306,1,0,0:0:0:0:
322,71,68386,6,0,P|393:192|310:283,1,250,8|8,0:0|0:0,0:0:0:0:
212,324,68870,1,0,0:0:0:0:
165,305,68951,1,8,0:0:0:0:
135,265,69031,2,0,P|113:210|131:149,1,125
231,63,69354,1,8,0:0:0:0:
337,149,69515,1,0,0:0:0:0:
438,54,69677,6,0,P|456:116|442:175,1,125,8|0,0:0|0:0,0:0:0:0:
376,116,69919,2,0,P|358:178|372:237,1,125,8|8,0:0|0:0,0:0:0:0:
455,255,70160,2,0,P|423:296|397:309,1,62.5,0|8,0:0|0:0,0:0:0:0:
369,324,70322,5,0,0:0:0:0:
323,343,70402,1,0,0:0:0:0:
272,347,70483,1,0,0:0:0:0:
222,338,70564,1,0,0:0:0:0:
177,316,70644,1,8,0:0:0:0:
149,274,70725,1,8,0:0:0:0:
142,224,70806,1,0,0:0:0:0:
155,176,70886,1,0,0:0:0:0:
184,135,70967,6,0,P|296:73|412:123,1,250,8|8,0:0|0:0,0:0:0:0:
431,249,71451,1,0,0:0:0:0:
396,284,71531,1,8,0:0:0:0:
347,297,71612,2,0,P|237:280|189:159,1,250,8|0,0:0|0:0,0:0:0:0:
271,49,72096,1,8,0:0:0:0:
220,45,72177,1,0,0:0:0:0:
172,58,72257,1,8,0:0:0:0:
269,218,72419,1,0,0:0:0:0:
106,124,72580,1,8,0:0:0:0:
181,295,72741,1,0,0:0:0:0:
23,193,72902,5,8,0:0:0:0:
80,168,72982,1,8,0:0:0:0:
137,143,73063,1,8,0:0:0:0:
195,119,73143,1,8,0:0:0:0:
252,94,73224,5,0,0:0:0:0:
275,116,73306,1,0,0:0:0:0:
296,137,73386,1,0,0:0:0:0:
318,159,73467,1,0,0:0:0:0:
340,181,73548,6,0,P|393:207|454:173,1,125,8|0,0:0|0:0,0:0:0:0:
457,131,73789,1,0,0:0:0:0:
441,83,73870,1,8,0:0:0:0:
404,48,73951,1,0,0:0:0:0:
357,32,74031,1,8,0:0:0:0:
307,40,74112,1,8,0:0:0:0:
268,72,74193,1,0,0:0:0:0:
258,120,74273,1,0,0:0:0:0:
242,167,74354,1,8,0:0:0:0:
200,195,74435,1,8,0:0:0:0:
150,201,74515,1,0,0:0:0:0:
103,182,74596,1,8,0:0:0:0:
70,143,74677,1,8,0:0:0:0:
68,93,74757,1,0,0:0:0:0:
98,53,74838,6,0,P|166:34|229:49,1,125,8|8,0:0|0:0,0:0:0:0:
346,92,75160,1,0,0:0:0:0:
396,95,75241,1,0,0:0:0:0:
441,116,75322,1,0,0:0:0:0:
465,158,75402,1,0,0:0:0:0:
472,207,75483,1,8,0:0:0:0:
454,254,75564,1,8,0:0:0:0:
412,280,75644,1,0,0:0:0:0:
362,285,75725,1,0,0:0:0:0:
316,264,75806,1,8,0:0:0:0:
268,249,75886,1,0,0:0:0:0:
217,252,75967,1,0,0:0:0:0:
175,280,76048,1,0,0:0:0:0:
129,300,76128,6,0,P|66:282|47:223,1,125,8|0,0:0|0:0,0:0:0:0:
156,147,76451,1,8,0:0:0:0:
175,101,76531,1,0,0:0:0:0:
213,68,76612,1,8,0:0:0:0:
259,49,76693,1,8,0:0:0:0:
308,43,76773,6,0,P|415:77|460:202,1,250,0|8,0:0|0:0,0:0:0:0:
384,313,77257,1,0,0:0:0:0:
333,317,77338,1,0,0:0:0:0:
283,309,77419,2,0,P|223:295|181:250,1,125,8|0,0:0|0:0,0:0:0:0:
214,170,77660,2,0,P|148:165|99:201,1,125,8|8,0:0|0:0,0:0:0:0:
91,284,77902,2,0,P|131:282|161:251,1,62.5,0|8,0:0|0:0,0:0:0:0:
237,265,78064,6,0,P|301:230|306:166,1,125,8|8,0:0|0:0,0:0:0:0:
179,224,78386,1,0,0:0:0:0:
131,208,78467,1,0,0:0:0:0:
101,167,78548,1,0,0:0:0:0:
103,117,78628,1,0,0:0:0:0:
122,70,78709,2,0,P|183:37|244:51,1,125,8|0,0:0|0:0,0:0:0:0:
182,123,78951,2,0,P|249:130|315:92,1,125,8|0,0:0|0:0,0:0:0:0:
333,69,79193,1,8,0:0:0:0:
376,44,79273,1,0,0:0:0:0:
425,51,79354,6,0,P|474:108|381:226,1,250,8|0,0:0|0:0,0:0:0:0:
263,294,79838,1,0,0:0:0:0:
124,290,79999,6,0,P|77:239|81:184,1,125,8|0,0:0|0:0,0:0:0:0:
91,147,80241,1,8,0:0:0:0:
123,117,80322,1,0,0:0:0:0:
243,51,80483,1,8,0:0:0:0:
379,64,80644,1,0,0:0:0:0:
409,198,80806,5,0,0:0:0:0:
386,242,80886,1,8,0:0:0:0:
350,277,80967,1,8,0:0:0:0:
300,285,81048,1,8,0:0:0:0:
250,279,81128,1,0,0:0:0:0:
204,258,81209,1,0,0:0:0:0:
176,216,81289,1,0,0:0:0:0:
89,108,81451,5,0,0:0:0:0:
128,78,81531,1,8,0:0:0:0:
176,63,81612,1,0,0:0:0:0:
226,63,81693,1,0,0:0:0:0:
271,82,81773,1,8,0:0:0:0:
409,82,81935,1,0,0:0:0:0:
431,217,82096,5,0,0:0:0:0:
389,189,82177,1,8,0:0:0:0:
340,179,82257,1,8,0:0:0:0:
289,179,82338,1,8,0:0:0:0:
241,194,82419,1,0,0:0:0:0:
199,220,82499,1,8,0:0:0:0:
160,252,82580,2,0,P|100:275|50:248,1,125
72,112,82902,1,8,0:0:0:0:
206,141,83064,1,0,0:0:0:0:
317,64,83225,5,8,0:0:0:0:
349,118,83306,1,8,0:0:0:0:
382,170,83386,1,8,0:0:0:0:
413,224,83467,1,8,0:0:0:0:
444,278,83548,1,0,0:0:0:0:
413,278,83628,1,0,0:0:0:0:
381,278,83709,1,0,0:0:0:0:
350,278,83789,1,0,0:0:0:0:
318,278,83870,6,0,P|257:265|211:216,1,125,8|8,0:0|0:0,0:0:0:0:
204,172,84112,1,0,0:0:0:0:
186,124,84193,1,8,0:0:0:0:
142,100,84273,1,0,0:0:0:0:
92,106,84354,1,8,0:0:0:0:
55,140,84435,1,0,0:0:0:0:
51,189,84515,1,8,0:0:0:0:
81,229,84596,1,0,0:0:0:0:
128,244,84677,1,8,0:0:0:0:
177,236,84757,1,8,0:0:0:0:
217,206,84838,1,0,0:0:0:0:
232,158,84919,1,8,0:0:0:0:
260,117,84999,1,8,0:0:0:0:
307,100,85080,1,0,0:0:0:0:
356,107,85160,6,8,P|408:146|412:207,1,125
307,291,85483,1,0,0:0:0:0:
253,308,85564,1,8,0:0:0:0:
198,298,85644,1,0,0:0:0:0:
151,265,85725,1,0,0:0:0:0:
133,211,85806,1,8,0:0:0:0:
156,160,85886,1,0,0:0:0:0:
204,131,85967,1,0,0:0:0:0:
260,129,86048,1,0,0:0:0:0:
309,154,86128,1,8,0:0:0:0:
332,205,86209,1,0,0:0:0:0:
378,235,86289,1,0,0:0:0:0:
434,230,86370,1,0,0:0:0:0:
468,185,86451,6,0,P|464:117|404:75,1,125,8|8,0:0|0:0,0:0:0:0:
294,125,86773,1,8,0:0:0:0:
175,53,86935,1,0,0:0:0:0:
121,70,87015,1,0,0:0:0:0:
83,112,87096,6,0,P|54:167|61:228,1,125,8|8,0:0|0:0,0:0:0:0:
171,313,87419,1,8,0:0:0:0:
223,332,87499,1,0,0:0:0:0:
279,329,87580,1,8,0:0:0:0:
329,304,87660,1,0,0:0:0:0:
353,253,87741,1,8,0:0:0:0:
474,340,87902,1,0,0:0:0:0:
477,189,88064,1,8,0:0:0:0:
333,68,88225,1,0,0:0:0:0:
108,68,88386,6,0,P|43:186|81:309,1,250,8|0,0:0|0:0,0:0:0:0:
173,184,88870,1,0,0:0:0:0:
282,286,89031,2,0,P|306:166|242:61,1,250,8|0,0:0|0:0,0:0:0:0:
177,197,89515,1,8,0:0:0:0:
177,253,89596,1,8,0:0:0:0:
177,309,89677,1,0,0:0:0:0:
284,342,89838,1,0,0:0:0:0:
391,309,89999,6,0,P|433:262|428:202,1,125,8|0,0:0|0:0,0:0:0:0:
431,90,90322,2,0,P|372:77|308:89,1,125,8|0,0:0|0:0,0:0:0:0:
359,160,90564,2,0,P|298:172|231:153,1,125,8|0,0:0|0:0,0:0:0:0:
207,74,90806,2,0,P|170:89|153:112,1,62.5,8|0,0:0|0:0,0:0:0:0:
153,193,90967,2,0,P|203:248|282:260,1,125,8|0,0:0|0:0,0:0:0:0:
310,125,91289,1,8,0:0:0:0:
426,220,91451,1,0,0:0:0:0:
451,72,91612,5,8,0:0:0:0:
394,45,91693,1,8,0:0:0:0:
332,34,91773,1,8,0:0:0:0:
271,52,91854,1,8,0:0:0:0:
230,99,91935,2,0,P|221:112|223:130,5,31.25
319,161,92257,5,8,0:0:0:0:
328,223,92338,1,8,0:0:0:0:
289,272,92419,1,8,0:0:0:0:
229,290,92499,1,8,0:0:0:0:
169,270,92580,2,0,P|156:259|153:241,5,31.25
114,149,92902,5,8,0:0:0:0:
174,165,92983,1,8,0:0:0:0:
236,159,93064,1,8,0:0:0:0:
293,135,93144,1,8,0:0:0:0:
325,81,93225,2,0,P|333:65|328:47,5,31.25
226,56,93548,5,8,0:0:0:0:
164,50,93628,1,8,0:0:0:0:
105,73,93709,1,8,0:0:0:0:
81,130,93789,1,8,0:0:0:0:
90,192,93870,2,0,P|91:210|115:217,5,31.25
200,285,94193,5,8,0:0:0:0:
255,324,94273,1,8,0:0:0:0:
322,336,94354,1,0,0:0:0:0:
388,315,94435,1,0,0:0:0:0:
435,265,94515,1,8,0:0:0:0:
451,197,94596,1,8,0:0:0:0:
429,131,94677,1,0,0:0:0:0:
371,94,94757,1,0,0:0:0:0:
302,84,94838,5,8,0:0:0:0:
235,102,94919,1,8,0:0:0:0:
193,156,94999,1,0,0:0:0:0:
201,224,95080,1,0,0:0:0:0:
179,288,95160,1,8,0:0:0:0:
117,318,95241,1,8,0:0:0:0:
51,296,95322,1,0,0:0:0:0:
28,234,95402,1,0,0:0:0:0:
57,171,95483,5,8,0:0:0:0:
121,147,95564,1,8,0:0:0:0:
185,168,95644,1,0,0:0:0:0:
231,219,95725,1,0,0:0:0:0:
289,255,95806,1,8,0:0:0:0:
357,258,95886,1,8,0:0:0:0:
420,230,95967,1,0,0:0:0:0:
454,170,96048,1,0,0:0:0:0:
448,101,96128,5,8,0:0:0:0:
400,50,96209,1,8,0:0:0:0:
333,34,96289,1,0,0:0:0:0:
266,52,96370,1,0,0:0:0:0:
232,112,96451,1,8,0:0:0:0:
233,180,96531,1,8,0:0:0:0:
193,236,96612,1,0,0:0:0:0:
125,249,96693,1,0,0:0:0:0:
62,222,96773,1,8,0:0:0:0:
256,192,96935,12,0,99031,0:0:0:0:
256,192,99193,6,0,L|256:84,1,100,0|8,0:0|0:0,0:0:0:0:
385,104,99515,5,0,0:0:0:0:
385,104,99596,1,0,0:0:0:0:
385,104,99677,1,8,0:0:0:0:
340,225,99838,5,0,0:0:0:0:
340,225,99919,1,0,0:0:0:0:
340,225,99999,1,8,0:0:0:0:
257,324,100160,5,0,0:0:0:0:
257,324,100241,1,0,0:0:0:0:
257,324,100322,1,8,0:0:0:0:
172,225,100483,5,0,0:0:0:0:
172,225,100564,1,0,0:0:0:0:
172,225,100644,1,8,0:0:0:0:
127,104,100806,5,0,0:0:0:0:
127,104,100887,1,0,0:0:0:0:
127,104,100967,1,8,0:0:0:0:
256,163,101128,5,8,0:0:0:0:
256,124,101209,1,0,0:0:0:0:
256,84,101289,5,12,0:0:0:0:
256,293,101451,5,4,0:0:0:0:
255,33,101612,5,12,0:0:0:0:
463,53,101935,5,8,0:0:0:0:
432,179,102096,2,0,P|383:157|356:104,1,100,0|8,0:0|0:0,0:0:0:0:
239,171,102419,1,0,0:0:0:0:
143,83,102580,1,8,0:0:0:0:
76,194,102741,1,0,0:0:0:0:
49,163,102822,1,0,0:0:0:0:
42,123,102902,1,8,0:0:0:0:
292,53,103225,6,0,P|348:59|396:86,1,100,8|8,0:0|0:0,0:0:0:0:
417,103,103467,1,0,0:0:0:0:
437,137,103548,1,0,0:0:0:0:
365,245,103709,1,0,0:0:0:0:
305,129,103870,2,0,P|256:155|238:204,1,100,8|0,0:0|0:0,0:0:0:0:
108,205,104193,1,8,0:0:0:0:
197,299,104354,1,8,0:0:0:0:
293,212,104515,6,0,P|347:243|362:298,1,100,8|0,0:0|0:0,0:0:0:0:
358,145,104838,1,8,0:0:0:0:
437,247,104999,1,0,0:0:0:0:
457,118,105160,2,0,P|428:82|370:72,1,100,8|8,0:0|0:0,0:0:0:0:
337,71,105402,1,8,0:0:0:0:
300,86,105483,1,0,0:0:0:0:
51,164,105806,5,8,0:0:0:0:
138,259,105967,1,0,0:0:0:0:
178,261,106048,1,0,0:0:0:0:
215,249,106128,2,0,P|264:223|281:180,1,100,8|0,0:0|0:0,0:0:0:0:
396,124,106451,2,0,B|396:122|395:124|395:124|397:124|397:124|395:123|395:122|395:122|396:123|396:123|394:124|394:124|394:122|394:122|397:122|397:122|397:123|397:123|393:124|393:124|398:122|398:123,4,25,8|8|8|8|0,0:0|0:0|0:0|0:0|0:0,0:0:0:0:
273,82,106773,2,0,P|220:73|159:94,1,100,8|0,0:0|0:0,0:0:0:0:
47,60,107096,5,8,0:0:0:0:
54,189,107257,1,0,0:0:0:0:
184,182,107419,2,0,P|226:209|232:262,1,100,8|0,0:0|0:0,0:0:0:0:
349,195,107741,1,8,0:0:0:0:
448,278,107902,1,0,0:0:0:0:
469,244,107983,1,0,0:0:0:0:
468,203,108064,1,8,0:0:0:0:
249,62,108386,6,0,P|228:122|188:145,1,100,8|8,0:0|0:0,0:0:0:0:
161,153,108628,1,0,0:0:0:0:
120,150,108709,1,0,0:0:0:0:
188,260,108870,1,4,0:0:0:0:
287,176,109031,1,4,0:0:0:0:
331,298,109193,1,4,0:0:0:0:
430,214,109354,1,12,0:0:0:0:
423,174,109435,1,8,0:0:0:0:
404,139,109515,1,0,0:0:0:0:
371,115,109596,1,0,0:0:0:0:
332,105,109677,1,8,0:0:0:0:
259,212,109838,5,8,0:0:0:0:
221,226,109919,1,8,0:0:0:0:
181,224,109999,1,0,0:0:0:0:
146,202,110080,1,0,0:0:0:0:
119,172,110160,1,8,0:0:0:0:
80,159,110241,1,0,0:0:0:0:
41,168,110322,1,8,0:0:0:0:
111,276,110483,2,0,P|132:284|145:298,3,33.3333333333333
269,303,110806,1,8,0:0:0:0:
386,251,110967,6,0,P|392:188|352:139,1,100,0|8,0:0|0:0,0:0:0:0:
348,128,111209,1,0,0:0:0:0:
310,114,111289,1,8,0:0:0:0:
195,50,111451,5,8,0:0:0:0:
147,65,111531,1,8,0:0:0:0:
115,103,111612,1,0,0:0:0:0:
108,152,111693,1,8,0:0:0:0:
139,190,111773,1,8,0:0:0:0:
186,207,111854,1,0,0:0:0:0:
235,198,111935,1,8,0:0:0:0:
432,290,112257,5,8,0:0:0:0:
435,209,112419,1,0,0:0:0:0:
429,189,112499,1,0,0:0:0:0:
417,172,112580,1,8,0:0:0:0:
338,158,112741,1,8,0:0:0:0:
324,172,112822,1,8,0:0:0:0:
315,189,112902,1,0,0:0:0:0:
194,191,113064,1,8,0:0:0:0:
262,289,113225,1,0,0:0:0:0:
44,57,113548,5,12,0:0:0:0:
85,200,113709,2,0,P|137:211|173:198,1,75.0000028610231
203,180,113870,1,8,0:0:0:0:
412,200,114031,2,0,P|397:145|415:106,1,100,8|0,0:0|0:0,0:0:0:0:
453,61,114193,1,12,0:0:0:0:
256,312,114354,5,4,0:0:0:0:
59,61,114515,1,12,0:0:0:0:
256,192,114838,12,0,118386,0:0:0:0:
