osu file format v14

[General]
AudioFilename: audio.mp3
AudioLeadIn: 0
PreviewTime: 30054
Countdown: 0
SampleSet: Soft
StackLeniency: 0.7
Mode: 0
LetterboxInBreaks: 0
WidescreenStoryboard: 1

[Editor]
Bookmarks: 27471,30138,40804,51471,62138,107471,112804,118471
DistanceSpacing: 1.3
BeatDivisor: 4
GridSize: 16
TimelineZoom: 1.3

[Metadata]
Title:Fatality Saga
TitleUnicode:Fatality Saga
Artist:AAAA Chazuke
ArtistUnicode:ああああ茶漬け
Creator:Battle
Version:_83's Hard
Source:
Tags:Umeboshi Chazuke 梅干茶漬け chiptune SnowNiNo_ bor meat inspector _83 VINXIS
BeatmapID:1412468
BeatmapSetID:664679

[Difficulty]
HPDrainRate:4
CircleSize:4
OverallDifficulty:6.5
ApproachRate:7
SliderMultiplier:1.3
SliderTickRate:1

[Events]
//Background and Video events
0,0,"53591823_p0.jpg",0,0
//Break Periods
2,30338,39404
//Storyboard Layer 0 (Background)
//Storyboard Layer 1 (Fail)
//Storyboard Layer 2 (Pass)
//Storyboard Layer 3 (Foreground)
//Storyboard Sound Samples

[TimingPoints]
805,333.333333333333,4,1,1,100,1,0
1638,-100,4,2,1,70,0,0
2055,-100,4,2,1,5,0,0
2138,-100,4,2,1,80,0,0
2804,-100,4,2,1,85,0,0
3471,-100,4,2,1,90,0,0
4138,-100,4,2,1,100,0,0
6138,-100,4,2,1,100,0,0
10138,-100,4,2,1,100,0,0
11471,-100,4,2,1,100,0,0
12221,-100,4,2,1,5,0,0
12304,-100,4,2,1,100,0,0
12804,-100,4,2,1,90,0,0
26138,-100,4,2,1,70,0,0
27138,-100,4,2,1,100,0,0
30138,-100,4,2,1,80,0,0
31804,-100,4,2,1,75,0,0
32138,-100,4,2,1,70,0,0
32471,-100,4,2,1,65,0,0
32804,-100,4,2,1,80,0,0
34471,-100,4,2,1,75,0,0
34804,-100,4,2,1,70,0,0
35138,-100,4,2,1,65,0,0
35471,-100,4,2,1,80,0,0
40804,-100,4,2,1,90,0,0
51471,-100,4,2,1,80,0,0
56804,-100,4,2,1,90,0,0
62138,-100,4,2,1,70,0,0
67471,-100,4,2,1,80,0,0
71471,-100,4,2,1,100,0,0
72304,-100,4,2,1,90,0,0
72804,-83.3333333333333,4,2,1,100,0,1
84804,-83.3333333333333,4,2,1,90,0,0
85304,-83.3333333333333,4,2,1,80,0,0
85471,-83.3333333333333,4,2,1,90,0,0
85971,-83.3333333333333,4,2,1,80,0,0
86138,-83.3333333333333,4,2,1,70,0,0
86304,-83.3333333333333,4,2,1,75,0,0
86471,-83.3333333333333,4,2,1,80,0,0
86638,-83.3333333333333,4,2,1,85,0,0
86804,-83.3333333333333,4,2,1,90,0,0
87471,-83.3333333333333,4,2,1,100,0,1
92804,-83.3333333333333,4,2,1,100,0,0
93638,-83.3333333333333,4,2,1,80,0,0
94138,-83.3333333333333,4,2,1,90,0,1
94638,-83.3333333333333,4,2,1,90,0,1
95138,-83.3333333333333,4,2,1,90,0,0
95471,-100,4,2,1,80,0,0
104804,-100,4,2,1,90,0,0
107471,-100,4,2,1,80,0,0
109471,-100,4,2,1,80,0,0
112804,-100,4,2,1,90,0,0
120638,-100,4,2,1,70,0,0

[Colours]
Combo1 : 226,128,29
Combo2 : 114,130,64
Combo3 : 31,51,97
Combo4 : 129,18,18
Combo5 : 50,147,152
Combo6 : 191,72,105

[HitObjects]
77,82,1638,6,0,L|72:122,2,32.5,2|2|0,0:3|0:3|1:0,0:0:0:0:
232,14,2138,2,0,L|238:154,1,130,4|0,0:0|0:0,0:0:0:0:
314,180,2638,2,0,L|359:187,1,32.5,2|2,0:0|0:0,0:0:0:0:
388,184,2804,2,0,L|405:327,1,130,4|0,0:0|0:0,0:0:0:0:
328,352,3304,2,0,L|271:360,1,32.5,0|2,0:0|0:0,0:0:0:0:
254,365,3471,6,0,P|250:314|248:261,2,97.5,4|8|4,0:0|0:3|0:3,0:0:0:0:
170,377,4138,2,0,P|135:341|118:281,1,97.5,4|0,1:2|1:0,0:0:0:0:
123,255,4471,2,0,P|117:213|101:184,1,65,0|0,1:0|1:0,0:0:0:0:
29,159,4804,5,4,0:3:0:0:
0,35,5054,2,0,P|50:39|110:85,1,97.5
90,62,5388,1,0,0:0:0:0:
90,62,5471,2,0,P|135:76|224:76,1,130,4|4,0:3|0:3,0:0:0:0:
372,10,6138,5,4,0:0:0:0:
462,111,6388,2,0,P|473:136|472:218,1,97.5,0|2,0:0|0:0,0:0:0:0:
392,222,6804,2,0,P|369:192|361:160,1,65,4|4,1:2|0:3,0:0:0:0:
452,284,7304,1,0,0:0:0:0:
390,342,7471,6,0,L|254:353,1,130,4|0,0:1|0:0,0:0:0:0:
187,309,7971,1,2,0:0:0:0:
187,309,8054,1,2,0:0:0:0:
187,309,8138,2,0,P|217:264|274:239,1,97.5,4|2,0:0|0:0,0:0:0:0:
381,245,8638,1,2,0:3:0:0:
461,268,8804,6,0,L|471:162,1,97.5,4|4,0:0|0:0,0:0:0:0:
507,49,9304,1,0,1:0:0:0:
433,7,9471,2,0,P|393:42|326:51,1,97.5,4|0,0:0|1:0,0:0:0:0:
231,9,9971,1,0,1:0:0:0:
150,35,10138,5,4,0:0:0:0:
57,353,10971,2,0,L|45:275,2,65,2|2|2,0:0|0:0|0:0,0:0:0:0:
133,317,11471,5,4,0:0:0:0:
253,355,11721,1,4,0:0:0:0:
373,317,11971,1,4,0:0:0:0:
373,317,12304,2,0,P|404:331|444:335,2,65,2|2|0,0:0|0:0|0:0,0:0:0:0:
360,233,12804,6,0,P|420:222|470:239,1,97.5,4|2,0:0|0:3,0:0:0:0:
494,244,13138,2,0,L|485:175,1,65,0|2,1:0|0:3,0:0:0:0:
457,99,13471,2,0,P|462:58|506:6,2,97.5,2|0|2,0:0|0:0|0:3,0:0:0:0:
374,79,14138,6,0,L|253:94,1,97.5,2|2,0:3|0:3,0:0:0:0:
234,95,14471,2,0,P|194:91|154:67,1,65,0|0,1:0|0:0,0:0:0:0:
104,29,14804,2,0,L|91:-10,2,32.5,0|2|0,0:3|0:3|1:0,0:0:0:0:
71,107,15138,2,0,L|61:182,1,65,0|0,1:0|1:0,0:0:0:0:
41,253,15471,6,0,P|100:251|157:300,1,130,2|0,0:0|1:0,0:0:0:0:
184,372,15971,1,0,0:0:0:0:
268,381,16138,2,0,P|303:362|332:339,1,65,2|0,0:0|0:0,0:0:0:0:
347,265,16471,1,0,1:0:0:0:
347,265,16638,1,2,0:3:0:0:
381,188,16804,6,0,P|363:146|331:124,1,65,4|0,1:0|0:0,0:0:0:0:
277,179,17138,2,0,L|184:167,1,65,4|0,1:0|0:0,0:0:0:0:
187,89,17471,2,0,P|205:47|237:25,1,65,4|0,1:0|1:0,0:0:0:0:
301,55,17805,2,0,L|394:43,1,65,0|0,1:0|1:0,0:0:0:0:
442,11,18138,6,0,P|443:61|450:121,1,97.5,4|2,0:0|0:3,0:0:0:0:
467,146,18471,2,0,P|467:176|463:210,1,65,0|0,1:0|0:0,0:0:0:0:
413,279,18804,2,0,P|436:328|437:378,2,97.5,0|0|2,0:3|0:0|3:0,0:0:0:0:
334,246,19471,6,0,L|210:265,1,97.5,2|2,0:3|0:3,0:0:0:0:
197,249,19804,2,0,L|193:328,1,65,0|0,1:0|0:0,0:0:0:0:
117,352,20138,2,0,L|125:394,2,32.5,0|2|0,0:0|0:3|1:0,0:0:0:0:
38,320,20471,2,0,L|34:255,1,65,0|0,1:0|1:0,0:0:0:0:
56,173,20804,6,0,P|98:150|112:100,1,97.5,2|2,0:3|0:3,0:0:0:0:
107,62,21138,2,0,P|108:24|123:-3,1,65,0|0,1:0|0:0,0:0:0:0:
198,33,21471,2,0,L|293:46,1,65,2|0,0:0|0:0,0:0:0:0:
346,29,21804,1,0,1:0:0:0:
501,95,22138,6,0,L|382:104,1,86.6666666666667,4|8,0:0|0:3,0:0:0:0:
367,132,22471,2,0,L|378:192,2,43.3333333333333,4|4|4,0:3|0:3|0:3,0:0:0:0:
314,153,22804,2,0,P|252:187|217:188,1,86.6666666666667,4|4,0:3|0:3,0:0:0:0:
128,159,23249,2,0,P|115:138|109:110,1,43.3333333333333,8|8,0:3|0:3,0:0:0:0:
124,65,23471,6,0,P|119:40|105:11,2,43.3333333333333,4|4|4,0:3|0:3|0:3,0:0:0:0:
180,62,23804,2,0,P|181:36|175:4,2,43.3333333333333,8|0|4,0:3|0:0|0:3,0:0:0:0:
234,73,24138,2,0,P|241:48|244:15,2,43.3333333333333,8|0|4,0:3|0:0|0:3,0:0:0:0:
284,98,24471,1,8,0:3:0:0:
176,228,24804,5,4,0:1:0:0:
256,192,24916,12,0,27138,0:0:0:0:
101,52,27471,6,0,L|190:58,1,65,0|0,1:0|0:0,0:0:0:0:
204,131,27804,2,0,L|111:142,1,65,0|0,1:0|0:0,0:0:0:0:
97,215,28138,2,0,L|186:221,1,65,0|0,1:0|0:0,0:0:0:0:
161,219,28388,1,2,0:3:0:0:
161,219,28471,2,0,L|225:211,1,65,0|0,1:0|0:0,0:0:0:0:
302,175,28804,6,0,P|310:211|308:258,1,65,0|0,1:0|0:0,0:0:0:0:
260,307,29138,2,0,P|248:340|248:380,1,65,0|0,1:0|0:0,0:0:0:0:
338,362,29471,2,0,L|409:371,1,65,0|0,1:0|0:0,0:0:0:0:
402,370,29721,1,2,0:3:0:0:
402,370,29804,2,0,L|413:292,1,65,0|0,1:0|1:0,0:0:0:0:
474,228,30138,5,4,0:0:0:0:
451,133,40304,5,4,1:0:0:0:
454,136,40804,6,0,L|312:150,1,130,6|0,1:0|1:0,0:0:0:0:
268,154,41249,2,0,P|248:169|234:197,1,43.3333333333333,0|2,1:0|0:3,0:0:0:0:
230,240,41471,2,0,P|232:297|220:339,2,86.6666666666667,2|2|2,0:1|0:1|0:1,0:0:0:0:
123,278,42138,2,0,L|119:134,1,130,2|0,1:0|1:0,0:0:0:0:
235,25,42804,2,0,L|239:169,1,130,2|0,1:0|1:0,0:0:0:0:
299,313,43471,6,0,P|352:344|440:326,1,130,2|0,1:0|1:0,0:0:0:0:
468,312,43916,2,0,P|487:269|487:239,1,43.3333333333333,2|2,0:3|0:3,0:0:0:0:
496,217,44138,2,0,P|444:217|396:237,2,86.6666666666667,2|2|2,1:0|0:1|0:1,0:0:0:0:
512,106,44804,2,0,L|367:73,1,130,2|0,1:0|1:0,0:0:0:0:
223,26,45471,2,0,L|96:54,1,130,2|0,1:1|1:0,0:0:0:0:
20,206,46138,6,0,P|64:158|132:158,1,130,2|0,1:0|1:0,0:0:0:0:
266,247,46804,2,0,P|302:267|371:275,2,86.6666666666667,2|2|2,1:0|0:1|0:1,0:0:0:0:
255,134,47471,2,0,P|280:80|360:38,1,130,2|0,1:0|1:0,0:0:0:0:
459,159,48138,2,0,P|434:213|354:255,1,130,2|0,1:1|1:0,0:0:0:0:
238,347,48804,6,0,L|120:337,2,86.6666666666667,2|2|2,1:0|0:1|0:1,0:0:0:0:
329,280,49471,2,0,L|415:287,2,86.6666666666667,2|2|2,1:0|0:1|0:1,0:0:0:0:
262,188,50138,2,0,P|290:126|321:105,1,97.5,4|2,0:0|0:0,0:0:0:0:
435,78,50638,2,0,L|487:78,2,32.5,2|2|0,0:3|0:3|1:0,0:0:0:0:
397,199,51054,1,2,0:3:0:0:
405,204,51138,2,0,L|408:276,1,65,0|0,1:0|1:0,0:0:0:0:
382,346,51471,6,0,P|341:366|267:366,1,97.5,4|2,0:0|0:0,0:0:0:0:
166,337,51971,1,0,0:0:0:0:
83,357,52138,2,0,P|81:305|27:236,1,130,2|2,0:0|0:3,0:0:0:0:
30,158,52638,1,0,0:0:0:0:
30,158,52721,1,0,0:0:0:0:
30,158,52804,6,0,L|177:157,1,130,2|2,0:0|0:3,0:0:0:0:
229,204,53304,2,0,L|280:209,2,32.5,0|2|2,0:0|0:0|0:0,0:0:0:0:
241,119,53638,1,2,0:0:0:0:
176,64,53804,2,0,P|199:43|243:33,1,65,2|2,0:3|0:0,0:0:0:0:
312,57,54138,6,0,L|463:69,1,130,2|2,0:0|0:3,0:0:0:0:
494,227,54804,2,0,P|455:173|386:155,1,130,2|2,0:0|0:3,0:0:0:0:
241,222,55471,6,0,L|340:237,2,97.5,2|2|2,0:0|0:0|0:0,0:0:0:0:
156,232,56138,2,0,P|132:278|131:306,1,65,0|2,1:0|0:3,0:0:0:0:
178,360,56471,1,4,1:0:0:0:
343,325,56804,6,0,L|410:337,1,65,2|0,0:3|0:0,0:0:0:0:
486,306,57138,2,0,P|475:241|410:186,1,130,2|2,1:2|0:3,0:0:0:0:
356,157,57638,1,2,0:0:0:0:
356,157,57804,2,0,P|361:116|369:89,1,65,0|2,1:0|0:0,0:0:0:0:
337,13,58138,6,0,L|222:31,1,97.5,2|2,0:3|0:0,0:0:0:0:
123,76,58638,1,0,0:0:0:0:
38,78,58804,2,0,P|53:123|47:184,1,97.5,2|0,0:3|0:0,0:0:0:0:
6,291,59304,1,0,0:0:0:0:
52,361,59471,6,0,P|101:320|128:258,1,130,2|0,0:3|1:0,0:0:0:0:
146,92,60138,2,0,P|122:69|105:37,2,65,2|2|0,0:3|0:0|1:0,0:0:0:0:
228,110,60638,1,2,0:0:0:0:
303,147,60804,6,0,P|331:190|336:266,1,130,2|0,0:3|1:0,0:0:0:0:
469,370,61471,2,0,P|477:331|496:297,2,65,2|2|0,0:3|0:0|1:0,0:0:0:0:
389,341,61971,1,2,0:0:0:0:
313,379,62138,5,4,0:1:0:0:
313,379,62804,1,2,0:0:0:0:
63,354,63471,6,0,P|122:356|168:293,1,130,2|2,0:0|0:0,0:0:0:0:
151,136,64138,2,0,P|95:184|90:253,1,130,2|2,0:0|0:0,0:0:0:0:
136,305,64638,1,0,0:0:0:0:
219,312,64804,5,4,0:1:0:0:
219,312,65471,1,2,0:0:0:0:
472,264,66138,5,4,0:0:0:0:
448,96,66471,1,2,0:0:0:0:
372,247,66804,1,4,0:0:0:0:
506,144,67138,1,4,0:0:0:0:
385,25,67471,6,0,P|341:55|254:70,1,130,4|0,0:0|1:0,0:0:0:0:
101,34,68138,2,0,P|64:18|13:16,2,86.6666666666667,2|2|2,0:2|0:0|0:3,0:0:0:0:
128,143,68804,6,0,L|108:287,1,130,4|0,0:0|1:0,0:0:0:0:
256,357,69471,1,0,1:0:0:0:
239,188,69804,1,0,1:0:0:0:
384,273,70138,5,4,0:0:0:0:
256,192,70249,12,0,72471,0:0:0:0:
458,71,72804,6,0,B|378:50|378:50|285:87,1,155.999995239258,2|0,1:0|1:0,0:0:0:0:
234,144,73304,1,2,1:0:0:0:
234,144,73388,1,2,1:0:0:0:
234,144,73471,2,0,P|194:69|106:79,1,155.999995239258,2|0,1:2|1:0,0:0:0:0:
63,141,73971,2,0,L|46:204,1,38.9999988098145,2|2,1:0|1:0,0:0:0:0:
21,218,74138,6,0,L|150:247,1,116.999996429443,2|2,1:0|0:1,0:0:0:0:
258,333,74638,1,2,1:0:0:0:
355,307,74804,2,0,P|374:259|371:181,1,116.999996429443,2|2,1:0|0:1,0:0:0:0:
315,53,75304,1,2,1:0:0:0:
404,5,75471,6,0,P|419:80|474:127,1,116.999996429443,2|2,1:0|0:1,0:0:0:0:
504,249,75971,1,2,0:1:0:0:
504,249,76054,1,2,0:1:0:0:
504,249,76138,2,0,L|424:259,1,77.999997619629,2|0,1:0|1:0,0:0:0:0:
354,330,76471,2,0,L|274:320,1,77.999997619629,2|0,1:0|1:0,0:0:0:0:
194,260,76804,6,0,P|129:277|88:335,1,116.999996429443,2|2,1:0|0:1,0:0:0:0:
16,183,77304,1,2,1:0:0:0:
53,88,77471,2,0,B|116:128|116:128|222:137,1,155.999995239258,2|4,1:0|0:3,0:0:0:0:
286,86,77971,1,2,0:1:0:0:
286,86,78054,1,0,0:0:0:0:
286,86,78138,6,0,P|343:36|422:55,1,155.999995239258,2|0,1:0|1:0,0:0:0:0:
477,131,78638,1,2,1:0:0:0:
477,131,78804,2,0,L|462:218,1,77.999997619629,2|2,1:0|1:0,0:0:0:0:
392,280,79138,2,0,L|407:367,1,77.999997619629,2|2,1:0|1:0,0:0:0:0:
307,383,79471,6,0,L|311:256,1,116.999996429443,2|2,1:0|0:1,0:0:0:0:
359,121,79971,1,2,1:0:0:0:
304,35,80138,2,0,P|248:94|194:102,1,116.999996429443,2|2,1:0|0:1,0:0:0:0:
72,50,80638,1,2,1:0:0:0:
14,133,80804,6,0,L|25:288,1,155.999995239258,2|0,1:0|1:0,0:0:0:0:
118,329,81304,1,0,1:0:0:0:
118,329,81388,1,2,0:3:0:0:
118,329,81471,2,0,L|142:194,1,116.999996429443,2|2,1:0|0:1,0:0:0:0:
274,146,81971,1,2,1:0:0:0:
356,205,82138,6,0,P|415:203|479:234,2,116.999996429443,4|0|0,1:0|1:0|1:0,0:0:0:0:
363,212,82721,1,0,1:0:0:0:
363,212,82804,2,0,L|348:296,1,77.999997619629,0|0,1:0|1:0,0:0:0:0:
264,345,83138,2,0,L|270:383,2,38.9999988098145,0|0|0,1:0|1:0|1:0,0:0:0:0:
190,275,83471,6,0,P|134:301|65:313,2,116.999996429443,8|4|0,1:3|1:3|1:0,0:0:0:0:
193,268,84054,1,0,0:0:0:0:
195,260,84138,2,0,L|206:162,1,77.999997619629,4|0,1:0|1:0,0:0:0:0:
135,106,84471,2,0,L|124:8,1,77.999997619629,0|0,1:0|1:0,0:0:0:0:
224,53,84804,5,4,0:0:0:0:
224,53,85471,1,4,0:0:0:0:
504,98,86138,2,0,P|445:108|385:141,2,116.999996429443,2|2|2,0:1|0:1|0:1,0:0:0:0:
469,193,86804,2,0,L|450:326,1,116.999996429443,2|2,1:0|1:0,0:0:0:0:
319,383,87304,1,2,1:0:0:0:
273,292,87471,6,0,P|224:329|143:308,1,116.999996429443,2|2,1:0|0:1,0:0:0:0:
34,256,87971,1,2,1:0:0:0:
34,256,88054,1,0,0:0:0:0:
34,256,88138,2,0,P|48:214|80:178,1,77.999997619629,2|0,1:0|1:0,0:0:0:0:
161,145,88471,2,0,P|184:113|195:76,1,77.999997619629,2|0,1:0|1:0,0:0:0:0:
123,4,88804,6,0,P|92:52|92:128,1,116.999996429443,2|2,1:0|0:1,0:0:0:0:
162,242,89304,1,2,1:0:0:0:
255,282,89471,2,0,P|318:258|348:160,1,155.999995239258,2|8,1:0|0:3,0:0:0:0:
327,81,89971,2,0,L|347:37,1,38.9999988098145,2|0,1:0|0:0,0:0:0:0:
366,0,90138,6,0,P|443:40|467:129,1,155.999995239258,2|0,1:0|1:0,0:0:0:0:
428,194,90638,1,2,1:0:0:0:
428,194,90721,1,2,0:1:0:0:
428,194,90804,2,0,P|430:252|480:318,1,116.999996429443,2|2,1:0|0:1,0:0:0:0:
327,378,91304,1,2,1:0:0:0:
253,308,91471,6,0,P|178:352|123:350,2,116.999996429443,2|2|2,1:0|0:1|1:0,0:0:0:0:
252,205,92138,2,0,P|199:168|130:166,1,116.999996429443,2|2,1:0|0:1,0:0:0:0:
38,268,92638,1,2,1:0:0:0:
54,367,92804,5,6,1:1:0:0:
51,53,93638,2,0,P|61:94|59:144,2,77.999997619629,2|2|2,0:0|0:0|0:0,0:0:0:0:
144,12,94138,5,4,1:0:0:0:
288,59,94388,1,4,1:0:0:0:
432,12,94638,1,4,1:0:0:0:
432,12,94971,2,0,P|463:59|469:93,2,77.999997619629,2|2|2,0:0|0:0|0:0,0:0:0:0:
375,75,95471,6,0,L|381:192,1,97.5,4|2,1:0|0:0,0:0:0:0:
383,214,95804,2,0,P|414:231|465:240,1,65,0|2,1:0|0:3,0:0:0:0:
476,316,96138,2,0,L|391:340,1,65,0|2,1:0|0:3,0:0:0:0:
336,367,96471,2,0,L|251:357,1,65,0|0,1:0|1:0,0:0:0:0:
190,335,96804,6,0,P|175:270|192:222,1,97.5,2|2,1:0|1:0,0:0:0:0:
219,219,97138,2,0,L|300:236,1,65,0|2,0:0|1:0,0:0:0:0:
354,187,97471,2,0,L|397:183,2,32.5,2|2|0,0:1|0:3|1:0,0:0:0:0:
305,117,97804,1,2,1:0:0:0:
305,117,97971,1,2,1:0:0:0:
314,32,98138,6,0,L|203:17,1,97.5,2|2,1:0|0:1,0:0:0:0:
178,34,98471,2,0,L|158:119,1,65,0|2,1:0|0:1,0:0:0:0:
115,167,98804,2,0,L|36:183,1,65,2|2,1:0|0:3,0:0:0:0:
14,256,99138,2,0,L|93:272,1,65,2|2,1:0|1:0,0:0:0:0:
131,334,99471,6,0,L|186:324,3,32.5,2|0|4|0,1:0|0:0|0:3|0:0,0:0:0:0:
203,339,99804,2,0,L|234:344,3,32.5,2|0|4|0,1:0|0:0|0:3|0:0,0:0:0:0:
275,330,100138,2,0,L|330:320,7,32.5,2|0|4|0|2|0|4|0,1:0|0:0|0:3|0:0|1:0|0:0|0:3|0:0,0:0:0:0:
343,302,100804,6,0,P|364:338|432:364,2,97.5,2|0|2,0:0|0:0|0:0,0:0:0:0:
387,229,101471,1,2,0:0:0:0:
387,229,101554,1,0,0:0:0:0:
387,229,101638,1,2,0:3:0:0:
446,169,101804,2,0,P|451:105|448:96,1,65,0|0,1:0|1:0,0:0:0:0:
414,28,102138,6,0,L|517:-1,2,97.5,2|0|2,0:0|0:0|0:3,0:0:0:0:
330,18,102804,1,0,1:0:0:0:
330,18,102888,1,2,0:3:0:0:
330,18,102971,1,0,1:0:0:0:
254,55,103138,2,0,P|220:49|178:36,1,65,0|0,1:0|1:0,0:0:0:0:
110,14,103471,5,0,1:0:0:0:
46,170,103804,2,0,L|40:206,3,32.5,0|0|2|0,1:0|0:0|0:0|0:0,0:0:0:0:
62,239,104138,2,0,L|68:275,3,32.5,2|0|2|0,0:0|0:0|0:3|0:0,0:0:0:0:
46,308,104471,2,0,L|40:344,3,32.5,0|0|2|0,1:0|0:0|0:0|0:0,0:0:0:0:
64,375,104804,5,4,0:3:0:0:
195,268,105138,2,0,P|186:251|169:211,2,43.3333333333333,8|8|4,0:3|0:3|0:3,0:0:0:0:
237,279,105471,2,0,P|239:252|238:221,2,43.3333333333333,8|0|4,0:3|0:0|0:3,0:0:0:0:
286,305,105804,2,0,P|295:280|302:250,2,43.3333333333333,0|0|0,1:0|1:0|1:0,0:0:0:0:
342,306,106138,6,0,P|344:330|353:360,2,43.3333333333333,4|4|4,0:3|0:3|0:3,0:0:0:0:
395,288,106471,2,0,P|403:310|419:337,2,43.3333333333333,4|4|4,0:3|0:3|0:3,0:0:0:0:
441,257,106804,2,0,P|454:276|477:298,2,43.3333333333333,4|4|4,0:3|0:3|0:3,0:0:0:0:
477,215,107138,2,0,P|494:229|522:245,2,43.3333333333333,8|8|8,0:3|0:3|0:3,0:0:0:0:
502,164,107471,5,4,0:0:0:0:
502,164,108804,1,2,0:3:0:0:
423,127,109471,2,0,P|396:58|396:15,2,97.5,2|2|2,0:3|0:3|0:3,0:0:0:0:
502,164,110138,5,4,0:0:0:0:
502,164,111471,1,2,0:3:0:0:
423,127,112138,2,0,P|396:58|396:15,2,97.5,2|2|2,0:3|0:3|0:3,0:0:0:0:
502,164,112804,6,0,L|490:247,1,65,4|2,0:0|0:3,0:0:0:0:
424,279,113138,1,0,1:0:0:0:
400,359,113304,2,0,P|336:326|261:334,1,130,2|0,0:3|0:0,0:0:0:0:
201,361,113804,1,0,1:0:0:0:
201,361,113888,1,0,0:0:0:0:
201,361,113971,1,2,0:3:0:0:
194,276,114138,6,0,L|208:222,2,32.5,2|0|2,0:0|0:0|0:0,0:0:0:0:
112,300,114471,2,0,L|98:218,1,65,0|2,1:0|0:3,0:0:0:0:
33,185,114804,2,0,L|47:103,1,65,2|2,0:3|0:3,0:0:0:0:
85,46,115138,2,0,P|125:66|161:72,1,65,0|2,1:0|0:3,0:0:0:0:
144,70,115388,1,0,0:0:0:0:
144,70,115471,6,0,P|202:64|254:117,1,130,2|0,0:3|1:0,0:0:0:0:
258,194,115971,2,0,L|239:249,2,32.5,0|2|2,0:0|0:3|0:3,0:0:0:0:
339,171,116304,1,2,0:0:0:0:
403,116,116471,2,0,L|392:38,2,43.3333333333333,0|0|0,1:0|0:0|0:0,0:0:0:0:
452,143,116804,6,0,L|447:189,3,32.5,4|0|2|0,0:0|0:0|0:0|0:0,0:0:0:0:
417,205,117138,2,0,L|422:251,3,32.5,4|0|0|0,0:0|0:0|0:0|0:0,0:0:0:0:
452,267,117471,2,0,L|447:313,3,32.5,2|0|2|0,0:0|0:0|0:0|0:0,0:0:0:0:
417,329,117804,2,0,L|421:369,5,21.6666666666667,0|0|0|0|0|0,1:0|0:0|1:0|0:0|0:0|0:0,0:0:0:0:
264,217,118471,5,4,0:0:0:0:
256,192,118554,12,2,120804,0:3:0:0:
