osu file format v14

[General]
AudioFilename: audio.mp3
AudioLeadIn: 0
PreviewTime: 30054
Countdown: 0
SampleSet: Soft
StackLeniency: 0.7
Mode: 0
LetterboxInBreaks: 0
WidescreenStoryboard: 1

[Editor]
Bookmarks: 118471
DistanceSpacing: 0.9
BeatDivisor: 8
GridSize: 16
TimelineZoom: 2.3

[Metadata]
Title:Fatality Saga
TitleUnicode:Fatality Saga
Artist:AAAA Chazuke
ArtistUnicode:ああああ茶漬け
Creator:Battle
Version:VINXIS' Insane
Source:
Tags:Umeboshi Chazuke 梅干茶漬け chiptune SnowNiNo_ bor meat inspector _83 VINXIS
BeatmapID:1494458
BeatmapSetID:664679

[Difficulty]
HPDrainRate:6
CircleSize:5
OverallDifficulty:8
ApproachRate:8.5
SliderMultiplier:1.83
SliderTickRate:1

[Events]
//Background and Video events
0,0,"53591823_p0.jpg",0,0
//Break Periods
2,62338,63963
//Storyboard Layer 0 (Background)
//Storyboard Layer 1 (Fail)
//Storyboard Layer 2 (Pass)
//Storyboard Layer 3 (Foreground)
//Storyboard Sound Samples

[TimingPoints]
805,333.333333333333,4,1,1,100,1,0
1638,-100,4,2,1,70,0,0
2055,-100,4,2,1,5,0,0
2138,-166.666666666667,4,2,1,80,0,0
2804,-166.666666666667,4,2,1,85,0,0
3471,-166.666666666667,4,2,1,90,0,0
4138,-166.666666666667,4,2,1,100,0,0
12221,-166.666666666667,4,2,1,5,0,0
12304,-166.666666666667,4,2,1,100,0,0
12804,-125,4,2,1,90,0,0
24804,-166.666666666667,4,2,1,90,0,0
26138,-166.666666666667,4,2,1,70,0,0
27138,-166.666666666667,4,2,1,100,0,0
27471,-111.111111111111,4,2,1,100,0,0
30138,-166.666666666667,4,2,1,80,0,0
31804,-166.666666666667,4,2,1,75,0,0
32138,-166.666666666667,4,2,1,70,0,0
32471,-166.666666666667,4,2,1,65,0,0
32804,-166.666666666667,4,2,1,80,0,0
34471,-166.666666666667,4,2,1,75,0,0
34804,-166.666666666667,4,2,1,70,0,0
35138,-166.666666666667,4,2,1,65,0,0
35471,-166.666666666667,4,2,1,80,0,0
40804,-125,4,2,1,90,0,0
51471,-142.857142857143,4,2,1,80,0,0
56804,-117.647058823529,4,2,1,90,0,0
62138,-117.647058823529,4,2,1,70,0,0
67471,-125,4,2,1,80,0,0
71471,-125,4,2,1,100,0,0
72304,-125,4,2,1,90,0,0
72804,-111.111111111111,4,2,1,100,0,0
84804,-111.111111111111,4,2,1,90,0,0
85304,-111.111111111111,4,2,1,80,0,0
85471,-111.111111111111,4,2,1,90,0,0
85971,-111.111111111111,4,2,1,80,0,0
86138,-111.111111111111,4,2,1,70,0,0
86304,-111.111111111111,4,2,1,75,0,0
86471,-111.111111111111,4,2,1,80,0,0
86638,-111.111111111111,4,2,1,85,0,0
86804,-111.111111111111,4,2,1,90,0,0
87471,-99.9999999999999,4,2,1,100,0,0
92804,-166.666666666667,4,2,1,100,0,0
93638,-166.666666666667,4,2,1,80,0,0
94138,-125,4,2,1,90,0,0
95471,-100,4,2,1,80,0,0
104804,-100,4,2,1,90,0,0
107471,-100,4,2,1,80,0,0
112804,-100,4,2,1,90,0,0
120638,-100,4,2,1,70,0,0

[Colours]
Combo1 : 226,128,29
Combo2 : 114,130,64
Combo3 : 31,51,97
Combo4 : 129,18,18
Combo5 : 50,147,152
Combo6 : 191,72,105

[HitObjects]
124,68,1638,5,2,0:3:0:0:
124,68,1721,1,2,0:3:0:0:
124,68,1804,1,0,1:0:0:0:
166,357,2138,6,0,P|170:296|181:238,1,109.79999664917,4|0,0:0|0:0,0:0:0:0:
358,289,2638,1,2,0:0:0:0:
358,289,2721,1,2,0:0:0:0:
358,289,2804,2,0,P|354:228|343:170,1,109.79999664917,4|0,0:0|0:0,0:0:0:0:
85,162,3304,1,0,0:0:0:0:
85,162,3387,1,2,0:0:0:0:
85,162,3471,6,0,L|188:147,2,82.3499974868775,4|8|4,0:0|0:3|0:3,0:0:0:0:
427,162,4138,2,0,L|324:147,2,82.3499974868775,4|0|0,1:2|1:0|1:0,0:0:0:0:
344,52,4804,6,0,P|292:68|251:75,2,82.3499974868775,4|0|0,0:3|0:0|0:0,0:0:0:0:
344,52,5388,1,0,0:0:0:0:
344,52,5471,1,4,0:3:0:0:
363,333,5804,1,4,0:3:0:0:
344,52,6138,6,0,P|292:68|251:75,2,82.3499974868775,4|2|2,0:0|0:0|0:0,0:0:0:0:
172,16,6804,1,4,1:2:0:0:
136,188,6971,1,4,0:3:0:0:
136,188,7054,1,0,0:0:0:0:
136,188,7138,1,0,1:0:0:0:
308,224,7304,1,0,0:0:0:0:
109,180,7471,6,0,P|69:196|13:265,1,109.79999664917,4|0,0:1|0:0,0:0:0:0:
224,138,7971,1,2,0:0:0:0:
185,123,8054,1,2,0:0:0:0:
154,96,8138,2,0,L|174:3,2,82.3499974868775,4|2|2,0:0|0:0|0:3,0:0:0:0:
335,176,8804,6,0,L|315:83,2,82.3499974868775,4|4|0,0:0|0:0|1:0,0:0:0:0:
157,99,9471,2,0,P|107:126|58:129,1,82.3499974868775,4|0,0:0|1:0,0:0:0:0:
82,129,9804,2,0,L|75:191,1,54.899998324585,0|0,1:0|1:0,0:0:0:0:
211,313,10138,6,0,B|259:353|313:337|313:337|343:292|417:289,1,219.59999329834,4|0,0:0|0:0,0:0:0:0:
289,211,10971,1,2,0:0:0:0:
207,225,11137,1,2,0:0:0:0:
126,239,11304,1,2,0:0:0:0:
45,253,11471,5,4,0:0:0:0:
207,225,11721,1,4,0:0:0:0:
369,197,11971,2,0,P|365:133|356:74,1,109.79999664917,4|2,0:0|0:0,0:0:0:0:
358,87,12804,6,0,P|299:101|238:103,1,109.8,4|2,0:0|0:3,0:0:0:0:
224,23,13138,2,0,P|165:9|104:7,1,109.8,0|0,1:0|0:0,0:0:0:0:
58,67,13471,2,0,P|43:119|31:190,2,109.8,2|0|2,0:0|0:0|0:3,0:0:0:0:
32,173,14138,6,0,P|91:187|152:189,1,109.8,2|2,0:3|0:3,0:0:0:0:
166,109,14472,2,0,P|225:95|286:93,1,109.8,0|0,1:0|0:0,0:0:0:0:
332,153,14805,2,0,P|347:205|359:276,2,109.8,0|0|0,0:3|0:0|1:0,0:0:0:0:
357,259,15471,6,0,L|226:245,1,109.8,2|2,0:0|0:3,0:0:0:0:
247,247,15804,1,0,1:0:0:0:
335,157,15971,1,0,0:0:0:0:
335,157,16138,2,0,L|241:146,1,73.2,2|0,0:0|0:0,0:0:0:0:
440,121,16471,2,0,L|534:110,1,73.2,0|2,1:0|0:3,0:0:0:0:
355,50,16804,5,4,1:0:0:0:
137,128,17138,1,4,1:0:0:0:
332,256,17471,1,4,1:0:0:0:
217,350,17804,2,0,P|221:304|228:261,1,73.2,0|0,1:0|1:0,0:0:0:0:
162,112,18138,6,0,P|155:203|142:286,1,146.4,4|0,0:0|1:0,0:0:0:0:
48,327,18638,1,0,0:0:0:0:
147,257,18804,2,0,P|197:233|245:216,1,73.2,0|2,0:3|0:3,0:0:0:0:
162,112,19138,2,0,P|128:97|95:81,1,73.2,0|2,1:0|3:0,0:0:0:0:
251,42,19471,6,0,P|307:57|361:66,2,109.8,2|2|0,0:3|0:3|0:0,0:0:0:0:
321,152,20138,2,0,P|376:153|448:143,2,109.8,0|0|0,0:0|0:0|1:0,0:0:0:0:
228,310,20804,6,0,L|251:203,1,109.8,2|2,0:3|0:3,0:0:0:0:
176,172,21138,2,0,L|153:280,1,109.8,0|0,1:0|0:0,0:0:0:0:
156,155,21471,2,0,L|133:47,2,109.8,2|2|0,0:0|0:3|1:0,0:0:0:0:
133,47,22138,6,0,P|193:57|256:51,1,97.6,4|8,0:0|0:3,0:0:0:0:
303,5,22471,2,0,L|354:14,2,48.8,4|4|4,0:3|0:3|0:3,0:0:0:0:
338,93,22804,2,0,L|389:102,2,48.8,4|0|4,0:3|0:0|0:3,0:0:0:0:
373,181,23138,2,0,L|424:190,2,48.8,8|8|8,0:3|0:3|0:3,0:0:0:0:
408,269,23471,5,4,0:3:0:0:
361,284,23582,1,4,0:3:0:0:
313,286,23693,1,4,0:3:0:0:
266,274,23804,1,8,0:3:0:0:
218,262,23915,1,0,0:0:0:0:
170,265,24026,1,4,0:3:0:0:
124,281,24138,6,0,P|111:335|112:355,2,48.8,8|0|4,0:3|0:0|0:3,0:0:0:0:
73,211,24471,1,8,0:3:0:0:
73,211,24804,6,0,B|83:60|83:60|53:122,1,219.59999329834,4|0,0:1|0:0,0:0:0:0:
439,211,26138,2,0,B|429:60|429:60|459:122,1,219.59999329834,0|0,0:0|0:0,0:0:0:0:
256,192,27138,1,0,0:0:0:0:
256,192,27471,6,0,P|266:241|272:287,1,82.3499974868775,0|0,1:0|0:0,0:0:0:0:
137,190,27804,2,0,P|143:149|151:108,1,82.3499974868775,0|0,1:0|0:0,0:0:0:0:
447,86,28138,6,0,P|457:135|463:181,1,82.3499974868775,0|0,1:0|0:0,0:0:0:0:
328,84,28471,2,0,P|334:43|342:2,1,82.3499974868775,0|0,1:0|0:0,0:0:0:0:
211,286,28804,6,0,P|162:296|116:302,1,82.3499974868775,0|0,1:0|0:0,0:0:0:0:
213,167,29137,2,0,P|253:173|294:181,1,82.3499974868775,0|0,1:0|0:0,0:0:0:0:
392,215,29471,1,0,1:0:0:0:
425,118,29638,1,0,0:0:0:0:
328,84,29804,1,0,1:0:0:0:
295,182,29971,1,0,1:0:0:0:
192,182,30138,5,4,0:0:0:0:
137,177,30304,1,2,0:0:0:0:
86,156,30471,1,2,0:0:0:0:
44,121,30638,1,2,0:0:0:0:
241,259,30971,1,2,0:0:0:0:
186,269,31138,1,2,0:0:0:0:
186,269,31471,6,0,L|195:342,1,54.899998324585,2|0,0:0|0:0,0:0:0:0:
88,273,31804,2,0,L|97:346,1,54.899998324585,2|0,0:0|0:0,0:0:0:0:
335,243,32138,2,0,L|326:170,1,54.899998324585,2|0,0:0|0:0,0:0:0:0:
433,239,32471,2,0,L|424:166,1,54.899998324585,2|0,0:0|0:0,0:0:0:0:
416,353,32804,5,2,0:0:0:0:
362,343,32970,1,2,0:0:0:0:
307,348,33137,1,2,0:0:0:0:
257,369,33303,1,2,0:0:0:0:
236,244,33638,1,2,0:0:0:0:
193,278,33804,1,2,0:0:0:0:
193,278,34138,6,0,L|199:202,1,54.899998324585,2|0,0:0|0:0,0:0:0:0:
82,309,34471,2,0,L|88:233,1,54.899998324585,2|0,0:0|0:0,0:0:0:0:
331,127,34804,2,0,L|325:203,1,54.899998324585,2|0,0:0|0:0,0:0:0:0:
442,96,35137,2,0,L|436:172,1,54.899998324585,2|0,0:0|0:0,0:0:0:0:
510,223,35471,5,2,0:0:0:0:
492,275,35637,1,0,0:0:0:0:
485,329,35804,1,2,0:0:0:0:
489,384,35970,1,2,0:0:0:0:
148,291,36304,1,2,0:0:0:0:
489,198,36638,1,2,0:0:0:0:
297,61,36971,6,0,L|299:17,2,27.4499991622925,2|2|2,0:0|0:0|0:0,0:0:0:0:
297,61,37471,2,0,L|295:120,1,54.899998324585,2|2,0:0|0:0,0:0:0:0:
199,103,37804,2,0,L|197:162,1,54.899998324585,2|2,0:0|0:0,0:0:0:0:
101,145,38138,5,2,0:0:0:0:
256,192,38221,12,0,39138,0:0:0:0:
412,133,39471,5,2,0:0:0:0:
434,46,39638,1,0,0:0:0:0:
346,24,39804,1,2,0:0:0:0:
329,116,39971,1,2,0:0:0:0:
329,116,40304,2,0,P|288:132|219:137,1,109.79999664917,4|2,1:0|0:3,0:0:0:0:
197,224,40804,6,0,P|141:244|78:289,1,97.6,6|2,1:0|0:3,0:0:0:0:
41,220,41138,2,0,L|37:171,2,48.8,0|0|2,1:0|1:0|0:3,0:0:0:0:
87,85,41471,5,2,0:1:0:0:
259,0,41693,1,2,0:1:0:0:
431,85,41916,1,2,0:1:0:0:
316,239,42138,6,0,P|328:171|335:110,1,97.6,2|2,1:0|0:3,0:0:0:0:
254,48,42471,2,0,L|259:0,2,48.8,0|0|2,1:0|0:3|0:3,0:0:0:0:
193,239,42804,6,0,P|181:171|174:110,1,97.6,2|2,1:0|0:3,0:0:0:0:
254,48,43137,2,0,L|249:0,2,48.8,0|2|2,1:0|0:3|0:3,0:0:0:0:
331,142,43471,6,0,P|391:157|454:163,1,97.6,2|2,1:0|0:3,0:0:0:0:
473,226,43804,2,0,L|469:275,2,48.8,0|2|2,1:0|0:3|0:3,0:0:0:0:
387,318,44138,5,2,1:0:0:0:
501,126,44360,1,2,0:1:0:0:
309,12,44582,1,2,0:1:0:0:
195,204,44804,6,0,P|183:272|176:333,1,97.6,2|2,1:0|0:3,0:0:0:0:
254,336,45137,2,0,L|259:384,2,48.8,0|2|2,1:0|0:3|0:3,0:0:0:0:
318,204,45471,6,0,P|330:272|337:333,1,97.6,2|2,1:1|0:3,0:0:0:0:
254,336,45804,2,0,L|249:384,2,48.8,0|2|2,1:0|0:3|0:3,0:0:0:0:
195,204,46138,6,0,L|69:193,1,97.6,2|2,1:0|0:3,0:0:0:0:
68,177,46471,2,0,P|66:132|67:115,2,48.8,0|0|2,1:0|0:0|0:3,0:0:0:0:
107,44,46804,2,0,L|233:33,2,97.6,2|2|2,1:0|0:1|0:1,0:0:0:0:
235,122,47471,6,0,P|315:118|348:123,1,97.6,2|2,1:0|0:3,0:0:0:0:
413,166,47804,1,0,1:0:0:0:
428,212,47915,1,0,0:0:0:0:
434,260,48026,1,2,0:3:0:0:
432,309,48138,6,0,P|352:313|319:308,1,97.6,2|2,1:1|0:3,0:0:0:0:
254,265,48471,1,0,1:0:0:0:
207,281,48582,1,2,0:3:0:0:
159,287,48693,1,2,0:3:0:0:
110,285,48804,6,0,L|50:268,1,48.8,2|0,1:0|0:0,0:0:0:0:
89,190,49027,2,0,L|135:203,1,48.8,2|0,0:1|1:0,0:0:0:0:
264,162,49249,1,2,0:1:0:0:
312,162,49360,1,0,0:0:0:0:
361,157,49471,6,0,L|421:140,1,48.8,2|0,1:0|0:0,0:0:0:0:
382,62,49694,2,0,L|335:75,1,48.8,2|0,0:1|1:0,0:0:0:0:
231,8,49916,2,0,P|229:44|234:70,1,48.8,2|2,0:1|0:3,0:0:0:0:
264,162,50138,6,0,L|260:318,1,146.4,4|0,0:0|0:0,0:0:0:0:
170,367,50638,1,2,0:3:0:0:
170,367,50721,1,2,0:3:0:0:
170,367,50804,2,0,P|117:332|44:317,2,109.8,0|2|0,1:0|0:3|1:0,0:0:0:0:
260,308,51471,6,0,P|313:343|370:357,2,96.0749970680238,4|2|0,0:0|0:0|0:0,0:0:0:0:
180,260,52138,2,0,L|58:297,1,128.099996090698,2|2,0:0|0:3,0:0:0:0:
148,127,52638,1,0,0:0:0:0:
138,153,52721,1,0,0:0:0:0:
123,177,52804,6,0,L|0:213,1,128.099996090698,2|2,0:0|0:3,0:0:0:0:
91,44,53305,1,0,0:0:0:0:
81,70,53388,1,2,0:0:0:0:
66,94,53472,1,2,0:0:0:0:
176,43,53638,1,2,0:0:0:0:
297,41,53804,1,2,0:3:0:0:
415,71,53971,1,2,0:0:0:0:
480,173,54138,6,0,P|490:246|510:324,1,128.099996090698,2|2,0:0|0:3,0:0:0:0:
257,177,54638,1,0,0:0:0:0:
257,177,54804,2,0,P|247:250|227:328,1,128.099996090698,2|2,0:0|0:3,0:0:0:0:
415,71,55471,6,0,P|470:37|516:28,2,96.0749970680238,2|2|2,0:0|0:0|0:0,0:0:0:0:
297,41,56138,2,0,L|207:57,1,64.0499980453492,0|2,1:0|0:3,0:0:0:0:
248,139,56471,2,0,L|311:127,1,64.0499980453492,4|2,1:0|0:3,0:0:0:0:
166,102,56804,5,2,0:3:0:0:
191,237,56971,1,0,0:0:0:0:
191,237,57054,1,2,0:0:0:0:
191,237,57138,1,2,1:2:0:0:
71,197,57304,1,0,0:0:0:0:
71,197,57471,2,0,L|62:98,1,77.7750014834404,2|2,0:3|0:0,0:0:0:0:
166,102,57804,2,0,L|157:3,1,77.7750014834404,0|2,1:0|0:0,0:0:0:0:
280,29,58138,6,0,P|332:32|399:46,2,103.700001977921,2|0|0,0:3|0:0|0:0,0:0:0:0:
307,133,58804,2,0,P|350:161|401:207,2,103.700001977921,2|0|0,0:3|0:0|0:0,0:0:0:0:
278,236,59471,6,0,P|301:282|335:390,1,155.550002966881,2|0,0:3|1:0,0:0:0:0:
278,236,59971,1,2,0:0:0:0:
181,324,60138,2,0,L|83:312,1,77.7750014834404,2|2,0:3|0:0,0:0:0:0:
92,150,60471,1,0,1:0:0:0:
15,236,60638,1,2,0:0:0:0:
105,128,60804,6,0,P|93:72|98:23,1,77.7750014834404,2|2,0:3|0:0,0:0:0:0:
233,52,61138,1,0,1:0:0:0:
233,52,61304,1,2,0:0:0:0:
93,51,61471,2,0,L|239:69,1,116.662502225161,2|0,0:3|0:0,0:0:0:0:
233,52,61804,2,0,L|335:64,1,77.7750014834404,0|2,1:0|0:0,0:0:0:0:
412,72,62138,5,4,0:1:0:0:
412,74,64638,5,0,0:0:0:0:
412,74,64804,1,4,0:1:0:0:
100,74,66138,5,4,0:0:0:0:
412,74,66804,5,4,0:0:0:0:
256,74,67471,6,0,P|205:103|178:147,1,97.6,4|2,0:0|0:3,0:0:0:0:
177,201,67804,2,0,P|185:240|191:257,2,48.8,0|2|0,1:0|0:3|1:0,0:0:0:0:
182,346,68138,6,0,P|233:317|260:273,1,97.6,2|2,0:2|0:0,0:0:0:0:
261,219,68471,2,0,P|253:180|247:163,2,48.8,0|2|2,1:0|0:3|0:3,0:0:0:0:
326,272,68804,6,0,L|453:254,1,97.6,4|2,0:0|0:3,0:0:0:0:
470,205,69138,2,0,L|476:136,2,48.8,0|2|0,1:0|0:3|1:0,0:0:0:0:
512,65,69471,6,0,L|385:83,1,97.6,0|0,1:0|0:0,0:0:0:0:
368,132,69805,2,0,L|362:201,2,48.8,0|2|2,1:0|0:3|0:3,0:0:0:0:
326,33,70138,6,0,P|243:55|193:49,1,97.6,4|0,0:0|0:0,0:0:0:0:
162,9,70471,1,4,0:3:0:0:
142,48,70582,1,4,0:3:0:0:
130,91,70693,1,4,0:3:0:0:
123,135,70804,5,8,0:3:0:0:
122,180,70915,1,8,0:3:0:0:
127,224,71026,1,8,0:3:0:0:
138,268,71137,1,8,0:3:0:0:
153,309,71248,1,8,0:3:0:0:
175,349,71359,1,8,0:3:0:0:
201,384,71470,5,4,0:0:0:0:
320,384,71721,5,4,0:0:0:0:
439,384,71971,5,4,0:0:0:0:
439,384,72304,2,0,L|443:349,2,18.3,2|0|2,0:0|0:0|0:0,0:0:0:0:
439,384,72471,6,0,L|430:272,1,109.8,2|0,0:0|0:0,0:0:0:0:
459,207,72804,5,2,1:0:0:0:
392,133,72971,1,0,1:0:0:0:
476,81,73138,1,0,1:0:0:0:
404,13,73304,1,2,1:0:0:0:
379,14,73387,1,2,1:0:0:0:
354,16,73471,2,0,L|261:23,1,82.3499974868775,2|0,1:2|1:0,0:0:0:0:
189,77,73804,1,0,1:0:0:0:
96,42,73971,1,2,1:0:0:0:
90,65,74054,1,2,1:0:0:0:
84,89,74138,5,2,1:0:0:0:
131,175,74304,1,0,1:0:0:0:
86,263,74471,1,0,1:0:0:0:
157,331,74638,1,2,1:0:0:0:
163,308,74721,1,0,0:0:0:0:
169,284,74804,2,0,L|279:302,1,82.3499974868775,2|0,1:0|1:0,0:0:0:0:
213,189,75138,2,0,L|131:175,1,82.3499974868775,0|2,1:0|1:0,0:0:0:0:
84,89,75471,5,2,1:0:0:0:
181,72,75638,1,0,1:0:0:0:
278,55,75804,1,0,1:0:0:0:
375,38,75971,1,2,0:1:0:0:
381,61,76054,1,2,0:1:0:0:
387,84,76138,1,2,1:0:0:0:
450,159,76304,1,0,1:0:0:0:
351,172,76471,2,0,L|339:288,1,82.3499974868775,2|0,1:0|1:0,0:0:0:0:
384,343,76804,5,2,1:0:0:0:
285,336,76971,1,0,1:0:0:0:
228,254,77138,1,0,1:0:0:0:
163,328,77304,1,2,1:0:0:0:
64,323,77471,2,0,L|77:228,1,82.3499974868775,2|0,1:0|1:0,0:0:0:0:
75,241,77721,1,2,0:3:0:0:
75,241,77804,1,4,0:3:0:0:
17,160,77971,1,2,0:1:0:0:
95,99,78138,6,0,L|196:112,1,82.3499974868775,2|0,1:0|1:0,0:0:0:0:
254,48,78471,1,0,1:0:0:0:
278,144,78638,1,2,1:0:0:0:
196,199,78804,2,0,L|206:302,1,82.3499974868775,2|2,1:0|1:0,0:0:0:0:
114,254,79138,2,0,L|124:357,1,82.3499974868775,2|2,1:0|1:0,0:0:0:0:
211,377,79471,6,0,P|292:345|334:341,2,123.524996230316,2|2|2,1:0|0:1|1:0,0:0:0:0:
203,280,80138,2,0,P|142:269|86:244,2,123.524996230316,2|2|2,1:0|0:1|1:0,0:0:0:0:
291,236,80804,5,2,1:0:0:0:
352,158,80971,1,0,1:0:0:0:
419,230,81138,1,0,1:0:0:0:
489,161,81304,1,0,1:0:0:0:
489,161,81388,1,2,0:3:0:0:
489,161,81471,2,0,L|501:20,2,123.524996230316,2|2|2,1:0|0:1|1:0,0:0:0:0:
419,230,82138,6,0,L|435:323,1,82.3499974868775,4|0,1:0|0:0,0:0:0:0:
441,360,82388,2,0,L|359:373,1,82.3499974868775,0|0,1:0|0:0,0:0:0:0:
311,382,82638,1,0,1:0:0:0:
289,252,82804,2,0,L|370:238,1,82.3499974868775,0|0,1:0|1:0,0:0:0:0:
244,326,83138,1,0,1:0:0:0:
219,330,83221,1,0,1:0:0:0:
195,334,83304,1,0,1:0:0:0:
109,283,83471,6,0,L|120:191,1,82.3499974868775,8|0,1:3|0:0,0:0:0:0:
155,167,83721,2,0,L|144:75,1,82.3499974868775,4|0,1:3|0:0,0:0:0:0:
109,51,83971,1,0,1:0:0:0:
199,9,84138,2,0,L|301:22,2,82.3499974868775,4|0|0,1:0|1:0|1:0,0:0:0:0:
242,98,84638,1,0,1:0:0:0:
266,101,84721,1,0,0:0:0:0:
291,104,84804,5,4,0:0:0:0:
230,97,85304,1,4,0:0:0:0:
260,101,85387,1,0,0:0:0:0:
291,104,85470,5,4,0:0:0:0:
215,96,85971,1,4,0:0:0:0:
252,101,86054,1,0,0:0:0:0:
291,104,86137,5,2,0:1:0:0:
378,146,86304,1,2,0:3:0:0:
374,173,86387,1,2,0:1:0:0:
371,200,86470,1,2,0:3:0:0:
368,227,86553,1,2,0:3:0:0:
365,255,86637,1,2,0:1:0:0:
362,282,86720,1,2,0:3:0:0:
358,309,86804,6,0,L|353:355,1,41.1749987434388,2|0,1:0|1:0,0:0:0:0:
270,325,86971,2,0,L|265:371,2,41.1749987434388,0|2|0,1:0|1:0|1:0,0:0:0:0:
114,269,87304,1,2,1:0:0:0:
29,217,87471,5,2,1:0:0:0:
81,120,87638,1,0,1:0:0:0:
29,217,87804,1,0,1:0:0:0:
81,120,87971,1,2,1:0:0:0:
77,92,88054,1,0,0:0:0:0:
74,65,88138,2,0,L|173:42,1,91.5,2|0,1:0|1:0,0:0:0:0:
361,66,88471,2,0,L|273:45,1,91.5,2|0,1:0|1:0,0:0:0:0:
208,134,88804,5,2,1:0:0:0:
235,240,88971,1,0,1:0:0:0:
174,332,89138,1,0,1:0:0:0:
283,338,89304,1,2,1:0:0:0:
235,240,89471,1,2,1:0:0:0:
208,134,89638,1,0,1:0:0:0:
180,138,89721,1,2,0:3:0:0:
153,142,89804,1,8,0:3:0:0:
126,146,89887,1,0,0:0:0:0:
99,150,89971,1,2,1:0:0:0:
72,154,90054,1,0,0:0:0:0:
45,159,90137,5,2,1:0:0:0:
4,261,90304,1,0,1:0:0:0:
67,350,90471,2,0,L|167:337,1,91.5,0|2,1:0|1:0,0:0:0:0:
185,340,90721,1,2,0:1:0:0:
212,342,90804,1,2,1:0:0:0:
250,238,90971,1,0,1:0:0:0:
208,134,91138,2,0,L|217:23,1,91.5,0|2,1:0|1:0,0:0:0:0:
323,65,91471,6,0,L|311:202,2,137.25,2|2|2,1:0|0:1|1:0,0:0:0:0:
433,65,92138,2,0,L|444:202,2,137.25,2|2|2,1:0|0:1|1:0,0:0:0:0:
428,336,92804,6,2,L|208:350,1,219.59999329834,6|0,1:1|0:1,0:1:0:0:
135,364,93638,2,0,L|132:309,2,54.899998324585,2|2|2,0:0|0:0|0:0,0:0:0:0:
72,266,94138,6,0,P|58:212|35:163,2,109.8,4|4|4,1:0|1:0|1:0,0:0:0:0:
36,163,95471,5,4,1:0:0:0:
168,221,95721,1,2,0:0:0:0:
168,221,95804,2,0,L|50:219,1,91.5,0|2,1:0|0:3,0:0:0:0:
36,163,96138,1,0,1:0:0:0:
45,281,96304,1,2,0:3:0:0:
168,221,96471,1,0,1:0:0:0:
177,339,96637,1,0,1:0:0:0:
300,279,96804,5,2,1:0:0:0:
242,132,97054,1,2,1:0:0:0:
242,132,97138,2,0,L|247:253,1,91.5,0|2,0:0|1:0,0:0:0:0:
360,340,97471,1,2,0:1:0:0:
360,340,97554,1,2,0:3:0:0:
360,340,97638,1,0,1:0:0:0:
245,223,97804,2,0,L|250:344,1,91.5,2|2,1:0|1:0,0:0:0:0:
185,352,98138,5,2,1:0:0:0:
335,213,98388,1,2,0:1:0:0:
335,213,98471,2,0,L|233:224,1,91.5,0|2,1:0|0:1,0:0:0:0:
106,201,98804,2,0,P|144:241|167:278,1,91.5,2|2,1:0|0:3,0:0:0:0:
191,127,99138,2,0,P|216:89|248:56,1,91.5,2|2,1:0|1:0,0:0:0:0:
349,34,99471,5,2,1:0:0:0:
365,8,99638,1,4,0:3:0:0:
372,133,99804,1,2,1:0:0:0:
352,115,99971,1,4,0:3:0:0:
395,232,100138,2,0,L|392:274,6,22.875,2|0|0|4|4|0|0,1:0|0:0|0:0|0:3|0:3|0:0|0:0,0:0:0:0:
388,339,100471,2,0,L|385:381,6,22.875,2|0|0|4|4|0|0,1:0|0:0|0:0|0:3|0:3|0:0|0:0,0:0:0:0:
309,297,100804,6,0,L|257:303,3,45.75,2|0|2|0,0:0|0:0|0:3|0:0,0:0:0:0:
183,234,101138,2,0,L|228:228,3,45.75,0|0|2|0,1:0|0:0|0:0|0:0,0:0:0:0:
166,316,101471,2,0,L|114:322,3,45.75,2|0|2|0,0:0|0:0|0:3|0:0,0:0:0:0:
40,253,101805,2,0,L|85:247,3,45.75,0|0|0|0,1:0|0:0|0:0|0:0,0:0:0:0:
135,187,102138,6,0,P|143:130|135:58,1,91.5,2|2,0:0|0:3,0:0:0:0:
130,70,102388,1,0,0:0:0:0:
116,45,102471,2,0,L|55:33,3,45.75,0|0|2|0,1:0|0:0|0:3|2:0,0:0:0:0:
182,9,102804,1,0,1:0:0:0:
242,66,102971,1,0,1:0:0:0:
324,74,103138,1,0,1:0:0:0:
387,22,103304,1,0,1:0:0:0:
450,108,103471,6,0,L|435:266,1,137.25,0|2,1:0|0:3,0:0:0:0:
416,263,103804,2,0,L|353:266,3,45.75,0|0|2|0,1:0|0:0|0:0|0:0,0:0:0:0:
334,193,104138,2,0,L|288:195,3,45.75,2|0|2|0,0:0|0:0|0:3|0:0,0:0:0:0:
252,123,104471,2,0,L|189:126,3,45.75,0|0|2|0,1:0|0:0|0:0|0:0,0:0:0:0:
162,54,104804,6,0,P|101:81|40:88,1,122,4|4,0:3|0:3,0:0:0:0:
22,104,105138,2,0,P|14:153|15:194,2,61,8|8|4,0:3|0:3|0:3,0:0:0:0:
107,165,105471,2,0,P|115:214|114:255,2,61,8|0|4,0:3|0:0|0:3,0:0:0:0:
21,255,105804,2,0,P|13:304|14:345,2,61,0|0|0,1:0|1:0|1:0,0:0:0:0:
106,316,106138,5,4,0:3:0:0:
144,305,106249,1,4,0:3:0:0:
184,299,106360,1,4,0:3:0:0:
224,299,106471,1,4,0:3:0:0:
264,305,106582,1,4,0:3:0:0:
303,316,106693,1,4,0:3:0:0:
341,325,106804,1,4,0:3:0:0:
382,331,106915,1,4,0:3:0:0:
421,331,107026,1,4,0:3:0:0:
462,325,107138,2,0,P|470:278|470:256,2,61,8|8|8,0:3|0:3|0:3,0:0:0:0:
437,202,107471,5,4,0:0:0:0:
256,192,107554,12,0,108804,0:0:0:0:
256,192,108888,12,0,110138,0:0:0:0:
256,192,110221,12,0,111471,0:0:0:0:
256,192,111554,12,0,112638,0:0:0:0:
137,60,112804,6,0,P|181:52|227:49,1,91.5,4|2,0:0|0:3,0:0:0:0:
137,60,113138,1,0,1:0:0:0:
306,75,113304,2,0,L|324:264,1,183,2|0,0:3|0:0,0:0:0:0:
280,333,113804,1,0,1:0:0:0:
280,333,113888,1,0,0:0:0:0:
280,333,113971,1,2,0:3:0:0:
207,216,114138,6,0,L|197:282,2,45.75,2|0|2,0:0|0:0|0:0,0:0:0:0:
376,148,114471,2,0,L|386:214,2,45.75,0|0|2,1:0|0:0|0:3,0:0:0:0:
297,37,114804,1,2,0:3:0:0:
249,134,114971,1,2,0:3:0:0:
310,225,115138,1,0,1:0:0:0:
280,333,115304,1,2,0:3:0:0:
280,333,115388,1,0,0:0:0:0:
280,333,115471,6,0,P|213:323|103:358,1,183,2|0,0:3|1:0,0:0:0:0:
40,384,115971,1,0,0:0:0:0:
10,234,116138,2,0,L|18:172,2,61,2|0|0,0:3|0:0|0:0,0:0:0:0:
103,193,116471,2,0,L|111:131,2,61,0|0|0,1:0|0:0|0:0,0:0:0:0:
191,151,116804,6,0,L|251:159,3,45.75,4|0|2|0,0:0|0:0|0:0|0:0,0:0:0:0:
320,224,117138,2,0,L|260:232,3,45.75,4|0|0|0,0:0|0:0|0:0|0:0,0:0:0:0:
269,96,117471,2,0,L|304:103,6,22.875,2|0|0|0|2|0|0,0:0|0:0|0:0|0:0|0:0|0:0|0:0,0:0:0:0:
242,291,117804,2,0,L|207:284,6,22.875,0|0|0|0|0|0|0,1:0|0:0|0:0|0:0|1:0|0:0|0:0,0:0:0:0:
256,192,118471,5,4,0:0:0:0:
256,192,118554,12,2,120804,0:3:0:0:
