osu file format v14

[General]
AudioFilename: audio.mp3
AudioLeadIn: 0
PreviewTime: 30054
Countdown: 0
SampleSet: Soft
StackLeniency: 0.7
Mode: 0
LetterboxInBreaks: 0
WidescreenStoryboard: 1

[Editor]
Bookmarks: 27471,30138,40804,51471,62138,107471,112804,118471
DistanceSpacing: 0.8
BeatDivisor: 4
GridSize: 16
TimelineZoom: 1.3

[Metadata]
Title:Fatality Saga
TitleUnicode:Fatality Saga
Artist:AAAA Chazuke
ArtistUnicode:ああああ茶漬け
Creator:Battle
Version:Normal
Source:
Tags:Umeboshi Chazuke 梅干茶漬け chiptune SnowNiNo_ bor meat inspector _83 VINXIS
BeatmapID:1412496
BeatmapSetID:664679

[Difficulty]
HPDrainRate:4
CircleSize:3.4
OverallDifficulty:4.5
ApproachRate:4
SliderMultiplier:1.1
SliderTickRate:1

[Events]
//Background and Video events
0,0,"53591823_p0.jpg",0,0
//Break Periods
2,30338,39484
//Storyboard Layer 0 (Background)
//Storyboard Layer 1 (Fail)
//Storyboard Layer 2 (Pass)
//Storyboard Layer 3 (Foreground)
//Storyboard Sound Samples

[TimingPoints]
805,333.333333333333,4,1,1,100,1,0
1638,-100,4,2,1,70,0,0
2055,-100,4,2,1,5,0,0
2138,-100,4,2,1,80,0,0
2804,-100,4,2,1,85,0,0
3471,-100,4,2,1,90,0,0
4138,-100,4,2,1,100,0,0
6138,-100,4,2,1,100,0,0
10138,-100,4,2,1,100,0,0
11471,-100,4,2,1,100,0,0
12221,-100,4,2,1,5,0,0
12304,-100,4,2,1,100,0,0
12804,-100,4,2,1,90,0,0
26138,-100,4,2,1,70,0,0
27138,-100,4,2,1,100,0,0
30138,-100,4,2,1,80,0,0
31804,-100,4,2,1,75,0,0
32138,-100,4,2,1,70,0,0
32471,-100,4,2,1,65,0,0
32804,-100,4,2,1,80,0,0
34471,-100,4,2,1,75,0,0
34804,-100,4,2,1,70,0,0
35138,-100,4,2,1,65,0,0
35471,-100,4,2,1,80,0,0
40804,-100,4,2,1,90,0,0
51471,-100,4,2,1,80,0,0
56804,-100,4,2,1,90,0,0
62138,-100,4,2,1,70,0,0
67471,-100,4,2,1,80,0,0
71471,-100,4,2,1,100,0,0
72304,-100,4,2,1,90,0,0
72804,-83.3333333333333,4,2,1,100,0,1
84804,-83.3333333333333,4,2,1,90,0,0
85304,-83.3333333333333,4,2,1,80,0,0
85471,-83.3333333333333,4,2,1,90,0,0
85971,-83.3333333333333,4,2,1,80,0,0
86138,-83.3333333333333,4,2,1,70,0,0
86304,-83.3333333333333,4,2,1,75,0,0
86471,-83.3333333333333,4,2,1,80,0,0
86638,-83.3333333333333,4,2,1,85,0,0
86804,-83.3333333333333,4,2,1,90,0,0
87471,-83.3333333333333,4,2,1,100,0,1
92804,-83.3333333333333,4,2,1,100,0,0
93638,-83.3333333333333,4,2,1,80,0,0
94138,-83.3333333333333,4,2,1,90,0,1
94638,-83.3333333333333,4,2,1,90,0,1
95138,-83.3333333333333,4,2,1,90,0,0
95471,-100,4,2,1,80,0,0
104804,-100,4,2,1,90,0,0
107471,-100,4,2,1,80,0,0
109471,-100,4,2,1,80,0,0
112804,-100,4,2,1,90,0,0
120638,-100,4,2,1,70,0,0

[Colours]
Combo1 : 226,128,29
Combo2 : 114,130,64
Combo3 : 31,51,97
Combo4 : 129,18,18
Combo5 : 50,147,152
Combo6 : 191,72,105

[HitObjects]
17,182,1638,6,0,P|18:155|26:129,1,55,2|0,0:3|1:0,0:0:0:0:
37,40,2138,6,0,B|82:49|102:78|102:78|143:41|194:48,1,165,4|2,0:0|0:0,0:0:0:0:
225,53,2804,2,0,P|271:111|227:196,1,165,4|0,0:0|0:0,0:0:0:0:
213,223,3471,2,0,P|189:288|237:381,1,165,4|4,0:0|0:3,0:0:0:0:
269,372,4138,1,4,1:2:0:0:
354,349,4471,1,0,1:0:0:0:
439,326,4804,6,0,P|396:275|333:263,1,110,4|4,0:3|0:3,0:0:0:0:
269,244,5471,2,0,P|333:177|362:175,1,110,4|4,0:3|0:3,0:0:0:0:
394,101,6138,2,0,P|402:27|405:1,2,82.5,4|2|2,0:0|0:0|0:0,0:0:0:0:
350,96,6804,2,0,P|259:86|220:82,1,110,4|0,1:2|1:0,0:0:0:0:
165,130,7471,6,0,P|150:91|156:51,2,82.5,4|4|2,0:1|0:1|0:0,0:0:0:0:
196,161,8138,2,0,P|234:224|202:312,1,165,4|2,0:0|0:3,0:0:0:0:
172,331,8804,2,0,P|126:319|87:327,2,82.5,4|4|0,0:0|0:0|1:0,0:0:0:0:
199,366,9471,2,0,P|263:379|364:361,1,165,4|0,0:0|1:0,0:0:0:0:
395,336,10138,5,4,0:0:0:0:
395,336,11471,6,0,P|385:264|392:243,2,82.5,4|4|4,0:0|0:0|0:0,0:0:0:0:
512,146,12804,2,0,B|456:158|456:158|382:138,1,110,4|0,0:0|1:0,0:0:0:0:
319,122,13471,2,0,P|238:154|231:182,1,110,2|0,0:0|1:0,0:0:0:0:
249,208,13971,1,2,0:3:0:0:
249,208,14138,6,0,P|243:276|242:320,1,110,2|0,0:3|1:0,0:0:0:0:
161,352,14804,2,0,P|159:297|153:242,1,110,0|0,0:3|1:0,0:0:0:0:
101,171,15471,2,0,P|43:160|18:144,2,82.5,2|2|0,0:0|0:3|0:0,0:0:0:0:
139,149,16138,2,0,P|205:122|249:132,1,110,2|0,0:0|1:0,0:0:0:0:
297,195,16804,5,4,1:0:0:0:
370,146,17138,1,4,1:0:0:0:
420,217,17471,2,0,P|450:169|444:108,1,110,4|0,1:0|1:0,0:0:0:0:
386,53,18138,2,0,B|335:32|281:67|281:67|225:100|168:68,1,220,4|0,0:0|0:3,0:0:0:0:
95,106,19138,1,0,1:0:0:0:
152,172,19471,6,0,P|222:173|252:174,2,82.5,2|2|0,0:3|0:3|0:0,0:0:0:0:
115,195,20138,2,0,P|76:284|86:312,1,110,0|0,0:0|1:0,0:0:0:0:
105,332,20638,1,0,1:0:0:0:
105,332,20804,2,0,P|184:312|226:333,1,110,2|0,0:3|1:0,0:0:0:0:
254,339,21304,1,0,0:0:0:0:
254,339,21471,2,0,P|333:359|375:338,1,110,2|0,0:0|1:0,0:0:0:0:
312,273,22138,6,0,B|297:212|297:212|311:152,1,110,4|4,0:0|0:3,0:0:0:0:
385,124,22804,2,0,P|302:78|279:82,1,110,4|8,0:3|0:3,0:0:0:0:
207,103,23471,2,0,P|209:42|250:0,2,110,4|8|8,0:3|0:3|0:3,0:0:0:0:
192,191,24471,1,8,0:3:0:0:
104,184,24804,5,4,0:1:0:0:
431,312,26138,5,0,0:0:0:0:
206,173,27138,1,0,0:0:0:0:
264,106,27471,6,0,P|292:153|285:213,2,110,0|0|0,1:0|1:0|1:0,0:0:0:0:
191,55,28471,1,0,1:0:0:0:
117,103,28804,2,0,P|89:150|96:210,1,110,0|0,1:0|1:0,0:0:0:0:
149,271,29471,2,0,L|209:279,1,55,0|0,1:0|0:0,0:0:0:0:
244,261,29804,2,0,L|304:269,1,55,0|0,1:0|1:0,0:0:0:0:
331,297,30138,5,4,0:0:0:0:
91,259,40804,6,0,P|77:178|101:143,1,110,6|0,1:0|1:0,0:0:0:0:
151,95,41471,2,0,L|143:12,2,73.3333333333333,2|2|2,0:1|0:1|0:1,0:0:0:0:
195,133,42138,2,0,B|246:148|246:148|310:133,1,110,2|0,1:0|1:0,0:0:0:0:
381,99,42804,2,0,P|457:87|496:112,1,110,2|0,1:0|1:0,0:0:0:0:
500,187,43471,6,0,P|493:272|490:304,1,110,2|0,1:0|1:0,0:0:0:0:
402,304,44138,2,0,P|411:363|414:389,2,73.3333333333333,2|2|2,1:0|0:1|0:1,0:0:0:0:
367,256,44804,2,0,P|270:235|243:256,1,110,2|0,1:0|1:0,0:0:0:0:
207,301,45471,2,0,P|160:328|107:320,1,110,2|0,1:1|1:0,0:0:0:0:
43,259,46138,6,0,P|33:189|67:134,1,110,2|0,1:0|1:0,0:0:0:0:
125,113,46804,2,0,P|117:65|114:25,2,73.3333333333333,2|2|2,1:0|0:1|0:1,0:0:0:0:
177,138,47471,2,0,P|169:206|161:266,1,110,2|0,1:0|1:0,0:0:0:0:
226,308,48138,2,0,P|280:316|335:321,1,110,2|0,1:1|1:0,0:0:0:0:
391,253,48804,6,0,P|436:267|465:278,2,73.3333333333333,2|2|2,1:0|0:1|0:1,0:0:0:0:
353,207,49471,2,0,P|316:212|280:216,2,73.3333333333333,2|2|2,1:0|0:1|0:1,0:0:0:0:
391,162,50138,2,0,P|400:65|296:18,1,220,4|0,0:0|1:0,0:0:0:0:
264,96,51138,1,0,1:0:0:0:
231,177,51471,6,0,P|171:169|145:167,2,82.5,4|2|0,0:0|0:0|0:0,0:0:0:0:
271,193,52138,2,0,P|246:254|257:312,1,110,2|2,0:0|0:3,0:0:0:0:
274,333,52638,1,0,0:0:0:0:
274,333,52804,2,0,P|174:321|151:323,1,110,2|2,0:0|0:3,0:0:0:0:
86,360,53471,2,0,P|77:324|74:300,1,55,2|2,0:0|0:0,0:0:0:0:
104,273,53804,2,0,P|111:246|115:219,1,55,2|2,0:3|0:0,0:0:0:0:
90,182,54138,6,0,P|73:98|72:61,1,110,2|2,0:0|0:3,0:0:0:0:
145,26,54804,2,0,P|206:28|255:22,1,110,2|2,0:0|0:3,0:0:0:0:
252,110,55471,2,0,P|191:108|155:114,2,82.5,2|2|2,0:0|0:0|0:0,0:0:0:0:
291,129,56138,1,0,1:0:0:0:
286,216,56471,1,4,1:0:0:0:
350,275,56804,6,0,P|424:254|468:268,1,110,2|2,0:3|1:2,0:0:0:0:
501,186,57471,2,0,P|489:122|482:63,1,110,2|0,0:3|1:0,0:0:0:0:
454,44,57971,1,2,0:0:0:0:
454,44,58138,2,0,P|384:31|344:39,1,110,2|2,0:3|1:2,0:0:0:0:
334,81,58638,1,0,0:0:0:0:
334,81,58804,2,0,P|268:107|227:105,1,110,2|2,0:3|1:2,0:0:0:0:
162,163,59471,6,0,P|151:226|154:291,1,110,2|0,0:3|1:0,0:0:0:0:
182,303,59971,1,2,0:0:0:0:
182,303,60138,2,0,P|231:314|250:319,1,55,2|2,0:3|0:0,0:0:0:0:
276,297,60471,2,0,P|325:286|344:281,1,55,0|2,1:0|0:0,0:0:0:0:
369,304,60804,2,0,P|376:220|391:190,1,110,2|0,0:3|1:0,0:0:0:0:
440,128,61471,1,2,0:3:0:0:
372,71,61804,1,0,1:0:0:0:
307,131,62138,6,0,P|248:145|195:116,1,110,4|0,0:1|0:0,0:0:0:0:
137,69,62804,2,0,P|174:129|147:239,1,165,2|0,0:0|0:0,0:0:0:0:
130,250,63471,2,0,P|65:246|19:243,1,110,2|2,0:0|0:0,0:0:0:0:
41,328,64138,2,0,P|106:332|152:335,1,110,2|2,0:0|0:0,0:0:0:0:
191,350,64638,1,0,0:0:0:0:
191,350,64804,6,0,P|246:311|310:318,1,110,4|2,0:1|0:0,0:0:0:0:
292,222,65471,2,0,P|238:216|196:182,1,110,2|2,0:0|0:0,0:0:0:0:
270,135,66138,1,4,0:0:0:0:
217,64,66471,1,2,0:0:0:0:
290,17,66804,2,0,P|362:14|402:22,1,110,4|2,0:0|0:0,0:0:0:0:
456,86,67471,6,0,P|444:140|449:194,1,110,4|0,0:0|1:0,0:0:0:0:
371,234,68138,2,0,P|380:295|381:315,2,73.3333333333333,2|2|2,0:2|0:0|0:3,0:0:0:0:
339,184,68804,2,0,P|284:160|223:176,1,110,4|0,0:0|1:0,0:0:0:0:
173,230,69471,2,0,P|149:173|165:122,1,110,0|0,1:0|1:0,0:0:0:0:
203,53,70138,6,0,P|337:89|233:167,1,330,4|8,0:0|0:3,0:0:0:0:
186,247,71471,2,0,P|155:212|148:157,2,82.5,4|4|4,0:0|0:0|0:0,0:0:0:0:
442,308,72804,6,0,P|445:242|458:177,1,131.99999597168,2|0,1:0|1:0,0:0:0:0:
470,125,73304,1,2,1:0:0:0:
470,125,73471,2,0,P|423:109|390:85,1,65.9999979858399,2|0,1:2|1:0,0:0:0:0:
367,68,73804,2,0,P|334:71|303:82,1,65.9999979858399,0|2,1:0|1:0,0:0:0:0:
274,127,74138,2,0,P|192:131|141:93,1,131.99999597168,2|0,1:0|1:0,0:0:0:0:
62,49,74804,2,0,P|16:94|6:185,1,131.99999597168,2|0,1:0|1:0,0:0:0:0:
70,238,75471,6,0,P|62:324|54:353,2,98.9999969787599,2|2|2,1:0|0:1|0:1,0:0:0:0:
107,199,76138,2,0,P|161:176|192:179,1,65.9999979858399,2|0,1:0|1:0,0:0:0:0:
209,208,76471,2,0,P|237:225|269:231,1,65.9999979858399,2|0,1:0|1:0,0:0:0:0:
321,221,76804,2,0,P|390:148|380:99,1,131.99999597168,2|0,1:0|1:0,0:0:0:0:
333,34,77471,2,0,P|264:107|274:156,1,131.99999597168,2|4,1:0|0:3,0:0:0:0:
162,157,78138,6,0,P|206:218|202:303,1,131.99999597168,2|0,1:0|1:0,0:0:0:0:
209,330,78638,1,2,1:0:0:0:
209,330,78804,2,0,P|247:356|269:363,1,65.9999979858399,2|2,1:0|1:0,0:0:0:0:
317,350,79138,2,0,P|355:324|377:317,1,65.9999979858399,2|2,1:0|1:0,0:0:0:0:
426,324,79471,2,0,P|410:236|446:180,1,131.99999597168,2|0,1:0|1:0,0:0:0:0:
499,123,80138,2,0,P|512:44|481:-14,1,131.99999597168,2|0,1:0|1:0,0:0:0:0:
413,69,80804,6,0,B|332:80|332:80|283:63,1,131.99999597168,2|0,1:0|1:0,0:0:0:0:
233,51,81304,1,0,1:0:0:0:
233,51,81471,2,0,P|146:67|119:105,1,131.99999597168,2|0,1:0|1:0,0:0:0:0:
112,150,81971,1,2,1:0:0:0:
112,150,82138,6,0,P|51:157|-7:166,2,98.9999969787599,4|0|0,1:0|1:0|1:0,0:0:0:0:
145,190,82804,1,0,1:0:0:0:
233,132,83138,1,0,1:0:0:0:
303,210,83471,6,0,P|286:269|277:316,2,98.9999969787599,8|4|0,1:3|1:3|1:0,0:0:0:0:
352,190,84138,2,0,P|313:121|312:61,1,131.99999597168,4|0,1:0|1:0,0:0:0:0:
410,103,84804,5,4,0:0:0:0:
218,193,85471,1,4,0:0:0:0:
416,269,86138,2,0,P|398:339|393:375,2,98.9999969787599,2|2|2,0:1|0:1|0:1,0:0:0:0:
379,230,86804,2,0,P|370:181|357:133,2,98.9999969787599,2|2|2,1:0|1:0|1:0,0:0:0:0:
327,240,87471,6,0,P|260:259|199:233,1,131.99999597168,2|0,1:0|1:0,0:0:0:0:
164,201,87971,1,2,1:0:0:0:
164,201,88138,2,0,P|139:162|118:146,1,65.9999979858399,2|0,1:0|1:0,0:0:0:0:
72,139,88471,2,0,P|53:88|54:61,1,65.9999979858399,2|0,1:0|1:0,0:0:0:0:
70,27,88804,2,0,P|122:16|207:16,1,131.99999597168,2|0,1:0|1:0,0:0:0:0:
239,113,89471,2,0,P|291:124|376:124,1,131.99999597168,2|8,1:0|0:3,0:0:0:0:
475,121,90138,6,0,P|444:202|457:249,1,131.99999597168,2|0,1:0|1:0,0:0:0:0:
412,275,90638,1,2,1:0:0:0:
412,275,90804,2,0,P|430:336|427:387,2,98.9999969787599,2|2|2,1:0|0:1|1:0,0:0:0:0:
359,268,91471,2,0,P|291:264|246:216,1,131.99999597168,2|0,1:0|1:0,0:0:0:0:
253,168,91971,1,2,1:0:0:0:
253,168,92138,2,0,P|212:83|171:67,1,131.99999597168,2|0,1:0|1:0,0:0:0:0:
96,131,92804,5,6,1:1:0:0:
96,131,94138,2,0,P|109:183|115:237,2,98.9999969787599,4|4|4,1:0|1:0|1:0,0:0:0:0:
142,36,94971,1,2,0:0:0:0:
142,36,95138,2,0,P|187:52|211:60,1,65.9999979858399,2|2,0:0|0:0,0:0:0:0:
244,76,95471,6,0,P|361:69|375:69,1,110,4|0,1:0|1:0,0:0:0:0:
356,157,96138,2,0,P|239:164|225:164,1,110,0|0,1:0|1:0,0:0:0:0:
167,202,96804,2,0,P|153:131|156:96,2,82.5,2|2|2,1:0|1:0|1:0,0:0:0:0:
200,230,97471,2,0,P|214:319|205:348,1,110,2|2,0:1|1:0,0:0:0:0:
176,366,97971,1,2,1:0:0:0:
176,366,98138,6,0,P|94:352|55:360,1,110,2|0,1:0|1:0,0:0:0:0:
31,276,98804,2,0,P|22:223|27:165,1,110,2|2,1:0|1:0,0:0:0:0:
44,126,99304,1,2,1:0:0:0:
44,126,99471,2,0,P|104:127|150:94,1,110,2|2,1:0|1:0,0:0:0:0:
205,36,100138,2,0,P|265:35|311:68,1,110,2|2,1:0|1:0,0:0:0:0:
341,141,100804,6,0,B|322:216|322:216|346:308,1,165,2|2,0:0|0:0,0:0:0:0:
338,344,101471,2,0,P|300:312|229:334,1,110,2|0,0:0|1:0,0:0:0:0:
200,329,101971,1,0,1:0:0:0:
200,329,102138,2,0,P|163:279|191:176,1,165,2|2,0:0|0:3,0:0:0:0:
222,164,102804,2,0,P|306:169|325:144,1,110,0|0,1:0|1:0,1:0:0:0:
299,69,103471,6,0,L|173:70,1,110,0|0,1:0|1:0,0:0:0:0:
145,78,103971,1,2,0:0:0:0:
145,78,104138,2,0,P|112:132|119:187,1,110,2|0,0:0|1:0,0:0:0:0:
79,257,104804,6,0,P|148:260|190:225,1,110,4|8,0:3|0:3,0:0:0:0:
253,190,105471,2,0,P|244:140|245:72,1,110,8|0,0:3|1:0,0:0:0:0:
339,83,106138,2,0,P|339:137|330:192,1,110,4|4,0:3|0:3,0:0:0:0:
401,243,106804,2,0,P|448:269|501:261,1,110,4|8,0:3|0:3,0:0:0:0:
462,181,107471,5,4,0:0:0:0:
118,257,108804,1,2,0:3:0:0:
290,277,109471,2,0,P|284:343|284:379,2,82.5,2|2|2,0:3|0:3|0:3,0:0:0:0:
319,244,110138,5,4,0:0:0:0:
21,56,111471,1,2,0:3:0:0:
132,192,112138,2,0,P|118:251|114:277,2,82.5,2|2|2,0:3|0:3|0:3,0:0:0:0:
147,151,112804,6,0,P|198:119|254:137,1,110,4|0,0:0|1:0,0:0:0:0:
309,188,113471,2,0,P|356:228|425:226,1,110,2|0,0:0|1:0,0:0:0:0:
386,145,114138,2,0,P|382:66|387:27,1,110,2|0,0:0|1:0,0:0:0:0:
302,64,114804,2,0,P|248:68|193:65,1,110,2|0,0:3|1:0,0:0:0:0:
168,150,115471,6,0,P|246:151|281:158,1,110,2|0,0:3|1:0,0:0:0:0:
321,181,115971,1,0,0:0:0:0:
321,181,116138,2,0,P|312:248|315:297,1,110,2|0,0:3|1:0,0:0:0:0:
247,352,116804,2,0,P|186:339|139:355,1,110,4|4,0:0|0:0,0:0:0:0:
99,365,117304,1,0,0:0:0:0:
99,365,117471,2,0,P|38:363|26:356,1,55,2|2,0:0|0:0,0:0:0:0:
24,326,117804,2,0,P|28:281|32:252,1,55,0|0,1:0|1:0,0:0:0:0:
126,181,118471,5,4,0:0:0:0:
256,192,118638,12,2,120804,0:3:0:0:
