osu file format v14

[General]
AudioFilename: audio.mp3
AudioLeadIn: 0
PreviewTime: 30054
Countdown: 0
SampleSet: Soft
StackLeniency: 0.7
Mode: 0
LetterboxInBreaks: 0
WidescreenStoryboard: 1

[Editor]
Bookmarks: 118471
DistanceSpacing: 0.5
BeatDivisor: 4
GridSize: 16
TimelineZoom: 2.1

[Metadata]
Title:Fatality Saga
TitleUnicode:Fatality Saga
Artist:AAAA Chazuke
ArtistUnicode:ああああ茶漬け
Creator:Battle
Version:NiNo's Insane
Source:
Tags:Umeboshi Chazuke 梅干茶漬け chiptune SnowNiNo_ bor meat inspector _83 VINXIS
BeatmapID:1442673
BeatmapSetID:664679

[Difficulty]
HPDrainRate:5.5
CircleSize:3.8
OverallDifficulty:8.5
ApproachRate:9.2
SliderMultiplier:1.8
SliderTickRate:1

[Events]
//Background and Video events
0,0,"53591823_p0.jpg",0,0
//Break Periods
//Storyboard Layer 0 (Background)
//Storyboard Layer 1 (Fail)
//Storyboard Layer 2 (Pass)
//Storyboard Layer 3 (Foreground)
//Storyboard Sound Samples

[TimingPoints]
805,333.333333333333,4,1,1,100,1,0
1638,-100,4,2,1,70,0,0
2055,-100,4,2,1,5,0,0
2138,-100,4,2,1,80,0,0
2804,-100,4,2,1,85,0,0
3471,-100,4,2,1,90,0,0
4138,-100,4,2,1,100,0,0
11471,-50,4,2,1,100,0,0
12221,-50,4,2,1,5,0,0
12304,-100,4,2,1,100,0,0
12804,-100,4,2,1,90,0,0
26138,-100,4,2,1,70,0,0
27138,-100,4,2,1,100,0,0
30138,-133.333333333333,4,2,1,80,0,0
30221,-133.333333333333,4,2,1,80,0,0
31721,-133.333333333333,4,2,1,80,0,0
31804,-153.846153846154,4,2,1,75,0,0
32054,-133.333333333333,4,2,1,75,0,0
32138,-181.818181818182,4,2,1,70,0,0
32388,-133.333333333333,4,2,1,70,0,0
32471,-222.222222222222,4,2,1,65,0,0
32721,-133.333333333333,4,2,1,65,0,0
32804,-133.333333333333,4,2,1,80,0,0
34388,-133.333333333333,4,2,1,80,0,0
34471,-153.846153846154,4,2,1,75,0,0
34721,-133.333333333333,4,2,1,75,0,0
34804,-181.818181818182,4,2,1,70,0,0
35054,-133.333333333333,4,2,1,70,0,0
35138,-222.222222222222,4,2,1,65,0,0
35388,-133.333333333333,4,2,1,65,0,0
35471,-133.333333333333,4,2,1,80,0,0
40304,-100,4,2,1,80,0,0
40804,-100,4,2,1,90,0,0
51471,-100,4,2,1,80,0,0
56804,-100,4,2,1,90,0,0
62138,-133.333333333333,4,2,1,70,0,0
67471,-100,4,2,1,80,0,0
71471,-100,4,2,1,100,0,0
72304,-100,4,2,1,90,0,0
72804,-83.3333333333333,4,2,1,100,0,1
82138,-50,4,2,1,100,0,0
83471,-40,4,2,1,100,0,0
84804,-40,4,2,1,90,0,0
85304,-40,4,2,1,80,0,0
85471,-40,4,2,1,90,0,0
85971,-40,4,2,1,80,0,0
86138,-100,4,2,1,70,0,0
86304,-100,4,2,1,75,0,0
86471,-100,4,2,1,80,0,0
86638,-100,4,2,1,85,0,0
86804,-100,4,2,1,90,0,0
87471,-83.3333333333333,4,2,1,100,0,1
92804,-100,4,2,1,100,0,0
93638,-100,4,2,1,80,0,0
94138,-40,4,2,1,90,0,0
94971,-100,4,2,1,90,0,0
95471,-100,4,2,1,80,0,0
104804,-100,4,2,1,90,0,0
107471,-100,4,2,1,80,0,0
112804,-100,4,2,1,90,0,0
120638,-100,4,2,1,70,0,0

[Colours]
Combo1 : 226,128,29
Combo2 : 114,130,64
Combo3 : 31,51,97
Combo4 : 129,18,18
Combo5 : 50,147,152
Combo6 : 191,72,105

[HitObjects]
256,192,1638,5,2,0:3:0:0:
256,192,1721,1,2,0:3:0:0:
256,192,1804,1,0,1:0:0:0:
256,192,2138,6,0,L|69:172,1,180,4|0,0:0|0:0,0:0:0:0:
185,91,2638,1,2,0:0:0:0:
185,91,2721,1,2,0:0:0:0:
185,91,2804,2,0,L|372:71,1,180,4|0,0:0|0:0,0:0:0:0:
424,192,3304,1,0,0:0:0:0:
424,192,3387,1,2,0:0:0:0:
424,192,3471,6,0,L|276:176,2,135,4|8|4,0:0|0:3|0:3,0:0:0:0:
321,283,4138,2,0,L|197:296,1,90,4|0,1:2|0:0,0:0:0:0:
214,308,4388,1,0,1:0:0:0:
195,321,4471,2,0,L|71:307,1,90,0|0,1:0|1:0,0:0:0:0:
52,187,4804,6,0,L|199:171,1,120,4|8,0:3|0:3,0:0:0:0:
179,181,5304,1,0,0:0:0:0:
179,181,5388,1,0,0:0:0:0:
179,181,5471,2,0,L|172:115,2,60,4|4|4,0:3|0:3|0:3,0:0:0:0:
232,257,5804,2,0,L|223:330,2,60,4|0|4,0:3|1:3|0:3,0:0:0:0:
302,188,6138,6,0,L|284:23,2,135,4|2|2,0:0|0:0|0:0,0:0:0:0:
355,264,6804,2,0,L|350:308,1,45,4|0,1:2|0:0,0:0:0:0:
285,371,6971,1,4,0:3:0:0:
285,371,7054,1,0,0:0:0:0:
285,371,7138,2,0,P|253:336|194:324,1,90,0|0,1:0|0:0,0:0:0:0:
79,281,7471,6,0,P|125:270|171:234,1,90,4|0,0:1|0:0,0:0:0:0:
204,236,7721,2,0,P|218:190|209:132,1,90,4|0,0:1|0:0,0:0:0:0:
193,108,7971,1,2,0:0:0:0:
313,27,8138,2,0,P|359:48|391:86,1,90,4|0,0:0|0:0,0:0:0:0:
426,95,8388,2,0,P|430:145|413:192,1,90,2|0,0:0|0:0,0:0:0:0:
392,219,8638,1,2,0:3:0:0:
287,322,8804,6,0,P|243:292|196:288,1,90,4|0,0:0|0:0,0:0:0:0:
182,249,9054,2,0,P|134:272|107:310,1,90,4|0,0:0|0:0,0:0:0:0:
104,345,9304,1,0,1:0:0:0:
54,148,9471,2,0,P|98:118|145:114,1,90,4|0,0:0|0:0,0:0:0:0:
159,75,9721,2,0,P|206:98|233:136,1,90,0|0,1:0|0:0,0:0:0:0:
237,171,9971,1,0,1:0:0:0:
92,260,10138,6,0,B|195:263|237:171|237:171|228:275|329:326,1,360,4|0,0:0|0:0,0:0:0:0:
386,375,10971,1,2,0:0:0:0:
460,325,11138,1,2,0:0:0:0:
316,318,11304,1,2,0:0:0:0:
438,238,11471,6,0,P|407:164|309:152,1,180,4|0,0:0|0:0,0:0:0:0:
349,232,11721,2,0,P|403:166|365:75,1,180,4|0,0:0|0:0,0:0:0:0:
316,148,11971,2,0,P|447:132|418:7,1,270,4|0,0:0|0:0,0:0:0:0:
375,83,12304,6,0,L|384:187,1,90,2|2,0:0|0:0,0:0:0:0:
382,172,12638,1,0,0:0:0:0:
391,255,12804,6,0,L|400:359,1,90,4|0,0:0|0:0,0:0:0:0:
294,268,13054,1,2,0:3:0:0:
294,268,13138,2,0,L|303:164,1,90,0|2,1:0|0:3,0:0:0:0:
284,89,13471,1,2,0:0:0:0:
375,83,13638,1,2,0:3:0:0:
210,184,13804,2,0,L|120:177,1,90,0|2,1:0|0:3,0:0:0:0:
108,44,14138,6,0,L|197:37,1,90,2|0,0:3|0:0,0:0:0:0:
288,92,14388,1,2,0:3:0:0:
288,92,14471,2,0,L|377:98,1,90,0|0,1:0|0:0,0:0:0:0:
432,192,14804,1,0,0:3:0:0:
454,190,14887,1,2,0:3:0:0:
476,188,14970,1,0,1:0:0:0:
377,285,15138,2,0,L|332:288,1,45,0|0,1:0|0:0,0:0:0:0:
239,292,15304,2,0,L|194:295,1,45,0|0,1:0|0:0,0:0:0:0:
96,292,15471,6,0,L|108:179,1,90,2|0,0:0|0:0,0:0:0:0:
187,120,15721,1,2,0:3:0:0:
187,120,15804,2,0,L|199:233,1,90,0|0,1:0|0:0,0:0:0:0:
239,292,16138,1,2,0:0:0:0:
329,268,16304,1,0,0:0:0:0:
196,209,16471,2,0,L|91:202,1,90,0|2,1:0|0:3,0:0:0:0:
286,185,16804,5,4,1:0:0:0:
149,316,16971,1,0,0:0:0:0:
243,102,17138,1,4,1:0:0:0:
239,292,17304,1,0,0:0:0:0:
153,126,17471,1,4,1:0:0:0:
337,275,17638,1,0,1:0:0:0:
337,275,17721,1,0,0:0:0:0:
337,275,17804,1,0,1:0:0:0:
106,233,17971,1,0,1:0:0:0:
286,185,18138,6,0,L|395:175,1,90,4|0,0:0|0:0,0:0:0:0:
281,90,18388,1,2,0:3:0:0:
281,90,18471,2,0,L|172:80,1,90,0|0,1:0|0:0,0:0:0:0:
107,114,18804,1,0,0:3:0:0:
149,193,18971,1,2,0:3:0:0:
191,81,19138,1,0,1:0:0:0:
149,2,19305,1,2,3:0:0:0:
107,114,19471,6,0,L|95:223,1,90,2|0,0:3|0:0,0:0:0:0:
15,264,19721,1,2,0:3:0:0:
15,264,19804,2,0,L|27:373,1,90,0|0,1:0|0:0,0:0:0:0:
171,291,20138,1,0,0:0:0:0:
171,291,20221,2,0,L|183:182,1,90,2|0,0:3|0:0,0:0:0:0:
193,114,20471,2,0,L|199:52,1,45,0|0,1:0|0:0,0:0:0:0:
180,201,20638,1,0,1:0:0:0:
281,164,20804,6,0,L|293:55,1,90,2|0,0:3|0:0,0:0:0:0:
374,202,21054,1,2,0:3:0:0:
374,202,21138,2,0,L|386:311,1,90,0|0,1:0|0:0,0:0:0:0:
253,353,21471,2,0,L|265:244,1,90,2|0,0:0|0:0,0:0:0:0:
286,119,21804,2,0,L|281:163,1,45,0|0,1:0|0:0,0:0:0:0:
262,263,21971,1,0,1:0:0:0:
177,138,22138,6,0,L|185:209,2,60,4|0|8,0:0|0:0|0:3,0:0:0:0:
116,68,22471,2,0,L|124:-3,1,60,4|4,0:3|0:3,0:0:0:0:
35,115,22693,2,0,L|26:43,2,60,4|4|0,0:3|0:3|0:0,0:0:0:0:
96,185,23027,1,4,0:3:0:0:
96,185,23138,2,0,L|87:256,2,60,8|8|8,0:3|0:3|0:3,0:0:0:0:
177,138,23471,5,4,0:3:0:0:
203,124,23582,1,4,0:3:0:0:
232,122,23693,1,4,0:3:0:0:
261,128,23804,1,0,0:0:0:0:
299,199,23916,5,8,0:3:0:0:
325,213,24027,1,4,0:3:0:0:
354,215,24138,1,8,0:3:0:0:
383,209,24249,1,0,0:0:0:0:
409,194,24360,1,4,0:3:0:0:
448,124,24471,5,8,0:3:0:0:
256,304,24804,5,4,0:1:0:0:
256,192,24888,12,4,27138,0:0:0:0:
375,162,27471,5,0,1:0:0:0:
348,257,27638,1,0,0:0:0:0:
293,124,27804,1,0,1:0:0:0:
300,222,27971,1,0,0:0:0:0:
208,110,28138,1,0,1:0:0:0:
248,199,28305,1,0,0:0:0:0:
242,220,28388,1,2,0:3:0:0:
237,241,28471,1,0,1:0:0:0:
122,123,28638,1,0,0:0:0:0:
311,105,28804,5,0,1:0:0:0:
248,199,28971,1,0,0:0:0:0:
248,67,29138,1,0,1:0:0:0:
185,161,29304,1,0,0:0:0:0:
185,29,29471,5,0,1:0:0:0:
248,199,29638,1,0,0:0:0:0:
122,123,29804,1,0,1:0:0:0:
311,105,29971,1,0,1:0:0:0:
59,217,30138,6,0,L|50:131,2,67.5000025749208,4|2|2,0:0|0:0|0:0,0:0:0:0:
39,295,30638,2,0,P|77:254|160:246,1,135.000005149842,2|2,0:0|0:0,0:0:0:0:
208,302,31138,1,2,0:0:0:0:
384,158,31471,6,0,L|274:146,1,101.250003862381,2|0,0:0|0:0,0:0:0:0:
339,197,31804,6,0,L|249:131,1,87.749995983124,2|0,0:0|0:0,0:0:0:0:
283,211,32138,6,0,L|247:129,1,74.2500022659302,2|0,0:0|0:0,0:0:0:0:
232,201,32471,6,0,L|238:140,1,60.7499981460572,2|0,0:0|0:0,0:0:0:0:
147,94,32804,6,0,L|154:173,2,67.5000025749208,2|2|2,0:0|0:0|0:0,0:0:0:0:
68,165,33304,2,0,L|52:324,1,135.000005149842,2|2,0:0|0:0,0:0:0:0:
15,370,33804,1,2,0:0:0:0:
15,370,34138,6,0,L|135:354,1,101.250003862381,2|0,0:0|0:0,0:0:0:0:
54,299,34471,6,0,L|141:335,1,87.749995983124,2|0,0:0|0:0,0:0:0:0:
109,249,34805,6,0,L|166:324,1,74.2500022659302,2|0,0:0|0:0,0:0:0:0:
165,222,35138,6,0,L|173:284,1,60.7499981460572,2|0,0:0|0:0,0:0:0:0:
251,351,35471,6,0,L|262:263,2,67.5000025749208,2|0|2,0:0|0:0|0:0,0:0:0:0:
346,283,35971,2,0,L|328:149,1,135.000005149842,2|2,0:0|0:0,0:0:0:0:
318,68,36471,1,0,0:0:0:0:
318,68,36638,2,0,P|277:49|244:47,1,67.5000025749208,2|0,0:0|0:0,0:0:0:0:
201,107,36971,1,2,0:0:0:0:
185,114,37054,1,2,0:0:0:0:
168,119,37138,2,0,P|122:122|91:113,1,67.5000025749208,2|0,0:0|0:0,0:0:0:0:
43,60,37471,5,2,0:0:0:0:
22,138,37638,1,2,0:0:0:0:
80,195,37804,1,2,0:0:0:0:
61,273,37971,1,2,0:0:0:0:
119,330,38138,6,0,P|161:357|252:354,1,135.000005149842,2|0,0:0|0:0,0:0:0:0:
315,319,38638,1,0,0:0:0:0:
328,308,38721,1,2,0:0:0:0:
336,293,38804,2,0,P|338:243|290:165,1,135.000005149842,2|0,0:0|0:0,0:0:0:0:
70,69,39471,6,0,L|61:159,2,67.5000025749208,2|0|2,0:0|0:0|0:0,0:0:0:0:
142,31,39971,1,2,0:0:0:0:
107,292,40304,2,0,B|149:248|149:248|282:280,1,180,4|2,1:0|0:3,0:0:0:0:
286,283,40721,1,2,0:3:0:0:
307,290,40804,6,0,L|406:315,2,60,6|0|2,1:0|0:0|0:3,0:0:0:0:
392,215,41138,2,0,L|491:190,2,60,0|0|2,1:0|1:0|0:3,0:0:0:0:
333,200,41471,2,0,L|421:222,1,60,2|0,0:1|0:0,0:0:0:0:
275,215,41692,1,2,0:1:0:0:
275,215,41804,2,0,L|374:190,1,60,0|2,1:1|0:1,0:0:0:0:
146,129,42138,6,0,L|47:104,2,60,2|0|2,1:0|0:3|0:3,0:0:0:0:
233,29,42471,2,0,L|134:54,2,60,0|0|2,1:0|0:3|0:3,0:0:0:0:
293,125,42804,1,2,1:0:0:0:
293,125,42916,2,0,L|194:100,1,60,2|2,0:3|0:3,0:0:0:0:
382,24,43138,1,0,1:0:0:0:
382,24,43250,2,0,L|283:49,1,60,2|2,0:3|0:3,0:0:0:0:
394,120,43471,6,0,L|403:193,2,60,2|0|2,1:0|0:0|0:3,0:0:0:0:
320,210,43804,2,0,L|311:283,2,60,0|2|2,1:0|0:3|0:3,0:0:0:0:
312,150,44138,2,0,L|323:247,1,60,2|0,1:0|0:3,0:0:0:0:
319,90,44360,1,2,0:1:0:0:
319,90,44471,2,0,L|310:163,1,60,0|2,1:0|0:1,0:0:0:0:
150,192,44804,6,0,L|141:119,1,60,2|0,1:0|0:0,0:0:0:0:
54,274,45027,1,2,0:3:0:0:
54,274,45138,2,0,L|63:201,2,60,0|2|2,1:0|0:3|0:3,0:0:0:0:
119,314,45471,5,2,1:1:0:0:
179,264,45582,1,2,0:3:0:0:
150,192,45693,1,2,0:3:0:0:
210,140,45804,1,0,1:0:0:0:
276,184,45916,1,2,0:3:0:0:
257,260,46027,1,2,0:3:0:0:
324,303,46138,6,0,L|395:313,1,60,2|0,1:0|0:0,0:0:0:0:
447,200,46360,1,2,0:3:0:0:
447,200,46471,2,0,L|387:208,2,60,0|0|2,1:0|0:0|0:3,0:0:0:0:
392,105,46804,2,0,L|332:96,1,60,2|0,1:0|0:0,0:0:0:0:
276,184,47027,1,2,0:1:0:0:
276,184,47138,2,0,L|216:192,1,60,0|2,1:0|0:1,0:0:0:0:
214,80,47471,6,0,L|347:98,1,120,2|2,1:0|0:3,0:0:0:0:
447,200,47804,1,0,1:0:0:0:
447,200,47915,2,0,L|387:208,1,60,0|2,0:0|0:3,0:0:0:0:
314,292,48138,2,0,L|195:275,1,120,2|2,1:1|0:3,0:0:0:0:
109,178,48471,1,0,1:0:0:0:
109,178,48582,2,0,L|168:169,1,60,2|2,0:3|0:3,0:0:0:0:
286,89,48804,6,0,L|167:72,1,120,2|2,1:0|0:1,0:0:0:0:
49,186,49138,1,0,1:0:0:0:
49,186,49249,2,0,L|108:177,1,60,2|0,0:1|0:0,0:0:0:0:
195,275,49471,2,0,L|313:291,1,120,2|2,1:0|0:1,0:0:0:0:
368,179,49804,1,0,1:0:0:0:
367,178,49915,2,0,L|307:186,1,60,2|2,0:1|0:3,0:0:0:0:
197,148,50138,5,4,0:0:0:0:
469,353,50638,1,2,0:3:0:0:
469,353,50721,1,2,0:3:0:0:
469,353,50804,2,0,L|473:293,1,45,0|0,1:0|0:0,0:0:0:0:
479,220,50971,1,0,0:0:0:0:
479,220,51054,2,0,L|483:160,1,45,2|0,0:3|1:0,0:0:0:0:
489,87,51221,1,0,0:0:0:0:
489,87,51304,2,0,L|493:27,1,45,0|0,1:0|0:0,0:0:0:0:
402,129,51471,6,0,P|362:149|312:147,1,90,4|0,0:0|0:0,0:0:0:0:
306,128,51721,2,0,P|266:108|216:110,1,90,2|0,0:0|0:0,0:0:0:0:
199,112,51971,2,0,L|193:180,1,45,0|0,0:0|0:0,0:0:0:0:
173,164,52138,2,0,L|189:351,1,180,2|2,0:0|0:3,0:0:0:0:
273,375,52638,1,0,0:0:0:0:
295,371,52721,1,0,0:0:0:0:
313,358,52804,6,0,P|348:309|338:188,1,180,2|2,0:0|0:3,0:0:0:0:
289,100,53304,1,0,0:0:0:0:
267,93,53388,1,2,0:0:0:0:
244,96,53471,1,2,0:0:0:0:
159,138,53638,1,2,0:0:0:0:
117,53,53804,1,2,0:3:0:0:
202,11,53971,1,2,0:0:0:0:
159,138,54138,6,0,L|155:237,1,90,2|0,0:0|0:0,0:0:0:0:
289,357,54471,2,0,L|285:258,1,90,2|0,0:3|0:0,0:0:0:0:
301,251,54721,1,2,0:0:0:0:
314,232,54804,2,0,L|310:133,1,90,2|0,0:0|0:0,0:0:0:0:
162,48,55138,2,0,L|158:147,1,90,2|0,0:3|0:0,0:0:0:0:
142,230,55471,6,0,P|91:205|68:165,1,90,2|0,0:0|0:0,0:0:0:0:
50,175,55721,2,0,P|46:118|69:78,1,90
75,72,55971,1,2,0:0:0:0:
97,315,56138,5,0,1:0:0:0:
158,137,56304,1,2,0:3:0:0:
14,273,56471,2,0,P|6:324|22:371,1,90,4|2,1:0|0:3,0:0:0:0:
163,182,56804,6,0,L|155:105,1,45,2|0,0:3|0:0,0:0:0:0:
177,316,56971,1,0,0:0:0:0:
174,293,57054,1,2,0:0:0:0:
172,271,57138,2,0,L|159:151,1,90,2|0,1:2|0:0,0:0:0:0:
282,117,57471,2,0,L|269:236,1,90,2|2,0:3|0:0,0:0:0:0:
163,86,57804,1,0,1:0:0:0:
283,22,57971,1,2,0:0:0:0:
163,182,58138,6,0,L|64:174,1,90,2|0,0:3|0:0,0:0:0:0:
52,184,58388,1,2,0:0:0:0:
38,202,58471,2,0,P|18:257|25:301,1,90,2|0,1:2|0:0,0:0:0:0:
121,346,58804,2,0,L|189:340,1,45,2|0,0:3|0:0,0:0:0:0:
269,333,58971,1,0,0:0:0:0:
291,331,59054,1,0,0:0:0:0:
313,329,59138,2,0,L|412:320,1,90,2|0,1:2|0:0,0:0:0:0:
204,223,59471,6,0,L|104:214,1,90,2|2,0:3|0:0,0:0:0:0:
361,134,59804,2,0,L|261:125,1,90,0|2,1:0|0:0,0:0:0:0:
252,113,60054,1,0,0:0:0:0:
233,100,60138,1,2,0:3:0:0:
133,124,60304,1,2,0:0:0:0:
80,34,60471,2,0,L|185:23,1,90,0|2,1:0|0:0,0:0:0:0:
277,104,60804,6,0,L|212:97,3,45,2|0|2|0,0:3|0:0|0:0|0:0,0:0:0:0:
203,196,61138,2,0,L|138:202,3,45,0|0|2|0,1:0|0:0|0:0|0:0,0:0:0:0:
314,194,61471,1,2,0:3:0:0:
351,169,61554,1,0,0:0:0:0:
373,131,61637,1,2,0:0:0:0:
375,86,61721,1,0,0:0:0:0:
355,46,61804,5,0,1:0:0:0:
380,65,61887,1,0,0:0:0:0:
409,78,61970,1,2,0:0:0:0:
440,83,62054,1,0,0:0:0:0:
471,80,62138,6,0,L|479:20,2,45.0000017166138,4|0|0,0:1|0:0|0:0,0:0:0:0:
415,150,62471,2,0,L|423:210,2,45.0000017166138,0|2|2,0:0|0:0|0:0,0:0:0:0:
357,80,62804,2,0,L|365:20,2,45.0000017166138,2|0|0,0:0|0:0|0:0,0:0:0:0:
301,150,63137,2,0,L|309:210,2,45.0000017166138,2|0|0,0:0|0:0|0:0,0:0:0:0:
227,96,63471,6,0,L|168:88,2,45.0000017166138,2|0|0,0:0|0:0|0:0,0:0:0:0:
173,170,63804,2,0,L|114:178,2,45.0000017166138,2|0|0,0:0|0:0|0:0,0:0:0:0:
220,258,64138,2,0,L|161:250,2,45.0000017166138,2|0|0,0:0|0:0|0:0,0:0:0:0:
166,332,64471,2,0,L|107:340,2,45.0000017166138,2|2|2,0:0|0:3|0:0,0:0:0:0:
311,271,64804,6,0,L|301:211,2,45.0000017166138,4|0|0,0:1|0:0|0:0,0:0:0:0:
370,132,65138,2,0,L|360:192,2,45.0000017166138,2|0|0,0:0|0:0|0:0,0:0:0:0:
424,282,65471,2,0,L|414:222,2,45.0000017166138,2|0|0,0:0|0:0|0:0,0:0:0:0:
483,143,65805,2,0,L|473:203,2,45.0000017166138,2|0|0,0:0|0:0|0:0,0:0:0:0:
485,371,66138,6,0,L|435:366,2,45.0000017166138,4|0|0,0:0|0:0|0:0,0:0:0:0:
424,282,66471,2,0,L|374:287,2,45.0000017166138,2|0|0,0:0|0:0|0:0,0:0:0:0:
265,359,66804,2,0,L|257:295,1,45.0000017166138,4|0,0:0|0:0,0:0:0:0:
324,182,67027,1,0,0:0:0:0:
324,182,67138,2,0,L|316:246,2,45.0000017166138,2|0|0,0:0|0:0|0:0,0:0:0:0:
114,253,67471,6,0,L|247:233,1,120,4|2,0:0|0:3,0:0:0:0:
324,182,67804,1,0,1:0:0:0:
260,136,67916,1,2,0:3:0:0:
267,57,68027,1,0,1:0:0:0:
338,22,68138,2,0,L|471:42,1,120,2|2,0:2|0:0,0:0:0:0:
395,149,68471,1,0,1:0:0:0:
459,195,68583,1,2,0:3:0:0:
452,274,68694,1,2,0:3:0:0:
381,309,68805,6,0,L|248:289,1,120,4|2,0:0|0:3,0:0:0:0:
126,305,69138,1,0,1:0:0:0:
190,259,69250,1,2,0:3:0:0:
183,180,69360,1,0,1:0:0:0:
111,148,69471,2,0,L|-9:135,1,120,0|0,1:0|0:0,0:0:0:0:
22,19,69804,1,0,1:0:0:0:
100,13,69916,1,2,0:3:0:0:
145,77,70026,1,2,0:3:0:0:
111,148,70138,6,0,L|107:226,2,60,4|0|0,0:0|0:0|0:0,0:0:0:0:
145,77,70471,1,4,0:3:0:0:
212,38,70582,1,4,0:3:0:0:
288,51,70693,1,4,0:3:0:0:
350,97,70804,5,8,0:3:0:0:
374,138,70916,1,8,0:3:0:0:
370,185,71027,1,8,0:3:0:0:
313,239,71138,5,8,0:3:0:0:
284,228,71249,1,8,0:3:0:0:
269,201,71360,1,8,0:3:0:0:
350,97,71471,5,4,0:0:0:0:
181,330,71721,1,4,0:0:0:0:
63,67,71971,1,4,0:0:0:0:
63,67,72471,5,2,0:0:0:0:
63,67,72804,6,0,P|100:57|138:60,1,53.9999983520508,2|0,1:0|0:0,0:0:0:0:
226,186,72971,2,0,P|172:171|131:121,1,107.999996704102,0|0,1:0|1:0,0:0:0:0:
193,75,73221,1,0,0:0:0:0:
219,73,73304,2,0,L|288:67,1,53.9999983520508,2|2,1:0|1:0,0:0:0:0:
279,190,73471,6,0,L|210:184,1,53.9999983520508,2|0,1:2|0:0,0:0:0:0:
359,128,73638,2,0,P|382:177|375:237,1,107.999996704102,0|0,1:0|1:0,0:0:0:0:
312,297,73888,1,0,0:0:0:0:
289,311,73971,2,0,P|266:321|228:322,1,53.9999983520508,2|2,1:0|1:0,0:0:0:0:
115,346,74138,6,0,L|125:269,1,53.9999983520508,2|0,1:0|0:0,0:0:0:0:
136,213,74304,1,0,1:0:0:0:
136,213,74388,2,0,L|142:159,1,53.9999983520508,2|0,0:1|1:0,0:0:0:0:
156,79,74554,1,0,0:0:0:0:
156,79,74638,2,0,L|162:25,1,53.9999983520508,2|0,1:0|0:0,0:0:0:0:
226,138,74804,6,0,L|232:191,1,53.9999983520508,2|0,1:0|0:0,0:0:0:0:
68,99,74971,1,0,1:0:0:0:
68,99,75055,2,0,L|74:45,1,53.9999983520508,2|0,0:1|1:0,0:0:0:0:
293,59,75221,1,0,0:0:0:0:
293,59,75305,2,0,L|299:112,1,53.9999983520508,2|0,1:0|0:0,0:0:0:0:
136,213,75471,6,0,L|142:159,1,53.9999983520508,2|0,1:0|0:0,0:0:0:0:
233,191,75638,2,0,L|250:322,1,107.999996704102,0|0,1:0|1:0,0:0:0:0:
328,353,75888,1,0,0:0:0:0:
328,353,75971,2,0,L|334:299,1,53.9999983520508,2|2,0:1|0:1,0:0:0:0:
415,210,76138,6,0,L|426:317,1,107.999996704102,2|0,1:0|1:0,0:0:0:0:
321,211,76388,1,0,0:0:0:0:
324,184,76471,2,0,L|330:130,1,53.9999983520508,2|0,1:0|1:0,0:0:0:0:
472,75,76638,2,0,P|499:96|523:139,1,53.9999983520508,0|0,1:0|0:0,0:0:0:0:
415,210,76804,6,0,P|419:176|444:133,1,53.9999983520508,2|0,1:0|0:0,0:0:0:0:
337,262,76971,1,0,1:0:0:0:
337,262,77054,2,0,P|324:230|324:181,1,53.9999983520508,2|0,0:1|1:0,0:0:0:0:
294,345,77221,1,0,0:0:0:0:
294,345,77304,2,0,P|267:324|243:281,1,53.9999983520508,2|0,1:0|0:0,0:0:0:0:
282,174,77471,2,0,P|309:195|333:238,1,53.9999983520508,2|0,1:0|0:0,0:0:0:0:
194,214,77638,5,0,1:0:0:0:
174,163,77721,1,2,0:3:0:0:
182,115,77804,1,4,0:3:0:0:
207,79,77888,1,0,0:0:0:0:
240,60,77971,1,2,0:1:0:0:
272,59,78054,1,0,0:0:0:0:
298,62,78138,6,0,P|332:76|363:106,1,53.9999983520508,2|0,1:0|0:0,0:0:0:0:
340,226,78304,2,0,P|294:193|283:136,1,107.999996704102,0|0,1:0|1:0,0:0:0:0:
408,154,78554,1,0,0:0:0:0:
434,157,78638,2,0,L|508:163,1,53.9999983520508,2|0,1:0|0:1,0:0:0:0:
507,294,78804,6,0,L|433:300,1,53.9999983520508,2|0,1:0|0:0,0:0:0:0:
372,303,78971,2,0,L|298:309,1,53.9999983520508,2|0,1:0|0:0,0:0:0:0:
183,316,79138,2,0,L|236:311,1,53.9999983520508,2|0,1:0|0:0,0:0:0:0:
100,319,79304,2,0,L|47:324,1,53.9999983520508,2|0,1:0|0:0,0:0:0:0:
17,206,79471,6,0,L|70:210,1,53.9999983520508,2|0,1:0|0:0,0:0:0:0:
104,130,79638,1,0,1:0:0:0:
104,130,79721,2,0,L|148:160,1,53.9999983520508,2|0,0:1|1:0,0:0:0:0:
223,117,79888,1,0,0:0:0:0:
223,117,79971,2,0,L|246:165,1,53.9999983520508,2|0,1:0|0:0,0:0:0:0:
309,249,80138,6,0,L|332:200,1,53.9999983520508,2|0,1:0|0:0,0:0:0:0:
210,253,80304,1,0,1:0:0:0:
210,253,80388,2,0,L|233:301,1,53.9999983520508,2|0,0:1|1:0,0:0:0:0:
400,273,80554,1,0,0:0:0:0:
400,273,80638,2,0,L|423:224,1,53.9999983520508,2|0,1:0|0:0,0:0:0:0:
119,277,80804,6,0,L|142:325,1,53.9999983520508,2|0,1:0|0:0,0:0:0:0:
279,362,80971,2,0,L|286:246,1,107.999996704102,0|0,1:0|1:0,0:0:0:0:
235,181,81221,1,2,0:3:0:0:
233,154,81304,2,0,L|229:95,1,53.9999983520508,0|2,1:0|0:3,0:0:0:0:
345,127,81471,6,0,L|408:134,1,53.9999983520508,2|0,1:0|0:0,0:0:0:0:
348,220,81638,1,0,1:0:0:0:
348,220,81721,2,0,L|411:227,1,53.9999983520508,2|0,0:1|1:0,0:0:0:0:
351,313,81888,1,0,0:0:0:0:
351,313,81971,2,0,L|414:320,1,53.9999983520508,2|0,1:0|0:0,0:0:0:0:
275,350,82138,6,0,B|229:278|229:278|277:161,1,180,4|0,1:0|0:0,0:0:0:0:
265,191,82388,2,0,P|249:249|119:258,1,180,0|0,1:0|0:0,0:0:0:0:
144,276,82638,2,0,L|136:377,1,90,0|0,1:0|1:0,0:0:0:0:
25,225,82804,6,0,L|17:124,1,90,0|0,1:0|0:0,0:0:0:0:
51,15,82971,1,0,1:0:0:0:
158,171,83138,1,0,1:0:0:0:
154,126,83221,1,0,1:0:0:0:
150,81,83304,1,0,1:0:0:0:
252,47,83471,6,0,B|291:116|291:116|440:131,1,225,8|0,1:3|0:0,0:0:0:0:
436,130,83721,2,0,P|364:135|367:272,1,225,4|0,1:3|0:0,0:0:0:0:
353,262,83971,2,0,L|485:251,1,112.5,0|0,1:0|0:0,0:0:0:0:
239,349,84138,6,0,L|107:337,1,112.5,4|0,1:0|0:0,0:0:0:0:
160,207,84304,1,0,1:0:0:0:
216,201,84387,1,0,0:0:0:0:
272,196,84470,1,0,1:0:0:0:
48,218,84638,1,0,1:0:0:0:
104,212,84721,1,0,0:0:0:0:
160,207,84804,5,4,0:0:0:0:
256,32,85471,1,4,0:0:0:0:
387,295,86138,6,0,L|396:230,3,45,2|2|2|2,0:1|0:3|0:3|0:1,0:0:0:0:
310,250,86471,2,0,L|301:185,3,45,2|2|2|2,0:3|0:3|0:1|0:3,0:0:0:0:
253,318,86804,1,2,1:0:0:0:
209,327,86887,1,0,1:0:0:0:
166,315,86970,1,0,1:0:0:0:
135,284,87053,1,2,1:0:0:0:
123,241,87138,2,0,L|130:137,1,90,0|2,1:0|1:0,0:0:0:0:
36,57,87471,6,0,L|110:47,1,53.9999983520508,2|0,1:0|0:0,0:0:0:0:
129,151,87638,2,0,L|55:141,1,53.9999983520508,0|2,1:0|0:1,0:0:0:0:
186,56,87805,1,0,1:0:0:0:
211,62,87887,1,0,0:0:0:0:
232,78,87970,2,0,P|256:101|270:125,1,53.9999983520508,2|0,1:0|0:0,0:0:0:0:
191,234,88137,6,0,P|198:201|212:177,1,53.9999983520508,2|0,1:0|0:0,0:0:0:0:
346,190,88304,2,0,P|314:199|286:199,1,53.9999983520508,0|0,1:0|0:0,0:0:0:0:
401,119,88470,1,2,1:0:0:0:
420,137,88553,1,0,0:0:0:0:
435,159,88637,2,0,P|439:191|434:219,1,53.9999983520508,0|0,1:0|0:0,0:0:0:0:
418,303,88804,6,0,P|392:293|370:277,1,53.9999983520508,2|0,1:0|0:0,0:0:0:0:
300,218,88970,2,0,P|321:201|346:190,1,53.9999983520508,0|2,1:0|0:1,0:0:0:0:
283,308,89137,2,0,P|257:298|235:282,1,53.9999983520508,0|0,1:0|0:0,0:0:0:0:
210,139,89304,2,0,P|214:165|211:192,1,53.9999983520508,2|0,1:0|0:0,0:0:0:0:
100,284,89470,2,0,P|120:267|145:255,1,53.9999983520508,2|0,1:0|0:0,0:0:0:0:
283,308,89638,5,0,1:0:0:0:
235,282,89721,1,2,0:3:0:0:
211,238,89804,1,8,0:3:0:0:
211,192,89888,1,0,0:0:0:0:
227,159,89971,1,2,1:0:0:0:
250,138,90054,1,0,0:0:0:0:
274,128,90137,6,0,P|300:138|322:154,1,53.9999983520508,2|0,1:0|0:0,0:0:0:0:
188,106,90304,2,0,P|183:78|186:51,1,53.9999983520508,0|0,1:0|0:0,0:0:0:0:
211,192,90471,2,0,P|189:209|164:220,1,53.9999983520508,0|0,1:0|0:0,0:0:0:0:
53,114,90638,1,2,1:0:0:0:
102,134,90721,1,2,0:1:0:0:
137,174,90804,6,0,P|154:195|165:220,1,53.9999983520508,2|0,1:0|0:0,0:0:0:0:
57,281,90971,2,0,P|67:255|83:233,1,53.9999983520508,0|2,1:0|0:1,0:0:0:0:
190,297,91138,2,0,P|162:301|135:298,1,53.9999983520508,0|0,1:0|0:0,0:0:0:0:
246,237,91304,2,0,P|263:258|274:283,1,53.9999983520508,2|0,1:0|0:0,0:0:0:0:
165,219,91471,6,0,P|175:193|191:171,1,53.9999983520508,2|0,1:0|0:0,0:0:0:0:
299,235,91638,2,0,P|271:239|244:236,1,53.9999983520508,0|2,1:0|0:1,0:0:0:0:
150,185,91804,2,0,P|171:167|196:156,1,53.9999983520508,0|0,1:0|0:0,0:0:0:0:
292,277,91971,2,0,P|266:267|244:251,1,53.9999983520508,2|0,1:0|0:0,0:0:0:0:
146,142,92138,2,0,P|173:137|200:140,1,53.9999983520508,2|0,1:0|0:0,0:0:0:0:
271,311,92304,2,0,P|253:289|242:264,1,53.9999983520508,0|2,1:0|0:1,0:0:0:0:
221,91,92471,5,0,1:0:0:0:
219,144,92554,1,0,0:0:0:0:
217,198,92637,1,2,1:0:0:0:
215,252,92720,1,0,0:0:0:0:
213,306,92804,6,2,B|207:333|212:371|212:371|162:275|59:254|59:254|120:236|147:171,1,360,6|0,1:1|0:1,0:1:0:0:
186,107,93638,2,0,L|72:84,2,90,2|2|2,0:0|0:0|0:0,0:0:0:0:
286,178,94138,6,0,P|327:73|429:111,1,225,4|0,1:0|0:0,0:0:0:0:
417,93,94388,2,0,L|405:326,1,225,4|0,1:0|0:0,0:0:0:0:
405,317,94638,1,4,1:0:0:0:
164,367,94971,6,0,L|60:357,2,90,2|2|2,0:0|0:0|0:0,0:0:0:0:
269,269,95471,6,0,L|373:259,1,90,4|0,1:0|0:0,0:0:0:0:
282,164,95721,1,2,0:0:0:0:
282,164,95804,2,0,L|178:154,1,90,0|2,1:0|0:3,0:0:0:0:
26,161,96138,1,0,1:0:0:0:
48,163,96221,1,0,0:0:0:0:
68,172,96304,1,2,0:3:0:0:
86,186,96387,1,2,0:3:0:0:
97,205,96471,1,0,1:0:0:0:
35,288,96638,2,0,L|28:357,1,45,0|0,1:0|0:0,0:0:0:0:
143,357,96804,6,0,L|257:348,1,90,2|0,1:0|0:0,0:0:0:0:
294,279,97054,1,2,1:0:0:0:
294,279,97138,2,0,L|408:288,1,90,0|2,0:0|1:0,0:0:0:0:
490,360,97471,2,0,P|466:314|472:258,1,90,2|0,0:1|1:0,0:0:0:0:
415,205,97721,1,0,0:0:0:0:
415,205,97804,2,0,P|439:159|433:103,1,90,2|2,1:0|1:0,0:0:0:0:
474,21,98138,6,0,L|379:25,1,90,2|0,1:0|0:0,0:0:0:0:
349,118,98388,1,2,0:1:0:0:
349,118,98471,2,0,L|444:122,1,90,0|2,1:0|0:1,0:0:0:0:
274,53,98804,2,0,L|268:109,1,45,2|0,1:0|0:0,0:0:0:0:
195,58,98971,2,0,L|189:114,1,45,2|0,0:3|0:0,0:0:0:0:
111,107,99138,2,0,L|116:63,1,45,2|0,1:0|0:0,0:0:0:0:
37,68,99304,2,0,L|31:124,1,45,2|0,1:0|0:0,0:0:0:0:
120,243,99471,6,0,L|114:187,1,45,2|0,1:0|0:0,0:0:0:0:
205,236,99638,1,4,0:3:0:0:
202,213,99721,1,0,0:0:0:0:
199,190,99804,2,0,L|193:134,1,45,2|0,1:0|0:0,0:0:0:0:
290,229,99971,1,4,0:3:0:0:
287,206,100054,1,0,0:0:0:0:
284,183,100138,6,0,L|278:127,3,45,2|0|4|0,1:0|0:0|0:3|0:0,0:0:0:0:
362,114,100471,2,0,L|368:58,3,45,2|0|4|0,1:0|0:0|0:3|0:0,0:0:0:0:
410,206,100804,6,0,P|371:227|351:275,1,90,2|2,0:0|0:3,0:0:0:0:
356,351,101054,1,0,0:0:0:0:
356,351,101138,2,0,P|324:314|257:303,1,90,0|2,1:0|0:0,0:0:0:0:
215,347,101388,1,0,0:0:0:0:
215,347,101471,2,0,L|159:339,3,45,2|0|2|0,0:0|0:0|0:3|0:0,0:0:0:0:
128,266,101804,2,0,L|72:274,3,45,0|0|0|0,1:0|0:0|1:0|0:0,0:0:0:0:
242,247,102138,6,0,P|218:202|218:150,1,90,2|2,0:0|0:3,0:0:0:0:
226,77,102388,1,0,0:0:0:0:
226,77,102471,2,0,P|252:33|298:7,1,90,0|2,1:0|0:3,0:0:0:0:
378,11,102721,1,0,2:0:0:0:
378,11,102804,2,0,L|390:75,3,45,0|2|0|0,1:0|0:3|1:0|0:0,0:0:0:0:
316,105,103138,2,0,L|304:169,1,45,0|0,1:0|0:0,0:0:0:0:
371,210,103304,2,0,L|383:274,1,45,0|0,1:0|0:0,0:0:0:0:
305,300,103471,6,0,P|269:323|215:320,1,90,0|0,1:0|0:0,0:0:0:0:
165,207,103804,1,0,1:0:0:0:
161,184,103887,1,0,0:0:0:0:
163,162,103970,1,2,0:0:0:0:
172,141,104053,1,0,0:0:0:0:
186,124,104138,2,0,P|204:110|228:103,3,45,2|0|2|0,0:0|0:0|0:3|0:0,0:0:0:0:
286,173,104471,2,0,P|304:187|328:194,3,45,0|0|2|0,1:0|0:0|0:0|0:0,0:0:0:0:
331,92,104804,6,0,P|305:57|235:39,1,60,4|4,0:3|0:3,0:0:0:0:
210,73,105027,1,4,0:3:0:0:
210,73,105138,2,0,L|215:134,1,60,8|8,0:3|0:3,0:0:0:0:
129,98,105360,2,0,L|139:220,1,120,4|0,0:3|0:0,0:0:0:0:
153,352,105693,1,4,0:3:0:0:
153,352,105804,2,0,L|148:292,2,60,0|0|0,1:0|1:0|1:0,0:0:0:0:
221,246,106138,6,0,L|225:186,2,60,4|4|4,0:3|0:3|0:3,0:0:0:0:
290,295,106471,2,0,L|294:354,2,60,4|4|4,0:3|0:3|0:3,0:0:0:0:
362,248,106804,5,4,0:3:0:0:
387,231,106916,1,4,0:3:0:0:
416,228,107027,1,4,0:3:0:0:
464,312,107138,5,8,0:3:0:0:
432,347,107249,1,8,0:3:0:0:
385,352,107360,1,8,0:3:0:0:
362,248,107471,5,4,0:0:0:0:
256,192,107582,12,0,112471,0:0:0:0:
216,155,112804,6,0,L|112:149,1,90,4|2,0:0|0:3,0:0:0:0:
261,76,113138,1,0,1:0:0:0:
307,155,113304,1,2,0:3:0:0:
308,177,113388,1,0,0:0:0:0:
310,199,113471,1,2,0:0:0:0:
319,288,113638,1,0,0:0:0:0:
328,377,113804,2,0,L|318:276,1,90,0|2,1:0|0:3,0:0:0:0:
310,199,114138,5,2,0:0:0:0:
308,177,114221,1,0,0:0:0:0:
307,155,114305,1,2,0:0:0:0:
229,222,114471,2,0,L|225:166,1,45,0|0,1:0|0:0,0:0:0:0:
148,245,114638,1,2,0:3:0:0:
146,223,114721,1,0,0:0:0:0:
145,201,114805,1,2,0:3:0:0:
67,268,114971,1,2,0:3:0:0:
67,268,115138,2,0,L|63:212,1,45,0|0,1:0|0:0,0:0:0:0:
57,139,115304,1,2,0:3:0:0:
55,117,115387,1,0,0:0:0:0:
54,95,115471,6,0,P|86:46|207:57,1,180,2|0,0:3|1:0,0:0:0:0:
248,124,115971,1,0,0:0:0:0:
243,145,116054,1,2,0:3:0:0:
239,167,116138,2,0,L|220:272,1,90,2|2,0:3|0:0,0:0:0:0:
272,336,116471,1,0,1:0:0:0:
348,288,116638,1,2,0:0:0:0:
346,265,116721,1,0,0:0:0:0:
344,242,116804,6,0,L|338:175,3,45,4|0|2|0,0:0|0:0|0:0|0:0,0:0:0:0:
413,167,117138,2,0,L|419:100,3,45,4|0|0|0,0:0|0:0|0:0|0:0,0:0:0:0:
319,110,117471,5,2,0:0:0:0:
293,79,117554,1,0,0:0:0:0:
263,58,117637,1,2,0:0:0:0:
230,39,117720,1,0,0:0:0:0:
193,29,117804,1,0,1:0:0:0:
156,27,117887,1,0,0:0:0:0:
119,32,117970,1,0,1:0:0:0:
84,44,118054,1,0,0:0:0:0:
256,272,118471,5,4,0:0:0:0:
256,192,118554,12,2,120471,0:3:0:0:
256,192,120638,6,0,L|256:143,2,45,0|0|4,1:0|1:0|3:0,1:0:0:0:
