osu file format v14

[General]
AudioFilename: audio.mp3
AudioLeadIn: 0
PreviewTime: 30054
Countdown: 0
SampleSet: Soft
StackLeniency: 0.7
Mode: 0
LetterboxInBreaks: 0
WidescreenStoryboard: 0

[Editor]
Bookmarks: 118471
DistanceSpacing: 1.9
BeatDivisor: 4
GridSize: 16
TimelineZoom: 1.3

[Metadata]
Title:Fatality Saga
TitleUnicode:Fatality Saga
Artist:AAAA Chazuke
ArtistUnicode:ああああ茶漬け
Creator:Battle
Version:Monogatari
Source:
Tags:Umeboshi Chazuke 梅干茶漬け chiptune SnowNiNo_ bor meat inspector _83 VINXIS
BeatmapID:1406708
BeatmapSetID:664679

[Difficulty]
HPDrainRate:6
CircleSize:4
OverallDifficulty:9
ApproachRate:9.5
SliderMultiplier:1.7
SliderTickRate:1

[Events]
//Background and Video events
0,0,"53591823_p0.jpg",0,0
//Break Periods
//Storyboard Layer 0 (Background)
//Storyboard Layer 1 (Fail)
//Storyboard Layer 2 (Pass)
//Storyboard Layer 3 (Foreground)
//Storyboard Sound Samples

[TimingPoints]
805,333.333333333333,4,1,1,100,1,0
1638,-76.9230769230769,4,2,1,70,0,0
2055,-100,4,2,1,5,0,0
2138,-133.333333333333,4,2,1,80,0,0
2804,-133.333333333333,4,2,1,85,0,0
3471,-100,4,2,1,90,0,0
4138,-83.3333333333333,4,2,1,100,0,0
6138,-100,4,2,1,100,0,0
10138,-200,4,2,1,100,0,0
11471,-71.4285714285714,4,2,1,100,0,0
12221,-100,4,2,1,5,0,0
12304,-100,4,2,1,100,0,0
12804,-100,4,2,1,90,0,0
26138,-100,4,2,1,70,0,0
27138,-100,4,2,1,100,0,0
30138,-133.333333333333,4,2,1,80,0,0
31804,-153.846153846153,4,2,1,75,0,0
32138,-181.818181818181,4,2,1,70,0,0
32471,-222.222222222221,4,2,1,65,0,0
32804,-133.333333333333,4,2,1,80,0,0
34471,-153.846153846153,4,2,1,75,0,0
34804,-181.818181818181,4,2,1,70,0,0
35138,-222.222222222221,4,2,1,65,0,0
35471,-133.333333333333,4,2,1,80,0,0
40804,-83.3333333333333,4,2,1,90,0,0
51471,-111.111111111111,4,2,1,80,0,0
56804,-90.9090909090909,4,2,1,90,0,0
62138,-133.333333333333,4,2,1,70,0,0
67471,-83.3333333333333,4,2,1,80,0,0
71471,-90.9090909090909,4,2,1,100,0,0
72304,-133.333333333333,4,2,1,90,0,0
72804,-55.5555555555556,4,2,1,100,0,1
84804,-200,4,2,1,90,0,0
85304,-55.5555555555556,4,2,1,80,0,0
85471,-200,4,2,1,90,0,0
85971,-55.5555555555556,4,2,1,80,0,0
86138,-55.5555555555556,4,2,1,70,0,0
86304,-55.5555555555556,4,2,1,75,0,0
86471,-55.5555555555556,4,2,1,80,0,0
86638,-55.5555555555556,4,2,1,85,0,0
86804,-55.5555555555556,4,2,1,90,0,0
87471,-55.5555555555556,4,2,1,100,0,1
92804,-133.333333333333,4,2,1,100,0,0
93638,-133.333333333333,4,2,1,80,0,0
94138,-55.5555555555556,4,2,1,90,0,1
94638,-66.6666666666667,4,2,1,90,0,1
95138,-100,4,2,1,90,0,0
95471,-83.3333333333333,4,2,1,80,0,0
104804,-76.9230769230769,4,2,1,90,0,0
107471,-76.9230769230769,4,2,1,80,0,0
109471,-133.333333333333,4,2,1,80,0,0
112804,-83.3333333333333,4,2,1,90,0,0
120638,-83.3333333333333,4,2,1,70,0,0

[Colours]
Combo1 : 226,128,29
Combo2 : 114,130,64
Combo3 : 31,51,97
Combo4 : 129,18,18
Combo5 : 50,147,152
Combo6 : 191,72,105

[HitObjects]
35,136,1638,5,2,0:3:0:0:
35,136,1722,1,2,0:3:0:0:
35,136,1805,2,0,B|88:92|154:127|154:127|119:150,1,165.749992412568,0|0,1:0|0:0,0:0:0:0:
225,67,2138,6,0,P|182:97|211:216,1,191.250007295609,4|2,0:0|0:0,0:0:0:0:
269,158,2721,1,2,0:0:0:0:
263,177,2805,2,0,B|251:210|223:223|223:223|286:271|251:340,1,191.250007295609,4|0,0:0|0:0,0:0:0:0:
187,296,3388,1,2,0:0:0:0:
187,296,3471,6,0,P|141:288|95:308,1,85,4|0,0:0|0:0,0:0:0:0:
88,97,3721,2,0,P|78:138|51:170,1,85,8|0,0:3|0:0,0:0:0:0:
242,228,3971,2,0,P|211:199|200:169,1,42.5,4|0,0:3|0:0,0:0:0:0:
317,33,4138,6,0,B|284:83|284:83|298:155,1,101.999996887207,4|0,1:2|0:0,0:0:0:0:
427,144,4388,1,0,1:0:0:0:
411,153,4471,2,0,P|373:192|365:222,1,50.9999984436036,0|0,1:0|0:0,0:0:0:0:
455,311,4638,2,0,B|470:234,1,50.9999984436036,0|0,1:0|0:0,0:0:0:0:
251,252,4805,6,0,L|283:391,1,135.99999584961,4|8,0:3|0:3,0:0:0:0:
174,213,5138,2,0,P|209:176|257:167,2,67.9999979248048,4|0|4,0:3|0:0|0:3,0:0:0:0:
107,259,5471,1,4,0:3:0:0:
41,209,5582,1,4,0:3:0:0:
87,142,5693,1,4,0:3:0:0:
22,92,5804,2,0,P|4:26|-3:-2,2,67.9999979248048,4|4|4,0:3|0:3|0:3,0:0:0:0:
122,57,6138,6,0,P|195:9|265:33,2,127.5,4|2|2,0:0|0:0|0:0,0:0:0:0:
174,298,6805,2,0,P|192:231|199:206,1,85,4|4,1:2|0:3,0:0:0:0:
19,126,7138,2,0,P|37:193|44:218,1,85,0|0,1:0|0:0,0:0:0:0:
138,145,7387,1,2,0:0:0:0:
138,145,7471,6,0,P|191:122|247:145,1,85,4|0,0:1|0:0,0:0:0:0:
279,7,7721,2,0,P|322:45|325:105,1,85,4|0,0:1|0:0,0:0:0:0:
237,214,7971,2,0,P|265:208|289:205,1,42.5,2|2,0:0|0:0,0:0:0:0:
443,344,8138,2,0,P|383:325|320:308,2,127.5,4|2|2,0:0|0:0|0:3,0:0:0:0:
460,170,8804,6,0,P|448:219|440:259,1,85,4|0,0:0|0:0,0:0:0:0:
381,74,9054,2,0,P|369:123|361:163,1,85,4|0,0:0|0:0,0:0:0:0:
234,95,9304,2,0,P|291:83|313:80,1,42.5,0|0,1:0|0:0,0:0:0:0:
340,266,9471,6,0,P|258:229|235:223,1,85,4|0,0:0|0:0,0:0:0:0:
150,328,9721,1,0,1:0:0:0:
150,328,9804,2,0,L|216:297,1,42.5,0|0,1:0|0:0,0:0:0:0:
32,231,9971,2,0,L|70:249,1,42.5,0|0,1:0|0:0,0:0:0:0:
154,11,10138,6,0,B|111:88|220:88|159:190,1,170,4|0,0:0|0:0,0:0:0:0:
226,239,10971,5,2,0:0:0:0:
257,157,11138,1,2,0:0:0:0:
169,169,11304,1,2,0:0:0:0:
394,359,11471,6,0,B|377:310|377:310|404:244,1,118.999996368408,4|0,0:0|0:0,0:0:0:0:
316,115,11721,2,0,B|333:164|333:164|306:230,1,118.999996368408,4|0,0:0|0:0,0:0:0:0:
512,254,11971,2,0,P|437:238|421:142,1,178.499994552612,4|0,0:0|0:0,0:1:0:0:
488,179,12304,1,2,0:0:0:0:
369,310,12471,2,0,P|319:302|278:296,1,85,2|0,0:0|0:0,0:0:0:0:
230,113,12804,6,0,P|206:175|190:241,1,127.5,4|2,0:0|0:3,0:0:0:0:
112,292,13138,2,0,P|124:342|130:380,1,85,0|2,1:0|0:3,0:0:0:0:
29,224,13471,2,0,P|71:198|118:189,1,85,2|2,0:0|0:3,0:0:0:0:
220,131,13804,1,0,1:0:0:0:
132,58,13971,1,2,0:3:0:0:
307,24,14138,6,0,B|285:82|285:82|302:122|301:169,1,127.5,2|2,0:3|0:3,0:0:0:0:
311,245,14471,2,0,P|367:220|394:176,1,85,0|0,1:0|0:0,0:0:0:0:
225,225,14804,1,0,0:3:0:0:
225,225,14888,1,2,0:3:0:0:
225,225,14971,1,0,1:0:0:0:
351,384,15138,2,0,P|362:338|382:286,1,85,0|0,1:0|1:0,0:0:0:0:
251,346,15471,6,0,P|182:335|111:325,1,127.5,2|2,0:0|0:3,0:0:0:0:
28,257,15804,2,0,P|72:240|136:228,1,85,0|0,1:0|0:0,0:0:0:0:
220,260,16138,1,2,0:0:0:0:
217,93,16304,1,0,0:0:0:0:
217,93,16388,1,2,0:3:0:0:
217,93,16471,1,0,1:0:0:0:
339,163,16638,1,2,0:3:0:0:
226,296,16804,6,0,P|253:368|258:403,1,85,4|0,1:0|0:0,0:0:0:0:
352,236,17054,1,2,0:3:0:0:
352,236,17138,2,0,P|325:308|320:343,1,85,4|0,1:0|0:0,0:0:0:0:
243,176,17388,1,2,0:3:0:0:
243,176,17472,2,0,P|251:222|255:254,1,42.5,4|0,1:0|0:0,0:0:0:0:
335,113,17638,2,0,P|327:159|323:191,1,42.5,0|0,1:0|0:0,0:0:0:0:
213,52,17804,2,0,P|220:82|223:120,1,42.5,0|0,1:0|0:0,0:0:0:0:
309,0,17971,2,0,P|300:46|296:72,1,42.5,0|0,1:0|0:0,0:0:0:0:
430,190,18138,6,0,P|408:268|407:339,1,127.5,4|2,0:0|0:3,0:0:0:0:
224,295,18471,2,0,P|269:288|324:277,1,85,0|0,1:0|0:0,0:0:0:0:
447,249,18804,1,0,0:3:0:0:
322,179,18971,2,0,P|318:142|315:123,1,42.5,2|2,0:3|0:3,0:0:0:0:
433,53,19138,2,0,P|418:122|413:165,1,85,0|2,1:0|3:0,0:0:0:0:
321,319,19471,6,0,P|314:277|291:186,1,127.5,2|2,0:3|0:3,0:0:0:0:
199,145,19804,2,0,P|245:100|288:86,1,85,0|0,1:0|0:0,0:0:0:0:
203,278,20138,1,0,0:0:0:0:
203,278,20221,1,2,0:3:0:0:
203,278,20304,1,0,1:0:0:0:
126,108,20471,1,0,1:0:0:0:
255,194,20638,1,0,1:0:0:0:
116,384,20804,6,0,P|95:307|71:260,1,127.5,2|2,0:3|0:3,0:0:0:0:
206,143,21138,2,0,P|185:228|182:251,1,85,0|0,1:0|0:0,0:0:0:0:
132,86,21471,1,2,0:0:0:0:
284,210,21638,1,0,0:0:0:0:
284,210,21721,1,2,0:3:0:0:
284,210,21804,1,0,1:0:0:0:
182,264,21971,1,0,1:0:0:0:
395,273,22138,6,0,P|370:199|398:126,1,113.333333333333,4|8,0:0|0:3,0:0:0:0:
508,199,22471,2,0,P|480:203|452:208,2,56.6666666666667,4|4|4,0:3|0:3|0:3,0:0:0:0:
409,25,22804,2,0,P|369:75|298:75,1,113.333333333333,4|4,0:3|0:3,0:0:0:0:
238,65,23138,1,8,0:3:0:0:
197,140,23250,1,8,0:3:0:0:
255,202,23361,1,8,0:3:0:0:
332,166,23471,5,4,0:3:0:0:
429,174,23582,1,4,0:3:0:0:
451,268,23694,1,4,0:3:0:0:
364,313,23804,2,0,P|356:353|351:376,1,56.6666666666667,8|0,0:3|0:0,0:0:0:0:
244,222,24027,1,4,0:3:0:0:
249,239,24138,2,0,P|257:280|261:302,1,56.6666666666667,8|0,0:3|0:0,0:0:0:0:
399,149,24360,1,4,0:3:0:0:
394,171,24471,2,0,P|379:243|366:329,1,113.333333333333,8|0,0:3|0:0,0:0:0:0:
293,160,24804,5,4,0:1:0:0:
256,192,24888,12,4,26138,0:0:0:0:
256,192,26221,12,2,27138,0:0:0:0:
264,259,27471,5,0,1:0:0:0:
144,340,27638,1,0,0:0:0:0:
136,152,27804,5,0,1:0:0:0:
274,278,27971,1,0,0:0:0:0:
264,50,28138,5,0,1:0:0:0:
125,156,28304,1,0,0:0:0:0:
118,159,28387,1,2,0:3:0:0:
112,163,28470,1,0,1:0:0:0:
324,291,28638,1,0,0:0:0:0:
265,111,28804,5,0,1:0:0:0:
273,374,28971,1,0,0:0:0:0:
504,280,29138,5,0,1:0:0:0:
226,245,29304,1,0,0:0:0:0:
495,144,29471,5,0,1:0:0:0:
393,268,29638,1,0,0:0:0:0:
392,275,29721,1,2,0:3:0:0:
391,283,29804,1,0,1:0:0:0:
325,111,29971,1,0,1:0:0:0:
265,240,30138,6,0,P|327:230|349:227,2,63.7500024318696,4|2|2,0:0|0:0|0:0,0:0:0:0:
141,203,30638,2,0,P|172:293|166:346,1,127.500004863739,2|2,0:0|0:0,0:0:0:0:
71,126,31138,2,0,P|128:102|150:96,1,63.7500024318696,2|0,0:0|0:0,0:0:0:0:
306,198,31471,6,0,P|256:185|238:180,1,63.7500024318696,2|0,0:0|0:0,0:0:0:0:
308,59,31804,2,0,P|301:85|294:112,1,55.2499974708558,2|0,0:0|0:0,0:0:0:0:
434,127,32138,2,0,P|390:113|374:108,1,46.7500014266968,2|0,0:0|0:0,0:0:0:0:
369,249,32471,2,0,P|383:213|389:200,1,38.2499988327027,2|0,0:0|0:0,0:0:0:0:
273,358,32804,6,0,P|266:326|261:295,2,63.7500024318696,2|2|2,0:0|0:0|0:0,0:0:0:0:
131,247,33304,2,0,P|197:217|257:206,1,127.500004863739,2|2,0:0|0:0,0:0:0:0:
368,140,33804,2,0,P|324:120|291:97,1,63.7500024318696,2|0,0:0|0:0,0:0:0:0:
169,27,34138,6,0,P|190:73|198:90,1,63.7500024318696,2|0,0:0|0:0,0:0:0:0:
50,107,34471,2,0,P|76:98|102:91,1,55.2499974708558,2|0,0:0|0:0,0:0:0:0:
126,225,34805,2,0,P|108:184|100:168,1,46.7500014266968,2|0,0:0|0:0,0:0:0:0:
240,149,35138,2,0,P|205:164|192:170,1,38.2499988327027,2|0,0:0|0:0,0:0:0:0:
122,316,35471,6,0,P|197:286|207:282,1,63.7500024318696,2|0,0:0|0:0,0:0:0:0:
258,353,35804,1,2,0:0:0:0:
356,180,35971,2,0,P|333:263|325:316,1,127.500004863739,2|2,0:0|0:0,0:0:0:0:
242,215,36471,1,0,0:0:0:0:
452,154,36638,6,0,P|397:146|344:90,1,127.500004863739,2|2,0:0|0:0,0:0:0:0:
347,97,37054,1,2,0:0:0:0:
347,97,37138,1,2,0:0:0:0:
272,165,37304,1,0,0:0:0:0:
170,37,37471,2,0,P|208:22|256:12,1,63.7500024318696,2|2,0:0|0:0,0:0:0:0:
122,155,37804,2,0,P|91:146|61:134,1,63.7500024318696,2|2,0:0|0:0,0:0:0:0:
229,118,38138,6,0,B|196:180|262:181|234:246,1,127.500004863739,2|0,0:0|0:0,0:0:0:0:
341,212,38638,1,0,0:0:0:0:
341,212,38721,1,2,0:0:0:0:
341,212,38804,2,0,P|333:270|411:225,1,191.250007295609,2|0,0:0|0:0,0:0:0:0:
259,374,39471,6,0,P|300:364|347:353,1,63.7500024318696,2|0,0:0|0:0,0:0:0:0:
233,258,39804,1,2,0:0:0:0:
139,384,39971,2,0,P|123:300|106:235,1,127.500004863739,2|4,0:0|1:0,0:0:0:0:
46,84,40638,1,2,0:3:0:0:
46,84,40721,1,2,0:3:0:0:
46,84,40804,6,0,P|111:123|164:93,1,135.99999584961,6|2,1:0|0:3,0:0:0:0:
297,60,41138,2,0,P|241:32|214:23,1,67.9999979248048,0|0,1:0|1:0,0:0:0:0:
204,223,41360,1,2,0:3:0:0:
210,207,41471,2,0,P|223:170|245:109,1,67.9999979248048,2|0,0:1|0:0,0:0:0:0:
332,300,41693,1,2,0:1:0:0:
326,284,41804,2,0,P|313:247|291:186,1,67.9999979248048,0|2,1:1|0:1,0:0:0:0:
485,232,42027,1,2,0:3:0:0:
458,228,42138,6,0,P|413:220|369:215,2,67.9999979248048,2|0|2,1:0|0:3|0:3,0:0:0:0:
297,86,42471,2,0,P|341:82|386:76,2,67.9999979248048,0|0|2,1:0|0:3|0:3,0:0:0:0:
186,236,42804,2,0,P|198:183|209:140,1,67.9999979248048,2|2,1:0|0:3,0:0:0:0:
186,88,43027,1,2,0:3:0:0:
109,59,43138,1,0,1:0:0:0:
60,124,43249,1,2,0:3:0:0:
101,193,43360,1,2,0:3:0:0:
40,247,43471,6,0,P|52:313|56:339,1,67.9999979248048,2|0,1:0|0:0,0:0:0:0:
189,289,43693,1,2,0:3:0:0:
184,314,43804,2,0,P|172:380|168:406,2,67.9999979248048,0|2|2,1:0|0:3|0:3,0:0:0:0:
147,190,44138,2,0,P|226:191|247:203,1,67.9999979248048,2|0,1:0|0:3,0:0:0:0:
244,35,44360,2,0,P|274:89|280:136,1,67.9999979248048,2|0,0:1|1:0,0:0:0:0:
417,45,44582,2,0,P|401:115|387:143,1,67.9999979248048,2|0,0:1|0:0,0:0:0:0:
320,241,44804,6,0,P|415:213|471:235,1,135.99999584961,2|2,1:0|0:3,0:0:0:0:
244,304,45138,2,0,P|229:244|224:218,2,67.9999979248048,0|2|2,1:0|0:3|0:3,0:0:0:0:
329,45,45471,1,2,1:1:0:0:
348,126,45582,1,2,0:3:0:0:
289,185,45693,1,2,0:3:0:0:
207,164,45804,1,0,1:0:0:0:
183,83,45916,1,2,0:3:0:0:
99,83,46027,1,2,0:3:0:0:
56,156,46138,6,0,P|69:261|50:296,1,135.99999584961,2|2,1:0|0:3,0:0:0:0:
230,235,46471,2,0,P|159:198|139:189,1,67.9999979248048,0|0,1:0|0:0,0:0:0:0:
325,384,46693,1,2,0:3:0:0:
320,362,46804,2,0,P|315:310|307:231,1,67.9999979248048,2|0,1:0|0:0,0:0:0:0:
430,201,47027,2,0,P|426:234|423:268,1,67.9999979248048,2|0,0:1|1:0,0:0:0:0:
239,155,47249,2,0,P|234:103|226:24,1,67.9999979248048,2|0,0:1|0:0,0:0:0:0:
484,68,47471,6,0,P|396:102|317:57,1,135.99999584961,2|2,1:0|0:3,0:0:0:0:
311,258,47804,2,0,P|329:200|339:170,2,67.9999979248048,0|0|2,1:0|0:0|0:3,0:0:0:0:
199,83,48138,2,0,P|224:154|217:186,1,67.9999979248048,2|0,1:1|0:0,0:0:0:0:
54,113,48360,1,2,0:3:0:0:
77,120,48471,2,0,L|174:151,1,67.9999979248048,0|2,1:0|0:3,0:0:0:0:
180,227,48693,1,2,0:3:0:0:
138,326,48804,6,0,P|221:310|241:310,1,67.9999979248048,2|0,1:0|0:0,0:0:0:0:
303,161,49027,2,0,P|269:155|236:146,1,67.9999979248048,2|0,0:1|1:0,0:0:0:0:
327,350,49249,2,0,P|410:334|430:334,1,67.9999979248048,2|0,0:1|0:0,0:0:0:0:
468,182,49471,6,0,P|444:245|439:271,1,67.9999979248048,2|0,1:0|0:0,0:0:0:0:
341,49,49693,2,0,P|362:121|370:154,1,67.9999979248048,2|0,0:1|1:0,0:0:0:0:
259,270,49916,2,0,P|268:237|281:205,1,67.9999979248048,2|2,0:1|0:3,0:0:0:0:
147,34,50138,6,0,P|193:104|148:202,2,152.999995330811,4|2|2,0:0|0:0|0:3,0:0:0:0:
81,192,50721,1,2,0:3:0:0:
81,192,50804,2,0,L|179:168,1,101.999996887207,0|0,1:0|0:0,0:0:0:0:
199,309,51054,1,2,0:3:0:0:
199,309,51138,2,0,L|155:270,1,50.9999984436036,0|0,1:0|0:0,0:0:0:0:
347,205,51304,2,0,L|332:267,1,50.9999984436036,0|0,1:0|0:0,0:0:0:0:
289,136,51471,6,0,P|361:116|389:128,1,76.4999976654053,4|0,0:0|0:0,0:0:0:0:
436,52,51721,1,2,0:0:0:0:
436,52,51804,2,0,L|350:14,1,76.4999976654053,2|0,0:3|0:0,0:0:0:0:
344,189,52138,1,2,0:0:0:0:
444,142,52304,1,0,0:0:0:0:
363,266,52471,1,2,0:3:0:0:
464,234,52638,2,2,L|459:289,1,38.2499988327027
267,198,52804,6,0,L|285:303,1,76.4999976654053,2|0,0:0|0:0,0:0:0:0:
180,171,53138,2,0,L|198:276,1,76.4999976654053,2|0,0:3|0:0,0:0:0:0:
109,212,53388,1,2,0:0:0:0:
109,212,53471,1,2,0:0:0:0:
176,144,53638,1,2,0:0:0:0:
119,299,53804,1,2,0:3:0:0:
199,264,53971,1,2,0:0:0:0:
136,74,54138,6,0,P|104:108|99:167,1,76.4999976654053,2|0,0:0|0:0,0:0:0:0:
251,158,54471,2,0,L|169:142,1,76.4999976654053,2|0,0:3|0:0,0:0:0:0:
119,256,54721,1,2,0:0:0:0:
119,256,54804,2,0,L|204:231,1,76.4999976654053,2|0,0:0|0:0,0:0:0:0:
278,362,55138,1,2,0:3:0:0:
195,325,55304,1,0,0:0:0:0:
355,226,55471,6,0,L|345:316,1,76.4999976654053,2|0,0:0|0:0,0:0:0:0:
286,179,55721,2,0,L|276:269,1,76.4999976654053,2|0,0:0|0:0,0:0:0:0:
205,197,55971,1,2,0:0:0:0:
365,152,56138,5,0,1:0:0:0:
224,46,56304,1,2,0:3:0:0:
459,83,56471,5,4,1:0:0:0:
356,262,56638,1,2,0:3:0:0:
163,119,56804,6,0,B|212:141|212:141|273:131,1,93.5000028533936,2|0,0:3|0:0,0:0:0:0:
230,53,57054,1,2,0:0:0:0:
230,53,57138,1,2,1:2:0:0:
149,199,57304,1,0,0:0:0:0:
342,156,57471,2,0,L|244:132,1,93.5000028533936,2|2,0:3|0:0,0:0:0:0:
295,235,57804,1,0,1:0:0:0:
319,74,57971,1,2,0:0:0:0:
212,197,58138,6,0,B|202:245|202:245|231:300,1,93.5000028533936,2|0,0:3|0:0,0:0:0:0:
141,148,58388,1,2,0:0:0:0:
141,148,58471,2,0,L|116:250,1,93.5000028533936,2|0,1:2|0:0,0:0:0:0:
152,57,58804,2,0,P|85:73|59:113,1,93.5000028533936,2|0,0:3|0:0,0:0:0:0:
224,122,59054,1,0,0:0:0:0:
224,122,59138,2,0,B|269:139|269:139|324:124,1,93.5000028533936,2|0,1:2|0:0,0:0:0:0:
456,173,59471,5,2,0:3:0:0:
380,72,59638,1,2,0:0:0:0:
404,274,59804,5,0,1:0:0:0:
456,173,59971,1,2,0:0:0:0:
286,249,60138,5,2,0:3:0:0:
404,274,60304,1,2,0:0:0:0:
264,135,60471,5,0,1:0:0:0:
286,249,60638,1,2,0:0:0:0:
378,51,60804,5,2,0:3:0:0:
264,135,60971,1,2,0:0:0:0:
404,274,61138,1,0,1:0:0:0:
359,133,61304,1,2,0:0:0:0:
317,332,61471,1,2,0:3:0:0:
326,217,61638,1,2,0:0:0:0:
414,289,61804,1,0,1:0:0:0:
236,214,61971,1,2,0:0:0:0:
179,369,62138,6,0,P|166:300|120:260,1,127.500004863739,4|0,0:1|0:0,0:0:0:0:
53,236,62582,1,2,0:0:0:0:
19,167,62693,1,2,0:0:0:0:
79,120,62804,2,0,L|69:61,2,42.5000016212464,2|0|0,0:0|0:0|0:0,0:0:0:0:
178,67,63138,2,0,L|185:25,2,42.5000016212464,2|0|0,0:0|0:0|0:0,0:0:0:0:
215,181,63471,6,0,L|170:167,2,42.5000016212464,2|0|0,0:0|0:0|0:0,0:0:0:0:
289,107,63804,2,0,L|334:93,2,42.5000016212464,2|0|0,0:0|0:0|0:0,0:0:0:0:
242,268,64138,2,0,L|197:254,2,42.5000016212464,2|0|0,0:0|0:0|0:0,0:0:0:0:
307,308,64471,1,2,0:0:0:0:
372,268,64582,1,2,0:3:0:0:
364,191,64693,1,2,0:0:0:0:
299,149,64804,6,0,P|296:100|348:53,1,85.0000032424928,4|0,0:1|0:0,0:0:0:0:
376,18,65138,1,2,0:0:0:0:
454,35,65249,1,0,0:0:0:0:
485,109,65360,1,0,0:0:0:0:
425,163,65471,2,0,P|418:216|416:230,2,42.5000016212464,2|0|0,0:0|0:0|0:0,0:0:0:0:
384,290,65804,2,0,P|391:343|393:357,2,42.5000016212464,2|0|0,0:0|0:0|0:0,0:0:0:0:
291,185,66138,6,0,L|245:196,2,42.5000016212464,4|0|0,0:0|0:0|0:0,0:0:0:0:
124,121,66471,2,0,L|170:132,2,42.5000016212464,2|0|0,0:0|0:0|0:0,0:0:0:0:
264,52,66804,2,0,L|249:127,1,42.5000016212464,4|0,0:0|0:0,0:0:0:0:
354,14,67027,1,0,0:0:0:0:
350,38,67138,2,0,L|335:113,2,42.5000016212464,2|0|0,0:0|0:0|0:0,0:0:0:0:
345,226,67471,6,0,P|399:154|455:157,1,135.99999584961,4|2,0:0|0:3,0:0:0:0:
264,290,67804,2,0,P|258:256|251:223,2,67.9999979248048,0|2|0,1:0|0:3|1:0,0:0:0:0:
172,152,68138,2,0,P|226:123|261:117,1,67.9999979248048,2|0,0:2|0:0,0:0:0:0:
114,268,68360,2,0,P|82:256|53:237,1,67.9999979248048,2|0,0:0|1:0,0:0:0:0:
235,222,68582,1,2,0:3:0:0:
232,239,68693,1,2,0:3:0:0:
230,259,68804,6,0,P|194:310|206:395,1,135.99999584961,4|2,0:0|0:3,0:0:0:0:
340,342,69138,2,0,P|281:333|248:329,2,67.9999979248048,0|2|0,1:0|0:3|1:0,0:0:0:0:
185,186,69471,2,0,P|267:227|342:193,1,135.99999584961,0|0,1:0|0:0,0:0:0:0:
374,173,69804,1,0,1:0:0:0:
367,91,69916,1,2,0:3:0:0:
287,71,70027,1,2,0:3:0:0:
245,140,70138,6,4,P|236:198|232:234,2,67.9999979248048,4|0|0,0:0|0:0|0:0,0:0:0:0:
193,280,70471,1,4,0:3:0:0:
111,288,70582,1,4,0:3:0:0:
76,214,70693,1,4,0:3:0:0:
135,158,70804,2,0,P|121:106|114:51,2,67.9999979248048,8|8|8,0:3|0:3|0:3,0:0:0:0:
236,6,71138,2,0,P|225:38|219:71,2,67.9999979248048,8|8|8,0:3|0:3|0:3,0:0:0:0:
228,165,71471,6,0,P|295:131|352:144,1,93.5000028533936,4|0,0:0|0:0,0:0:0:0:
206,285,71721,2,0,P|165:273|128:240,1,93.5000028533936,4|0,0:0|0:0,0:0:0:0:
298,220,71971,2,0,B|259:282|340:284|290:369,1,140.25000428009,4|0,0:0|0:0,0:0:0:0:
237,179,72304,5,2,0:0:0:0:
237,179,72388,1,2,0:0:0:0:
237,179,72471,2,0,P|307:147|330:155,1,95.6250036478044,2|0,0:0|0:0,0:0:0:0:
402,217,72804,6,0,L|421:143,1,76.4999976654053,2|0,1:0|0:0,0:0:0:0:
301,76,72971,2,0,L|329:187,1,76.4999976654053,0|0,1:0|0:0,0:0:0:0:
493,120,73138,2,0,P|473:87|440:68,1,76.4999976654053,0|0,1:0|0:0,0:0:0:0:
303,253,73304,1,2,1:0:0:0:
314,248,73388,1,2,1:0:0:0:
330,242,73471,6,0,L|408:215,1,76.4999976654053,2|0,1:2|0:0,0:0:0:0:
236,192,73638,2,0,P|219:252|239:310,1,76.4999976654053,0|0,1:0|0:0,0:0:0:0:
121,370,73804,2,0,P|119:331|105:296,1,76.4999976654053,0|0,1:0|0:0,0:0:0:0:
43,227,73971,1,2,1:0:0:0:
102,157,74054,1,2,1:0:0:0:
32,94,74138,6,0,P|22:46|14:18,1,76.4999976654053,2|0,1:0|0:0,0:0:0:0:
149,96,74304,2,0,P|138:132|131:170,1,76.4999976654053,0|2,1:0|0:1,0:0:0:0:
299,173,74471,2,0,P|231:152|185:129,1,76.4999976654053,0|0,1:0|0:0,0:0:0:0:
121,295,74638,2,0,P|156:281|193:271,1,76.4999976654053,2|0,1:0|0:0,0:0:0:0:
343,279,74804,6,0,P|318:360|314:387,1,76.4999976654053,2|0,1:0|0:0,0:0:0:0:
427,198,74971,2,0,P|452:279|456:306,1,76.4999976654053,0|2,1:0|0:1,0:0:0:0:
282,114,75138,2,0,P|268:220|257:257,1,76.4999976654053,0|0,1:0|0:0,0:0:0:0:
372,18,75304,2,0,P|406:76|431:105,1,76.4999976654053,2|0,1:0|0:0,0:0:0:0:
209,60,75471,6,0,P|279:23|319:21,1,76.4999976654053,2|0,1:0|0:0,0:0:0:0:
178,158,75638,2,0,P|113:129|72:100,1,76.4999976654053,0|2,1:0|0:1,0:0:0:0:
47,280,75804,2,0,P|80:262|116:248,1,76.4999976654053,0|0,1:0|0:0,0:0:0:0:
228,362,75971,1,2,0:1:0:0:
214,361,76054,1,2,0:1:0:0:
202,361,76138,6,0,P|138:344|112:332,1,76.4999976654053,2|0,1:0|0:0,0:0:0:0:
299,231,76304,2,0,P|215:247|196:251,1,76.4999976654053,0|0,1:0|0:0,0:0:0:0:
100,95,76471,1,2,1:0:0:0:
106,111,76554,1,0,1:0:0:0:
112,125,76638,2,0,P|196:155|224:144,1,76.4999976654053,0|0,1:0|0:0,0:0:0:0:
299,33,76804,6,0,P|278:106|266:158,1,76.4999976654053,2|0,1:0|0:0,0:0:0:0:
429,181,76971,2,0,P|419:144|407:107,1,76.4999976654053,0|2,1:0|0:1,0:0:0:0:
265,214,77138,2,0,P|357:243|377:271,1,76.4999976654053,0|0,1:0|0:0,0:0:0:0:
242,370,77304,1,2,1:0:0:0:
245,356,77388,1,0,0:0:0:0:
247,343,77471,6,0,P|209:298|111:285,1,152.999995330811,2|0,1:0|1:0,0:0:0:0:
38,237,77721,1,2,0:3:0:0:
88,160,77804,2,0,P|74:120|71:78,1,76.4999976654053,4|0,0:3|0:0,0:0:0:0:
188,10,77971,2,0,P|177:46|175:84,1,76.4999976654053,2|0,0:1|0:0,0:0:0:0:
285,211,78138,6,0,P|264:168|314:64,1,152.999995330811,2|0,1:0|1:0,0:0:0:0:
429,171,78388,1,0,0:0:0:0:
415,168,78471,2,0,P|352:150|330:144,1,76.4999976654053,0|0,1:0|0:0,0:0:0:0:
263,278,78638,2,0,P|299:267|336:257,1,76.4999976654053,2|0,1:0|0:1,0:0:0:0:
198,351,78804,6,0,P|181:276|186:247,1,76.4999976654053,2|0,1:0|0:0,0:0:0:0:
84,228,78971,2,0,P|149:171|174:162,1,76.4999976654053,2|0,1:0|0:0,0:0:0:0:
253,96,79138,2,0,P|178:62|156:33,1,76.4999976654053,2|0,1:0|0:0,0:0:0:0:
258,233,79304,2,0,P|334:198|361:195,1,76.4999976654053,2|0,1:0|0:0,0:0:0:0:
374,18,79471,6,0,P|327:102|319:135,1,76.4999976654053,2|0,1:0|0:0,0:0:0:0:
473,177,79638,2,0,P|427:110|417:101,1,76.4999976654053,0|2,1:0|0:1,0:0:0:0:
272,249,79804,2,0,P|333:221|383:217,1,76.4999976654053,0|0,1:0|0:0,0:0:0:0:
235,359,79971,2,0,P|198:348|165:329,1,76.4999976654053,2|0,1:0|0:0,0:0:0:0:
37,208,80138,6,0,P|75:308|59:369,1,152.999995330811,2|0,1:0|1:0,0:0:0:0:
175,164,80388,1,2,0:1:0:0:
170,178,80471,2,0,P|148:253|151:277,1,76.4999976654053,0|0,1:0|0:0,0:0:0:0:
309,268,80638,2,0,P|242:239|200:224,1,76.4999976654053,2|0,1:0|0:0,0:0:0:0:
94,102,80804,6,0,P|146:93|223:10,1,152.999995330811,2|0,1:0|1:0,0:0:0:0:
283,137,81054,1,2,0:3:0:0:
263,132,81138,2,0,L|177:101,1,76.4999976654053,0|2,1:0|0:3,0:0:0:0:
89,232,81304,1,0,1:0:0:0:
104,227,81388,1,2,0:3:0:0:
116,222,81471,6,0,L|212:206,1,76.4999976654053,2|0,1:0|0:0,0:0:0:0:
291,362,81638,2,0,P|270:306|268:231,1,76.4999976654053,0|2,1:0|0:1,0:0:0:0:
434,210,81804,2,0,P|425:247|410:282,1,76.4999976654053,0|0,1:0|0:0,0:0:0:0:
285,114,81971,2,0,P|299:186|306:222,1,76.4999976654053,2|0,1:0|0:0,0:0:0:0:
472,93,82138,6,0,P|403:88|339:17,1,152.999995330811,4|0,1:0|0:0,0:0:0:0:
228,167,82388,2,0,P|263:153|381:209,1,152.999995330811,0|0,1:0|0:0,0:0:0:0:
161,231,82638,1,0,1:0:0:0:
161,231,82721,1,0,1:0:0:0:
161,231,82804,2,0,B|137:153|123:90,1,76.4999976654053,0|0,1:0|0:0,0:0:0:0:
234,15,82971,2,0,B|236:10|212:88,1,76.4999976654053,0|0,1:0|0:0,0:0:0:0:
60,119,83138,1,0,1:0:0:0:
77,94,83221,1,0,1:0:0:0:
103,78,83304,1,0,1:0:0:0:
215,285,83471,6,0,P|135:290|52:233,1,152.999995330811,8|0,1:3|0:0,0:0:0:0:
224,62,83721,2,0,P|158:156|152:236,1,152.999995330811,4|0,1:3|0:0,0:0:0:0:
330,199,83971,2,0,P|250:166|231:161,1,76.4999976654053,0|0,1:0|0:0,0:0:0:0:
264,364,84138,2,0,P|382:323|446:352,1,152.999995330811,4|0,1:0|1:0,0:0:0:0:
506,245,84388,1,0,0:0:0:0:
506,245,84471,2,0,P|437:229|411:220,1,76.4999976654053,0|0,1:0|0:0,0:0:0:0:
342,76,84638,2,0,P|378:65|416:58,1,76.4999976654053,0|0,1:0|0:0,0:0:0:0:
274,207,84804,6,0,P|231:196|187:179,1,85,4|0,0:0|0:0,0:0:0:0:
96,60,85304,2,0,P|129:50|181:41,1,76.4999976654053,4|0,0:0|0:0,0:0:0:0:
62,286,85471,6,0,P|52:230|40:193,1,85,4|0,0:0|0:0,0:0:0:0:
174,276,85971,2,0,P|155:356|151:375,1,76.4999976654053,4|0,0:0|0:0,0:0:0:0:
323,258,86138,5,2,0:1:0:0:
319,237,86221,1,2,0:3:0:0:
310,217,86304,1,2,0:3:0:0:
296,201,86387,1,2,0:1:0:0:
278,190,86471,1,2,0:3:0:0:
258,184,86554,1,2,0:3:0:0:
237,183,86637,1,2,0:1:0:0:
217,189,86721,1,2,0:3:0:0:
198,200,86804,5,2,1:0:0:0:
260,159,86887,1,0,1:0:0:0:
270,85,86970,1,0,1:0:0:0:
222,29,87053,1,2,1:0:0:0:
147,28,87138,2,0,P|136:89|128:139,1,76.4999976654053,0|0,1:0|1:0,1:0:0:0:
44,237,87304,2,0,P|37:199|29:161,1,76.4999976654053,2|0,1:0|1:0,1:0:0:0:
120,362,87471,6,0,P|160:281|239:273,1,152.999995330811,2|0,1:0|1:0,0:0:0:0:
296,193,87721,1,2,0:1:0:0:
280,184,87804,2,0,P|208:161|191:162,1,76.4999976654053,0|0,1:0|0:0,0:0:0:0:
336,309,87971,2,0,P|373:302|407:286,1,76.4999976654053,2|0,1:0|0:0,0:0:0:0:
385,135,88138,6,0,P|352:202|346:225,1,76.4999976654053,2|0,1:0|0:0,0:0:0:0:
339,40,88304,2,0,P|279:101|270:128,1,76.4999976654053,0|0,1:0|0:0,0:0:0:0:
206,261,88471,2,0,P|196:226|169:183,1,76.4999976654053,2|0,1:0|0:0,0:0:0:0:
89,78,88638,2,0,P|122:59|158:46,1,76.4999976654053,0|0,1:0|0:0,0:0:0:0:
263,205,88804,6,0,P|156:190|101:175,1,152.999995330811,2|0,1:0|1:0,0:0:0:0:
69,322,89054,1,2,0:1:0:0:
83,313,89138,2,0,P|150:291|197:285,1,76.4999976654053,0|0,1:0|0:0,0:0:0:0:
249,131,89304,2,0,P|211:123|174:114,1,76.4999976654053,2|0,1:0|0:0,0:0:0:0:
274,354,89471,6,0,P|313:263|376:253,1,152.999995330811,2|0,1:0|1:0,0:0:0:0:
435,284,89721,1,2,0:3:0:0:
495,225,89804,2,0,P|496:150|481:124,1,76.4999976654053,8|0,0:3|0:0,0:0:0:0:
356,31,89971,2,0,P|401:103|406:125,1,76.4999976654053,2|0,1:0|0:0,0:0:0:0:
258,255,90138,6,0,P|307:153|267:83,1,152.999995330811,2|0,1:0|1:0,0:0:0:0:
183,44,90388,1,0,0:0:0:0:
191,59,90471,2,0,P|210:112|197:180,1,76.4999976654053,0|0,1:0|0:0,0:0:0:0:
84,199,90638,2,0,P|87:161|101:117,1,76.4999976654053,2|2,1:0|0:1,0:0:0:0:
212,308,90804,6,0,P|205:267|173:182,1,76.4999976654053,2|0,1:0|0:0,0:0:0:0:
53,319,90971,2,0,P|135:299|166:297,1,76.4999976654053,0|2,1:0|0:1,0:0:0:0:
250,157,91138,2,0,P|174:135|145:112,1,76.4999976654053,0|0,1:0|0:0,0:0:0:0:
299,261,91304,2,0,P|398:228|428:232,1,76.4999976654053,2|0,1:0|0:0,0:0:0:0:
504,89,91471,6,0,P|420:125|346:96,1,152.999995330811,2|0,1:0|1:0,0:0:0:0:
243,54,91721,1,2,0:1:0:0:
257,65,91804,2,0,P|283:163|275:190,1,76.4999976654053,0|0,1:0|0:0,0:0:0:0:
171,251,91971,2,0,P|184:190|194:153,1,76.4999976654053,2|0,1:0|0:0,0:0:0:0:
68,69,92138,6,0,P|77:106|84:143,1,76.4999976654053,2|0,1:0|0:0,0:0:0:0:
258,139,92304,2,0,P|191:101|163:102,1,76.4999976654053,0|2,1:0|0:1,0:0:0:0:
22,241,92471,2,0,P|110:223|134:221,1,76.4999976654053,0|0,1:0|0:0,0:0:0:0:
196,359,92638,2,0,P|108:341|84:339,1,76.4999976654053,2|0,1:0|0:0,0:0:0:0:
302,204,92804,6,2,P|286:319|400:338,1,255.000009727478,6|0,1:1|0:1,0:1:0:0:
353,270,93638,5,2,0:0:0:0:
401,194,93804,1,2,0:0:0:0:
452,268,93971,1,2,0:0:0:0:
395,58,94138,6,0,P|297:136|323:200,1,152.999995330811,4|0,1:0|0:0,0:0:0:0:
284,316,94388,2,0,P|264:243|179:229,1,152.999995330811,4|0,1:0|0:0,0:0:0:0:
40,128,94638,2,0,B|110:154|110:154|231:135,1,191.250007295609,4|0,1:0|0:0,0:0:0:0:
161,67,94971,1,2,0:0:0:0:
142,237,95138,2,0,L|248:217,1,85,2|2,0:0|0:0,0:0:0:0:
342,61,95471,6,0,P|308:119|310:155,1,101.999996887207,4|0,1:0|0:0,0:0:0:0:
427,168,95721,1,2,0:0:0:0:
427,168,95804,2,0,L|383:118,1,50.9999984436036,0|0,1:0|0:0,0:0:0:0:
357,292,95971,2,0,L|352:239,1,50.9999984436036,2|0,0:3|0:0,0:0:0:0:
278,353,96138,1,0,1:0:0:0:
266,319,96221,1,0,0:0:0:0:
242,293,96304,1,2,0:3:0:0:
209,280,96387,1,2,0:3:0:0:
173,282,96471,2,0,P|210:235|213:216,1,50.9999984436036,0|0,1:0|0:0,0:0:0:0:
99,122,96638,2,0,L|122:189,1,50.9999984436036,0|0,1:0|0:0,0:0:0:0:
294,162,96804,6,0,P|199:132|170:123,1,101.999996887207,2|0,1:0|0:0,0:0:0:0:
36,53,97054,2,0,P|84:37|133:22,1,101.999996887207,2|0,1:0|0:0,0:0:0:0:
296,82,97304,2,0,L|236:64,1,50.9999984436036,2|0,1:0|0:0,0:0:0:0:
102,149,97471,1,2,0:1:0:0:
102,149,97554,1,2,0:3:0:0:
102,149,97638,1,0,1:0:0:0:
243,268,97804,1,2,1:0:0:0:
189,123,97971,1,2,1:0:0:0:
70,313,98138,6,0,P|56:246|22:181,1,101.999996887207,2|0,1:0|0:0,0:0:0:0:
187,287,98388,1,2,0:1:0:0:
187,287,98471,2,0,P|168:334|159:384,1,101.999996887207,0|2,1:0|0:1,0:0:0:0:
120,209,98804,6,0,P|208:187|251:189,1,101.999996887207,2|2,1:0|0:3,0:0:0:0:
331,124,99054,1,0,0:0:0:0:
331,124,99138,2,0,L|251:102,1,50.9999984436036,2|0,1:0|0:0,0:0:0:0:
170,30,99304,2,0,L|250:8,1,50.9999984436036,2|0,1:0|0:0,0:0:0:0:
422,227,99471,5,2,1:0:0:0:
422,227,99554,1,0,0:0:0:0:
422,227,99638,2,0,L|355:215,1,50.9999984436036,4|0,0:3|0:0,0:0:0:0:
48,118,99804,5,2,1:0:0:0:
48,118,99887,1,0,0:0:0:0:
48,118,99971,2,0,L|115:106,1,50.9999984436036,4|0,0:3|0:0,0:0:0:0:
335,332,100138,5,2,1:0:0:0:
335,332,100221,1,0,0:0:0:0:
335,332,100305,2,0,L|268:320,1,50.9999984436036,4|0,0:3|0:0,0:0:0:0:
206,73,100471,5,2,1:0:0:0:
206,73,100554,1,0,0:0:0:0:
206,73,100638,2,0,L|273:61,1,50.9999984436036,4|0,0:3|0:0,0:0:0:0:
144,340,100804,6,0,L|130:279,3,50.9999984436036,2|0|2|0,0:0|0:0|0:3|0:0,0:0:0:0:
240,208,101138,1,0,1:0:0:0:
190,216,101221,1,0,0:0:0:0:
146,193,101304,1,2,0:0:0:0:
125,148,101387,1,0,0:0:0:0:
136,99,101471,2,0,P|182:73|210:75,1,50.9999984436036,2|0,0:0|0:0,0:0:0:0:
278,194,101638,2,0,P|230:175|205:162,1,50.9999984436036,2|0,0:3|0:0,0:0:0:0:
370,81,101804,1,0,1:0:0:0:
368,116,101887,1,0,0:0:0:0:
365,151,101970,1,0,1:0:0:0:
363,186,102053,1,0,0:0:0:0:
362,222,102138,6,0,P|356:268|351:301,3,50.9999984436036,2|0|2|0,0:0|0:0|0:3|0:0,0:0:0:0:
263,356,102471,2,0,P|243:298|234:273,1,50.9999984436036,0|0,1:0|0:0,0:0:0:0:
145,260,102638,2,0,P|185:213|202:193,1,50.9999984436036,2|0,0:3|2:0,2:0:0:0:
270,96,102804,1,0,1:0:0:0:
240,116,102888,1,2,0:3:0:0:
206,123,102970,1,0,1:0:0:0:
171,115,103053,1,0,0:0:0:0:
142,95,103138,2,0,P|91:77|65:75,1,50.9999984436036,0|0,1:0|0:0,0:0:0:0:
0,233,103304,2,0,L|71:208,1,50.9999984436036,0|0,1:0|0:0,0:0:0:0:
193,352,103471,6,0,P|146:302|40:344,1,152.999995330811,0|2,1:0|0:3,0:0:0:0:
140,209,103804,2,0,L|149:270,1,50.9999984436036,0|0,1:0|0:0,0:0:0:0:
247,130,103971,2,0,L|238:191,1,50.9999984436036,2|0,0:0|0:0,0:0:0:0:
303,315,104138,1,2,0:0:0:0:
321,284,104221,1,0,0:0:0:0:
350,263,104304,1,2,0:3:0:0:
384,255,104387,1,0,0:0:0:0:
419,261,104471,2,0,P|398:205|396:192,1,50.9999984436036,0|0,1:0|0:0,0:0:0:0:
512,101,104638,2,0,P|492:170|488:184,1,50.9999984436036,2|0,0:0|0:0,0:0:0:0:
322,122,104804,6,0,P|355:106|390:97,2,73.6666632944744,4|4|4,0:3|0:3|0:3,0:0:0:0:
295,233,105138,2,0,P|259:223|226:208,2,73.6666632944744,8|8|4,0:3|0:3|0:3,0:0:0:0:
132,59,105471,2,0,P|151:143|143:164,1,73.6666632944744,8|0,0:3|0:0,0:0:0:0:
89,176,105693,1,4,0:3:0:0:
45,244,105804,2,0,P|44:319|64:364,1,73.6666632944744,0|0,1:0|1:0,0:0:0:0:
118,349,106027,1,0,1:0:0:0:
177,293,106138,6,0,P|249:306|270:309,2,73.6666632944744,4|4|4,0:3|0:3|0:3,0:0:0:0:
97,142,106471,2,0,P|60:148|24:155,2,73.6666632944744,4|4|4,0:3|0:3|0:3,0:0:0:0:
155,85,106804,1,4,0:3:0:0:
234,104,106916,1,4,0:3:0:0:
258,181,107027,1,4,0:3:0:0:
205,242,107138,1,8,0:3:0:0:
231,318,107249,1,8,0:3:0:0:
310,332,107360,1,8,0:3:0:0:
357,266,107471,5,4,0:0:0:0:
108,186,107804,1,0,0:0:0:0:
108,186,108471,1,0,0:0:0:0:
225,125,108638,1,2,0:3:0:0:
141,337,108804,5,2,0:3:0:0:
57,127,109138,1,0,0:0:0:0:
57,127,109471,2,0,B|88:136|88:136|135:123,1,63.7500024318696,2|0,0:3|0:0,0:0:0:0:
251,97,109721,2,0,B|220:88|220:88|173:101,1,63.7500024318696,2|0,0:3|0:0,0:0:0:0:
123,211,109971,2,0,L|168:195,1,31.8750012159348,2|0,0:3|0:0,0:0:0:0:
230,287,110138,5,4,0:0:0:0:
418,97,110471,1,0,0:0:0:0:
418,97,111138,1,0,0:0:0:0:
373,244,111304,1,2,0:3:0:0:
142,126,111471,5,2,0:3:0:0:
387,47,111804,1,0,0:0:0:0:
387,47,112138,2,0,B|374:84|374:84|384:108,1,63.7500024318696,2|0,0:3|0:0,0:0:0:0:
427,172,112388,2,0,B|440:209|440:209|430:233,1,63.7500024318696,2|0,0:3|0:0,0:0:0:0:
380,294,112638,1,2,0:3:0:0:
279,189,112804,5,4,0:0:0:0:
196,353,112971,1,2,0:3:0:0:
141,113,113138,5,0,1:0:0:0:
275,302,113304,1,2,0:3:0:0:
279,46,113471,5,2,0:0:0:0:
152,236,113637,1,0,0:0:0:0:
152,236,113721,1,2,0:3:0:0:
152,236,113804,1,0,1:0:0:0:
293,188,113971,1,2,0:3:0:0:
171,137,114138,5,2,0:0:0:0:
191,313,114304,1,2,0:0:0:0:
341,283,114471,1,0,1:0:0:0:
113,175,114638,6,0,L|117:240,1,50.9999984436036,2|0,0:3|0:0,0:0:0:0:
267,312,114804,1,2,0:3:0:0:
99,315,114971,1,2,0:3:0:0:
229,167,115138,5,0,1:0:0:0:
188,384,115304,1,2,0:3:0:0:
292,241,115471,5,2,0:3:0:0:
110,146,115638,1,0,0:0:0:0:
102,148,115721,1,2,0:3:0:0:
94,151,115804,1,0,1:0:0:0:
265,51,115971,2,2,L|247:109,1,50.9999984436036,0|2,0:0|0:3,0:0:0:0:
197,263,116138,1,2,0:3:0:0:
177,152,116304,1,2,0:0:0:0:
380,253,116471,1,0,1:0:0:0:
276,351,116638,2,0,L|275:292,1,50.9999984436036,2|0,0:0|0:0,0:0:0:0:
357,101,116804,5,4,0:0:0:0:
357,101,116888,1,0,0:0:0:0:
357,101,116971,2,0,L|353:159,1,50.9999984436036,2|0,0:0|0:0,0:0:0:0:
186,332,117138,1,4,0:0:0:0:
186,332,117222,1,0,0:0:0:0:
186,332,117305,2,0,L|174:268,1,50.9999984436036
259,176,117471,1,2,0:0:0:0:
238,151,117554,1,0,0:0:0:0:
210,136,117637,1,2,0:0:0:0:
179,130,117720,1,0,0:0:0:0:
148,135,117804,2,0,L|135:81,1,50.9999984436036,0|0,1:0|0:0,0:0:0:0:
22,15,117971,2,0,L|9:76,1,50.9999984436036,0|0,1:0|0:0,0:0:0:0:
370,287,118471,5,4,0:0:0:0:
256,192,118554,12,2,120638,0:3:0:0:
256,192,120804,5,4,3:0:0:0:
