osu file format v14

[General]
AudioFilename: audio.mp3
AudioLeadIn: 0
PreviewTime: 2489
Countdown: 0
SampleSet: Soft
StackLeniency: 0.7
Mode: 3
LetterboxInBreaks: 0
SpecialStyle: 0
WidescreenStoryboard: 0

[Editor]
Bookmarks: 3739,13582,13739,23114,23739,33426,33739,43114,43739,46239,48739,51239,53739,56239,58739,61082,63270,63739,73739,83114,83739,83817,103114
DistanceSpacing: 1.5
BeatDivisor: 2
GridSize: 4
TimelineZoom: 1.1

[Metadata]
Title:w = addict
TitleUnicode:w = addict
Artist:AAAA
ArtistUnicode:ああああ
Creator:Kawawa
Version:Beginner
Source:
Tags:Frums Techno Instrumental Electronic Experimental BOFXVI THE BMS OF FIGHTERS XVI -NEO DYSTOPIA-
BeatmapID:2835109
BeatmapSetID:1371217

[Difficulty]
HPDrainRate:6.8
CircleSize:7
OverallDifficulty:6.5
ApproachRate:5
SliderMultiplier:1.4
SliderTickRate:1

[Events]
//Background and Video events
0,0,"BG2.jpg",0,0
//Break Periods
//Storyboard Layer 0 (Background)
//Storyboard Layer 1 (Fail)
//Storyboard Layer 2 (Pass)
//Storyboard Layer 3 (Foreground)
//Storyboard Layer 4 (Overlay)
//Storyboard Sound Samples

[TimingPoints]
3739,312.5,4,2,1,30,1,0
23114,-100,4,2,1,30,0,1
23739,-100,4,2,1,30,0,0
43114,-100,4,2,1,30,0,1
43739,-100,4,2,1,30,0,0
58739,-100,4,2,1,30,0,1
61082,-100,4,2,1,30,0,0
63270,-100,4,2,1,30,0,1
63739,-100,4,2,1,30,0,0
73739,-100,4,2,1,30,0,1
83114,-100,4,2,1,30,0,0
83739,-100,4,2,1,30,0,1
83817,-100,4,2,1,30,0,0

[HitObjects]
109,192,3739,5,0,0:0:0:25:Emphasis.wav
109,192,4364,1,0,0:0:0:25:Emphasis.wav
109,192,4832,1,0,0:0:0:25:Emphasis.wav
109,192,5301,1,0,0:0:0:25:Emphasis.wav
109,192,5770,1,0,0:0:0:25:Emphasis.wav
475,192,6239,1,0,0:0:0:25:Emphasis.wav
475,192,6864,1,0,0:0:0:25:Emphasis.wav
475,192,7332,1,0,0:0:0:25:Emphasis.wav
475,192,7801,1,0,0:0:0:25:Emphasis.wav
475,192,8270,1,0,0:0:0:25:Emphasis.wav
256,192,8739,1,0,0:0:0:25:Emphasis.wav
256,192,9364,1,0,0:0:0:25:Emphasis.wav
256,192,9832,1,0,0:0:0:25:Emphasis.wav
256,192,10301,1,0,0:0:0:25:Emphasis.wav
256,192,10770,1,0,0:0:0:25:Emphasis.wav
182,192,11239,1,0,0:0:0:25:Emphasis.wav
182,192,11864,1,0,0:0:0:25:Emphasis.wav
182,192,12332,1,0,0:0:0:25:Emphasis.wav
182,192,12801,1,0,0:0:0:25:Emphasis.wav
182,192,13270,1,0,0:0:0:30:Emphasis.wav
402,192,13582,1,0,0:0:0:0:
329,192,13739,1,0,0:0:0:30:Emphasis.wav
329,192,14364,1,0,0:0:0:30:Emphasis.wav
329,192,14832,1,0,0:0:0:30:Emphasis.wav
329,192,15301,1,0,0:0:0:25:Emphasis.wav
329,192,15770,1,0,0:0:0:25:Emphasis.wav
36,192,16239,1,0,0:0:0:25:Emphasis.wav
36,192,16864,1,0,0:0:0:25:Emphasis.wav
36,192,17332,1,0,0:0:0:25:Emphasis.wav
36,192,17801,1,0,0:0:0:25:Emphasis.wav
36,192,18270,1,0,0:0:0:25:Emphasis.wav
402,192,18739,1,0,0:0:0:25:Emphasis.wav
402,192,19364,1,0,0:0:0:25:Emphasis.wav
402,192,19832,1,0,0:0:0:25:Emphasis.wav
402,192,20301,5,0,0:0:0:25:Emphasis.wav
402,192,20770,1,0,0:0:0:25:Emphasis.wav
256,192,21239,5,0,0:0:0:25:Emphasis.wav
256,192,21864,1,0,0:0:0:25:Emphasis.wav
256,192,22332,1,0,0:0:0:25:Emphasis.wav
256,192,22801,1,0,0:0:0:25:Emphasis.wav
36,192,23114,1,0,0:0:0:40:KicK.wav
475,192,23114,1,0,0:0:0:0:
182,192,23739,1,0,0:0:0:40:KicK.wav
329,192,23739,1,0,0:0:0:30:BeLL.wav
109,192,24051,1,0,0:0:0:50:Nets.wav
402,192,24207,1,0,0:0:0:40:KicK.wav
109,192,24832,1,0,0:0:0:50:Nets.wav
402,192,25145,1,0,0:0:0:40:KicK.wav
402,192,25301,1,0,0:0:0:40:KicK.wav
402,192,25770,1,0,0:0:0:40:KicK.wav
36,192,26239,1,0,0:0:0:30:BeLL.wav
182,192,26239,1,0,0:0:0:40:KicK.wav
329,192,26551,1,0,0:0:0:50:Nets.wav
109,192,26707,1,0,0:0:0:40:KicK.wav
329,192,27332,1,0,0:0:0:50:Nets.wav
109,192,27645,1,0,0:0:0:40:KicK.wav
109,192,27801,1,0,0:0:0:40:KicK.wav
109,192,28270,1,0,0:0:0:40:KicK.wav
402,192,28739,1,0,0:0:0:30:BeLL.wav
256,192,28739,1,0,0:0:0:40:KicK.wav
182,192,29051,1,0,0:0:0:50:Nets.wav
475,192,29207,1,0,0:0:0:40:KicK.wav
182,192,29832,1,0,0:0:0:50:Nets.wav
475,192,30145,1,0,0:0:0:40:KicK.wav
475,192,30301,1,0,0:0:0:40:KicK.wav
475,192,30770,1,0,0:0:0:40:KicK.wav
256,192,31239,1,0,0:0:0:40:KicK.wav
109,192,31239,1,0,0:0:0:30:BeLL.wav
329,192,31551,1,0,0:0:0:50:Nets.wav
36,192,31707,1,0,0:0:0:40:KicK.wav
329,192,32332,1,0,0:0:0:50:Nets.wav
36,192,32645,1,0,0:0:0:40:KicK.wav
36,192,32801,1,0,0:0:0:40:KicK.wav
36,192,33270,1,0,0:0:0:40:KicK.wav
109,192,33426,128,0,33739:0:0:0:0:
256,192,33739,1,0,0:0:0:30:BeLL.wav
402,192,33739,1,0,0:0:0:40:KicK.wav
182,192,34051,1,0,0:0:0:50:Nets.wav
329,192,34207,1,0,0:0:0:40:KicK.wav
182,192,34832,1,0,0:0:0:50:Nets.wav
329,192,35145,1,0,0:0:0:40:KicK.wav
329,192,35301,1,0,0:0:0:40:KicK.wav
329,192,35770,1,0,0:0:0:40:KicK.wav
182,192,36239,1,0,0:0:0:40:KicK.wav
36,192,36239,1,0,0:0:0:30:BeLL.wav
402,192,36551,1,0,0:0:0:50:Nets.wav
256,192,36707,1,0,0:0:0:40:KicK.wav
402,192,37332,1,0,0:0:0:50:Nets.wav
256,192,37645,1,0,0:0:0:40:KicK.wav
256,192,37801,1,0,0:0:0:40:KicK.wav
256,192,38270,1,0,0:0:0:40:KicK.wav
475,192,38739,1,0,0:0:0:30:BeLL.wav
329,192,38739,1,0,0:0:0:40:KicK.wav
109,192,39051,1,0,0:0:0:50:Nets.wav
402,192,39207,1,0,0:0:0:40:KicK.wav
109,192,39832,1,0,0:0:0:50:Nets.wav
402,192,40145,1,0,0:0:0:40:KicK.wav
402,192,40301,1,0,0:0:0:40:KicK.wav
402,192,40770,1,0,0:0:0:40:KicK.wav
329,192,41239,1,0,0:0:0:40:KicK.wav
182,192,41239,1,0,0:0:0:30:BeLL.wav
475,192,41551,1,0,0:0:0:50:Nets.wav
36,192,41707,1,0,0:0:0:40:KicK.wav
475,192,42332,1,0,0:0:0:50:Nets.wav
36,192,42645,5,0,0:0:0:40:KicK.wav
36,192,42801,1,0,0:0:0:40:KicK.wav
329,192,43114,128,0,43739:0:0:0:0:
475,192,43426,128,0,43739:0:0:0:0:
109,192,43739,5,0,0:0:0:40:KicK.wav
182,192,43973,1,0,0:0:0:40:KicK.wav
109,192,44364,1,0,0:0:0:40:KicK.wav
182,192,44598,1,0,0:0:0:40:KicK.wav
402,192,44989,1,0,0:0:0:40:KicK.wav
329,192,45223,1,0,0:0:0:40:KicK.wav
256,192,45457,1,0,0:0:0:40:KicK.wav
182,192,45692,1,0,0:0:0:40:KicK.wav
109,192,45926,1,0,0:0:0:40:KicK.wav
475,192,46239,1,0,0:0:0:30:BeLL.wav
329,192,46239,1,0,0:0:0:40:KicK.wav
36,192,46707,1,0,0:0:0:40:KicK.wav
182,192,47176,1,0,0:0:0:50:Nets.wav
36,192,47645,1,0,0:0:0:40:KicK.wav
36,192,47801,1,0,0:0:0:40:KicK.wav
36,192,48270,1,0,0:0:0:40:KicK.wav
329,192,48895,1,0,0:0:0:40:KicK.wav
475,192,49129,1,0,0:0:0:40:KicK.wav
329,192,49520,1,0,0:0:0:40:KicK.wav
475,192,49754,1,0,0:0:0:40:KicK.wav
182,192,50145,1,0,0:0:0:40:KicK.wav
256,192,50379,1,0,0:0:0:40:KicK.wav
329,192,50614,1,0,0:0:0:40:KicK.wav
402,192,50848,1,0,0:0:0:40:KicK.wav
475,192,51082,1,0,0:0:0:40:KicK.wav
182,192,51239,1,0,0:0:0:40:KicK.wav
36,192,51239,1,0,0:0:0:30:BeLL.wav
329,192,51707,1,0,0:0:0:40:KicK.wav
182,192,52176,1,0,0:0:0:50:Nets.wav
329,192,52645,1,0,0:0:0:40:KicK.wav
329,192,52801,1,0,0:0:0:40:KicK.wav
329,192,53270,1,0,0:0:0:40:KicK.wav
109,192,53739,1,0,0:0:0:40:KicK.wav
109,192,53947,1,0,0:0:0:40:KicK.wav
402,192,54155,1,0,0:0:0:40:KicK.wav
109,192,54364,1,0,0:0:0:40:KicK.wav
109,192,54572,1,0,0:0:0:40:KicK.wav
402,192,54780,1,0,0:0:0:40:KicK.wav
36,192,54989,1,0,0:0:0:40:KicK.wav
36,192,55223,1,0,0:0:0:40:KicK.wav
182,192,55379,1,0,0:0:0:40:KicK.wav
329,192,55535,1,0,0:0:0:40:KicK.wav
329,192,55770,1,0,0:0:0:40:KicK.wav
475,192,55926,128,0,56239:0:0:0:40:KicK.wav
36,192,56239,1,0,0:0:0:30:BeLL.wav
256,192,56239,1,0,0:0:0:40:KicK.wav
402,192,56707,1,0,0:0:0:40:KicK.wav
109,192,57176,1,0,0:0:0:50:Nets.wav
402,192,57645,1,0,0:0:0:40:KicK.wav
402,192,57801,1,0,0:0:0:40:KicK.wav
402,192,58270,1,0,0:0:0:40:KicK.wav
36,192,58739,1,0,0:0:0:40:KicK.wav
329,192,58973,1,0,0:0:0:40:KicK.wav
109,192,59207,1,0,0:0:0:40:KicK.wav
402,192,59442,1,0,0:0:0:40:KicK.wav
182,192,59676,1,0,0:0:0:40:KicK.wav
475,192,59910,1,0,0:0:0:40:KicK.wav
109,192,60145,1,0,0:0:0:40:KicK.wav
182,192,60379,1,0,0:0:0:40:KicK.wav
256,192,60614,1,0,0:0:0:40:KicK.wav
329,192,60848,1,0,0:0:0:40:KicK.wav
402,192,61082,1,0,0:0:0:40:KicK.wav
256,192,63270,128,0,63739:0:0:0:0:
36,192,63739,1,0,0:0:0:40:KicK.wav
475,192,63739,128,0,64364:0:0:0:30:BeLL.wav
36,192,64051,128,0,64364:0:0:0:30:Sub Rhythm-1.wav
329,192,64364,1,0,0:0:0:30:Sub Rhythm-1.wav
182,192,64520,1,0,0:0:0:30:Sub Rhythm-1.wav
329,192,64676,1,0,0:0:0:30:Sub Rhythm-1.wav
109,192,64989,1,0,0:0:0:30:Sub Rhythm-1.wav
109,192,65223,1,0,0:0:0:30:Sub Rhythm-1.wav
402,192,65614,1,0,0:0:0:30:Sub Rhythm-1.wav
402,192,65848,1,0,0:0:0:30:Sub Rhythm-1.wav
182,192,66239,1,0,0:0:0:40:KicK.wav
329,192,66239,128,0,66864:0:0:0:30:BeLL.wav
182,192,66551,128,0,66864:0:0:0:30:Sub Rhythm-1.wav
475,192,66864,1,0,0:0:0:30:Sub Rhythm-1.wav
36,192,67020,1,0,0:0:0:30:Sub Rhythm-1.wav
475,192,67176,1,0,0:0:0:30:Sub Rhythm-1.wav
256,192,67489,1,0,0:0:0:30:Sub Rhythm-1.wav
256,192,67723,1,0,0:0:0:30:Sub Rhythm-1.wav
256,192,67957,1,0,0:0:0:30:Sub Rhythm-1.wav
256,192,68270,1,0,0:0:0:30:Sub Rhythm-1.wav
256,192,68582,1,0,0:0:0:30:Sub Rhythm-1.wav
402,192,68739,1,0,0:0:0:40:KicK.wav
109,192,68739,128,0,69364:0:0:0:30:BeLL.wav
402,192,69051,128,0,69364:0:0:0:0:
182,192,69364,1,0,0:0:0:30:Sub Rhythm-1.wav
329,192,69520,1,0,0:0:0:30:Sub Rhythm-1.wav
182,192,69676,1,0,0:0:0:30:Sub Rhythm-1.wav
475,192,69989,128,0,70301:0:0:0:30:Sub Rhythm-1.wav
329,192,70301,1,0,0:0:0:30:Sub Rhythm-1.wav
36,192,70457,128,0,70770:0:0:0:30:Sub Rhythm-1.wav
182,192,70770,1,0,0:0:0:30:Sub Rhythm-1.wav
256,192,71004,1,0,0:0:0:40:KicK.wav
475,192,71239,1,0,0:0:0:40:KicK.wav
329,192,71239,1,0,0:0:0:30:BeLL.wav
182,192,71473,128,0,71707:0:0:0:30:Sub Rhythm-1.wav
402,192,71707,1,0,0:0:0:30:Sub Rhythm-1.wav
109,192,71942,128,0,72176:0:0:0:30:Sub Rhythm-1.wav
329,192,72176,1,0,0:0:0:30:Sub Rhythm-1.wav
182,192,72410,128,0,72645:0:0:0:30:Sub Rhythm-1.wav
402,192,72645,1,0,0:0:0:30:Sub Rhythm-1.wav
109,192,72879,128,0,73114:0:0:0:30:Sub Rhythm-1.wav
329,192,73114,1,0,0:0:0:30:Sub Rhythm-1.wav
36,192,73270,1,0,0:0:0:40:KicK.wav
182,192,73739,128,0,74051:0:0:0:30:BeLL.wav
36,192,73739,128,0,74051:0:0:0:40:KicK.wav
402,192,74051,128,0,74364:0:0:0:30:Sub Rhythm-1.wav
109,192,74364,1,0,0:0:0:30:Sub Rhythm-1.wav
182,192,74520,1,0,0:0:0:30:Sub Rhythm-1.wav
256,192,74676,1,0,0:0:0:30:Sub Rhythm-1.wav
475,192,74989,1,0,0:0:0:30:Sub Rhythm-1.wav
475,192,75223,1,0,0:0:0:30:Sub Rhythm-1.wav
329,192,75614,1,0,0:0:0:30:Sub Rhythm-1.wav
329,192,75848,1,0,0:0:0:30:Sub Rhythm-1.wav
109,192,76239,128,0,76551:0:0:0:30:BeLL.wav
402,192,76239,128,0,76551:0:0:0:40:KicK.wav
256,192,76551,128,0,76864:0:0:0:30:Sub Rhythm-1.wav
36,192,76864,1,0,0:0:0:30:Sub Rhythm-1.wav
182,192,77020,1,0,0:0:0:30:Sub Rhythm-1.wav
329,192,77176,1,0,0:0:0:30:Sub Rhythm-1.wav
475,192,77489,1,0,0:0:0:30:Sub Rhythm-1.wav
475,192,77723,1,0,0:0:0:30:Sub Rhythm-1.wav
475,192,77957,1,0,0:0:0:30:Sub Rhythm-1.wav
475,192,78270,1,0,0:0:0:30:Sub Rhythm-1.wav
475,192,78582,1,0,0:0:0:30:Sub Rhythm-1.wav
182,192,78739,128,0,79051:0:0:0:30:BeLL.wav
329,192,78739,128,0,79051:0:0:0:40:KicK.wav
36,192,79051,128,0,79364:0:0:0:30:Sub Rhythm-1.wav
402,192,79364,1,0,0:0:0:30:Sub Rhythm-1.wav
256,192,79520,1,0,0:0:0:30:Sub Rhythm-1.wav
109,192,79676,1,0,0:0:0:30:Sub Rhythm-1.wav
329,192,79989,128,0,80301:0:0:0:30:Sub Rhythm-1.wav
475,192,80301,1,0,0:0:0:30:Sub Rhythm-1.wav
256,192,80457,128,0,80770:0:0:0:30:Sub Rhythm-1.wav
402,192,80770,1,0,0:0:0:30:Sub Rhythm-1.wav
109,192,81004,1,0,0:0:0:40:KicK.wav
182,192,81239,1,0,0:0:0:40:KicK.wav
329,192,81239,1,0,0:0:0:30:BeLL.wav
36,192,81473,128,0,81707:0:0:0:30:Sub Rhythm-1.wav
256,192,81707,1,0,0:0:0:30:Sub Rhythm-1.wav
475,192,81942,128,0,82176:0:0:0:30:Sub Rhythm-1.wav
256,192,82176,1,0,0:0:0:30:Sub Rhythm-1.wav
109,192,82410,128,0,82645:0:0:0:30:Sub Rhythm-1.wav
256,192,82645,1,0,0:0:0:30:Sub Rhythm-1.wav
402,192,82879,128,0,83114:0:0:0:30:Sub Rhythm-1.wav
256,192,83114,128,0,83739:0:0:0:0:
36,192,83739,5,0,0:0:0:25:Emphasis.wav
475,192,83739,1,0,0:0:0:30:BeLL.wav
36,192,84364,1,0,0:0:0:25:Emphasis.wav
182,192,84832,1,0,0:0:0:25:Emphasis.wav
182,192,85301,1,0,0:0:0:25:Emphasis.wav
109,192,85770,1,0,0:0:0:25:Emphasis.wav
109,192,85926,1,0,0:0:0:25:Emphasis.wav
402,192,86239,5,0,0:0:0:25:Emphasis.wav
402,192,86864,1,0,0:0:0:25:Emphasis.wav
329,192,87332,1,0,0:0:0:25:Emphasis.wav
329,192,87801,1,0,0:0:0:25:Emphasis.wav
475,192,88270,1,0,0:0:0:25:Emphasis.wav
475,192,88426,1,0,0:0:0:25:Emphasis.wav
256,192,88739,5,0,0:0:0:25:Emphasis.wav
109,192,88739,1,0,0:0:0:30:BeLL.wav
256,192,89364,1,0,0:0:0:25:Emphasis.wav
329,192,89832,1,0,0:0:0:25:Emphasis.wav
329,192,90301,1,0,0:0:0:25:Emphasis.wav
182,192,90770,1,0,0:0:0:25:Emphasis.wav
182,192,90926,1,0,0:0:0:25:Emphasis.wav
402,192,91239,5,0,0:0:0:25:Emphasis.wav
402,192,91864,1,0,0:0:0:25:Emphasis.wav
256,192,92332,1,0,0:0:0:25:Emphasis.wav
256,192,92801,5,0,0:0:0:25:Emphasis.wav
329,192,93270,1,0,0:0:0:25:Emphasis.wav
329,192,93426,1,0,0:0:0:25:Emphasis.wav
109,192,93739,5,0,0:0:0:25:Emphasis.wav
109,192,94364,1,0,0:0:0:25:Emphasis.wav
256,192,94832,1,0,0:0:0:25:Emphasis.wav
256,192,95301,1,0,0:0:0:25:Emphasis.wav
182,192,95770,1,0,0:0:0:25:Emphasis.wav
182,192,95926,1,0,0:0:0:25:Emphasis.wav
475,192,96239,5,0,0:0:0:25:Emphasis.wav
475,192,96864,1,0,0:0:0:25:Emphasis.wav
329,192,97332,1,0,0:0:0:25:Emphasis.wav
329,192,97801,1,0,0:0:0:25:Emphasis.wav
402,192,98270,1,0,0:0:0:25:Emphasis.wav
402,192,98426,1,0,0:0:0:25:Emphasis.wav
109,192,98739,5,0,0:0:0:25:Emphasis.wav
109,192,99364,1,0,0:0:0:25:Emphasis.wav
182,192,99832,1,0,0:0:0:25:Emphasis.wav
182,192,100301,5,0,0:0:0:25:Emphasis.wav
36,192,100770,1,0,0:0:0:25:Emphasis.wav
36,192,100926,1,0,0:0:0:25:Emphasis.wav
402,192,101239,5,0,0:0:0:25:Emphasis.wav
402,192,101864,1,0,0:0:0:25:Emphasis.wav
256,192,102332,1,0,0:0:0:25:Emphasis.wav
256,192,102801,1,0,0:0:0:25:Emphasis.wav
475,192,103114,1,0,0:0:0:50:Nets.wav
