osu file format v14

[General]
AudioFilename: audio.mp3
AudioLeadIn: 0
PreviewTime: 44145
Countdown: 0
SampleSet: Soft
StackLeniency: 0.5
Mode: 0
LetterboxInBreaks: 0
WidescreenStoryboard: 1

[Editor]
Bookmarks: 42186,80778,118917,124043
DistanceSpacing: 0.4
BeatDivisor: 4
GridSize: 4
TimelineZoom: 2.899999

[Metadata]
Title:rainbow
TitleUnicode:rainbow
Artist:AAAA
ArtistUnicode:ああああ
Creator:Seijiro
Version:insane (side b)
Source:
Tags:MrSergio LimeTwist koleiker
BeatmapID:2852344
BeatmapSetID:925486

[Difficulty]
HPDrainRate:5
CircleSize:6
OverallDifficulty:6.5
ApproachRate:9
SliderMultiplier:1.6
SliderTickRate:1

[Events]
//Background and Video events
0,0,"contestbg.png",0,0
//Break Periods
2,6206,13848
2,85602,93444
//Storyboard Layer 0 (Background)
//Storyboard Layer 1 (Fail)
//Storyboard Layer 2 (Pass)
//Storyboard Layer 3 (Foreground)
//Storyboard Layer 4 (Overlay)
//Storyboard Sound Samples

[TimingPoints]
1182,301.5,4,2,0,60,1,0
3820,-100,4,2,0,5,0,0
3895,-125,4,2,0,70,0,0
5289,-125,4,2,0,5,0,0
5553,-125,4,2,0,70,0,0
5591,-125,4,2,0,5,0,0
5855,-125,4,2,0,70,0,0
6609,-133.333333333333,4,2,0,45,0,0
14448,-100,4,2,0,60,0,0
15654,-125,4,2,0,70,0,0
21759,-100,4,2,0,5,0,0
21834,-125,4,2,0,70,0,0
22588,-125,4,2,0,50,0,0
22739,-125,4,2,0,5,0,0
22890,-125,4,2,0,50,0,0
23191,-200,4,2,0,40,0,0
23342,-200,4,2,0,5,0,0
23493,-200,4,2,0,40,0,0
23794,-125,4,2,0,50,0,0
23945,-125,4,2,0,5,0,0
24096,-125,4,2,0,50,0,0
24397,-200,4,2,0,40,0,0
24548,-200,4,2,0,5,0,0
24699,-200,4,2,0,40,0,0
25000,-125,4,2,0,50,0,0
25151,-125,4,2,0,5,0,0
25302,-125,4,2,0,50,0,0
25603,-200,4,2,0,40,0,0
25754,-200,4,2,0,5,0,0
25905,-200,4,2,0,40,0,0
26206,-125,4,2,0,50,0,0
26357,-125,4,2,0,5,0,0
26508,-125,4,2,0,50,0,0
26809,-200,4,2,0,40,0,0
26960,-200,4,2,0,5,0,0
27111,-200,4,2,0,40,0,0
27412,-200,4,2,0,50,0,0
27450,-133.333333333333,4,2,0,5,0,0
27714,-100,4,2,0,60,0,0
27940,-100,4,2,0,5,0,0
28015,-125,4,2,0,60,0,0
30126,-100,4,2,0,70,0,0
30276,-100,4,2,0,30,0,0
30427,-100,4,2,0,70,0,0
30578,-100,4,2,0,30,0,0
30729,-100,4,2,0,70,0,0
30879,-100,4,2,0,30,0,0
31030,-100,4,2,0,70,0,0
31181,-100,4,2,0,30,0,0
31332,-125,4,2,0,70,0,0
32538,-125,4,2,0,80,0,0
32575,-125,4,2,0,5,0,0
32688,-125,4,2,0,80,0,0
32726,-125,4,2,0,5,0,0
32990,-125,4,2,0,80,0,0
33178,-125,4,2,0,5,0,0
33291,-125,4,2,0,80,0,0
33329,-125,4,2,0,5,0,0
33593,-125,4,2,0,80,0,0
33781,-125,4,2,0,5,0,0
33894,-125,4,2,0,80,0,0
33932,-125,4,2,0,5,0,0
34196,-125,4,2,0,80,0,0
34384,-125,4,2,0,5,0,0
34497,-125,4,2,0,80,0,0
34535,-125,4,2,0,5,0,0
34648,-125,4,2,0,80,0,0
34987,-125,4,2,0,5,0,0
35100,-125,4,2,0,80,0,0
35138,-125,4,2,0,5,0,0
35402,-125,4,2,0,80,0,0
35590,-125,4,2,0,5,0,0
35703,-125,4,2,0,80,0,0
35741,-125,4,2,0,5,0,0
36005,-125,4,2,0,80,0,0
36193,-125,4,2,0,5,0,0
36306,-125,4,2,0,80,0,0
36344,-125,4,2,0,5,0,0
36608,-125,4,2,0,80,0,0
36796,-125,4,2,0,5,0,0
36909,-125,4,2,0,80,0,0
36947,-125,4,2,0,5,0,0
37060,-125,4,2,0,70,0,0
37286,-133.333333333333,4,2,0,5,0,0
37362,-100,4,2,0,75,0,0
39171,-76.9230769230769,4,2,0,75,0,0
39472,-66.6666666666667,4,2,0,75,0,0
39774,-100,4,2,0,75,0,0
40829,-100,4,2,0,75,0,0
41507,-100,4,2,0,5,0,0
41583,-100,4,2,0,75,0,0
42186,-100,4,2,0,85,0,0
44145,-100,4,2,0,70,0,0
44598,-83.3333333333333,4,2,0,70,0,0
47010,-100,4,2,0,70,0,0
47160,-100,4,2,0,40,0,0
47311,-100,4,2,0,70,0,0
47499,-100,4,2,0,5,0,0
47763,-100,4,2,0,70,0,0
47801,-100,4,2,0,5,0,0
48065,-100,4,2,0,70,0,0
48102,-100,4,2,0,5,0,0
48291,-83.3333333333333,4,2,0,5,0,0
48366,-83.3333333333333,4,2,0,70,0,0
48969,-100,4,2,0,50,0,0
49422,-83.3333333333333,4,2,0,70,0,0
50854,-83.3333333333333,4,2,0,5,0,0
50929,-83.3333333333333,4,2,0,70,0,0
53643,-133.333333333333,4,2,0,70,0,0
54246,-133.333333333333,4,2,0,80,0,0
55753,-83.3333333333333,4,2,0,80,0,0
58467,-133.333333333333,4,2,0,80,0,0
59070,-200,4,2,0,60,0,0
61482,-133.333333333333,4,2,0,75,0,0
62688,-133.333333333333,4,2,0,80,0,0
63894,-200,4,2,0,45,0,0
65778,-133.333333333333,4,2,0,5,0,0
65853,-200,4,2,0,45,0,0
68190,-133.333333333333,4,2,0,5,0,0
68265,-200,4,2,0,45,0,0
70602,-133.333333333333,4,2,0,5,0,0
70677,-133.333333333333,4,2,0,45,0,0
73240,-133.333333333333,4,2,0,55,0,0
73542,-90.9090909090909,4,2,0,70,0,0
74634,-90.9090909090909,4,2,0,5,0,0
74898,-90.9090909090909,4,2,0,70,0,0
74936,-90.9090909090909,4,2,0,5,0,0
75200,-90.9090909090909,4,2,0,70,0,0
75954,-90.9090909090909,4,2,0,60,0,0
78366,-90.9090909090909,4,2,0,70,0,0
82285,-133.333333333333,4,2,0,70,0,0
94044,-90.9090909090909,4,2,0,40,0,0
95250,-133.333333333333,4,2,0,50,0,0
96757,-133.333333333333,4,2,0,50,0,0
97662,-133.333333333333,4,2,0,50,0,0
97888,-133.333333333333,4,2,0,5,0,0
97963,-133.333333333333,4,2,0,50,0,0
100074,-100,4,2,0,50,0,0
101656,-90.9090909090909,4,2,0,5,0,0
101732,-90.9090909090909,4,2,0,70,0,0
102486,-133.333333333333,4,2,0,75,0,0
104898,-100,4,2,0,75,0,0
106556,-100,4,2,0,5,0,0
106631,-100,4,2,0,75,0,0
108063,-90.9090909090909,4,2,0,5,0,0
108139,-90.9090909090909,4,2,0,75,0,0
108289,-90.9090909090909,4,2,0,5,0,0
108365,-90.9090909090909,4,2,0,75,0,0
108742,-90.9090909090909,4,2,0,5,0,0
108817,-90.9090909090909,4,2,0,75,0,0
109269,-90.9090909090909,4,2,0,5,0,0
109345,-90.9090909090909,4,2,0,75,0,0
109495,-90.9090909090909,4,2,0,5,0,0
109571,-90.9090909090909,4,2,0,75,0,0
109646,-90.9090909090909,4,2,0,5,0,0
109722,-90.9090909090909,4,2,0,75,0,0
109948,-90.9090909090909,4,2,0,5,0,0
110023,-90.9090909090909,4,2,0,75,0,0
110174,-90.9090909090909,4,2,0,5,0,0
110249,-90.9090909090909,4,2,0,75,0,0
113829,-90.9090909090909,4,2,0,5,0,0
114093,-90.9090909090909,4,2,0,75,0,0
114131,-90.9090909090909,4,2,0,5,0,0
114244,-100,4,2,0,70,0,0
114546,-125,4,2,0,60,0,0
114546,-125,4,2,0,70,0,0
119370,-125,4,2,0,70,0,0
121254,-125,4,2,0,5,0,0
121329,-125,4,2,0,70,0,0
122611,-90.9090909090909,4,2,0,5,0,0
122686,-90.9090909090909,4,2,0,70,0,0
123892,-90.9090909090909,4,2,0,30,0,0
124043,-200,4,2,0,40,0,0

[Colours]
Combo1 : 187,17,102
Combo2 : 164,49,15
Combo3 : 183,154,19
Combo4 : 11,179,221
Combo5 : 55,177,10

[HitObjects]
440,201,1182,6,0,P|414:190|291:230,1,160,0|0,1:0|0:0,0:0:0:0:
288,232,1584,2,0,P|292:199|286:169,1,53.3333333333333,2|2,0:0|0:0,0:0:0:0:
230,198,1785,6,0,P|218:140|253:34,1,160,0|0,1:1|0:0,0:0:0:0:
252,39,2187,2,0,P|232:50|181:46,1,53.3333333333333,2|2,0:0|0:0,0:0:0:0:
144,76,2388,6,4,P|158:130|120:245,1,160,0|0,1:1|0:0,0:0:0:0:
125,236,2790,2,0,P|151:229|184:234,1,53.3333333333333,2|2,0:0|0:0,0:0:0:0:
157,290,2991,6,0,P|214:299|317:249,1,160,0|0,1:1|0:0,0:0:0:0:
314,256,3393,2,0,P|309:286|317:310,1,53.3333333333333,2|2,0:0|0:0,0:0:0:0:
400,310,3594,6,0,P|412:248|398:167,1,120,0|0,1:0|0:0,0:0:0:0:
382,152,3895,5,2,0:0:0:0:
370,154,3970,1,2,0:0:0:0:
358,156,4046,1,2,0:0:0:0:
346,158,4121,1,2,0:0:0:0:
334,160,4197,1,2,0:0:0:0:
322,162,4272,1,0,0:0:0:0:
310,164,4347,1,0,0:0:0:0:
298,166,4423,1,0,0:0:0:0:
288,172,4498,5,0,3:3:0:0:
288,172,4649,2,0,P|289:121|249:43,1,128,4|0,0:0|3:3,0:0:0:0:
134,76,5101,1,0,3:0:0:0:
134,76,5176,1,0,3:0:0:0:
134,76,5252,6,0,L|132:49,1,16,0|0,1:0|0:0,0:0:0:0:
47,157,5553,2,0,L|28:138,1,16,0|0,1:0|0:0,0:0:0:0:
49,275,5855,1,0,3:0:0:0:
58,277,5930,1,0,3:0:0:0:
67,279,6006,5,4,0:1:0:0:
107,184,14448,5,0,3:0:0:0:
138,271,14598,1,0,1:0:0:0:
138,271,14749,2,0,P|154:230|228:190,1,120,0|0,1:0|3:0,0:0:0:0:
236,204,15051,1,0,0:0:0:0:
236,204,15126,1,0,0:0:0:0:
236,204,15201,2,0,L|277:204,2,40,0|0|0,3:0|3:0|1:0,0:0:0:0:
217,294,15503,1,0,3:0:0:0:
226,301,15578,1,0,3:0:0:0:
234,307,15654,6,0,P|266:288|304:284,1,64,4|2,0:2|0:0,0:0:0:0:
178,343,15955,2,0,P|146:324|108:320,1,64,0|0,1:0|0:0,0:0:0:0:
150,208,16257,2,0,P|171:232|182:262,1,64,2|0,0:0|0:0,0:0:0:0:
249,223,16558,2,0,P|259:193|280:169,1,64,0|0,1:0|0:0,0:0:0:0:
129,101,16860,6,0,P|119:131|98:155,1,64,0|2,0:0|0:0,0:0:0:0:
113,34,17161,1,0,1:0:0:0:
179,55,17312,2,0,P|209:61|241:55,1,64
359,36,17613,1,2,0:0:0:0:
366,95,17764,2,0,P|375:64|368:34,1,64,0|0,1:0|0:0,0:0:0:0:
319,139,18066,5,0,0:0:0:0:
319,139,18216,1,2,0:0:0:0:
358,230,18367,1,0,1:0:0:0:
358,230,18518,1,0,0:0:0:0:
314,312,18669,1,0,0:0:0:0:
201,252,18819,5,2,0:0:0:0:
214,313,18970,1,0,1:0:0:0:
214,313,19121,2,0,P|210:269|235:180,1,128,0|2,0:0|0:0,0:0:0:0:
289,91,19573,1,0,1:0:0:0:
289,91,19724,2,0,P|243:104|206:99,1,64
120,147,20025,2,0,P|144:129|173:82,1,64,2|0,0:0|1:0,0:0:0:0:
34,77,20327,1,0,0:0:0:0:
64,180,20478,5,2,0:0:0:0:
64,180,20628,1,0,0:0:0:0:
36,260,20779,1,0,1:0:0:0:
36,260,20930,1,2,0:0:0:0:
58,340,21081,1,0,0:0:0:0:
95,288,21231,5,0,0:0:0:0:
142,339,21382,1,0,1:0:0:0:
142,339,21533,2,0,P|174:331|245:356,1,96,2|0,0:0|0:0,0:0:0:0:
247,365,21834,5,0,1:0:0:0:
275,270,21985,2,0,L|271:235,3,32,0|0|0|0,1:0|0:0|0:0|3:0,0:0:0:0:
291,201,22287,5,0,0:0:0:0:
289,188,22362,1,0,0:0:0:0:
287,175,22437,1,0,0:0:0:0:
285,162,22513,1,0,0:0:0:0:
283,149,22588,6,0,P|270:115|245:92,2,64,2|0|0,0:0|0:0|0:0,0:0:0:0:
346,108,23191,2,0,P|350:80|365:61,2,40
310,239,23794,6,0,P|281:215|243:207,2,64,2|0|0,0:0|0:0|0:0,0:0:0:0:
346,173,24397,2,0,P|336:146|340:122,2,40
194,195,25000,6,0,P|181:229|156:252,2,64,2|0|0,0:0|0:0|0:0,0:0:0:0:
265,188,25603,2,0,P|285:168|308:162,2,40
221,105,26206,6,0,P|192:128|154:136,2,64,2|0|0,0:0|0:0|0:0,0:0:0:0:
290,92,26809,2,0,P|298:65|316:49,2,40
447,95,27412,6,0,L|462:89,1,10,2|0,0:0|0:0,0:0:0:0:
439,91,27714,6,0,P|446:136|422:210,1,120,2|0,0:0|0:0,0:0:0:0:
417,210,28015,1,0,0:0:0:0:
345,136,28166,2,0,P|347:172|333:208,1,64,2|0,0:0|0:0,0:0:0:0:
245,92,28467,2,0,P|262:119|268:151,1,64
127,90,28769,1,2,0:0:0:0:
173,139,28920,1,0,0:0:0:0:
173,139,29221,6,0,P|144:152|100:150,1,64,2|0,0:0|0:0,0:0:0:0:
80,266,29523,2,0,P|98:239|125:222,1,64,2|0,0:0|0:0,0:0:0:0:
127,90,29824,2,0,P|100:72|82:45,1,64,0|0,3:0|0:0,0:0:0:0:
243,52,30126,5,0,1:0:0:0:
237,65,30276,1,0,0:0:0:0:
346,57,30427,1,0,1:0:0:0:
340,70,30577,1,0,0:0:0:0:
284,129,30729,1,0,1:0:0:0:
278,142,30879,1,0,0:0:0:0:
387,134,31030,1,0,1:0:0:0:
381,147,31180,1,0,0:0:0:0:
231,220,31332,5,0,3:0:0:0:
317,291,31482,1,0,1:0:0:0:
317,291,31633,2,0,P|262:282|240:289,1,64,0|0,1:0|0:0,0:0:0:0:
243,303,31859,1,0,0:0:0:0:
234,323,31935,5,2,0:0:0:0:
227,309,32010,1,2,0:0:0:0:
219,295,32085,1,2,0:0:0:0:
211,280,32161,1,2,0:0:0:0:
204,266,32236,1,0,3:0:0:0:
196,251,32311,1,0,3:0:0:0:
189,236,32387,1,0,3:0:0:0:
181,222,32462,1,0,3:0:0:0:
173,207,32538,6,0,L|177:179,1,16,4|0,0:2|0:0,0:0:0:0:
114,167,32688,2,0,L|119:143,1,16,2|0,0:0|0:0,0:0:0:0:
384,154,32990,5,2,0:0:0:0:
384,154,33141,2,0,L|380:130,1,16
324,187,33291,2,0,L|320:159,1,16,2|0,0:0|0:0,0:0:0:0:
108,200,33593,5,0,0:0:0:0:
108,200,33743,2,0,L|104:215,1,16
165,239,33894,2,0,L|162:254,1,16,2|0,0:0|0:0,0:0:0:0:
91,64,34196,5,2,0:0:0:0:
91,64,34346,2,0,L|87:79,1,16
148,103,34497,2,0,L|145:118,1,16
213,190,34648,1,0,1:0:0:0:
219,124,34799,5,2,0:0:0:0:
219,124,34950,2,0,L|215:108,1,16
280,90,35101,2,0,L|277:74,1,16,2|0,0:0|0:0,0:0:0:0:
373,163,35402,5,0,0:0:0:0:
373,163,35553,2,0,L|377:139,1,16
433,196,35703,2,0,L|437:168,1,16,2|0,0:0|0:0,0:0:0:0:
238,140,36005,5,2,0:0:0:0:
238,140,36156,2,0,L|240:124,1,16
178,108,36306,2,0,L|180:92,1,16
138,255,36608,5,2,0:0:0:0:
138,255,36759,2,0,L|140:239,1,16
78,223,36909,2,0,L|80:207,1,16,2|0,0:0|0:0,0:0:0:0:
15,195,37060,6,0,L|30:74,1,96,0|0,1:2|0:0,0:0:0:0:
16,72,37362,6,0,P|58:87|192:49,1,160,2|0,0:0|1:0,0:0:0:0:
297,130,37814,2,0,P|257:133|213:161,1,80,2|0,0:0|0:0,0:0:0:0:
249,0,38115,2,0,P|283:18|323:21,1,80,2|0,0:0|1:0,0:0:0:0:
168,66,38417,2,0,P|129:94|88:202,1,160
162,298,38869,6,0,P|199:320|223:372,1,80,2|0,1:2|0:0,0:0:0:0:
260,275,39171,2,0,P|208:275|162:298,1,103.999995239258,2|0,0:0|0:0,0:0:0:0:
228,162,39472,2,0,P|257:224|256:295,1,120.000004577637,2|0,1:2|0:0,0:0:0:0:
365,178,39774,5,2,0:0:0:0:
372,163,39849,1,0,0:0:0:0:
379,148,39924,1,0,0:0:0:0:
386,133,40000,1,0,0:0:0:0:
393,118,40075,1,2,1:2:0:0:
400,103,40150,1,0,0:0:0:0:
407,88,40226,1,0,0:0:0:0:
414,74,40301,1,0,0:0:0:0:
421,59,40377,2,0,L|419:15,3,40,2|0|0|0,0:0|0:0|0:0|0:0,0:0:0:0:
464,102,40678,5,0,1:0:0:0:
345,59,40829,2,0,P|316:50|181:83,1,160,2|0,0:0|0:0,0:0:0:0:
105,150,41281,2,0,P|158:140|204:87,1,120,0|0,1:0|0:0,0:0:0:0:
192,74,41583,5,2,0:0:0:0:
176,69,41658,1,0,0:0:0:0:
160,64,41733,1,0,0:0:0:0:
144,59,41809,1,0,0:0:0:0:
128,54,41884,1,2,1:2:0:0:
112,49,41959,1,0,0:0:0:0:
96,44,42035,1,0,0:0:0:0:
80,39,42110,1,0,0:0:0:0:
64,34,42186,6,0,P|48:26|33:6,2,40,2|0|0,1:2|0:0|0:0,0:0:0:0:
119,164,42487,2,0,P|102:171|77:171,2,40,2|0|0,1:2|0:0|0:0,0:0:0:0:
234,231,42789,2,0,P|230:248|215:268,2,40,2|0|0,1:2|0:0|0:0,0:0:0:0:
374,217,43090,5,0,1:0:0:0:
406,290,43241,1,4,1:2:0:0:
406,290,44145,6,2,L|428:291,10,20
387,310,44598,6,0,P|320:305|259:245,1,143.999995605469,4|0,0:0|0:0,0:0:0:0:
245,253,44899,2,0,P|297:244|314:203,1,95.9999970703126,0|0,1:0|0:0,0:0:0:0:
173,226,45201,2,0,P|166:271|199:303,1,95.9999970703126,0|0,3:0|0:0,0:0:0:0:
240,174,45502,1,0,1:0:0:0:
240,174,45653,2,0,P|270:132|266:80,2,95.9999970703126,2|0|0,0:0|0:0|0:0,0:0:0:0:
154,143,46105,5,0,1:0:0:0:
372,114,46331,1,0,3:0:0:0:
372,114,46407,2,0,B|393:104|393:104|470:115,2,95.9999970703126,0|0|0,3:0|3:0|1:0,0:0:0:0:
372,114,47010,6,0,L|377:29,1,80,2|0,3:2|0:0,0:0:0:0:
272,49,47311,1,0,0:0:0:0:
290,137,47462,2,0,L|288:113,1,20,0|0,1:0|0:0,0:0:0:0:
284,148,47763,2,0,L|282:124,1,20,0|0,1:0|0:0,0:0:0:0:
279,158,48065,2,0,L|277:134,1,20,2|0,0:0|0:0,0:0:0:0:
274,168,48366,5,2,0:0:0:0:
357,151,48517,1,2,0:0:0:0:
342,252,48668,1,0,1:0:0:0:
342,252,48969,5,0,1:0:0:0:
258,232,49120,2,0,L|248:317,1,80,0|0,1:0|3:0,0:0:0:0:
232,311,49346,1,0,3:0:0:0:
212,312,49422,6,0,L|202:232,1,80,4|0,0:0|0:0,0:0:0:0:
193,154,49723,1,0,1:0:0:0:
126,216,49874,1,0,0:0:0:0:
126,216,49949,1,0,3:0:0:0:
126,216,50025,2,0,B|133:233|133:233|114:309,2,95.9999970703126,0|2|0,3:0|0:0|1:0,0:0:0:0:
57,244,50477,1,0,0:0:0:0:
63,176,50628,1,0,3:3:0:0:
288,276,50929,6,0,P|325:245|321:192,1,95.9999970703126,0|0,1:0|3:0,0:0:0:0:
320,181,51155,1,0,3:0:0:0:
335,170,51231,2,0,P|383:171|415:129,1,95.9999970703126,2|0,3:2|0:0,0:0:0:0:
253,208,51532,2,0,P|216:180|214:134,1,95.9999970703126,0|0,1:0|0:0,0:0:0:0:
259,56,51834,6,0,B|215:19|168:51|127:85|72:37,1,191.999994140625,2|0,3:2|1:0,0:0:0:0:
327,22,52286,1,0,3:0:0:0:
327,22,52361,1,0,3:0:0:0:
327,22,52437,2,0,P|354:68|326:149,1,143.999995605469
329,130,52738,2,0,P|379:116|417:144,1,95.9999970703126,0|0,1:0|0:0,0:0:0:0:
387,214,53040,5,0,1:0:0:0:
466,200,53190,1,0,1:0:0:0:
447,306,53341,1,2,1:2:0:0:
447,306,53643,6,0,L|455:342,3,30.0000011444092,2|0|0|0,1:2|0:0|0:0|3:0,0:0:0:0:
380,295,53944,2,0,L|388:331,3,30.0000011444092,0|0|0|0,3:0|0:0|3:0|3:0,0:0:0:0:
314,279,54246,5,2,1:2:0:0:
295,275,54321,1,0,0:0:0:0:
276,271,54396,1,0,0:0:0:0:
256,267,54472,1,0,0:0:0:0:
237,264,54547,1,0,0:0:0:0:
218,261,54622,1,0,0:0:0:0:
198,258,54698,1,0,0:0:0:0:
179,255,54773,1,0,0:0:0:0:
159,251,54849,6,0,L|155:211,3,30.0000011444092,2|0|0|0,0:2|0:0|0:0|0:0,0:0:0:0:
96,234,55150,2,0,L|92:194,3,30.0000011444092,2|2|2|2,0:0|0:0|0:0|0:0,0:0:0:0:
33,184,55452,1,4,0:0:0:0:
33,184,55753,6,0,P|36:148|86:111,1,95.9999970703126,2|0,0:0|0:0,0:0:0:0:
243,103,56055,2,0,P|221:145|178:162,1,95.9999970703126,2|2,0:0|0:0,0:0:0:0:
324,168,56356,2,0,P|348:204|405:206,1,95.9999970703126,2|0,0:0|0:0,0:0:0:0:
481,159,56658,1,4,0:0:0:0:
481,159,56959,5,2,0:0:0:0:
475,140,57034,1,0,0:0:0:0:
464,123,57110,1,0,0:0:0:0:
448,112,57185,1,0,0:0:0:0:
430,104,57261,1,2,0:0:0:0:
410,102,57336,1,2,0:0:0:0:
390,102,57411,1,2,0:0:0:0:
371,108,57487,1,2,0:0:0:0:
354,117,57562,6,0,P|321:72|260:83,1,95.9999970703126,0|2,0:0|0:0,0:0:0:0:
175,22,57864,1,4,0:0:0:0:
157,92,58014,1,0,0:0:0:0:
155,101,58090,1,0,0:0:0:0:
151,109,58165,2,0,P|113:149|57:139,1,95.9999970703126,0|2,0:0|0:0,0:0:0:0:
14,58,58467,6,0,L|2:18,3,30.0000011444092,2|2|2|2,0:0|0:0|0:0|0:0,0:0:0:0:
86,77,58768,2,0,L|74:37,3,30.0000011444092,2|0|0|0,0:0|0:0|0:3|0:0,0:0:0:0:
151,109,59070,5,4,0:0:0:0:
214,82,59371,1,0,3:0:0:0:
279,109,59673,6,0,B|300:101|300:101|329:112,1,40,2|0,3:2|0:0,0:0:0:0:
384,88,59974,1,0,3:0:0:0:
447,112,60125,1,0,0:0:0:0:
510,86,60276,1,2,3:2:0:0:
450,115,60577,5,0,0:0:0:0:
450,115,60728,2,0,B|412:100|412:100|365:116,1,80,2|0,0:0|0:0,0:0:0:0:
311,139,61180,2,0,L|271:150,1,40,2|0,0:0|0:0,0:0:0:0:
210,117,61482,5,2,0:0:0:0:
193,122,61557,1,2,0:0:0:0:
176,128,61632,1,2,0:0:0:0:
158,134,61708,1,2,0:0:0:0:
141,140,61783,1,2,0:0:0:0:
124,146,61858,1,2,0:0:0:0:
106,152,61934,1,2,0:0:0:0:
89,158,62009,1,2,0:0:0:0:
71,163,62085,6,0,L|26:158,3,30.0000011444092
110,227,62386,2,0,L|65:222,3,30.0000011444092
177,203,62688,6,0,L|237:187,3,60.0000022888184,2|2|2|2,1:2|1:2|1:2|1:2,0:0:0:0:
379,98,63894,6,0,L|381:148,1,40,2|0,0:0|0:0,0:0:0:0:
431,169,64195,1,0,0:0:0:0:
438,162,64346,5,2,0:0:0:0:
385,201,64647,1,0,0:0:0:0:
325,174,64949,1,2,0:2:0:0:
112,196,65552,6,0,L|181:200,1,60,2|0,0:0|0:0,0:0:0:0:
184,191,65853,1,2,0:0:0:0:
244,212,66004,1,0,0:0:0:0:
270,265,66155,1,0,0:0:0:0:
261,268,66456,5,2,0:0:0:0:
288,210,66607,1,0,0:0:0:0:
346,188,66758,1,0,0:0:0:0:
351,197,67059,5,0,0:0:0:0:
370,139,67210,1,0,0:0:0:0:
351,197,67361,1,0,0:0:0:0:
201,72,67964,6,0,L|128:79,1,60,2|0,0:0|0:0,0:0:0:0:
127,70,68265,2,0,L|77:76,2,40,2|0|0,0:0|0:0|0:0,0:0:0:0:
255,106,68868,2,0,L|298:99,1,40
329,46,69170,5,2,0:0:0:0:
359,102,69471,1,0,0:0:0:0:
327,157,69773,1,2,0:0:0:0:
213,314,70376,6,0,L|277:301,1,60,2|0,0:0|0:0,0:0:0:0:
284,289,70677,1,2,0:0:0:0:
343,316,70828,1,0,0:0:0:0:
403,294,70979,1,0,0:0:0:0:
405,304,71280,5,2,0:0:0:0:
364,255,71431,1,0,0:0:0:0:
376,194,71582,1,0,0:0:0:0:
364,196,71883,5,0,0:0:0:0:
429,213,72033,1,0,0:0:0:0:
364,196,72184,1,0,0:0:0:0:
263,31,72788,5,0,0:0:0:0:
263,31,73089,1,0,0:0:0:0:
262,40,73165,1,0,3:0:0:0:
262,48,73240,2,0,L|259:92,3,30.0000011444092,0|0|0|0,3:0|3:0|0:0|0:0,0:0:0:0:
273,100,73542,6,0,P|233:116|106:69,1,176.000005371094,4|0,0:0|0:0,0:0:0:0:
111,89,73918,1,0,3:0:0:0:
110,102,73994,1,0,3:0:0:0:
109,115,74069,1,0,0:0:0:0:
108,127,74145,2,0,P|65:108|20:122,1,88.000002685547,2|0,0:0|0:0,0:0:0:0:
60,177,74446,1,0,0:0:0:0:
167,160,74597,5,2,0:0:0:0:
46,244,74898,1,2,0:0:0:0:
46,244,75200,5,2,0:0:0:0:
113,276,75351,1,0,0:0:0:0:
116,263,75501,1,0,0:0:0:0:
61,314,75652,1,2,0:0:0:0:
61,314,75954,6,0,P|111:297|221:350,1,176.000005371094,2|0,0:0|0:0,0:0:0:0:
289,312,76356,1,0,0:0:0:0:
289,312,76456,1,0,0:0:0:0:
289,312,76557,2,0,P|323:258|290:113,1,176.000005371094,2|0,0:0|0:0,0:0:0:0:
243,167,76959,1,0,0:0:0:0:
243,167,77059,1,0,0:0:0:0:
243,167,77160,6,0,P|226:191|174:195,2,58.6666684570313,2|0|0,0:0|0:0|0:0,0:0:0:0:
136,206,77461,2,0,P|106:202|78:159,2,58.6666684570313,2|0|0,0:0|0:0|0:0,0:0:0:0:
57,127,77763,2,0,P|71:68|193:31,1,176.000005371094,2|2,0:0|0:0,0:0:0:0:
230,53,78165,1,2,0:0:0:0:
230,53,78265,1,2,0:0:0:0:
230,53,78366,6,0,L|341:51,1,88.000002685547,4|0,0:0|0:0,0:0:0:0:
402,198,78667,2,0,P|428:157|399:75,1,132.00000402832,0|0,1:0|0:0,0:0:0:0:
388,94,78969,2,0,L|499:92,1,88.000002685547,0|2,3:0|0:0,0:0:0:0:
366,4,79270,1,0,1:0:0:0:
317,51,79421,6,0,L|230:53,2,88.000002685547,0|0|2,0:0|0:0|0:0,0:0:0:0:
366,4,79873,1,0,1:0:0:0:
388,94,80024,2,0,L|442:93,1,44.0000013427735,0|0,3:0|3:0,0:0:0:0:
448,77,80175,2,0,P|460:126|440:165,1,88.000002685547,2|0,0:0|0:0,0:0:0:0:
379,215,80476,1,0,1:2:0:0:
468,338,80778,5,2,0:0:0:0:
468,338,80928,1,0,0:0:0:0:
392,313,81079,1,2,1:2:0:0:
392,313,81229,1,0,0:0:0:0:
315,341,81381,1,2,0:0:0:0:
239,316,81531,1,0,0:0:0:0:
301,259,81682,1,2,1:2:0:0:
225,234,81833,1,0,0:0:0:0:
160,345,81984,5,0,1:2:0:0:
94,308,82134,1,0,1:2:0:0:
160,345,82285,2,0,L|165:313,3,30.0000011444092,2|0|0|0,1:2|0:0|0:0|0:0,0:0:0:0:
154,291,82587,2,0,L|159:259,3,30.0000011444092,2|0|0|0,1:2|0:0|0:0|0:0,0:0:0:0:
150,234,82888,5,2,0:0:0:0:
168,218,82963,1,2,0:0:0:0:
192,217,83039,1,2,0:0:0:0:
141,171,94044,5,0,0:0:0:0:
281,159,94647,1,0,0:0:0:0:
141,171,95250,6,0,L|119:167,20,15.0000005722046,2|0|0|0|0|0|0|0|0|0|0|0|0|0|0|0|0|0|0|0|0,0:0|0:0|0:0|0:0|0:0|0:0|0:0|0:0|0:0|0:0|0:0|0:0|0:0|0:0|0:0|0:0|0:0|0:0|0:0|0:0|0:0,0:0:0:0:
211,168,96154,2,0,P|235:159|252:127,1,60.0000022888184
202,186,96456,1,0,0:0:0:0:
202,186,96757,6,0,L|196:254,1,60.0000022888184,2|0,0:0|0:0,0:0:0:0:
267,288,97059,2,0,L|261:228,1,60.0000022888184,2|0,0:0|0:0,0:0:0:0:
202,186,97360,1,0,0:0:0:0:
331,338,97662,6,0,P|356:318|326:329,1,90.0000034332277,2|0,0:0|0:0,0:0:0:0:
315,352,97963,1,0,0:0:0:0:
247,332,98114,2,0,P|212:336|181:359,1,60.0000022888184
180,354,98340,1,0,0:0:0:0:
168,355,98415,1,0,0:0:0:0:
156,351,98491,1,0,0:0:0:0:
146,344,98566,1,0,0:0:0:0:
121,282,98717,1,0,0:0:0:0:
158,218,98868,6,0,P|159:179|132:152,1,60.0000022888184,2|0,0:0|0:0,0:0:0:0:
138,155,99094,1,0,0:0:0:0:
126,153,99169,2,0,L|81:160,3,30.0000011444092
98,94,99471,2,0,L|53:101,3,30.0000011444092,2|0|0|0,0:0|0:0|0:0|0:0,0:0:0:0:
77,29,99772,1,2,0:0:0:0:
77,29,99923,1,0,0:0:0:0:
167,76,100074,6,0,P|201:57|246:57,1,80,0|0,1:0|0:0,0:0:0:0:
283,174,100375,2,0,P|263:140|225:117,1,80,0|0,1:0|0:0,0:0:0:0:
166,238,100677,1,0,1:0:0:0:
217,191,100827,1,2,0:0:0:0:
165,249,100978,1,0,1:0:0:0:
149,171,101129,1,0,0:0:0:0:
227,274,101280,6,0,P|198:301|147:305,1,80,0|0,1:0|0:0,0:0:0:0:
285,243,101581,2,0,P|299:262|328:269,1,40,0|0,1:0|0:0,0:0:0:0:
329,283,101732,2,0,B|383:213|300:188|356:112,1,176.000005371094,2|0,0:0|0:0,0:0:0:0:
400,67,102184,1,0,1:0:0:0:
424,129,102335,1,0,0:0:0:0:
400,67,102486,5,2,0:0:0:0:
385,57,102561,1,2,0:0:0:0:
368,50,102636,1,2,0:0:0:0:
350,49,102712,1,2,0:0:0:0:
333,53,102787,1,2,0:0:0:0:
316,58,102862,1,2,0:0:0:0:
298,59,102938,1,2,0:0:0:0:
280,55,103013,1,2,0:0:0:0:
264,46,103089,6,0,L|263:9,3,30.0000011444092
204,73,103390,2,0,L|203:36,3,30.0000011444092
140,105,103692,6,0,L|137:29,3,60.0000022888184,2|2|2|2,1:2|1:2|1:2|1:2,0:0:0:0:
32,188,104445,6,2,L|8:185,10,15.0000005722046
49,216,104898,2,0,P|83:199|132:200,1,88.000002685547,0|0,1:0|0:0,0:0:0:0:
217,247,105199,1,0,1:0:0:0:
212,262,105274,1,2,0:0:0:0:
208,277,105350,1,2,0:0:0:0:
300,267,105501,2,0,P|342:276|386:259,1,80,0|0,1:0|0:0,0:0:0:0:
367,195,105802,1,0,1:0:0:0:
393,279,105953,6,0,L|365:365,1,80,2|0,0:0|0:0,0:0:0:0:
441,213,106254,1,0,0:0:0:0:
483,277,106405,2,0,L|458:200,1,80,0|0,1:0|0:0,0:0:0:0:
467,177,106631,2,0,P|467:157|455:131,1,40,0|0,3:0|1:0,0:0:0:0:
324,116,106857,1,0,0:0:0:0:
371,165,107008,1,0,1:0:0:0:
391,100,107159,1,2,0:0:0:0:
298,181,107310,6,0,P|263:170|176:191,1,120,0|0,1:0|3:0,0:0:0:0:
172,198,107611,2,0,L|162:145,2,40,0|0|0,1:0|3:0|0:0,0:0:0:0:
142,265,107913,1,2,1:2:0:0:
320,238,108139,1,2,0:0:0:0:
206,107,108365,1,2,0:0:0:0:
217,176,108516,6,0,P|256:150|364:155,1,132.00000402832,0|0,1:0|0:0,0:0:0:0:
354,162,108817,1,0,1:0:0:0:
418,79,108968,1,2,0:0:0:0:
421,96,109043,1,2,0:0:0:0:
424,113,109119,5,0,1:0:0:0:
267,55,109345,1,2,0:0:0:0:
118,124,109571,1,2,0:0:0:0:
79,69,109722,6,0,B|69:55|68:36|68:36|26:74|52:133,1,132.00000402832,0|0,1:0|0:0,0:0:0:0:
40,141,110023,1,0,1:0:0:0:
231,97,110249,1,0,3:0:0:0:
231,97,110325,2,0,P|266:106|324:89,1,88.000002685547,0|2,1:0|0:0,0:0:0:0:
465,44,110626,1,0,1:0:0:0:
397,32,110777,1,0,0:0:0:0:
431,100,110928,6,0,P|444:143|430:189,1,88.000002685547,0|2,1:0|0:0,0:0:0:0:
420,195,111154,1,0,0:0:0:0:
402,198,111229,1,0,1:0:0:0:
314,176,111380,2,0,P|303:159|303:126,2,44.0000013427735,0|0|0,0:0|3:0|3:0,0:0:0:0:
332,253,111681,2,0,B|322:291|275:307|238:281|238:281|207:312|174:295,1,176.000005371094,2|2,0:0|0:0,0:0:0:0:
168,289,112058,1,0,3:0:0:0:
155,276,112134,2,0,P|121:310|59:278,1,88.000002685547,0|0,1:0|0:0,0:0:0:0:
20,245,112435,2,0,P|54:200|148:208,1,132.00000402832,0|0,1:0|3:0,0:0:0:0:
134,209,112737,6,0,P|137:182|91:136,1,88.000002685547,2|0,1:2|0:0,0:0:0:0:
36,57,113038,1,0,1:0:0:0:
36,57,113189,2,0,P|60:62|87:51,2,44.0000013427735,2|0|0,0:0|0:0|1:0,0:0:0:0:
145,24,113490,1,2,0:0:0:0:
143,89,113641,1,0,0:0:0:0:
209,51,113792,5,2,0:0:0:0:
358,98,114093,1,2,0:0:0:0:
358,98,114244,2,0,P|375:72|366:14,1,80,0|0,1:0|0:0,0:0:0:0:
358,32,114470,1,0,3:0:0:0:
345,31,114546,5,4,1:2:0:0:
432,150,114847,2,0,P|454:146|485:155,2,42.6666666666667,0|0|0,3:0|3:0|3:0,3:0:0:0:
424,165,115149,2,0,P|393:197|314:185,1,128,0|0,1:0|3:0,0:0:0:0:
273,138,115551,1,0,3:0:0:0:
273,138,115651,1,0,3:0:0:0:
273,138,115752,6,0,P|216:136|166:203,1,128,0|0,1:0|3:0,0:0:0:0:
139,240,116154,1,0,3:0:0:0:
139,240,116254,1,0,3:0:0:0:
139,240,116355,2,0,P|114:248|85:248,2,42.6666666666667,0|0|0,1:2|3:0|3:0,0:0:0:0:
96,315,116656,2,0,P|71:306|47:289,2,42.6666666666667,2|0|0,3:2|3:0|3:0,0:0:0:0:
148,365,116958,6,0,B|211:342|213:385|284:354,1,128,0|0,1:0|3:0,0:0:0:0:
331,324,117360,1,0,3:0:0:0:
331,324,117460,1,0,3:0:0:0:
331,324,117561,1,2,1:2:0:0:
272,212,117862,1,0,0:0:0:0:
272,212,117963,1,0,3:0:0:0:
272,212,118063,1,0,3:0:0:0:
272,212,118164,1,0,1:0:0:0:
343,108,118465,2,0,P|369:102|402:108,2,42.6666666666667,0|0|0,3:0|0:0|0:0,0:0:0:0:
328,118,118767,6,0,P|290:96|249:99,1,64,0|2,0:0|0:0,0:0:0:0:
205,129,119068,1,2,0:0:0:0:
140,104,119218,1,2,0:0:0:0:
72,139,119370,6,0,B|55:125|55:125|10:121,2,64,0|2|2,1:0|0:0|0:0,0:0:0:0:
109,225,119822,1,4,1:2:0:0:
291,193,120123,5,0,0:0:0:0:
291,193,120274,1,2,0:0:0:0:
379,221,120425,1,4,1:2:0:0:
494,95,120726,5,0,0:0:0:0:
494,95,120877,1,2,0:0:0:0:
409,114,121028,2,0,P|395:95|316:64,1,96,4|0,1:2|0:0,0:0:0:0:
317,48,121329,1,2,0:0:0:0:
259,116,121480,6,0,P|246:89|241:48,1,64,0|0,1:0|0:0,0:0:0:0:
159,119,121782,2,0,P|160:153|148:183,1,64,0|0,1:0|0:0,0:0:0:0:
255,247,122083,2,0,P|241:220|237:179,1,64,0|2,1:0|0:0,0:0:0:0:
250,173,122309,1,0,0:0:0:0:
264,164,122385,2,0,P|293:176|337:162,1,64,0|0,1:0|0:0,0:0:0:0:
424,97,122686,5,0,3:0:0:0:
505,132,122837,1,4,1:2:0:0:
256,192,122912,12,4,124043,0:0:0:0:
