osu file format v14

[General]
AudioFilename: audio.mp3
AudioLeadIn: 0
PreviewTime: 44145
Countdown: 0
SampleSet: Soft
StackLeniency: 0.5
Mode: 0
LetterboxInBreaks: 0
WidescreenStoryboard: 1

[Editor]
Bookmarks: 42186,80778,118917,124043
DistanceSpacing: 1.4
BeatDivisor: 4
GridSize: 16
TimelineZoom: 2

[Metadata]
Title:rainbow
TitleUnicode:rainbow
Artist:AAAA
ArtistUnicode:ああああ
Creator:Seijiro
Version:hard
Source:
Tags:MrSergio LimeTwist koleiker
BeatmapID:2852342
BeatmapSetID:925486

[Difficulty]
HPDrainRate:5
CircleSize:4
OverallDifficulty:6
ApproachRate:7.5
SliderMultiplier:1.2
SliderTickRate:1

[Events]
//Background and Video events
0,0,"contestbg.png",0,0
//Break Periods
2,6205,13623
//Storyboard Layer 0 (Background)
//Storyboard Layer 1 (Fail)
//Storyboard Layer 2 (Pass)
//Storyboard Layer 3 (Foreground)
//Storyboard Layer 4 (Overlay)
//Storyboard Sound Samples

[TimingPoints]
1182,301.5,4,2,0,60,1,0
3895,-100,4,2,0,70,0,0
6609,-100,4,2,0,45,0,0
14448,-100,4,2,0,60,0,0
15654,-100,4,2,0,70,0,0
22588,-100,4,2,0,50,0,0
23191,-125,4,2,0,40,0,0
23794,-100,4,2,0,50,0,0
24397,-125,4,2,0,40,0,0
25000,-100,4,2,0,50,0,0
25603,-125,4,2,0,40,0,0
26206,-100,4,2,0,50,0,0
26809,-125,4,2,0,40,0,0
27412,-100,4,2,0,50,0,0
27638,-100,4,2,0,5,0,0
27714,-100,4,2,0,60,0,0
30126,-100,4,2,0,70,0,0
32538,-100,4,2,0,80,0,0
37060,-100,4,2,0,70,0,0
37286,-100,4,2,0,5,0,0
37362,-100,4,2,0,75,0,0
40377,-100,4,2,0,75,0,0
40829,-100,4,2,0,75,0,0
42186,-100,4,2,0,85,0,0
44145,-100,4,2,0,70,0,0
44598,-100,4,2,0,70,0,0
47236,-100,4,2,0,5,0,0
47311,-100,4,2,0,70,0,0
48291,-100,4,2,0,5,0,0
48366,-100,4,2,0,70,0,0
48969,-100,4,2,0,50,0,0
49422,-100,4,2,0,70,0,0
50854,-100,4,2,0,5,0,0
50929,-100,4,2,0,70,0,0
54246,-100,4,2,0,80,0,0
59070,-100,4,2,0,60,0,0
61482,-100,4,2,0,75,0,0
62688,-100,4,2,0,80,0,0
63894,-100,4,2,0,45,0,0
65778,-100,4,2,0,5,0,0
65853,-100,4,2,0,45,0,0
68190,-100,4,2,0,5,0,0
68265,-100,4,2,0,45,0,0
70602,-100,4,2,0,5,0,0
70677,-100,4,2,0,45,0,0
73240,-100,4,2,0,55,0,0
73542,-100,4,2,0,70,0,0
74634,-100,4,2,0,5,0,0
74898,-100,4,2,0,70,0,0
74936,-100,4,2,0,5,0,0
75200,-100,4,2,0,70,0,0
75954,-100,4,2,0,60,0,0
78366,-100,4,2,0,70,0,0
94044,-100,4,2,0,40,0,0
95250,-100,4,2,0,50,0,0
96757,-100,4,2,0,50,0,0
97662,-100,4,2,0,50,0,0
99471,-100,4,2,0,60,0,0
101506,-100,4,2,0,5,0,0
101581,-100,4,2,0,70,0,0
102486,-100,4,2,0,75,0,0
108063,-100,4,2,0,5,0,0
108139,-100,4,2,0,75,0,0
108289,-100,4,2,0,5,0,0
108365,-100,4,2,0,75,0,0
109269,-100,4,2,0,5,0,0
109345,-100,4,2,0,75,0,0
109495,-100,4,2,0,5,0,0
109571,-100,4,2,0,75,0,0
109646,-100,4,2,0,5,0,0
109722,-100,4,2,0,75,0,0
109948,-100,4,2,0,5,0,0
110023,-100,4,2,0,75,0,0
110174,-100,4,2,0,5,0,0
110249,-100,4,2,0,75,0,0
113829,-100,4,2,0,5,0,0
114093,-100,4,2,0,75,0,0
114131,-100,4,2,0,5,0,0
114244,-100,4,2,0,70,0,0
114546,-100,4,2,0,70,0,0
114546,-100,4,2,0,60,0,0
119370,-100,4,2,0,70,0,0
119822,-100,4,2,0,70,0,0
120048,-100,4,2,0,5,0,0
120123,-100,4,2,0,70,0,0
120651,-100,4,2,0,5,0,0
120726,-100,4,2,0,70,0,0
122611,-100,4,2,0,5,0,0
122686,-100,4,2,0,70,0,0
123892,-100,4,2,0,30,0,0
124043,-100,4,2,0,40,0,0

[Colours]
Combo1 : 247,166,206
Combo2 : 242,146,117
Combo3 : 244,228,151
Combo4 : 138,226,249
Combo5 : 156,248,122

[HitObjects]
431,100,1182,5,0,0:0:0:0:
440,252,1483,2,0,L|491:224,2,40
420,274,1785,2,0,P|382:221|383:157,1,120
169,117,2388,5,0,0:0:0:0:
168,264,2689,2,0,L|117:236,2,40
188,286,2991,2,0,P|225:233|224:169,1,120
350,83,3594,1,0,0:0:0:0:
303,244,3895,6,0,L|309:290,3,30
224,277,4197,2,0,L|230:323,3,30
142,291,4498,2,0,P|116:267|82:258,1,60
95,74,5101,5,0,0:0:0:0:
114,80,5176,1,0,0:0:0:0:
125,92,5252,2,0,P|157:65|242:46,1,120
165,186,5855,2,0,P|146:180|126:178,2,30
94,295,14448,6,0,P|73:316|45:326,2,60
232,222,15051,2,0,P|234:208|244:186,2,30
277,287,15352,2,0,P|304:278|331:263,1,60
343,271,15578,1,0,0:0:0:0:
354,275,15654,6,0,P|372:238|378:191,1,60
468,225,15955,2,0,P|450:188|444:141,1,60
466,79,16257,2,0,P|433:94|384:95,1,60
291,127,16558,2,0,P|324:142|373:143,1,60
262,51,16860,5,0,0:0:0:0:
262,51,17010,1,0,0:0:0:0:
209,116,17161,2,0,P|176:131|127:132,2,60
262,51,17613,1,0,0:0:0:0:
340,20,17764,2,0,P|379:13|411:21,1,60
365,157,18066,6,0,L|380:83,1,60
454,130,18367,2,0,L|469:204,1,60
391,244,18669,2,0,P|353:233|320:238,1,60
266,286,18970,1,0,0:0:0:0:
266,286,19121,6,0,P|223:273|138:288,1,120
65,275,19573,1,0,0:0:0:0:
101,350,19724,2,0,P|128:322|134:287,1,60
154,186,20025,2,0,P|164:213|186:233,1,60
271,228,20327,1,0,0:0:0:0:
329,167,20478,5,0,0:0:0:0:
329,167,20628,1,0,0:0:0:0:
314,84,20779,2,0,P|303:56|281:36,1,60
196,34,21081,2,0,P|171:50|156:76,2,60
234,108,21533,6,0,P|241:146|193:229,1,120
262,282,21985,1,0,0:0:0:0:
415,92,22287,2,0,L|427:50,3,30
447,43,22588,6,0,L|415:179,1,120
419,159,23191,2,0,L|432:271,1,96
430,254,23794,6,0,L|302:243,1,120
310,243,24397,2,0,L|206:264,1,96
215,262,25000,6,0,P|222:214|188:126,1,120
202,146,25603,2,0,P|185:109|189:45,1,96
185,54,26206,6,0,P|231:64|320:40,1,120
301,50,26809,2,0,P|341:40|397:49,1,96
431,226,27412,5,0,0:0:0:0:
431,226,27714,6,0,P|395:247|312:242,1,120
247,211,28166,1,0,0:0:0:0:
113,291,28467,1,0,0:0:0:0:
105,134,28769,1,0,0:0:0:0:
176,165,28920,6,0,P|193:120|189:95,1,60
264,63,29221,2,0,P|266:92|280:118,1,60
346,161,29523,2,0,P|363:116|359:91,1,60
434,59,29824,2,0,P|436:88|450:114,1,60
496,178,30126,5,0,0:0:0:0:
512,332,30427,1,0,0:0:0:0:
352,347,30729,1,0,0:0:0:0:
336,193,31030,1,0,0:0:0:0:
496,178,31332,5,0,0:0:0:0:
438,229,31482,1,0,0:0:0:0:
438,229,31633,2,0,P|392:219|338:251,1,90
333,268,31935,2,0,L|340:305,3,30
265,315,32236,2,0,L|272:352,3,30
190,357,32538,6,0,P|161:372|121:367,2,60
141,282,32990,1,0,0:0:0:0:
141,282,33141,2,0,P|108:285|72:266,2,60
195,182,33593,1,0,0:0:0:0:
261,233,33744,2,0,P|293:236|329:217,2,60
288,153,34196,1,0,0:0:0:0:
288,153,34347,2,0,P|316:137|335:102,1,60
323,32,34648,1,0,0:0:0:0:
239,19,34799,1,0,0:0:0:0:
166,62,34950,6,0,P|161:101|172:133,2,60
84,135,35402,1,0,0:0:0:0:
84,135,35553,2,0,P|101:170|127:191,2,60
38,224,36005,1,0,0:0:0:0:
108,269,36156,2,0,P|147:269|177:254,2,60
203,336,36608,1,0,0:0:0:0:
203,336,36759,2,0,P|234:311|248:281,1,60
234,210,37060,1,0,0:0:0:0:
234,210,37362,6,0,P|278:200|363:229,1,120
401,147,37814,2,0,P|363:132|342:107,1,60
268,73,38115,2,0,P|290:53|319:44,1,60
269,151,38417,2,0,P|217:101|167:90,1,120
