osu file format v14

[General]
AudioFilename: audio.mp3
AudioLeadIn: 0
PreviewTime: 44145
Countdown: 0
SampleSet: Soft
StackLeniency: 0.2
Mode: 0
LetterboxInBreaks: 0
WidescreenStoryboard: 1

[Editor]
Bookmarks: 42186,80778,118917,124043
DistanceSpacing: 2.1
BeatDivisor: 4
GridSize: 4
TimelineZoom: 4.399998

[Metadata]
Title:rainbow
TitleUnicode:rainbow
Artist:AAAA
ArtistUnicode:ああああ
Creator:Seijiro
Version:extra
Source:
Tags:MrSergio LimeTwist koleiker
BeatmapID:1933191
BeatmapSetID:925486

[Difficulty]
HPDrainRate:7
CircleSize:5
OverallDifficulty:8
ApproachRate:9.2
SliderMultiplier:1.5
SliderTickRate:1

[Events]
//Background and Video events
0,0,"contestbg.png",0,0
//Break Periods
2,85602,93474
//Storyboard Layer 0 (Background)
//Storyboard Layer 1 (Fail)
//Storyboard Layer 2 (Pass)
//Storyboard Layer 3 (Foreground)
//Storyboard Layer 4 (Overlay)
//Storyboard Sound Samples

[TimingPoints]
1182,301.5,4,2,0,60,1,0
3895,-100,4,2,0,70,0,0
6609,-133.333333333333,4,2,0,45,0,0
14448,-100,4,2,0,60,0,0
15654,-100,4,2,0,70,0,0
22588,-100,4,2,0,50,0,0
23191,-200,4,2,0,40,0,0
23794,-100,4,2,0,50,0,0
24397,-200,4,2,0,40,0,0
25000,-100,4,2,0,50,0,0
25603,-200,4,2,0,40,0,0
26206,-100,4,2,0,50,0,0
26809,-200,4,2,0,40,0,0
27412,-133.333333333333,4,2,0,50,0,0
27638,-133.333333333333,4,2,0,5,0,0
27714,-100,4,2,0,60,0,0
30126,-100,4,2,0,70,0,0
32538,-100,4,2,0,80,0,0
37060,-133.333333333333,4,2,0,70,0,0
37286,-133.333333333333,4,2,0,5,0,0
37362,-100,4,2,0,75,0,0
40377,-66.6666666666667,4,2,0,75,0,0
40829,-100,4,2,0,75,0,0
42186,-100,4,2,0,85,0,0
44145,-50,4,2,0,70,0,0
44598,-83.3333333333333,4,2,0,70,0,0
47236,-83.3333333333333,4,2,0,5,0,0
47311,-83.3333333333333,4,2,0,70,0,0
48291,-83.3333333333333,4,2,0,5,0,0
48366,-83.3333333333333,4,2,0,70,0,0
48969,-83.3333333333333,4,2,0,50,0,0
49422,-83.3333333333333,4,2,0,70,0,0
50854,-83.3333333333333,4,2,0,5,0,0
50929,-83.3333333333333,4,2,0,70,0,0
54246,-83.3333333333333,4,2,0,80,0,0
59070,-133.333333333333,4,2,0,60,0,0
61482,-133.333333333333,4,2,0,75,0,0
62688,-133.333333333333,4,2,0,80,0,0
63894,-133.333333333333,4,2,0,45,0,0
65778,-133.333333333333,4,2,0,5,0,0
65853,-133.333333333333,4,2,0,45,0,0
68190,-133.333333333333,4,2,0,5,0,0
68265,-133.333333333333,4,2,0,45,0,0
70602,-133.333333333333,4,2,0,5,0,0
70677,-133.333333333333,4,2,0,45,0,0
73240,-133.333333333333,4,2,0,55,0,0
73542,-90.9090909090909,4,2,0,70,0,0
74634,-90.9090909090909,4,2,0,5,0,0
74898,-90.9090909090909,4,2,0,70,0,0
74936,-90.9090909090909,4,2,0,5,0,0
75200,-90.9090909090909,4,2,0,70,0,0
75954,-90.9090909090909,4,2,0,60,0,0
78366,-90.9090909090909,4,2,0,70,0,0
94044,-90.9090909090909,4,2,0,40,0,0
95250,-90.9090909090909,4,2,0,50,0,0
96757,-133.333333333333,4,2,0,50,0,0
97662,-133.333333333333,4,2,0,50,0,0
99471,-90.9090909090909,4,2,0,60,0,0
101506,-90.9090909090909,4,2,0,5,0,0
101581,-90.9090909090909,4,2,0,70,0,0
102486,-90.9090909090909,4,2,0,75,0,0
108063,-90.9090909090909,4,2,0,5,0,0
108139,-90.9090909090909,4,2,0,75,0,0
108289,-90.9090909090909,4,2,0,5,0,0
108365,-90.9090909090909,4,2,0,75,0,0
109269,-90.9090909090909,4,2,0,5,0,0
109345,-90.9090909090909,4,2,0,75,0,0
109495,-90.9090909090909,4,2,0,5,0,0
109571,-90.9090909090909,4,2,0,75,0,0
109646,-90.9090909090909,4,2,0,5,0,0
109722,-90.9090909090909,4,2,0,75,0,0
109948,-90.9090909090909,4,2,0,5,0,0
110023,-90.9090909090909,4,2,0,75,0,0
110174,-90.9090909090909,4,2,0,5,0,0
110249,-90.9090909090909,4,2,0,75,0,0
113829,-90.9090909090909,4,2,0,5,0,0
114093,-90.9090909090909,4,2,0,75,0,0
114131,-90.9090909090909,4,2,0,5,0,0
114244,-90.9090909090909,4,2,0,70,0,0
114546,-125,4,2,0,70,0,0
114546,-125,4,2,0,60,0,0
119370,-125,4,2,0,70,0,0
119822,-90.9090909090909,4,2,0,70,0,0
120048,-90.9090909090909,4,2,0,5,0,0
120123,-90.9090909090909,4,2,0,70,0,0
120651,-90.9090909090909,4,2,0,5,0,0
120726,-90.9090909090909,4,2,0,70,0,0
122611,-90.9090909090909,4,2,0,5,0,0
122686,-90.9090909090909,4,2,0,70,0,0
123892,-90.9090909090909,4,2,0,30,0,0
124043,-200,4,2,0,40,0,0

[Colours]
Combo1 : 247,166,206
Combo2 : 242,146,117
Combo3 : 244,228,151
Combo4 : 138,226,249
Combo5 : 156,248,122

[HitObjects]
457,302,1182,6,0,P|409:296|313:229,1,150,0|0,1:0|0:0,0:0:0:0:
295,242,1584,1,2,0:0:0:0:
291,271,1684,1,2,0:0:0:0:
288,300,1785,6,0,P|246:275|184:177,1,150,0|0,1:1|0:0,0:0:0:0:
159,194,2187,1,2,0:0:0:0:
146,220,2287,1,2,0:0:0:0:
135,247,2388,6,4,P|105:208|87:93,1,150,0|0,1:1|0:0,0:0:0:0:
55,110,2790,1,2,0:0:0:0:
29,125,2890,1,2,0:0:0:0:
5,144,2991,6,0,P|-6:97|21:-15,1,150,0|0,1:1|0:0,0:0:0:0:
36,17,3393,1,2,0:0:0:0:
65,14,3493,1,2,0:0:0:0:
95,11,3594,5,0,1:0:0:0:
95,11,3895,1,2,0:0:0:0:
106,30,3970,1,2,0:0:0:0:
122,46,4046,1,2,0:0:0:0:
141,56,4121,1,2,0:0:0:0:
162,62,4197,1,2,0:0:0:0:
183,66,4272,1,0,0:0:0:0:
205,67,4347,1,0,0:0:0:0:
227,67,4423,1,0,0:0:0:0:
249,63,4498,5,0,3:3:0:0:
358,16,4649,1,4,0:0:0:0:
358,16,4950,1,0,3:3:0:0:
434,66,5101,1,0,3:0:0:0:
436,44,5176,1,0,3:0:0:0:
439,22,5251,5,0,1:0:0:0:
439,22,5553,1,0,1:0:0:0:
489,143,5855,1,0,3:0:0:0:
489,143,5930,1,0,3:0:0:0:
489,143,6006,1,4,0:1:0:0:
489,143,6609,6,0,P|450:143|295:252,1,225.000008583069,2|0,0:0|0:0,0:0:0:0:
300,241,7965,2,0,P|264:235|225:212,1,56.2500021457673,2|0,0:0|0:0,0:0:0:0:
246,227,8267,2,0,P|200:223|51:333,1,225.000008583069,2|0,0:0|0:0,0:0:0:0:
58,317,9171,2,0,P|54:271|35:244,1,56.2500021457673,2|0,0:0|0:0,0:0:0:0:
18,192,9473,6,0,P|11:141|68:25,1,168.750006437302,2|0,0:0|0:0,0:0:0:0:
122,71,10076,1,2,0:0:0:0:
230,42,10377,1,0,0:0:0:0:
340,64,10679,2,0,P|336:104|419:288,1,225.000008583069,2|0,0:0|0:0,0:0:0:0:
402,272,11734,5,0,0:0:0:0:
296,312,12036,1,2,0:0:0:0:
284,207,12337,1,0,0:0:0:0:
186,304,12639,1,2,0:0:0:0:
208,195,12940,1,0,0:0:0:0:
87,252,13242,2,0,P|53:216|36:143,1,112.500004291535,2|0,0:0|0:0,0:0:0:0:
46,83,13694,1,2,0:0:0:0:
46,83,14146,1,0,0:0:0:0:
199,173,14448,5,0,3:0:0:0:
221,98,14598,1,0,1:0:0:0:
221,98,14749,1,0,1:0:0:0:
281,290,14975,1,0,3:0:0:0:
281,290,15051,2,0,P|277:267|280:235,2,37.5,0|0|0,0:0|0:0|3:0,0:0:0:0:
293,317,15277,1,0,3:0:0:0:
315,336,15352,1,0,1:0:0:0:
428,194,15503,1,0,3:0:0:0:
428,194,15578,1,0,3:0:0:0:
428,194,15654,6,0,P|409:160|405:110,1,75,4|2,0:2|0:0,0:0:0:0:
277,252,15955,2,0,P|296:218|300:168,1,75,0|0,1:0|0:0,0:0:0:0:
314,34,16257,1,2,0:0:0:0:
403,82,16407,1,0,0:0:0:0:
212,67,16558,1,0,1:0:0:0:
300,114,16709,1,0,0:0:0:0:
106,62,16860,6,0,P|56:43|27:24,1,75,0|2,0:0|0:0,0:0:0:0:
73,171,17161,1,0,1:0:0:0:
73,171,17312,2,0,P|23:190|-6:209,1,75
182,189,17613,1,2,0:0:0:0:
261,280,17764,2,0,P|202:273|161:275,1,75,0|0,1:0|0:0,0:0:0:0:
21,306,18066,6,0,P|39:257|38:203,1,75,0|2,0:0|0:0,0:0:0:0:
105,83,18367,2,0,P|110:120|125:154,1,75,0|0,1:0|0:0,0:0:0:0:
250,237,18669,1,0,0:0:0:0:
258,73,18819,1,2,0:0:0:0:
320,130,18970,2,0,P|365:141|417:141,1,75,0|0,1:0|0:0,0:0:0:0:
250,237,19272,6,0,P|212:239|176:249,1,75,0|2,0:0|0:0,0:0:0:0:
39,132,19573,1,0,1:0:0:0:
39,132,19724,2,0,P|75:141|112:144,1,75
364,91,20025,2,0,P|327:81|290:78,1,75,2|0,0:0|1:0,0:0:0:0:
184,78,20327,1,0,0:0:0:0:
237,171,20478,5,2,0:0:0:0:
274,89,20628,1,0,0:0:0:0:
245,200,20779,1,0,1:0:0:0:
87,138,20930,1,2,0:0:0:0:
123,252,21081,1,0,0:0:0:0:
123,252,21231,1,0,0:0:0:0:
169,71,21382,1,0,1:0:0:0:
161,160,21533,2,0,P|155:112|136:75,1,75,2|0,0:0|0:0,0:0:0:0:
43,236,21834,5,0,1:0:0:0:
43,236,21985,2,0,P|81:230|174:242,1,112.5,0|0,1:0|3:0,0:0:0:0:
183,254,22287,2,0,L|247:247,3,37.5
255,339,22588,6,0,P|307:319|411:341,1,150,2|0,0:0|0:0,0:0:0:0:
398,334,23191,2,0,P|354:350|320:353,1,75
185,279,23794,6,0,P|132:259|29:280,1,150,2|0,0:0|0:0,0:0:0:0:
41,273,24397,2,0,P|84:289|118:292,1,75
279,206,25000,6,0,P|331:186|434:207,1,150,2|0,0:0|0:0,0:0:0:0:
422,200,25603,2,0,P|378:216|344:219,1,75
199,144,26206,6,0,P|146:124|43:145,1,150,2|0,0:0|0:0,0:0:0:0:
55,138,26809,2,0,P|98:154|132:157,1,75
280,95,27412,6,0,P|313:91|377:105,1,84.3750032186509,2|0,0:0|0:0,0:0:0:0:
363,99,27714,6,0,P|314:123|211:118,1,150,2|0,0:0|0:0,0:0:0:0:
311,216,28166,2,0,P|349:219|410:248,1,75,2|0,0:0|0:0,0:0:0:0:
285,207,28467,2,0,P|263:238|207:276,1,75
310,188,28769,2,0,P|293:153|297:19,1,150,2|0,0:0|0:0,0:0:0:0:
126,126,29221,6,0,P|117:163|84:210,1,75,2|0,0:0|0:0,0:0:0:0:
165,298,29523,2,0,P|174:261|207:214,1,75,2|0,0:0|0:0,0:0:0:0:
255,81,29824,2,0,P|264:118|297:165,1,75,0|0,3:0|0:0,0:0:0:0:
393,333,30126,6,0,P|384:296|351:249,1,75,0|0,1:0|0:0,0:0:0:0:
192,229,30427,2,0,P|173:261|165:298,1,75,0|0,1:0|0:0,0:0:0:0:
361,165,30729,2,0,P|352:128|319:81,1,75,0|0,1:0|0:0,0:0:0:0:
160,61,31030,2,0,P|141:93|132:129,1,75,0|0,1:0|0:0,0:0:0:0:
164,298,31332,5,0,3:0:0:0:
44,264,31482,1,0,1:0:0:0:
44,264,31633,2,0,P|25:267|6:265,3,37.5,0|0|0|0,1:0|0:0|0:0|0:0,0:0:0:0:
79,237,31935,5,2,0:0:0:0:
123,217,32010,1,2,0:0:0:0:
171,216,32085,1,2,0:0:0:0:
216,233,32161,1,2,0:0:0:0:
257,257,32236,5,0,3:0:0:0:
259,242,32311,1,0,3:0:0:0:
261,227,32387,2,0,L|267:175,1,37.5,0|0,3:0|3:0,0:0:0:0:
270,75,32538,5,4,0:2:0:0:
270,75,32688,2,0,P|310:85|367:82,1,75,2|0,0:0|1:0,0:0:0:0:
218,8,32990,1,2,0:0:0:0:
143,170,33141,5,0,0:0:0:0:
143,170,33291,2,0,P|121:205|79:243,1,75,2|0,0:0|1:0,0:0:0:0:
132,85,33593,1,0,0:0:0:0:
287,223,33744,5,0,0:0:0:0:
287,223,33894,2,0,P|326:232|384:229,1,75,2|0,0:0|1:0,0:0:0:0:
234,155,34196,1,2,0:0:0:0:
183,324,34347,5,0,0:0:0:0:
183,324,34497,1,0,0:0:0:0:
205,141,34648,1,0,1:0:0:0:
227,234,34799,1,2,0:0:0:0:
127,84,34950,5,0,0:0:0:0:
127,84,35100,2,0,P|93:97|36:93,1,75,2|0,0:0|1:0,0:0:0:0:
198,37,35402,1,0,0:0:0:0:
307,172,35553,5,0,0:0:0:0:
307,172,35703,2,0,P|328:200|377:229,1,75,2|0,0:0|1:0,0:0:0:0:
275,103,36005,1,2,0:0:0:0:
153,207,36156,5,0,0:0:0:0:
153,207,36306,2,0,P|118:212|62:198,1,75,0|0,0:0|1:0,0:0:0:0:
223,169,36608,1,2,0:0:0:0:
283,309,36759,5,0,0:0:0:0:
283,309,36909,1,2,0:0:0:0:
353,268,37060,2,0,P|391:263|447:278,1,84.3750032186509,0|0,1:2|0:0,0:0:0:0:
436,272,37362,6,0,P|389:285|281:237,1,150,2|0,0:0|1:0,0:0:0:0:
228,107,37814,2,0,P|218:144|192:182,1,75,2|0,0:0|0:0,0:0:0:0:
97,211,38115,2,0,P|134:201|179:204,1,75,2|0,0:0|1:0,0:0:0:0:
263,344,38417,2,0,P|235:316|209:200,1,150
327,32,38869,6,0,P|281:43|239:34,1,75,2|0,1:2|0:0,0:0:0:0:
155,132,39171,2,0,P|201:121|243:130,1,75,2|0,0:0|0:0,0:0:0:0:
395,206,39472,2,0,P|349:217|307:208,1,75,2|0,1:2|0:0,0:0:0:0:
134,301,39774,5,2,0:0:0:0:
158,292,39849,1,0,0:0:0:0:
183,289,39924,1,0,0:0:0:0:
209,292,40000,1,0,0:0:0:0:
232,303,40075,5,2,1:2:0:0:
271,326,40150,1,0,0:0:0:0:
316,334,40226,1,0,0:0:0:0:
361,330,40301,1,0,0:0:0:0:
401,309,40377,6,0,P|433:301|477:309,3,56.2500021457673,2|0|0|0,0:0|0:0|0:0|0:0,0:0:0:0:
361,330,40678,1,0,1:0:0:0:
431,168,40829,2,0,P|437:123|416:5,1,150,2|0,0:0|0:0,0:0:0:0:
368,236,41281,1,0,1:0:0:0:
275,127,41432,1,0,0:0:0:0:
270,136,41507,1,0,0:0:0:0:
271,149,41583,6,0,P|298:159|330:163,3,37.5,2|0|0|0,0:0|0:0|0:0|0:0,0:0:0:0:
235,256,41884,2,0,P|208:263|179:278,3,37.5,2|0|0|0,1:2|0:0|0:0|0:0,0:0:0:0:
328,334,42186,5,2,1:2:0:0:
345,340,42261,1,0,0:0:0:0:
363,338,42336,2,0,P|382:328|395:304,1,37.5
271,149,42487,5,2,1:2:0:0:
267,167,42562,1,0,0:0:0:0:
258,183,42637,2,0,P|241:198|216:206,1,37.5
117,93,42789,5,2,1:2:0:0:
109,75,42864,1,0,0:0:0:0:
108,57,42939,2,0,P|114:35|130:14,1,37.5
206,62,43090,5,0,1:0:0:0:
40,191,43241,1,4,1:2:0:0:
495,180,44145,6,2,L|511:146,10,37.5
468,193,44598,6,0,P|419:187|355:199,1,89.9999972534181,4|0,0:0|0:0,0:0:0:0:
62,116,44899,2,0,P|109:97|172:28,1,134.999995880127,0|0,1:0|0:0,0:0:0:0:
164,27,45201,2,0,P|206:35|258:31,1,89.9999972534181,0|0,3:0|0:0,0:0:0:0:
276,214,45502,1,0,1:0:0:0:
276,214,45653,2,0,P|247:165|212:134,2,89.9999972534181,2|0|0,0:0|0:0|0:0,0:0:0:0:
125,361,46105,6,0,P|135:297|175:234,1,134.999995880127,0|0,1:0|3:0,0:0:0:0:
169,227,46407,1,0,3:0:0:0:
350,301,46557,1,0,3:0:0:0:
457,241,46708,1,0,1:0:0:0:
457,241,47010,6,0,P|415:217|313:196,1,134.999995880127,2|0,3:2|0:0,0:0:0:0:
323,188,47311,1,0,0:0:0:0:
419,86,47462,2,0,P|354:87|306:101,1,89.9999972534181,0|0,1:0|0:0,0:0:0:0:
440,115,47763,2,0,P|376:102|326:106,1,89.9999972534181,0|0,1:0|0:0,0:0:0:0:
314,13,48065,6,0,P|253:36|176:94,1,134.999995880127,2|0,0:0|0:0,0:0:0:0:
185,75,48366,1,2,0:0:0:0:
234,159,48517,1,2,0:0:0:0:
180,286,48668,1,0,1:0:0:0:
180,286,48969,5,0,1:0:0:0:
271,266,49120,1,0,1:0:0:0:
271,266,49271,1,0,3:0:0:0:
268,284,49346,1,0,3:0:0:0:
265,302,49422,6,0,P|317:299|370:306,1,89.9999972534181,4|0,0:0|0:0,0:0:0:0:
196,157,49723,2,0,P|248:160|301:153,1,89.9999972534181,0|0,1:0|0:0,0:0:0:0:
350,195,49949,1,0,3:0:0:0:
350,195,50025,2,0,P|400:182|449:160,1,89.9999972534181,0|2,3:0|0:0,0:0:0:0:
482,102,50326,1,0,1:0:0:0:
388,301,50477,1,0,0:0:0:0:
388,301,50628,6,0,P|338:287|225:286,1,134.999995880127,0|0,3:3|0:0,0:0:0:0:
243,276,50929,1,0,1:0:0:0:
109,319,51080,1,0,3:0:0:0:
121,324,51155,1,0,3:0:0:0:
133,329,51231,1,2,3:2:0:0:
153,232,51381,1,0,0:0:0:0:
92,128,51532,2,0,P|148:131|216:121,1,89.9999972534181,0|0,1:0|0:0,0:0:0:0:
373,160,51834,6,0,P|308:149|186:151,1,179.999994506836,2|0,3:2|1:0,0:0:0:0:
45,43,52286,2,0,P|68:52|88:55,1,44.999998626709,0|0,3:0|3:0,0:0:0:0:
100,50,52437,2,0,P|83:100|77:168,1,89.9999972534181
74,236,52738,1,0,1:0:0:0:
243,313,52889,1,0,0:0:0:0:
76,344,53040,5,0,1:0:0:0:
163,346,53190,1,0,1:0:0:0:
3,299,53341,2,0,P|-6:275|-6:247,3,44.999998626709,2|0|0|0,1:2|0:0|0:0|0:0,0:0:0:0:
74,236,53643,2,0,P|74:210|84:184,3,44.999998626709,2|0|0|0,1:2|0:0|0:0|3:0,0:0:0:0:
150,124,53944,1,0,3:0:0:0:
171,211,54095,1,0,3:0:0:0:
176,223,54170,1,0,3:0:0:0:
182,235,54246,5,2,1:2:0:0:
206,245,54321,1,0,0:0:0:0:
232,242,54396,1,0,0:0:0:0:
253,224,54472,1,0,0:0:0:0:
257,197,54547,1,0,0:0:0:0:
250,170,54622,1,0,0:0:0:0:
235,147,54698,1,0,0:0:0:0:
227,121,54773,1,0,0:0:0:0:
235,95,54849,5,2,0:2:0:0:
264,74,54924,1,0,0:0:0:0:
299,74,54999,1,0,0:0:0:0:
329,93,55075,1,0,0:0:0:0:
343,125,55150,1,2,0:0:0:0:
349,160,55225,1,2,0:0:0:0:
376,183,55301,1,2,0:0:0:0:
411,187,55376,1,2,0:0:0:0:
444,173,55452,6,0,P|449:132|467:85,1,89.9999972534181,4|0,0:0|0:0,0:0:0:0:
299,74,55753,1,2,0:0:0:0:
270,86,55828,1,0,0:0:0:0:
238,87,55904,1,0,0:0:0:0:
209,73,55979,1,0,0:0:0:0:
182,54,56055,1,2,0:0:0:0:
150,55,56130,1,2,0:0:0:0:
127,76,56205,1,2,0:0:0:0:
121,107,56281,1,2,0:0:0:0:
135,135,56356,2,0,P|143:183|123:250,1,89.9999972534181,2|0,0:0|0:0,0:0:0:0:
20,372,56658,6,0,P|68:355|142:353,1,89.9999972534181,4|0,0:0|0:0,0:0:0:0:
335,232,56959,2,0,P|337:260|346:284,1,44.999998626709,2|0,0:0|0:0,0:0:0:0:
361,354,57110,1,0,0:0:0:0:
330,347,57185,1,0,0:0:0:0:
298,353,57261,1,2,0:0:0:0:
267,359,57336,1,2,0:0:0:0:
236,352,57411,1,2,0:0:0:0:
214,328,57487,1,2,0:0:0:0:
218,296,57562,1,0,0:0:0:0:
335,232,57713,1,2,0:0:0:0:
335,232,57864,6,0,P|321:186|293:143,1,89.9999972534181,4|0,0:0|0:0,0:0:0:0:
287,136,58090,1,0,0:0:0:0:
274,123,58165,1,0,0:0:0:0:
305,16,58316,1,2,0:0:0:0:
189,45,58467,1,2,0:0:0:0:
160,57,58542,1,2,0:0:0:0:
129,62,58617,1,2,0:0:0:0:
97,61,58693,1,2,0:0:0:0:
67,50,58768,5,2,0:0:0:0:
38,147,58919,1,0,0:3:0:0:
72,237,59070,2,0,P|72:293|58:356,2,112.500004291535,4|0|2,0:0|3:0|3:2,0:0:0:0:
38,147,59823,1,0,0:0:0:0:
189,227,59974,1,0,3:0:0:0:
133,156,60125,1,0,0:0:0:0:
237,150,60276,6,0,P|278:142|357:108,1,112.500004291535,2|0,3:2|0:0,0:0:0:0:
344,116,60728,2,0,P|330:84|326:46,2,56.2500021457673,2|0|0,0:0|3:0|0:0,0:0:0:0:
408,228,61180,2,0,P|394:269|374:299,1,56.2500021457673,2|0,0:0|0:0,0:0:0:0:
269,334,61482,5,2,0:0:0:0:
246,312,61557,1,2,0:0:0:0:
215,305,61632,1,2,0:0:0:0:
183,307,61708,1,2,0:0:0:0:
155,319,61783,1,2,0:0:0:0:
126,330,61858,1,2,0:0:0:0:
94,330,61934,1,2,0:0:0:0:
65,318,62009,1,2,0:0:0:0:
44,294,62085,5,0,0:0:0:0:
44,263,62160,1,0,0:0:0:0:
61,237,62235,1,0,0:0:0:0:
89,225,62311,1,0,0:0:0:0:
119,229,62386,1,0,0:0:0:0:
145,213,62461,1,0,0:0:0:0:
157,184,62537,1,0,0:0:0:0:
153,153,62612,1,0,0:0:0:0:
128,134,62688,5,2,1:2:0:0:
386,161,62838,1,2,1:2:0:0:
267,120,62989,1,2,1:2:0:0:
460,254,63140,1,2,1:2:0:0:
460,254,63894,6,0,P|464:220|462:187,2,56.2500021457673,2|0|0,0:0|0:0|0:0,0:0:0:0:
422,323,64346,1,2,0:0:0:0:
346,344,64647,1,0,0:0:0:0:
269,326,64949,1,2,0:2:0:0:
269,326,65552,6,0,P|277:287|274:232,1,84.3750032186509,2|0,0:0|0:0,0:0:0:0:
280,229,65853,2,0,P|248:235|215:235,2,56.2500021457673,2|0|0,0:0|0:0|0:0,0:0:0:0:
357,196,66456,2,0,P|389:202|422:202,2,56.2500021457673,2|0|0,0:0|0:0|0:0,0:0:0:0:
286,149,67059,2,0,P|285:120|278:84,2,56.2500021457673
127,210,67964,6,0,P|126:171|138:113,1,84.3750032186509,2|0,0:0|0:0,0:0:0:0:
124,115,68265,2,0,P|119:83|105:45,2,56.2500021457673,2|0|0,0:0|0:0|0:0,0:0:0:0:
51,153,68868,2,0,P|42:179|38:207,2,56.2500021457673,0|0|2,0:0|0:0|0:0,0:0:0:0:
124,115,69471,1,0,0:0:0:0:
202,123,69773,1,2,0:0:0:0:
360,258,70376,6,0,P|393:259|464:246,1,84.3750032186509,2|0,0:0|0:0,0:0:0:0:
453,261,70677,2,0,P|455:297|468:331,2,56.2500021457673,2|0|0,0:0|0:0|0:0,0:0:0:0:
477,181,71280,2,0,P|484:153|484:125,2,56.2500021457673,2|0|0,0:0|0:0|0:0,0:0:0:0:
395,200,71883,2,0,P|351:190|330:189,2,56.2500021457673
275,72,72788,6,0,P|249:83|150:96,1,112.500004291535
156,106,73165,1,0,3:0:0:0:
145,115,73240,2,0,L|98:118,3,28.1250010728836,0|0|0|0,3:0|3:0|0:0|0:0,0:0:0:0:
197,172,73542,6,0,P|238:198|305:300,1,165.000005035401,4|0,0:0|0:0,0:0:0:0:
299,325,73918,1,0,3:0:0:0:
315,354,73994,1,0,3:0:0:0:
347,360,74069,1,0,0:0:0:0:
379,352,74145,2,0,P|398:313|401:256,1,82.5000025177003,2|0,0:0|0:0,0:0:0:0:
393,161,74446,1,0,0:0:0:0:
393,161,74597,6,0,L|385:127,1,20.6250006294251,2|0,0:0|0:0,0:0:0:0:
284,201,74898,6,0,L|288:163,1,20.6250006294251,2|0,0:0|0:0,0:0:0:0:
178,152,75200,5,2,0:0:0:0:
178,152,75351,2,0,P|194:111|200:66,1,82.5000025177003
55,29,75652,1,2,0:0:0:0:
55,29,75954,6,0,P|57:60|66:93,1,55.0000016784668,2|0,0:0|0:0,0:0:0:0:
140,126,76155,2,0,P|112:112|79:103,1,55.0000016784668
5,154,76356,2,0,P|30:136|54:112,1,55.0000016784668
218,72,76557,6,0,P|210:46|198:17,2,55.0000016784668,2|0|0,0:0|0:0|0:0,0:0:0:0:
229,126,76858,1,0,0:0:0:0:
257,173,76959,2,0,P|276:200|307:225,1,55.0000016784668
424,260,77160,5,2,0:0:0:0:
369,257,77260,1,0,0:0:0:0:
316,274,77361,1,0,0:0:0:0:
279,314,77461,5,2,0:0:0:0:
243,328,77562,1,0,0:0:0:0:
204,324,77662,1,0,0:0:0:0:
173,299,77763,6,0,P|179:241|168:187,1,110.000003356934,2|0,0:0|0:0,0:0:0:0:
179,157,78064,1,2,0:0:0:0:
206,160,78165,1,2,0:0:0:0:
233,164,78265,1,2,0:0:0:0:
260,168,78366,6,0,P|272:109|264:56,1,82.5000025177003,4|0,0:0|0:0,0:0:0:0:
389,197,78667,2,0,P|389:244|416:325,1,123.75000377655,0|0,1:0|0:0,0:0:0:0:
410,329,78969,1,0,3:0:0:0:
264,283,79119,1,2,0:0:0:0:
168,327,79270,1,0,1:0:0:0:
168,327,79421,6,0,P|175:278|172:231,2,82.5000025177003,0|0|2,0:0|0:0|0:0,0:0:0:0:
24,155,79873,1,0,1:0:0:0:
57,275,80024,2,0,P|72:264|101:252,1,41.2500012588501,0|0,3:0|3:0,0:0:0:0:
91,237,80175,2,0,P|95:193|121:132,1,82.5000025177003,2|0,0:0|0:0,0:0:0:0:
195,29,80476,1,0,1:2:0:0:
195,29,80778,5,2,0:0:0:0:
218,141,80928,1,0,0:0:0:0:
77,52,81079,1,2,1:2:0:0:
116,164,81230,1,0,0:0:0:0:
203,25,81381,5,2,0:0:0:0:
261,93,81531,1,0,0:0:0:0:
351,52,81682,1,2,1:2:0:0:
409,120,81832,1,0,0:0:0:0:
252,109,81984,5,0,1:2:0:0:
250,116,82134,1,0,1:2:0:0:
171,194,82285,2,0,P|150:197|111:193,3,41.2500012588501,2|0|0|0,1:2|0:0|0:0|0:0,0:0:0:0:
125,69,82587,2,0,P|107:58|79:31,3,41.2500012588501,2|0|0|0,1:2|0:0|0:0|0:0,0:0:0:0:
252,109,82888,5,2,0:0:0:0:
269,106,82963,1,2,0:0:0:0:
286,103,83039,1,2,0:0:0:0:
267,302,94044,5,0,0:0:0:0:
264,290,94647,1,0,0:0:0:0:
262,278,95250,6,0,P|239:274|202:280,14,41.2500012588501,2|0|0|0|0|0|0|0|0|0|0|0|0|0|0,0:0|0:0|0:0|0:0|0:0|0:0|0:0|0:0|0:0|0:0|0:0|0:0|0:0|0:0|0:0,0:0:0:0:
361,233,96456,5,0,0:0:0:0:
361,233,96757,2,0,L|403:240,3,28.1250010728836,2|0|0|0,0:0|0:0|0:0|0:0,0:0:0:0:
401,169,97059,2,0,L|441:175,3,28.1250010728836,2|0|0|0,0:0|0:0|0:0|0:0,0:0:0:0:
445,104,97360,1,0,0:0:0:0:
292,32,97662,6,0,P|252:52|180:64,1,112.500004291535,2|0,0:0|0:0,0:0:0:0:
90,58,98114,2,0,P|67:51|49:41,5,28.1250010728836
102,83,98566,2,0,P|107:126|94:162,1,56.2500021457673
148,252,98868,6,0,P|152:206|163:179,1,56.2500021457673,2|0,0:0|0:0,0:0:0:0:
215,154,99094,1,0,0:0:0:0:
222,161,99169,2,0,P|247:163|275:157,3,28.1250010728836
298,230,99471,2,0,P|318:216|339:193,3,41.2500012588501,2|0|0|0,0:0|0:0|0:0|0:0,0:0:0:0:
416,221,99772,1,2,0:0:0:0:
507,277,99923,1,0,0:0:0:0:
416,221,100074,6,0,P|426:170|453:133,1,82.5000025177003,0|0,1:0|0:0,0:0:0:0:
489,299,100375,2,0,P|479:350|452:387,1,82.5000025177003,0|0,1:0|0:0,0:0:0:0:
416,221,100677,1,0,1:0:0:0:
377,297,100827,1,2,0:0:0:0:
366,118,100978,1,0,1:0:0:0:
295,208,101128,1,0,0:0:0:0:
301,51,101280,6,0,P|260:41|167:50,1,123.75000377655,0|0,1:0|0:0,0:0:0:0:
159,35,101581,1,0,1:0:0:0:
3,196,101732,2,0,P|44:206|170:196,1,165.000005035401,2|0,0:0|0:0,0:0:0:0:
320,41,102184,1,0,1:0:0:0:
393,123,102335,1,0,0:0:0:0:
222,128,102486,5,2,0:0:0:0:
217,97,102561,1,2,0:0:0:0:
229,66,102636,1,2,0:0:0:0:
230,32,102712,1,2,0:0:0:0:
206,8,102787,1,2,0:0:0:0:
173,6,102862,1,2,0:0:0:0:
147,26,102938,1,2,0:0:0:0:
144,58,103013,1,2,0:0:0:0:
155,89,103089,5,0,0:0:0:0:
150,121,103164,1,0,0:0:0:0:
124,141,103239,1,0,0:0:0:0:
90,139,103315,1,0,0:0:0:0:
61,119,103390,1,0,0:0:0:0:
28,122,103465,1,0,0:0:0:0:
10,150,103541,1,0,0:0:0:0:
11,182,103616,1,0,0:0:0:0:
33,206,103692,5,2,1:2:0:0:
271,269,103842,1,2,1:2:0:0:
139,272,103993,1,2,1:2:0:0:
383,212,104144,1,2,1:2:0:0:
383,212,104445,6,2,L|422:211,10,20.6250006294251
355,231,104898,6,0,P|318:257|286:301,1,82.5000025177003,0|0,1:0|0:0,0:0:0:0:
229,142,105199,1,0,1:0:0:0:
233,126,105274,1,2,0:0:0:0:
237,109,105350,1,2,0:0:0:0:
151,190,105501,1,0,1:0:0:0:
261,274,105651,1,0,0:0:0:0:
161,372,105802,1,0,1:0:0:0:
161,372,105953,6,0,P|161:312|129:207,1,165.000005035401,2|0,0:0|0:0,0:0:0:0:
48,39,106405,2,0,P|90:80|164:108,1,123.75000377655,0|0,1:0|3:0,0:0:0:0:
160,118,106707,1,0,1:0:0:0:
298,0,106857,1,0,0:0:0:0:
351,136,107008,1,0,1:0:0:0:
263,103,107159,1,2,0:0:0:0:
177,192,107310,6,0,P|223:189|310:210,1,123.75000377655,0|0,1:0|3:0,0:0:0:0:
352,253,107611,1,0,1:0:0:0:
352,253,107686,2,0,P|402:259|420:253,2,41.2500012588501,0|0|0,3:0|0:0|0:0,0:0:0:0:
298,205,107913,6,0,P|293:154|297:94,1,82.5000025177003,2|0,1:2|0:0,0:0:0:0:
274,25,108139,2,0,P|274:66|269:107,1,82.5000025177003,2|0,0:0|0:0,0:0:0:0:
188,113,108365,1,2,0:0:0:0:
188,113,108516,6,0,P|131:100|-2:103,1,165.000005035401,0|0,1:0|1:0,0:0:0:0:
39,205,108968,1,2,0:0:0:0:
47,213,109043,1,2,0:0:0:0:
56,221,109119,2,0,P|114:232|173:230,1,82.5000025177003,0|0,1:0|0:0,0:0:0:0:
200,275,109345,2,0,P|257:262|311:237,1,82.5000025177003,2|0,0:0|0:0,0:0:0:0:
345,284,109571,2,0,P|377:258|390:237,1,41.2500012588501,2|0,0:0|0:0,0:0:0:0:
455,252,109722,6,0,P|472:202|472:94,1,123.75000377655,0|0,1:0|0:0,0:0:0:0:
469,123,110023,2,0,P|454:74|461:14,1,82.5000025177003,0|0,1:0|0:0,0:0:0:0:
379,25,110249,1,0,3:0:0:0:
374,38,110325,2,0,P|389:87|382:147,1,82.5000025177003,0|2,1:0|0:0,0:0:0:0:
279,253,110626,1,0,1:0:0:0:
143,188,110777,1,0,0:0:0:0:
185,268,110928,5,0,1:0:0:0:
39,146,111078,2,0,L|11:132,2,27.5000008392334,2|0|0,0:0|0:0|0:0,0:0:0:0:
48,157,111229,2,0,P|47:114|60:58,1,82.5000025177003,0|0,1:0|0:0,0:0:0:0:
61,65,111455,1,0,3:0:0:0:
69,55,111531,1,0,3:0:0:0:
238,206,111681,2,0,P|245:158|250:12,1,165.000005035401,2|2,0:0|0:0,0:0:0:0:
272,55,112058,1,0,3:0:0:0:
292,64,112134,6,0,P|340:71|394:69,1,82.5000025177003,0|0,1:0|0:0,0:0:0:0:
359,325,112435,2,0,P|343:261|347:193,1,123.75000377655,0|0,1:0|3:0,0:0:0:0:
354,195,112737,1,2,1:2:0:0:
268,237,112887,1,0,0:0:0:0:
124,208,113038,1,0,1:0:0:0:
260,226,113189,6,0,P|262:180|258:159,2,41.2500012588501,2|0|0,0:0|0:0|1:0,0:0:0:0:
142,114,113490,1,2,0:0:0:0:
258,21,113641,1,0,0:0:0:0:
284,158,113792,6,0,L|307:161,1,20.6250006294251,2|0,0:0|0:0,0:0:0:0:
363,264,114093,6,0,L|340:267,1,20.6250006294251,2|0,0:0|0:0,0:0:0:0:
259,339,114244,2,0,P|226:334|167:333,1,82.5000025177003,0|0,1:0|0:0,0:0:0:0:
165,336,114470,1,0,3:0:0:0:
154,342,114546,6,0,P|148:291|125:248,1,80,4|0,1:2|0:0,0:0:0:0:
97,201,114847,2,0,P|74:198|39:202,2,40,0|0|0,3:0|3:0|3:0,3:0:0:0:
172,194,115149,2,0,P|206:163|254:80,1,120,0|0,1:0|3:0,0:0:0:0:
298,43,115551,2,0,P|321:32|352:32,1,40,0|0,3:0|3:0,3:0:0:0:
413,47,115752,6,0,P|450:77|488:166,1,120,0|0,1:0|3:0,0:0:0:0:
464,201,116154,1,0,3:0:0:0:
430,254,116254,1,0,3:0:0:0:
420,317,116355,2,0,P|428:337|453:363,2,40,0|0|0,1:2|3:0|3:0,0:0:0:0:
304,239,116656,2,0,P|295:218|270:192,2,40,2|0|0,3:2|3:0|3:0,0:0:0:0:
280,298,116958,6,0,P|226:296|140:324,1,120,0|0,1:0|3:0,0:0:0:0:
101,333,117360,1,0,3:0:0:0:
40,312,117460,1,0,3:0:0:0:
25,249,117561,2,0,P|33:222|33:189,1,40,2|0,1:2|0:0,0:0:0:0:
111,193,117762,2,0,P|103:163|73:114,1,80,0|0,3:2|3:0,0:0:0:0:
153,119,118063,1,0,3:0:0:0:
212,153,118164,6,0,P|253:157|353:143,1,120,0|0,1:0|3:0,0:0:0:0:
438,93,118616,1,2,0:0:0:0:
432,207,118767,1,0,0:0:0:0:
331,275,118917,2,0,L|308:256,1,30,2|0,0:0|0:0,0:0:0:0:
331,149,119068,2,0,L|358:138,1,30,2|0,0:0|0:0,0:0:0:0:
432,207,119219,2,0,L|427:236,1,30,2|0,0:0|0:0,0:0:0:0:
224,189,119370,5,0,1:0:0:0:
100,323,119520,1,2,0:0:0:0:
140,117,119671,1,2,0:0:0:0:
210,286,119822,2,0,B|251:275|298:272|348:282,1,123.75000377655,4|0,1:2|0:0,0:0:0:0:
344,291,120123,5,0,0:0:0:0:
495,199,120274,1,2,0:0:0:0:
459,285,120425,2,0,P|459:231|429:148,1,123.75000377655,4|0,1:2|0:0,0:0:0:0:
445,150,120726,5,0,0:0:0:0:
355,182,120877,1,2,0:0:0:0:
461,35,121028,1,4,1:2:0:0:
115,125,121329,1,2,0:0:0:0:
115,125,121480,2,0,P|167:116|207:96,1,82.5000025177003,0|0,1:0|0:0,0:0:0:0:
109,253,121782,6,0,P|55:243|6:244,2,82.5000025177003,0|0|0,1:0|0:0|1:0,0:0:0:0:
229,343,122234,1,2,0:0:0:0:
245,348,122309,1,2,0:0:0:0:
261,351,122385,2,0,P|282:313|294:199,1,123.75000377655,0|0,1:0|0:0,0:0:0:0:
286,222,122686,5,0,3:0:0:0:
462,342,122837,1,4,1:2:0:0:
256,192,122912,12,0,123892,0:0:0:0:
194,237,124043,6,0,P|189:218|189:188,2,37.5,4|0|0,0:0|0:0|0:0,0:0:0:0:
239,296,124495,2,0,P|259:305|283:308,1,37.5,2|0,0:0|0:0,0:0:0:0:
354,308,124797,1,0,0:0:0:0:
354,308,124947,2,0,P|375:302|395:288,2,37.5,2|0|0,0:0|0:0|0:0,0:0:0:0:
274,307,125400,6,0,P|254:308|229:314,1,37.5,2|0,0:0|0:0,0:0:0:0:
170,350,125701,1,0,0:0:0:0:
170,350,125852,2,0,P|150:349|125:343,1,37.5,2|0,0:0|0:0,0:0:0:0:
68,306,126153,1,0,0:0:0:0:
68,306,126304,2,0,P|49:314|28:328,1,37.5,2|0,0:0|0:0,0:0:0:0:
137,270,126606,6,0,P|143:250|144:217,2,37.5,2|0|0,0:0|0:0|0:0,0:0:0:0:
66,230,127058,1,0,0:0:0:0:
66,230,127209,2,0,P|60:210|59:177,1,37.5,2|0,0:0|0:0,0:0:0:0:
122,115,127510,1,0,0:0:0:0:
122,115,127661,2,0,P|128:135|129:168,1,37.5,2|0,0:0|0:0,0:0:0:0:
163,222,127962,5,0,0:0:0:0:
163,222,128113,2,0,P|179:235|200:244,1,37.5,2|0,0:0|0:0,0:0:0:0:
272,254,128415,2,0,P|292:251|313:242,1,37.5,2|0,0:0|0:0,0:0:0:0:
372,200,128716,1,0,0:0:0:0:
397,132,128867,1,2,0:0:0:0:
