osu file format v14

[General]
AudioFilename: audio.mp3
AudioLeadIn: 0
PreviewTime: 11498
Countdown: 0
SampleSet: Soft
StackLeniency: 0.7
Mode: 3
LetterboxInBreaks: 0
SpecialStyle: 0
WidescreenStoryboard: 1

[Editor]
DistanceSpacing: 0.6
BeatDivisor: 4
GridSize: 32
TimelineZoom: 1

[Metadata]
Title:carnation
TitleUnicode:carnation
Artist:AAAA
ArtistUnicode:ああああ
Creator:richardfeder
Version:Emiria's 4K Normal
Source:BMS衆議院選
Tags:[Emiria] victorica_db electronic dirge セーブデータとほうき星 Savedata to Houkiboshi stardusts in my memorycard bms_shuinsen piano classical instrumental rhythm vgm featured artist fa
BeatmapID:3205074
BeatmapSetID:1563407

[Difficulty]
HPDrainRate:7
CircleSize:4
OverallDifficulty:7
ApproachRate:5
SliderMultiplier:1.4
SliderTickRate:1

[Events]
//Background and Video events
0,0,"bg.jpg",0,0
//Break Periods
2,133292,136955
//Storyboard Layer 0 (Background)
//Storyboard Layer 1 (Fail)
//Storyboard Layer 2 (Pass)
//Storyboard Layer 3 (Foreground)
//Storyboard Layer 4 (Overlay)
//Storyboard Sound Samples

[TimingPoints]
155,375,4,2,1,25,1,0
40655,-100,4,2,1,25,0,1
46655,-100,4,2,1,25,0,0
58655,-100,4,2,1,25,0,1
69155,-100,4,2,1,25,0,0
115655,-100,4,2,1,25,0,1
126155,-100,4,2,1,25,0,0

[HitObjects]
192,192,155,5,0,0:0:0:0:
64,192,905,1,0,0:0:0:0:
192,192,1280,1,0,0:0:0:0:
320,192,1655,1,0,0:0:0:0:
192,192,2030,1,0,0:0:0:0:
192,192,2405,1,0,0:0:0:0:
320,192,2780,1,0,0:0:0:0:
64,192,3155,1,0,0:0:0:0:
192,192,3905,1,0,0:0:0:0:
448,192,4280,1,0,0:0:0:0:
448,192,4655,1,0,0:0:0:0:
64,192,5030,1,0,0:0:0:0:
320,192,5217,1,0,0:0:0:0:
320,192,5405,1,0,0:0:0:0:
320,192,6155,1,0,0:0:0:0:
448,192,6905,1,0,0:0:0:0:
192,192,7280,1,0,0:0:0:0:
64,192,7655,1,0,0:0:0:0:
192,192,8030,1,0,0:0:0:0:
320,192,8405,1,0,0:0:0:0:
192,192,8780,1,0,0:0:0:0:
320,192,9155,1,0,0:0:0:0:
64,192,9155,1,0,0:0:0:0:
64,192,9905,1,0,0:0:0:0:
192,192,10280,1,0,0:0:0:0:
320,192,10655,1,0,0:0:0:0:
64,192,11405,1,0,0:0:0:0:
320,192,11780,1,0,0:0:0:0:
64,192,12155,1,0,0:0:0:0:
64,192,12905,1,0,0:0:0:0:
320,192,13280,1,0,0:0:0:0:
64,192,13655,1,0,0:0:0:0:
448,192,13842,1,0,0:0:0:0:
64,192,14030,1,0,0:0:0:0:
320,192,14217,1,0,0:0:0:0:
192,192,14405,1,0,0:0:0:0:
64,192,14686,1,0,0:0:0:0:
320,192,14780,1,0,0:0:0:0:
192,192,15155,1,0,0:0:0:0:
64,192,15530,1,0,0:0:0:0:
448,192,15905,1,0,0:0:0:0:
192,192,16280,1,0,0:0:0:0:
64,192,16655,1,0,0:0:0:0:
448,192,16842,1,0,0:0:0:0:
64,192,17030,1,0,0:0:0:0:
448,192,17217,1,0,0:0:0:0:
64,192,17405,1,0,0:0:0:0:
192,192,17686,1,0,0:0:0:0:
448,192,17780,1,0,0:0:0:0:
64,192,18155,1,0,0:0:0:0:
192,192,18436,1,0,0:0:0:0:
448,192,18530,1,0,0:0:0:0:
320,192,18717,1,0,0:0:0:0:
64,192,18905,1,0,0:0:0:0:
192,192,19280,1,0,0:0:0:0:
320,192,19655,1,0,0:0:0:0:
192,192,19842,1,0,0:0:0:0:
64,192,20030,1,0,0:0:0:0:
448,192,20217,1,0,0:0:0:0:
320,192,20405,1,0,0:0:0:0:
64,192,20780,1,0,0:0:0:0:
192,192,21155,1,0,0:0:0:0:
320,192,21530,1,0,0:0:0:0:
448,192,21905,1,0,0:0:0:0:
192,192,22092,1,0,0:0:0:0:
320,192,22280,1,0,0:0:0:0:
64,192,22467,1,0,0:0:0:0:
448,192,22655,1,0,0:0:0:0:
448,192,22842,1,0,0:0:0:0:
320,192,23030,1,0,0:0:0:0:
64,192,23217,1,0,0:0:0:0:
448,192,23405,1,0,0:0:0:0:
448,192,23592,1,0,0:0:0:0:
320,192,23780,1,0,0:0:0:0:
192,192,23967,1,0,0:0:0:0:
64,192,24155,1,0,0:0:0:0:
448,192,24155,1,0,0:0:0:0:
448,192,24905,1,0,0:0:0:0:
64,192,29780,1,0,0:0:0:0:
192,192,29967,1,0,0:0:0:0:
320,192,30155,1,0,0:0:0:0:
192,192,30530,1,0,0:0:0:0:
448,192,30905,1,0,0:0:0:0:
320,192,31280,1,0,0:0:0:0:
192,192,31655,1,0,0:0:0:0:
64,192,32405,1,0,0:0:0:0:
448,192,32780,1,0,0:0:0:0:
192,192,32967,1,0,0:0:0:0:
320,192,33155,1,0,0:0:0:0:
192,192,33530,1,0,0:0:0:0:
320,192,33905,1,0,0:0:0:0:
64,192,34280,1,0,0:0:0:0:
320,192,34655,1,0,0:0:0:0:
320,192,35217,1,0,0:0:0:0:
192,192,35405,1,0,0:0:0:0:
64,192,35780,1,0,0:0:0:0:
448,192,36155,1,0,0:0:0:0:
320,192,36530,1,0,0:0:0:0:
192,192,36905,1,0,0:0:0:0:
448,192,37280,1,0,0:0:0:0:
64,192,37655,1,0,0:0:0:0:
192,192,38030,1,0,0:0:0:0:
448,192,38217,1,0,0:0:0:0:
320,192,38405,1,0,0:0:0:0:
192,192,38592,1,0,0:0:0:0:
64,192,38780,1,0,0:0:0:0:
192,192,38967,1,0,0:0:0:0:
320,192,39155,1,0,0:0:0:0:
448,192,39530,1,0,0:0:0:0:
64,192,39905,1,0,0:0:0:0:
64,192,40280,1,0,0:0:0:0:
448,192,40280,1,0,0:0:0:0:
448,192,40655,1,0,0:0:0:0:
192,192,40842,1,0,0:0:0:0:
448,192,41030,1,0,0:0:0:0:
192,192,41217,1,0,0:0:0:0:
64,192,41405,1,0,0:0:0:0:
320,192,41592,1,0,0:0:0:0:
64,192,41780,1,0,0:0:0:0:
320,192,41967,1,0,0:0:0:0:
192,192,42155,1,0,0:0:0:0:
448,192,42342,1,0,0:0:0:0:
192,192,42530,1,0,0:0:0:0:
448,192,42717,1,0,0:0:0:0:
192,192,42905,1,0,0:0:0:0:
448,192,43092,1,0,0:0:0:0:
320,192,43280,1,0,0:0:0:0:
192,192,43467,1,0,0:0:0:0:
64,192,43655,1,0,0:0:0:0:
320,192,43842,1,0,0:0:0:0:
64,192,44030,1,0,0:0:0:0:
320,192,44217,1,0,0:0:0:0:
192,192,44405,1,0,0:0:0:0:
448,192,44592,1,0,0:0:0:0:
192,192,44780,1,0,0:0:0:0:
448,192,44967,1,0,0:0:0:0:
64,192,45155,1,0,0:0:0:0:
320,192,45342,1,0,0:0:0:0:
64,192,45530,1,0,0:0:0:0:
320,192,45717,1,0,0:0:0:0:
64,192,45905,1,0,0:0:0:0:
320,192,46092,1,0,0:0:0:0:
64,192,46280,1,0,0:0:0:0:
192,192,46655,1,0,0:0:0:0:
320,192,47030,1,0,0:0:0:0:
192,192,47405,1,0,0:0:0:0:
320,192,47780,1,0,0:0:0:0:
448,192,48155,1,0,0:0:0:0:
64,192,48905,1,0,0:0:0:0:
448,192,49280,1,0,0:0:0:0:
320,192,49467,1,0,0:0:0:0:
192,192,49655,1,0,0:0:0:0:
64,192,50030,1,0,0:0:0:0:
448,192,50030,1,0,0:0:0:0:
192,192,50405,1,0,0:0:0:0:
320,192,50780,1,0,0:0:0:0:
448,192,51155,1,0,0:0:0:0:
192,192,51155,1,0,0:0:0:0:
64,192,51530,1,0,0:0:0:0:
192,192,51717,1,0,0:0:0:0:
320,192,51905,1,0,0:0:0:0:
64,192,52655,1,0,0:0:0:0:
448,192,52655,1,0,0:0:0:0:
320,192,53030,1,0,0:0:0:0:
192,192,53405,1,0,0:0:0:0:
64,192,53780,1,0,0:0:0:0:
320,192,54155,1,0,0:0:0:0:
192,192,54530,1,0,0:0:0:0:
320,192,54717,1,0,0:0:0:0:
64,192,54905,1,0,0:0:0:0:
320,192,55092,1,0,0:0:0:0:
192,192,55280,1,0,0:0:0:0:
448,192,55467,1,0,0:0:0:0:
320,192,55655,1,0,0:0:0:0:
448,192,56030,1,0,0:0:0:0:
64,192,56405,1,0,0:0:0:0:
192,192,56780,1,0,0:0:0:0:
320,192,57155,1,0,0:0:0:0:
448,192,57717,1,0,0:0:0:0:
64,192,57905,1,0,0:0:0:0:
192,192,58092,1,0,0:0:0:0:
320,192,58280,1,0,0:0:0:0:
448,192,58467,1,0,0:0:0:0:
64,192,58655,1,0,0:0:0:0:
192,192,58936,1,0,0:0:0:0:
448,192,59030,1,0,0:0:0:0:
320,192,59780,1,0,0:0:0:0:
192,192,59967,1,0,0:0:0:0:
64,192,60155,1,0,0:0:0:0:
192,192,60436,1,0,0:0:0:0:
448,192,60530,1,0,0:0:0:0:
320,192,61280,1,0,0:0:0:0:
192,192,61467,1,0,0:0:0:0:
64,192,61655,1,0,0:0:0:0:
192,192,61936,1,0,0:0:0:0:
448,192,62030,1,0,0:0:0:0:
64,192,62217,1,0,0:0:0:0:
320,192,62405,1,0,0:0:0:0:
320,192,62780,1,0,0:0:0:0:
192,192,62967,1,0,0:0:0:0:
64,192,63155,1,0,0:0:0:0:
64,192,63530,1,0,0:0:0:0:
448,192,63717,1,0,0:0:0:0:
448,192,63905,1,0,0:0:0:0:
320,192,64092,1,0,0:0:0:0:
192,192,64280,1,0,0:0:0:0:
64,192,64467,1,0,0:0:0:0:
192,192,64655,1,0,0:0:0:0:
64,192,64936,1,0,0:0:0:0:
448,192,65030,1,0,0:0:0:0:
64,192,65967,1,0,0:0:0:0:
448,192,66061,1,0,0:0:0:0:
64,192,66155,1,0,0:0:0:0:
192,192,66436,1,0,0:0:0:0:
448,192,66530,1,0,0:0:0:0:
64,192,67280,1,0,0:0:0:0:
192,192,67467,1,0,0:0:0:0:
320,192,67655,1,0,0:0:0:0:
64,192,67936,1,0,0:0:0:0:
448,192,68030,1,0,0:0:0:0:
320,192,68217,1,0,0:0:0:0:
192,192,68405,1,0,0:0:0:0:
64,192,68780,1,0,0:0:0:0:
192,192,68967,1,0,0:0:0:0:
320,192,69155,1,0,0:0:0:0:
192,192,69530,1,0,0:0:0:0:
448,192,69905,1,0,0:0:0:0:
192,192,70280,1,0,0:0:0:0:
448,192,70655,1,0,0:0:0:0:
64,192,71030,1,0,0:0:0:0:
320,192,71405,1,0,0:0:0:0:
192,192,71780,1,0,0:0:0:0:
192,192,72155,1,0,0:0:0:0:
448,192,72530,1,0,0:0:0:0:
192,192,72905,1,0,0:0:0:0:
64,192,73280,1,0,0:0:0:0:
448,192,73655,1,0,0:0:0:0:
64,192,74030,1,0,0:0:0:0:
320,192,74405,1,0,0:0:0:0:
64,192,74780,1,0,0:0:0:0:
192,192,75155,128,0,75342:0:0:0:0:
320,192,75905,128,0,76092:0:0:0:0:
64,192,79655,1,0,0:0:0:0:
192,192,80030,1,0,0:0:0:0:
448,192,80405,1,0,0:0:0:0:
320,192,80780,1,0,0:0:0:0:
192,192,81155,1,0,0:0:0:0:
320,192,81530,1,0,0:0:0:0:
192,192,81905,1,0,0:0:0:0:
320,192,82280,1,0,0:0:0:0:
448,192,82655,1,0,0:0:0:0:
64,192,83030,1,0,0:0:0:0:
320,192,83405,1,0,0:0:0:0:
192,192,83780,1,0,0:0:0:0:
320,192,84155,1,0,0:0:0:0:
64,192,84530,1,0,0:0:0:0:
320,192,84717,1,0,0:0:0:0:
320,192,84905,1,0,0:0:0:0:
64,192,85280,1,0,0:0:0:0:
448,192,85655,1,0,0:0:0:0:
448,192,86405,1,0,0:0:0:0:
192,192,86780,1,0,0:0:0:0:
320,192,87155,1,0,0:0:0:0:
64,192,87530,1,0,0:0:0:0:
192,192,87905,1,0,0:0:0:0:
320,192,88280,1,0,0:0:0:0:
448,192,88655,1,0,0:0:0:0:
320,192,89030,1,0,0:0:0:0:
192,192,89405,1,0,0:0:0:0:
64,192,89780,1,0,0:0:0:0:
320,192,90155,1,0,0:0:0:0:
64,192,90905,1,0,0:0:0:0:
192,192,91655,1,0,0:0:0:0:
192,192,92405,1,0,0:0:0:0:
320,192,92655,1,0,0:0:0:0:
448,192,92905,1,0,0:0:0:0:
64,192,93155,1,0,0:0:0:0:
320,192,93905,1,0,0:0:0:0:
64,192,94655,1,0,0:0:0:0:
320,192,95405,1,0,0:0:0:0:
192,192,96155,1,0,0:0:0:0:
64,192,96905,1,0,0:0:0:0:
192,192,97155,1,0,0:0:0:0:
320,192,97405,1,0,0:0:0:0:
448,192,97655,1,0,0:0:0:0:
64,192,97655,1,0,0:0:0:0:
64,192,98405,1,0,0:0:0:0:
192,192,98655,1,0,0:0:0:0:
320,192,98905,1,0,0:0:0:0:
448,192,99155,1,0,0:0:0:0:
192,192,99530,1,0,0:0:0:0:
448,192,99905,1,0,0:0:0:0:
64,192,100280,1,0,0:0:0:0:
448,192,100655,128,0,101030:0:0:0:0:
320,192,101030,128,0,101405:0:0:0:0:
192,192,101405,128,0,101780:0:0:0:0:
64,192,101780,128,0,102155:0:0:0:0:
448,192,102155,128,0,102530:0:0:0:0:
320,192,102530,128,0,102905:0:0:0:0:
192,192,102905,128,0,103280:0:0:0:0:
320,192,103280,128,0,103655:0:0:0:0:
64,192,103655,1,0,0:0:0:0:
448,192,104030,1,0,0:0:0:0:
192,192,104405,1,0,0:0:0:0:
64,192,104780,1,0,0:0:0:0:
320,192,105155,1,0,0:0:0:0:
192,192,106155,1,0,0:0:0:0:
192,192,106405,1,0,0:0:0:0:
448,192,106655,1,0,0:0:0:0:
64,192,106655,1,0,0:0:0:0:
192,192,107405,1,0,0:0:0:0:
320,192,107780,1,0,0:0:0:0:
448,192,108155,1,0,0:0:0:0:
192,192,108780,1,0,0:0:0:0:
448,192,108905,1,0,0:0:0:0:
320,192,109280,1,0,0:0:0:0:
192,192,109467,1,0,0:0:0:0:
64,192,109655,1,0,0:0:0:0:
320,192,110030,1,0,0:0:0:0:
64,192,110217,1,0,0:0:0:0:
192,192,110405,1,0,0:0:0:0:
448,192,110592,1,0,0:0:0:0:
192,192,110780,1,0,0:0:0:0:
320,192,110967,1,0,0:0:0:0:
64,192,111155,1,0,0:0:0:0:
448,192,111342,1,0,0:0:0:0:
320,192,111530,1,0,0:0:0:0:
448,192,111717,1,0,0:0:0:0:
64,192,111905,1,0,0:0:0:0:
192,192,112092,1,0,0:0:0:0:
320,192,112280,1,0,0:0:0:0:
192,192,112467,1,0,0:0:0:0:
64,192,112655,1,0,0:0:0:0:
320,192,113030,1,0,0:0:0:0:
192,192,113405,1,0,0:0:0:0:
320,192,113780,1,0,0:0:0:0:
64,192,114155,1,0,0:0:0:0:
64,192,114905,1,0,0:0:0:0:
192,192,115092,1,0,0:0:0:0:
320,192,115280,1,0,0:0:0:0:
192,192,115467,1,0,0:0:0:0:
448,192,115655,1,0,0:0:0:0:
64,192,115936,1,0,0:0:0:0:
320,192,116030,1,0,0:0:0:0:
64,192,116780,1,0,0:0:0:0:
192,192,116967,1,0,0:0:0:0:
320,192,117155,1,0,0:0:0:0:
64,192,117436,1,0,0:0:0:0:
320,192,117530,1,0,0:0:0:0:
320,192,118280,1,0,0:0:0:0:
192,192,118467,1,0,0:0:0:0:
64,192,118655,1,0,0:0:0:0:
320,192,118936,1,0,0:0:0:0:
192,192,119030,1,0,0:0:0:0:
448,192,119217,1,0,0:0:0:0:
320,192,119405,1,0,0:0:0:0:
64,192,119780,1,0,0:0:0:0:
192,192,119967,1,0,0:0:0:0:
448,192,120155,1,0,0:0:0:0:
64,192,120530,1,0,0:0:0:0:
320,192,120717,1,0,0:0:0:0:
320,192,120905,1,0,0:0:0:0:
192,192,121092,1,0,0:0:0:0:
64,192,121280,1,0,0:0:0:0:
192,192,121467,1,0,0:0:0:0:
320,192,121655,1,0,0:0:0:0:
64,192,121936,1,0,0:0:0:0:
448,192,122030,1,0,0:0:0:0:
192,192,122967,1,0,0:0:0:0:
448,192,123155,1,0,0:0:0:0:
64,192,123436,1,0,0:0:0:0:
320,192,123530,1,0,0:0:0:0:
448,192,124280,1,0,0:0:0:0:
320,192,124467,1,0,0:0:0:0:
192,192,124655,1,0,0:0:0:0:
64,192,124936,1,0,0:0:0:0:
448,192,125030,1,0,0:0:0:0:
320,192,125217,1,0,0:0:0:0:
192,192,125405,1,0,0:0:0:0:
64,192,125780,1,0,0:0:0:0:
320,192,125967,1,0,0:0:0:0:
192,192,126155,1,0,0:0:0:0:
448,192,126530,1,0,0:0:0:0:
64,192,126905,1,0,0:0:0:0:
320,192,127280,1,0,0:0:0:0:
192,192,127655,1,0,0:0:0:0:
320,192,128030,1,0,0:0:0:0:
64,192,128405,1,0,0:0:0:0:
448,192,128780,1,0,0:0:0:0:
64,192,129155,1,0,0:0:0:0:
320,192,129530,1,0,0:0:0:0:
64,192,129905,1,0,0:0:0:0:
448,192,130280,1,0,0:0:0:0:
64,192,130655,1,0,0:0:0:0:
320,192,131030,1,0,0:0:0:0:
64,192,131405,1,0,0:0:0:0:
192,192,131780,1,0,0:0:0:0:
320,192,132155,128,0,132342:0:0:0:0:
192,192,132905,128,0,133092:0:0:0:0:
64,192,138155,5,0,0:0:0:0:
320,192,138905,5,0,0:0:0:0:
192,192,139280,5,0,0:0:0:0:
64,192,139655,1,0,0:0:0:0:
64,192,140030,1,0,0:0:0:0:
192,192,140405,5,0,0:0:0:0:
320,192,140780,1,0,0:0:0:0:
448,192,141155,1,0,0:0:0:0:
448,192,141905,5,0,0:0:0:0:
320,192,142280,1,0,0:0:0:0:
448,192,142655,1,0,0:0:0:0:
192,192,143405,1,0,0:0:0:0:
64,192,144155,1,0,0:0:0:0:
448,192,144905,1,0,0:0:0:0:
320,192,145280,1,0,0:0:0:0:
64,192,145655,1,0,0:0:0:0:
192,192,146030,1,0,0:0:0:0:
320,192,146405,1,0,0:0:0:0:
448,192,146780,1,0,0:0:0:0:
320,192,147155,1,0,0:0:0:0:
448,192,147905,1,0,0:0:0:0:
320,192,148155,1,0,0:0:0:0:
192,192,148405,1,0,0:0:0:0:
64,192,148655,1,0,0:0:0:0:
