osu file format v14

[General]
AudioFilename: audio.mp3
AudioLeadIn: 0
PreviewTime: 11498
Countdown: 0
SampleSet: Soft
StackLeniency: 0.7
Mode: 3
LetterboxInBreaks: 0
SpecialStyle: 0
WidescreenStoryboard: 1

[Editor]
DistanceSpacing: 0.6
BeatDivisor: 3
GridSize: 32
TimelineZoom: 1

[Metadata]
Title:carnation
TitleUnicode:carnation
Artist:AAAA
ArtistUnicode:ああああ
Creator:richardfeder
Version:7K Lv.21
Source:BMS衆議院選
Tags:[Emiria] victorica_db electronic dirge セーブデータとほうき星 Savedata to Houkiboshi stardusts in my memorycard bms_shuinsen piano classical instrumental rhythm vgm featured artist fa
BeatmapID:3192595
BeatmapSetID:1563407

[Difficulty]
HPDrainRate:8
CircleSize:7
OverallDifficulty:7
ApproachRate:5
SliderMultiplier:1.4
SliderTickRate:1

[Events]
//Background and Video events
0,0,"bg.jpg",0,0
//Break Periods
//Storyboard Layer 0 (Background)
//Storyboard Layer 1 (Fail)
//Storyboard Layer 2 (Pass)
//Storyboard Layer 3 (Foreground)
//Storyboard Layer 4 (Overlay)
//Storyboard Sound Samples

[TimingPoints]
155,375,4,2,1,25,1,0
155,-125,4,2,1,25,0,0
6155,-111.111111111111,4,2,1,25,0,0
9155,-105.263157894737,4,2,1,25,0,0
12155,-100,4,2,1,25,0,0
40655,-100,4,2,1,25,0,1
46655,-100,4,2,1,25,0,0
58655,-100,4,2,1,25,0,1
69155,-100,4,2,1,25,0,0
78530,-125,4,2,1,25,0,0
85656,-117.647058823529,4,2,1,25,0,0
91093,-114.942528735632,4,2,1,25,0,0
91656,-111.111111111111,4,2,1,25,0,0
102156,-108.695652173913,4,2,1,25,0,0
102531,-106.382978723404,4,2,1,25,0,0
102906,-104.166666666667,4,2,1,25,0,0
103281,-102.040816326531,4,2,1,25,0,0
103655,-100,4,2,1,25,0,0
115655,-100,4,2,1,25,0,1
126155,-100,4,2,1,25,0,0
136655,-125,4,2,1,25,0,0

[HitObjects]
109,192,155,5,0,0:0:0:0:
329,192,155,1,0,0:0:0:0:
182,192,530,1,0,0:0:0:0:
256,192,905,1,0,0:0:0:0:
402,192,905,1,0,0:0:0:0:
329,192,1280,1,0,0:0:0:0:
182,192,1655,1,0,0:0:0:0:
402,192,1655,1,0,0:0:0:0:
329,192,2030,1,0,0:0:0:0:
109,192,2030,1,0,0:0:0:0:
182,192,2405,1,0,0:0:0:0:
329,192,2405,1,0,0:0:0:0:
109,192,2780,1,0,0:0:0:0:
36,192,3155,1,0,0:0:0:0:
256,192,3155,1,0,0:0:0:0:
182,192,3530,1,0,0:0:0:0:
256,192,3905,1,0,0:0:0:0:
329,192,3905,1,0,0:0:0:0:
329,192,4280,1,0,0:0:0:0:
402,192,4280,1,0,0:0:0:0:
402,192,4655,1,0,0:0:0:0:
475,192,4655,1,0,0:0:0:0:
182,192,4655,1,0,0:0:0:0:
36,192,5030,1,0,0:0:0:0:
109,192,5030,1,0,0:0:0:0:
256,192,5217,1,0,0:0:0:0:
182,192,5405,1,0,0:0:0:0:
402,192,5405,1,0,0:0:0:0:
256,192,6061,1,0,0:0:0:0:
329,192,6108,1,0,0:0:0:0:
402,192,6155,1,0,0:0:0:0:
109,192,6155,1,0,0:0:0:0:
182,192,6530,1,0,0:0:0:0:
109,192,6905,1,0,0:0:0:0:
329,192,6905,1,0,0:0:0:0:
256,192,7280,1,0,0:0:0:0:
36,192,7280,1,0,0:0:0:0:
109,192,7655,1,0,0:0:0:0:
329,192,7655,1,0,0:0:0:0:
182,192,8030,1,0,0:0:0:0:
402,192,8030,1,0,0:0:0:0:
256,192,8405,1,0,0:0:0:0:
475,192,8405,1,0,0:0:0:0:
329,192,8780,1,0,0:0:0:0:
475,192,8780,1,0,0:0:0:0:
402,192,9155,1,0,0:0:0:0:
475,192,9155,1,0,0:0:0:0:
109,192,9155,1,0,0:0:0:0:
182,192,9530,1,0,0:0:0:0:
36,192,9905,1,0,0:0:0:0:
109,192,9905,1,0,0:0:0:0:
402,192,10280,1,0,0:0:0:0:
109,192,10655,1,0,0:0:0:0:
329,192,10655,1,0,0:0:0:0:
256,192,10842,1,0,0:0:0:0:
402,192,11030,1,0,0:0:0:0:
475,192,11217,1,0,0:0:0:0:
182,192,11405,1,0,0:0:0:0:
36,192,11405,1,0,0:0:0:0:
329,192,11592,1,0,0:0:0:0:
256,192,11686,1,0,0:0:0:0:
402,192,11780,1,0,0:0:0:0:
329,192,11873,1,0,0:0:0:0:
256,192,11967,1,0,0:0:0:0:
182,192,12061,1,0,0:0:0:0:
109,192,12155,1,0,0:0:0:0:
475,192,12155,1,0,0:0:0:0:
329,192,12155,1,0,0:0:0:0:
256,192,12342,1,0,0:0:0:0:
36,192,12530,1,0,0:0:0:0:
182,192,12623,1,0,0:0:0:0:
109,192,12717,1,0,0:0:0:0:
256,192,12811,1,0,0:0:0:0:
182,192,12905,1,0,0:0:0:0:
402,192,12905,1,0,0:0:0:0:
402,192,13092,1,0,0:0:0:0:
256,192,13280,1,0,0:0:0:0:
475,192,13280,1,0,0:0:0:0:
475,192,13467,1,0,0:0:0:0:
109,192,13655,1,0,0:0:0:0:
329,192,13655,1,0,0:0:0:0:
182,192,13842,1,0,0:0:0:0:
36,192,13842,1,0,0:0:0:0:
256,192,14030,1,0,0:0:0:0:
402,192,14030,1,0,0:0:0:0:
329,192,14217,1,0,0:0:0:0:
475,192,14217,1,0,0:0:0:0:
475,192,14405,1,0,0:0:0:0:
329,192,14405,1,0,0:0:0:0:
256,192,14686,1,0,0:0:0:0:
109,192,14686,1,0,0:0:0:0:
329,192,14780,1,0,0:0:0:0:
475,192,14780,1,0,0:0:0:0:
182,192,15108,1,0,0:0:0:0:
256,192,15155,1,0,0:0:0:0:
475,192,15155,1,0,0:0:0:0:
329,192,15201,1,0,0:0:0:0:
109,192,15342,1,0,0:0:0:0:
256,192,15530,1,0,0:0:0:0:
182,192,15623,1,0,0:0:0:0:
256,192,15717,1,0,0:0:0:0:
329,192,15811,1,0,0:0:0:0:
402,192,15905,1,0,0:0:0:0:
475,192,15905,1,0,0:0:0:0:
329,192,16092,1,0,0:0:0:0:
256,192,16186,1,0,0:0:0:0:
329,192,16280,1,0,0:0:0:0:
256,192,16373,1,0,0:0:0:0:
182,192,16467,1,0,0:0:0:0:
109,192,16561,1,0,0:0:0:0:
36,192,16655,1,0,0:0:0:0:
329,192,16655,1,0,0:0:0:0:
475,192,16842,1,0,0:0:0:0:
256,192,16842,1,0,0:0:0:0:
402,192,17030,1,0,0:0:0:0:
182,192,17030,1,0,0:0:0:0:
329,192,17217,1,0,0:0:0:0:
109,192,17217,1,0,0:0:0:0:
109,192,17405,1,0,0:0:0:0:
329,192,17405,1,0,0:0:0:0:
256,192,17686,1,0,0:0:0:0:
36,192,17686,1,0,0:0:0:0:
329,192,17780,1,0,0:0:0:0:
475,192,17780,1,0,0:0:0:0:
109,192,17967,1,0,0:0:0:0:
182,192,18030,1,0,0:0:0:0:
256,192,18092,1,0,0:0:0:0:
329,192,18155,1,0,0:0:0:0:
36,192,18155,1,0,0:0:0:0:
402,192,18436,1,0,0:0:0:0:
182,192,18436,1,0,0:0:0:0:
256,192,18530,1,0,0:0:0:0:
36,192,18530,1,0,0:0:0:0:
109,192,18717,1,0,0:0:0:0:
329,192,18717,1,0,0:0:0:0:
182,192,18905,1,0,0:0:0:0:
402,192,18905,128,0,19655:0:0:0:0:
256,192,19092,1,0,0:0:0:0:
109,192,19280,1,0,0:0:0:0:
182,192,19373,1,0,0:0:0:0:
256,192,19467,1,0,0:0:0:0:
182,192,19561,1,0,0:0:0:0:
109,192,19655,1,0,0:0:0:0:
329,192,19842,1,0,0:0:0:0:
182,192,20030,1,0,0:0:0:0:
402,192,20217,1,0,0:0:0:0:
109,192,20405,1,0,0:0:0:0:
256,192,20405,1,0,0:0:0:0:
329,192,20592,1,0,0:0:0:0:
36,192,20780,1,0,0:0:0:0:
182,192,20780,1,0,0:0:0:0:
256,192,20967,1,0,0:0:0:0:
182,192,21155,1,0,0:0:0:0:
402,192,21155,1,0,0:0:0:0:
109,192,21342,1,0,0:0:0:0:
256,192,21530,1,0,0:0:0:0:
475,192,21530,1,0,0:0:0:0:
36,192,21717,1,0,0:0:0:0:
182,192,21905,1,0,0:0:0:0:
329,192,21905,1,0,0:0:0:0:
109,192,22092,1,0,0:0:0:0:
256,192,22280,1,0,0:0:0:0:
402,192,22467,1,0,0:0:0:0:
402,192,22655,1,0,0:0:0:0:
182,192,22842,1,0,0:0:0:0:
109,192,23030,1,0,0:0:0:0:
256,192,23030,1,0,0:0:0:0:
182,192,23217,1,0,0:0:0:0:
329,192,23217,1,0,0:0:0:0:
256,192,23405,1,0,0:0:0:0:
109,192,23592,1,0,0:0:0:0:
36,192,23780,1,0,0:0:0:0:
182,192,23780,1,0,0:0:0:0:
109,192,23967,1,0,0:0:0:0:
256,192,23967,1,0,0:0:0:0:
329,192,24155,128,0,28280:0:0:0:0:
182,192,24155,1,0,0:0:0:0:
475,192,24155,1,0,0:0:0:0:
402,192,24342,1,0,0:0:0:0:
109,192,24530,1,0,0:0:0:0:
256,192,24717,1,0,0:0:0:0:
402,192,24905,1,0,0:0:0:0:
36,192,25092,1,0,0:0:0:0:
182,192,25280,1,0,0:0:0:0:
109,192,25655,128,0,28280:0:0:0:0:
182,192,29780,1,0,0:0:0:0:
256,192,29967,1,0,0:0:0:0:
109,192,30155,1,0,0:0:0:0:
329,192,30155,1,0,0:0:0:0:
182,192,30342,1,0,0:0:0:0:
256,192,30530,1,0,0:0:0:0:
402,192,30530,1,0,0:0:0:0:
329,192,30905,1,0,0:0:0:0:
182,192,30905,1,0,0:0:0:0:
256,192,31280,1,0,0:0:0:0:
109,192,31280,1,0,0:0:0:0:
36,192,31655,1,0,0:0:0:0:
182,192,31655,1,0,0:0:0:0:
256,192,31842,1,0,0:0:0:0:
109,192,32030,1,0,0:0:0:0:
256,192,32217,1,0,0:0:0:0:
182,192,32405,1,0,0:0:0:0:
402,192,32405,1,0,0:0:0:0:
329,192,32780,1,0,0:0:0:0:
256,192,32967,1,0,0:0:0:0:
182,192,33155,1,0,0:0:0:0:
402,192,33155,1,0,0:0:0:0:
256,192,33342,1,0,0:0:0:0:
329,192,33530,1,0,0:0:0:0:
109,192,33530,1,0,0:0:0:0:
256,192,33905,1,0,0:0:0:0:
36,192,33905,1,0,0:0:0:0:
36,192,34280,1,0,0:0:0:0:
182,192,34280,1,0,0:0:0:0:
256,192,34467,1,0,0:0:0:0:
109,192,34655,128,0,35217:0:0:0:0:
329,192,34655,1,0,0:0:0:0:
256,192,34842,1,0,0:0:0:0:
329,192,35030,1,0,0:0:0:0:
402,192,35217,1,0,0:0:0:0:
329,192,35405,1,0,0:0:0:0:
109,192,35405,128,0,35967:0:0:0:0:
329,192,35780,1,0,0:0:0:0:
402,192,35873,1,0,0:0:0:0:
256,192,35967,1,0,0:0:0:0:
329,192,36061,1,0,0:0:0:0:
402,192,36155,1,0,0:0:0:0:
182,192,36155,1,0,0:0:0:0:
329,192,36342,1,0,0:0:0:0:
109,192,36342,1,0,0:0:0:0:
256,192,36530,1,0,0:0:0:0:
36,192,36530,1,0,0:0:0:0:
109,192,36905,1,0,0:0:0:0:
329,192,36905,1,0,0:0:0:0:
182,192,37280,1,0,0:0:0:0:
402,192,37280,1,0,0:0:0:0:
475,192,37467,1,0,0:0:0:0:
402,192,37561,1,0,0:0:0:0:
329,192,37655,1,0,0:0:0:0:
109,192,37655,1,0,0:0:0:0:
109,192,38030,1,0,0:0:0:0:
329,192,38030,1,0,0:0:0:0:
182,192,38217,1,0,0:0:0:0:
402,192,38217,1,0,0:0:0:0:
329,192,38405,1,0,0:0:0:0:
475,192,38405,1,0,0:0:0:0:
256,192,38592,1,0,0:0:0:0:
329,192,38592,1,0,0:0:0:0:
109,192,38780,1,0,0:0:0:0:
182,192,38780,1,0,0:0:0:0:
256,192,38967,1,0,0:0:0:0:
329,192,38967,1,0,0:0:0:0:
36,192,39155,1,0,0:0:0:0:
109,192,39155,1,0,0:0:0:0:
182,192,39530,1,0,0:0:0:0:
402,192,39530,1,0,0:0:0:0:
329,192,39717,1,0,0:0:0:0:
256,192,39811,1,0,0:0:0:0:
182,192,39905,1,0,0:0:0:0:
36,192,39905,1,0,0:0:0:0:
109,192,40280,1,0,0:0:0:0:
329,192,40280,1,0,0:0:0:0:
475,192,40280,1,0,0:0:0:0:
256,192,40655,1,0,0:0:0:0:
36,192,40655,1,0,0:0:0:0:
182,192,40842,1,0,0:0:0:0:
256,192,40936,1,0,0:0:0:0:
329,192,41030,1,0,0:0:0:0:
256,192,41217,1,0,0:0:0:0:
329,192,41311,1,0,0:0:0:0:
402,192,41405,1,0,0:0:0:0:
329,192,41592,1,0,0:0:0:0:
402,192,41686,1,0,0:0:0:0:
475,192,41780,1,0,0:0:0:0:
402,192,41873,1,0,0:0:0:0:
329,192,41967,1,0,0:0:0:0:
256,192,42061,1,0,0:0:0:0:
182,192,42155,1,0,0:0:0:0:
329,192,42248,1,0,0:0:0:0:
475,192,42342,1,0,0:0:0:0:
402,192,42436,1,0,0:0:0:0:
109,192,42530,1,0,0:0:0:0:
256,192,42623,1,0,0:0:0:0:
402,192,42717,1,0,0:0:0:0:
329,192,42811,1,0,0:0:0:0:
36,192,42905,1,0,0:0:0:0:
182,192,42998,1,0,0:0:0:0:
329,192,43092,1,0,0:0:0:0:
256,192,43186,1,0,0:0:0:0:
182,192,43280,1,0,0:0:0:0:
109,192,43280,1,0,0:0:0:0:
402,192,43280,1,0,0:0:0:0:
402,192,43467,1,0,0:0:0:0:
182,192,43467,1,0,0:0:0:0:
109,192,43467,1,0,0:0:0:0:
36,192,43655,1,0,0:0:0:0:
256,192,43655,1,0,0:0:0:0:
329,192,43842,1,0,0:0:0:0:
256,192,43936,1,0,0:0:0:0:
182,192,44030,1,0,0:0:0:0:
402,192,44217,1,0,0:0:0:0:
329,192,44311,1,0,0:0:0:0:
256,192,44405,1,0,0:0:0:0:
475,192,44592,1,0,0:0:0:0:
402,192,44686,1,0,0:0:0:0:
475,192,44780,1,0,0:0:0:0:
402,192,44873,1,0,0:0:0:0:
329,192,44967,1,0,0:0:0:0:
256,192,45061,1,0,0:0:0:0:
182,192,45155,1,0,0:0:0:0:
329,192,45248,1,0,0:0:0:0:
475,192,45342,1,0,0:0:0:0:
402,192,45436,1,0,0:0:0:0:
109,192,45530,1,0,0:0:0:0:
256,192,45623,1,0,0:0:0:0:
402,192,45717,1,0,0:0:0:0:
329,192,45811,1,0,0:0:0:0:
36,192,45905,1,0,0:0:0:0:
182,192,45998,1,0,0:0:0:0:
329,192,46092,1,0,0:0:0:0:
256,192,46186,1,0,0:0:0:0:
182,192,46280,128,0,46655:0:0:0:0:
475,192,46280,1,0,0:0:0:0:
402,192,46373,1,0,0:0:0:0:
329,192,46467,1,0,0:0:0:0:
256,192,46561,1,0,0:0:0:0:
109,192,46655,1,0,0:0:0:0:
36,192,46655,1,0,0:0:0:0:
256,192,47030,128,0,47123:0:0:0:0:
329,192,47030,128,0,47123:0:0:0:0:
256,192,47405,128,0,47498:0:0:0:0:
182,192,47405,128,0,47498:0:0:0:0:
182,192,47780,128,0,47873:0:0:0:0:
109,192,47780,128,0,47873:0:0:0:0:
36,192,48155,128,0,48248:0:0:0:0:
109,192,48155,128,0,48248:0:0:0:0:
256,192,48342,1,0,0:0:0:0:
402,192,48530,1,0,0:0:0:0:
329,192,48717,1,0,0:0:0:0:
256,192,48905,128,0,48998:0:0:0:0:
182,192,48905,128,0,48998:0:0:0:0:
109,192,49092,1,0,0:0:0:0:
329,192,49280,1,0,0:0:0:0:
256,192,49467,1,0,0:0:0:0:
182,192,49655,128,0,49748:0:0:0:0:
109,192,49655,128,0,49748:0:0:0:0:
256,192,49842,1,0,0:0:0:0:
402,192,50030,128,0,50123:0:0:0:0:
475,192,50030,128,0,50123:0:0:0:0:
329,192,50217,1,0,0:0:0:0:
256,192,50405,128,0,50498:0:0:0:0:
182,192,50405,128,0,50498:0:0:0:0:
109,192,50592,1,0,0:0:0:0:
36,192,50780,1,0,0:0:0:0:
182,192,50967,1,0,0:0:0:0:
256,192,51155,128,0,51248:0:0:0:0:
329,192,51155,128,0,51248:0:0:0:0:
109,192,51342,1,0,0:0:0:0:
182,192,51530,1,0,0:0:0:0:
256,192,51717,1,0,0:0:0:0:
329,192,51905,128,0,52280:0:0:0:0:
402,192,51905,128,0,52655:0:0:0:0:
36,192,52280,1,0,0:0:0:0:
109,192,52373,1,0,0:0:0:0:
182,192,52467,1,0,0:0:0:0:
256,192,52561,1,0,0:0:0:0:
329,192,52655,1,0,0:0:0:0:
109,192,52655,1,0,0:0:0:0:
475,192,52655,1,0,0:0:0:0:
182,192,52842,1,0,0:0:0:0:
256,192,53030,128,0,53123:0:0:0:0:
329,192,53030,128,0,53123:0:0:0:0:
402,192,53405,128,0,53780:0:0:0:0:
475,192,53405,128,0,53780:0:0:0:0:
329,192,53780,1,0,0:0:0:0:
182,192,53780,1,0,0:0:0:0:
256,192,53967,1,0,0:0:0:0:
182,192,54061,1,0,0:0:0:0:
109,192,54155,128,0,54248:0:0:0:0:
36,192,54155,128,0,54248:0:0:0:0:
329,192,54342,1,0,0:0:0:0:
256,192,54530,1,0,0:0:0:0:
402,192,54717,1,0,0:0:0:0:
329,192,54905,128,0,54998:0:0:0:0:
256,192,54905,128,0,54998:0:0:0:0:
36,192,55092,1,0,0:0:0:0:
182,192,55186,1,0,0:0:0:0:
329,192,55280,1,0,0:0:0:0:
182,192,55467,1,0,0:0:0:0:
109,192,55655,128,0,55748:0:0:0:0:
36,192,55655,128,0,55748:0:0:0:0:
256,192,55842,1,0,0:0:0:0:
329,192,56030,128,0,56123:0:0:0:0:
402,192,56030,128,0,56123:0:0:0:0:
109,192,56217,1,0,0:0:0:0:
182,192,56311,1,0,0:0:0:0:
256,192,56405,128,0,56498:0:0:0:0:
329,192,56405,128,0,56498:0:0:0:0:
109,192,56592,1,0,0:0:0:0:
329,192,56780,128,0,56873:0:0:0:0:
402,192,56780,128,0,56873:0:0:0:0:
182,192,56967,1,0,0:0:0:0:
402,192,57155,128,0,57248:0:0:0:0:
475,192,57155,128,0,57248:0:0:0:0:
256,192,57342,1,0,0:0:0:0:
402,192,57530,1,0,0:0:0:0:
109,192,57717,1,0,0:0:0:0:
329,192,57717,1,0,0:0:0:0:
329,192,57905,1,0,0:0:0:0:
109,192,57905,1,0,0:0:0:0:
182,192,58092,1,0,0:0:0:0:
402,192,58092,1,0,0:0:0:0:
256,192,58280,1,0,0:0:0:0:
475,192,58280,1,0,0:0:0:0:
329,192,58467,1,0,0:0:0:0:
475,192,58467,1,0,0:0:0:0:
475,192,58655,1,0,0:0:0:0:
402,192,58655,1,0,0:0:0:0:
182,192,58655,1,0,0:0:0:0:
256,192,58936,1,0,0:0:0:0:
402,192,58936,1,0,0:0:0:0:
182,192,59030,1,0,0:0:0:0:
36,192,59030,1,0,0:0:0:0:
109,192,59217,1,0,0:0:0:0:
182,192,59311,1,0,0:0:0:0:
256,192,59405,1,0,0:0:0:0:
329,192,59498,1,0,0:0:0:0:
402,192,59592,1,0,0:0:0:0:
36,192,59592,1,0,0:0:0:0:
475,192,59686,1,0,0:0:0:0:
109,192,59686,1,0,0:0:0:0:
402,192,59780,1,0,0:0:0:0:
182,192,59780,1,0,0:0:0:0:
329,192,59873,1,0,0:0:0:0:
109,192,59873,1,0,0:0:0:0:
256,192,59967,1,0,0:0:0:0:
36,192,59967,1,0,0:0:0:0:
182,192,60061,1,0,0:0:0:0:
109,192,60155,1,0,0:0:0:0:
329,192,60155,1,0,0:0:0:0:
475,192,60155,1,0,0:0:0:0:
36,192,60436,1,0,0:0:0:0:
256,192,60436,1,0,0:0:0:0:
182,192,60530,1,0,0:0:0:0:
402,192,60530,1,0,0:0:0:0:
256,192,60717,1,0,0:0:0:0:
329,192,60811,1,0,0:0:0:0:
402,192,60905,1,0,0:0:0:0:
475,192,60998,1,0,0:0:0:0:
402,192,61092,1,0,0:0:0:0:
182,192,61092,1,0,0:0:0:0:
329,192,61186,1,0,0:0:0:0:
109,192,61186,1,0,0:0:0:0:
256,192,61280,1,0,0:0:0:0:
36,192,61280,1,0,0:0:0:0:
329,192,61373,1,0,0:0:0:0:
109,192,61373,1,0,0:0:0:0:
402,192,61467,1,0,0:0:0:0:
182,192,61467,1,0,0:0:0:0:
475,192,61561,1,0,0:0:0:0:
109,192,61655,1,0,0:0:0:0:
256,192,61655,1,0,0:0:0:0:
36,192,61655,1,0,0:0:0:0:
329,192,61936,1,0,0:0:0:0:
475,192,61936,1,0,0:0:0:0:
256,192,62030,1,0,0:0:0:0:
36,192,62030,1,0,0:0:0:0:
182,192,62217,1,0,0:0:0:0:
475,192,62405,1,0,0:0:0:0:
329,192,62405,128,0,63155:0:0:0:0:
36,192,62592,1,0,0:0:0:0:
402,192,62686,1,0,0:0:0:0:
109,192,62780,1,0,0:0:0:0:
475,192,62873,1,0,0:0:0:0:
36,192,62967,1,0,0:0:0:0:
402,192,63061,1,0,0:0:0:0:
109,192,63155,1,0,0:0:0:0:
256,192,63342,1,0,0:0:0:0:
182,192,63530,1,0,0:0:0:0:
329,192,63717,1,0,0:0:0:0:
402,192,63905,1,0,0:0:0:0:
109,192,64092,1,0,0:0:0:0:
182,192,64280,1,0,0:0:0:0:
256,192,64467,1,0,0:0:0:0:
402,192,64467,1,0,0:0:0:0:
402,192,64655,1,0,0:0:0:0:
256,192,64655,1,0,0:0:0:0:
36,192,64655,1,0,0:0:0:0:
109,192,64936,1,0,0:0:0:0:
329,192,64936,1,0,0:0:0:0:
256,192,65030,1,0,0:0:0:0:
475,192,65030,1,0,0:0:0:0:
402,192,65217,1,0,0:0:0:0:
329,192,65311,1,0,0:0:0:0:
256,192,65405,1,0,0:0:0:0:
182,192,65498,1,0,0:0:0:0:
109,192,65592,1,0,0:0:0:0:
475,192,65592,1,0,0:0:0:0:
36,192,65686,1,0,0:0:0:0:
402,192,65686,1,0,0:0:0:0:
109,192,65780,1,0,0:0:0:0:
329,192,65780,1,0,0:0:0:0:
182,192,65873,1,0,0:0:0:0:
402,192,65873,1,0,0:0:0:0:
36,192,65967,1,0,0:0:0:0:
475,192,65967,1,0,0:0:0:0:
182,192,66061,1,0,0:0:0:0:
329,192,66061,1,0,0:0:0:0:
36,192,66155,1,0,0:0:0:0:
475,192,66155,1,0,0:0:0:0:
329,192,66436,1,0,0:0:0:0:
182,192,66436,1,0,0:0:0:0:
256,192,66530,1,0,0:0:0:0:
109,192,66530,1,0,0:0:0:0:
329,192,66717,1,0,0:0:0:0:
402,192,66811,1,0,0:0:0:0:
475,192,66905,1,0,0:0:0:0:
402,192,66998,1,0,0:0:0:0:
329,192,67092,1,0,0:0:0:0:
109,192,67092,1,0,0:0:0:0:
256,192,67186,1,0,0:0:0:0:
36,192,67186,1,0,0:0:0:0:
182,192,67280,1,0,0:0:0:0:
475,192,67280,1,0,0:0:0:0:
109,192,67373,1,0,0:0:0:0:
402,192,67373,1,0,0:0:0:0:
36,192,67467,1,0,0:0:0:0:
329,192,67467,1,0,0:0:0:0:
402,192,67561,1,0,0:0:0:0:
109,192,67561,1,0,0:0:0:0:
475,192,67655,1,0,0:0:0:0:
182,192,67655,1,0,0:0:0:0:
256,192,67655,1,0,0:0:0:0:
109,192,67936,1,0,0:0:0:0:
256,192,67936,1,0,0:0:0:0:
182,192,68030,1,0,0:0:0:0:
329,192,68030,1,0,0:0:0:0:
256,192,68217,1,0,0:0:0:0:
402,192,68217,1,0,0:0:0:0:
329,192,68405,1,0,0:0:0:0:
475,192,68405,128,0,69155:0:0:0:0:
109,192,68592,1,0,0:0:0:0:
182,192,68686,1,0,0:0:0:0:
256,192,68780,1,0,0:0:0:0:
182,192,68873,1,0,0:0:0:0:
109,192,68967,1,0,0:0:0:0:
36,192,69061,1,0,0:0:0:0:
109,192,69155,128,0,71405:0:0:0:0:
329,192,69155,1,0,0:0:0:0:
402,192,69342,1,0,0:0:0:0:
256,192,69436,1,0,0:0:0:0:
402,192,69530,1,0,0:0:0:0:
329,192,69717,1,0,0:0:0:0:
475,192,69811,1,0,0:0:0:0:
182,192,69905,1,0,0:0:0:0:
256,192,70092,1,0,0:0:0:0:
402,192,70186,1,0,0:0:0:0:
256,192,70280,1,0,0:0:0:0:
329,192,70467,1,0,0:0:0:0:
475,192,70561,1,0,0:0:0:0:
182,192,70655,1,0,0:0:0:0:
36,192,70842,1,0,0:0:0:0:
256,192,70936,1,0,0:0:0:0:
402,192,71030,1,0,0:0:0:0:
329,192,71217,1,0,0:0:0:0:
182,192,71405,1,0,0:0:0:0:
329,192,71498,1,0,0:0:0:0:
256,192,71592,1,0,0:0:0:0:
402,192,71686,1,0,0:0:0:0:
109,192,71780,1,0,0:0:0:0:
182,192,71873,1,0,0:0:0:0:
256,192,71967,1,0,0:0:0:0:
329,192,72061,1,0,0:0:0:0:
402,192,72155,1,0,0:0:0:0:
182,192,72342,1,0,0:0:0:0:
329,192,72436,1,0,0:0:0:0:
475,192,72530,128,0,72905:0:0:0:0:
256,192,72530,1,0,0:0:0:0:
36,192,72717,1,0,0:0:0:0:
256,192,72811,1,0,0:0:0:0:
402,192,72905,128,0,73280:0:0:0:0:
109,192,72905,1,0,0:0:0:0:
182,192,73092,1,0,0:0:0:0:
36,192,73186,1,0,0:0:0:0:
329,192,73280,128,0,73655:0:0:0:0:
109,192,73280,1,0,0:0:0:0:
182,192,73467,1,0,0:0:0:0:
475,192,73561,1,0,0:0:0:0:
256,192,73655,128,0,74030:0:0:0:0:
109,192,73655,1,0,0:0:0:0:
402,192,73842,1,0,0:0:0:0:
36,192,73936,1,0,0:0:0:0:
182,192,74030,128,0,74405:0:0:0:0:
475,192,74030,1,0,0:0:0:0:
329,192,74217,1,0,0:0:0:0:
109,192,74405,128,0,78530:0:0:0:0:
402,192,74405,1,0,0:0:0:0:
475,192,74498,1,0,0:0:0:0:
329,192,74592,1,0,0:0:0:0:
402,192,74686,1,0,0:0:0:0:
256,192,74780,1,0,0:0:0:0:
329,192,74873,1,0,0:0:0:0:
182,192,74967,1,0,0:0:0:0:
256,192,75061,1,0,0:0:0:0:
329,192,75155,128,0,75905:0:0:0:0:
182,192,75905,128,0,78530:0:0:0:0:
182,192,79655,1,0,0:0:0:0:
256,192,79701,1,0,0:0:0:0:
329,192,79748,1,0,0:0:0:0:
109,192,80030,1,0,0:0:0:0:
402,192,80405,1,0,0:0:0:0:
182,192,80405,1,0,0:0:0:0:
329,192,80780,1,0,0:0:0:0:
109,192,80780,1,0,0:0:0:0:
256,192,81155,1,0,0:0:0:0:
36,192,81155,1,0,0:0:0:0:
182,192,81530,1,0,0:0:0:0:
329,192,81530,1,0,0:0:0:0:
109,192,81905,1,0,0:0:0:0:
256,192,81905,1,0,0:0:0:0:
182,192,82280,1,0,0:0:0:0:
329,192,82280,1,0,0:0:0:0:
256,192,82655,1,0,0:0:0:0:
329,192,82655,1,0,0:0:0:0:
109,192,83030,1,0,0:0:0:0:
182,192,83405,1,0,0:0:0:0:
402,192,83405,1,0,0:0:0:0:
256,192,83780,1,0,0:0:0:0:
475,192,83780,1,0,0:0:0:0:
475,192,84155,1,0,0:0:0:0:
329,192,84155,1,0,0:0:0:0:
256,192,84530,1,0,0:0:0:0:
402,192,84717,1,0,0:0:0:0:
109,192,84717,1,0,0:0:0:0:
109,192,84905,1,0,0:0:0:0:
402,192,84905,1,0,0:0:0:0:
182,192,85280,1,0,0:0:0:0:
256,192,85561,1,0,0:0:0:0:
329,192,85608,1,0,0:0:0:0:
402,192,85655,1,0,0:0:0:0:
36,192,85655,1,0,0:0:0:0:
109,192,85842,1,0,0:0:0:0:
182,192,86030,1,0,0:0:0:0:
256,192,86217,1,0,0:0:0:0:
182,192,86405,1,0,0:0:0:0:
402,192,86405,1,0,0:0:0:0:
329,192,86592,1,0,0:0:0:0:
256,192,86780,1,0,0:0:0:0:
475,192,86780,1,0,0:0:0:0:
402,192,86967,1,0,0:0:0:0:
329,192,87155,1,0,0:0:0:0:
109,192,87155,1,0,0:0:0:0:
182,192,87342,1,0,0:0:0:0:
36,192,87530,1,0,0:0:0:0:
256,192,87530,1,0,0:0:0:0:
182,192,87717,1,0,0:0:0:0:
256,192,87905,1,0,0:0:0:0:
329,192,87905,1,0,0:0:0:0:
109,192,88092,1,0,0:0:0:0:
329,192,88280,1,0,0:0:0:0:
402,192,88280,1,0,0:0:0:0:
182,192,88467,1,0,0:0:0:0:
256,192,88655,1,0,0:0:0:0:
475,192,88655,1,0,0:0:0:0:
402,192,89030,1,0,0:0:0:0:
182,192,89030,1,0,0:0:0:0:
329,192,89405,1,0,0:0:0:0:
109,192,89405,1,0,0:0:0:0:
256,192,89780,1,0,0:0:0:0:
36,192,89780,1,0,0:0:0:0:
109,192,90155,1,0,0:0:0:0:
329,192,90155,1,0,0:0:0:0:
256,192,90342,1,0,0:0:0:0:
182,192,90530,1,0,0:0:0:0:
329,192,90717,1,0,0:0:0:0:
36,192,90905,128,0,91655:0:0:0:0:
475,192,91092,1,0,0:0:0:0:
402,192,91186,1,0,0:0:0:0:
329,192,91280,1,0,0:0:0:0:
256,192,91373,1,0,0:0:0:0:
182,192,91467,1,0,0:0:0:0:
109,192,91561,1,0,0:0:0:0:
402,192,91655,1,0,0:0:0:0:
329,192,91780,1,0,0:0:0:0:
402,192,91905,1,0,0:0:0:0:
182,192,92030,1,0,0:0:0:0:
256,192,92155,1,0,0:0:0:0:
329,192,92280,1,0,0:0:0:0:
109,192,92405,1,0,0:0:0:0:
402,192,92405,1,0,0:0:0:0:
256,192,92530,1,0,0:0:0:0:
182,192,92655,1,0,0:0:0:0:
475,192,92655,1,0,0:0:0:0:
329,192,92780,1,0,0:0:0:0:
475,192,92905,1,0,0:0:0:0:
256,192,92905,1,0,0:0:0:0:
329,192,93014,1,0,0:0:0:0:
402,192,93155,1,0,0:0:0:0:
182,192,93155,1,0,0:0:0:0:
256,192,93280,1,0,0:0:0:0:
109,192,93405,1,0,0:0:0:0:
256,192,93530,1,0,0:0:0:0:
329,192,93655,1,0,0:0:0:0:
256,192,93780,1,0,0:0:0:0:
36,192,93905,1,0,0:0:0:0:
182,192,93905,1,0,0:0:0:0:
256,192,94030,1,0,0:0:0:0:
182,192,94155,1,0,0:0:0:0:
402,192,94280,1,0,0:0:0:0:
329,192,94405,1,0,0:0:0:0:
256,192,94530,1,0,0:0:0:0:
182,192,94655,1,0,0:0:0:0:
402,192,94655,1,0,0:0:0:0:
475,192,94780,1,0,0:0:0:0:
402,192,94905,1,0,0:0:0:0:
109,192,95030,1,0,0:0:0:0:
182,192,95155,1,0,0:0:0:0:
109,192,95280,1,0,0:0:0:0:
36,192,95405,1,0,0:0:0:0:
256,192,95405,1,0,0:0:0:0:
182,192,95530,1,0,0:0:0:0:
109,192,95655,1,0,0:0:0:0:
182,192,95780,1,0,0:0:0:0:
256,192,95905,1,0,0:0:0:0:
182,192,96030,1,0,0:0:0:0:
109,192,96155,1,0,0:0:0:0:
329,192,96155,1,0,0:0:0:0:
256,192,96280,1,0,0:0:0:0:
402,192,96405,1,0,0:0:0:0:
36,192,96530,1,0,0:0:0:0:
182,192,96655,1,0,0:0:0:0:
329,192,96780,1,0,0:0:0:0:
36,192,96905,1,0,0:0:0:0:
256,192,96905,1,0,0:0:0:0:
182,192,97030,1,0,0:0:0:0:
109,192,97155,1,0,0:0:0:0:
329,192,97155,1,0,0:0:0:0:
256,192,97280,1,0,0:0:0:0:
402,192,97405,1,0,0:0:0:0:
182,192,97405,1,0,0:0:0:0:
329,192,97530,1,0,0:0:0:0:
256,192,97655,1,0,0:0:0:0:
475,192,97655,1,0,0:0:0:0:
329,192,97780,1,0,0:0:0:0:
256,192,97905,1,0,0:0:0:0:
182,192,98030,1,0,0:0:0:0:
109,192,98155,1,0,0:0:0:0:
182,192,98280,1,0,0:0:0:0:
36,192,98405,1,0,0:0:0:0:
256,192,98405,1,0,0:0:0:0:
182,192,98530,1,0,0:0:0:0:
109,192,98655,1,0,0:0:0:0:
329,192,98655,1,0,0:0:0:0:
256,192,98780,1,0,0:0:0:0:
182,192,98905,1,0,0:0:0:0:
402,192,98905,1,0,0:0:0:0:
329,192,99030,1,0,0:0:0:0:
256,192,99155,1,0,0:0:0:0:
475,192,99155,1,0,0:0:0:0:
329,192,99280,1,0,0:0:0:0:
256,192,99405,1,0,0:0:0:0:
109,192,99530,1,0,0:0:0:0:
402,192,99530,1,0,0:0:0:0:
182,192,99655,1,0,0:0:0:0:
109,192,99780,1,0,0:0:0:0:
182,192,99905,1,0,0:0:0:0:
329,192,99905,1,0,0:0:0:0:
402,192,100030,1,0,0:0:0:0:
329,192,100155,1,0,0:0:0:0:
256,192,100280,1,0,0:0:0:0:
475,192,100280,1,0,0:0:0:0:
329,192,100405,1,0,0:0:0:0:
256,192,100530,1,0,0:0:0:0:
182,192,100655,1,0,0:0:0:0:
475,192,100655,1,0,0:0:0:0:
402,192,100780,1,0,0:0:0:0:
329,192,100905,1,0,0:0:0:0:
402,192,101030,1,0,0:0:0:0:
109,192,101030,1,0,0:0:0:0:
329,192,101155,1,0,0:0:0:0:
256,192,101280,1,0,0:0:0:0:
36,192,101405,1,0,0:0:0:0:
329,192,101405,1,0,0:0:0:0:
256,192,101530,1,0,0:0:0:0:
182,192,101655,1,0,0:0:0:0:
109,192,101780,1,0,0:0:0:0:
36,192,101780,1,0,0:0:0:0:
256,192,101905,1,0,0:0:0:0:
182,192,102030,1,0,0:0:0:0:
109,192,102155,1,0,0:0:0:0:
329,192,102155,1,0,0:0:0:0:
182,192,102280,1,0,0:0:0:0:
256,192,102405,1,0,0:0:0:0:
182,192,102530,1,0,0:0:0:0:
402,192,102530,1,0,0:0:0:0:
256,192,102655,1,0,0:0:0:0:
329,192,102780,1,0,0:0:0:0:
256,192,102905,1,0,0:0:0:0:
475,192,102905,1,0,0:0:0:0:
329,192,103030,1,0,0:0:0:0:
402,192,103155,1,0,0:0:0:0:
475,192,103280,1,0,0:0:0:0:
402,192,103342,1,0,0:0:0:0:
329,192,103405,1,0,0:0:0:0:
256,192,103467,1,0,0:0:0:0:
182,192,103530,1,0,0:0:0:0:
109,192,103592,1,0,0:0:0:0:
36,192,103655,1,0,0:0:0:0:
475,192,103655,128,0,105155:0:0:0:0:
109,192,104030,1,0,0:0:0:0:
329,192,104030,1,0,0:0:0:0:
256,192,104405,1,0,0:0:0:0:
36,192,104405,1,0,0:0:0:0:
182,192,104780,1,0,0:0:0:0:
36,192,104780,1,0,0:0:0:0:
402,192,105155,128,0,106655:0:0:0:0:
109,192,105155,1,0,0:0:0:0:
329,192,105155,1,0,0:0:0:0:
182,192,105280,1,0,0:0:0:0:
256,192,105405,1,0,0:0:0:0:
36,192,105530,1,0,0:0:0:0:
109,192,105655,1,0,0:0:0:0:
182,192,105780,1,0,0:0:0:0:
329,192,105905,1,0,0:0:0:0:
109,192,105905,1,0,0:0:0:0:
182,192,106155,1,0,0:0:0:0:
475,192,106155,1,0,0:0:0:0:
256,192,106405,1,0,0:0:0:0:
109,192,106405,1,0,0:0:0:0:
329,192,106655,128,0,107405:0:0:0:0:
182,192,106655,1,0,0:0:0:0:
36,192,106655,1,0,0:0:0:0:
109,192,106780,1,0,0:0:0:0:
256,192,106905,1,0,0:0:0:0:
402,192,107030,1,0,0:0:0:0:
109,192,107155,1,0,0:0:0:0:
475,192,107280,1,0,0:0:0:0:
256,192,107405,128,0,108155:0:0:0:0:
36,192,107405,1,0,0:0:0:0:
182,192,107405,1,0,0:0:0:0:
109,192,107780,1,0,0:0:0:0:
402,192,107780,1,0,0:0:0:0:
182,192,108155,128,0,108905:0:0:0:0:
329,192,108155,1,0,0:0:0:0:
475,192,108155,1,0,0:0:0:0:
402,192,108280,1,0,0:0:0:0:
36,192,108405,1,0,0:0:0:0:
402,192,108530,1,0,0:0:0:0:
109,192,108655,1,0,0:0:0:0:
475,192,108780,1,0,0:0:0:0:
329,192,108780,1,0,0:0:0:0:
109,192,108905,128,0,109655:0:0:0:0:
402,192,108905,1,0,0:0:0:0:
256,192,108905,1,0,0:0:0:0:
329,192,109186,1,0,0:0:0:0:
475,192,109280,1,0,0:0:0:0:
402,192,109373,1,0,0:0:0:0:
329,192,109467,1,0,0:0:0:0:
256,192,109561,1,0,0:0:0:0:
182,192,109655,1,0,0:0:0:0:
402,192,109655,1,0,0:0:0:0:
256,192,109780,1,0,0:0:0:0:
329,192,109905,1,0,0:0:0:0:
402,192,110030,1,0,0:0:0:0:
329,192,110123,1,0,0:0:0:0:
256,192,110217,1,0,0:0:0:0:
329,192,110311,1,0,0:0:0:0:
475,192,110405,1,0,0:0:0:0:
402,192,110498,1,0,0:0:0:0:
256,192,110592,1,0,0:0:0:0:
402,192,110686,1,0,0:0:0:0:
329,192,110780,1,0,0:0:0:0:
109,192,110873,1,0,0:0:0:0:
256,192,110967,1,0,0:0:0:0:
182,192,111061,1,0,0:0:0:0:
402,192,111155,1,0,0:0:0:0:
329,192,111248,1,0,0:0:0:0:
256,192,111342,1,0,0:0:0:0:
329,192,111436,1,0,0:0:0:0:
256,192,111530,1,0,0:0:0:0:
182,192,111623,1,0,0:0:0:0:
256,192,111717,1,0,0:0:0:0:
182,192,111811,1,0,0:0:0:0:
109,192,111905,1,0,0:0:0:0:
182,192,111998,1,0,0:0:0:0:
109,192,112092,1,0,0:0:0:0:
36,192,112186,1,0,0:0:0:0:
109,192,112280,1,0,0:0:0:0:
182,192,112373,1,0,0:0:0:0:
329,192,112467,1,0,0:0:0:0:
256,192,112561,1,0,0:0:0:0:
329,192,112655,1,0,0:0:0:0:
475,192,112655,1,0,0:0:0:0:
109,192,112780,1,0,0:0:0:0:
256,192,112905,1,0,0:0:0:0:
329,192,113030,1,0,0:0:0:0:
109,192,113155,1,0,0:0:0:0:
256,192,113280,1,0,0:0:0:0:
402,192,113405,1,0,0:0:0:0:
109,192,113530,1,0,0:0:0:0:
256,192,113655,1,0,0:0:0:0:
329,192,113780,1,0,0:0:0:0:
109,192,113905,1,0,0:0:0:0:
475,192,113967,1,0,0:0:0:0:
329,192,114061,1,0,0:0:0:0:
256,192,114155,128,0,114905:0:0:0:0:
109,192,114905,1,0,0:0:0:0:
182,192,115092,1,0,0:0:0:0:
256,192,115280,1,0,0:0:0:0:
329,192,115467,1,0,0:0:0:0:
182,192,115655,1,0,0:0:0:0:
402,192,115655,1,0,0:0:0:0:
36,192,115655,1,0,0:0:0:0:
109,192,115936,1,0,0:0:0:0:
182,192,115936,1,0,0:0:0:0:
329,192,116030,1,0,0:0:0:0:
402,192,116030,1,0,0:0:0:0:
256,192,116217,1,0,0:0:0:0:
329,192,116311,1,0,0:0:0:0:
182,192,116405,1,0,0:0:0:0:
256,192,116498,1,0,0:0:0:0:
109,192,116592,1,0,0:0:0:0:
182,192,116686,1,0,0:0:0:0:
36,192,116780,1,0,0:0:0:0:
109,192,116842,1,0,0:0:0:0:
182,192,116905,1,0,0:0:0:0:
256,192,116967,1,0,0:0:0:0:
329,192,117030,1,0,0:0:0:0:
402,192,117092,1,0,0:0:0:0:
182,192,117155,1,0,0:0:0:0:
36,192,117155,1,0,0:0:0:0:
475,192,117155,1,0,0:0:0:0:
109,192,117436,1,0,0:0:0:0:
256,192,117436,1,0,0:0:0:0:
329,192,117530,1,0,0:0:0:0:
475,192,117530,1,0,0:0:0:0:
256,192,117717,1,0,0:0:0:0:
182,192,117811,1,0,0:0:0:0:
329,192,117905,1,0,0:0:0:0:
256,192,117998,1,0,0:0:0:0:
402,192,118092,1,0,0:0:0:0:
329,192,118186,1,0,0:0:0:0:
475,192,118280,1,0,0:0:0:0:
402,192,118342,1,0,0:0:0:0:
329,192,118405,1,0,0:0:0:0:
256,192,118467,1,0,0:0:0:0:
182,192,118530,1,0,0:0:0:0:
109,192,118592,1,0,0:0:0:0:
36,192,118655,1,0,0:0:0:0:
475,192,118655,1,0,0:0:0:0:
329,192,118655,1,0,0:0:0:0:
182,192,118936,1,0,0:0:0:0:
36,192,118936,1,0,0:0:0:0:
256,192,119030,1,0,0:0:0:0:
475,192,119030,1,0,0:0:0:0:
329,192,119217,1,0,0:0:0:0:
36,192,119405,1,0,0:0:0:0:
182,192,119405,128,0,120155:0:0:0:0:
475,192,119592,1,0,0:0:0:0:
109,192,119686,1,0,0:0:0:0:
402,192,119780,1,0,0:0:0:0:
36,192,119873,1,0,0:0:0:0:
475,192,119967,1,0,0:0:0:0:
109,192,120061,1,0,0:0:0:0:
402,192,120155,1,0,0:0:0:0:
256,192,120342,1,0,0:0:0:0:
329,192,120530,1,0,0:0:0:0:
182,192,120717,1,0,0:0:0:0:
109,192,120905,1,0,0:0:0:0:
402,192,121092,1,0,0:0:0:0:
329,192,121280,1,0,0:0:0:0:
256,192,121467,1,0,0:0:0:0:
109,192,121467,1,0,0:0:0:0:
109,192,121655,1,0,0:0:0:0:
256,192,121655,1,0,0:0:0:0:
329,192,121936,1,0,0:0:0:0:
109,192,121936,1,0,0:0:0:0:
402,192,122030,1,0,0:0:0:0:
182,192,122030,1,0,0:0:0:0:
256,192,122217,1,0,0:0:0:0:
109,192,122311,1,0,0:0:0:0:
329,192,122405,1,0,0:0:0:0:
182,192,122498,1,0,0:0:0:0:
402,192,122592,1,0,0:0:0:0:
256,192,122686,1,0,0:0:0:0:
475,192,122780,1,0,0:0:0:0:
402,192,122842,1,0,0:0:0:0:
329,192,122905,1,0,0:0:0:0:
256,192,122967,1,0,0:0:0:0:
182,192,123030,1,0,0:0:0:0:
109,192,123092,1,0,0:0:0:0:
36,192,123155,1,0,0:0:0:0:
475,192,123155,1,0,0:0:0:0:
329,192,123155,1,0,0:0:0:0:
182,192,123436,1,0,0:0:0:0:
402,192,123436,1,0,0:0:0:0:
109,192,123530,1,0,0:0:0:0:
329,192,123530,1,0,0:0:0:0:
256,192,123717,1,0,0:0:0:0:
402,192,123811,1,0,0:0:0:0:
182,192,123905,1,0,0:0:0:0:
329,192,123998,1,0,0:0:0:0:
109,192,124092,1,0,0:0:0:0:
256,192,124186,1,0,0:0:0:0:
36,192,124280,1,0,0:0:0:0:
109,192,124342,1,0,0:0:0:0:
182,192,124405,1,0,0:0:0:0:
256,192,124467,1,0,0:0:0:0:
329,192,124530,1,0,0:0:0:0:
402,192,124592,1,0,0:0:0:0:
109,192,124655,1,0,0:0:0:0:
182,192,124655,1,0,0:0:0:0:
475,192,124655,1,0,0:0:0:0:
402,192,124936,1,0,0:0:0:0:
182,192,124936,1,0,0:0:0:0:
329,192,125030,1,0,0:0:0:0:
109,192,125030,1,0,0:0:0:0:
256,192,125217,1,0,0:0:0:0:
36,192,125217,1,0,0:0:0:0:
329,192,125405,1,0,0:0:0:0:
109,192,125405,128,0,126155:0:0:0:0:
402,192,125592,1,0,0:0:0:0:
329,192,125686,1,0,0:0:0:0:
256,192,125780,1,0,0:0:0:0:
329,192,125873,1,0,0:0:0:0:
402,192,125967,1,0,0:0:0:0:
475,192,126061,1,0,0:0:0:0:
402,192,126155,128,0,128405:0:0:0:0:
36,192,126155,1,0,0:0:0:0:
256,192,126342,1,0,0:0:0:0:
109,192,126436,1,0,0:0:0:0:
256,192,126530,1,0,0:0:0:0:
182,192,126717,1,0,0:0:0:0:
36,192,126811,1,0,0:0:0:0:
329,192,126905,1,0,0:0:0:0:
109,192,127092,1,0,0:0:0:0:
256,192,127186,1,0,0:0:0:0:
109,192,127280,1,0,0:0:0:0:
182,192,127467,1,0,0:0:0:0:
36,192,127561,1,0,0:0:0:0:
329,192,127655,1,0,0:0:0:0:
475,192,127842,1,0,0:0:0:0:
256,192,127936,1,0,0:0:0:0:
109,192,128030,1,0,0:0:0:0:
182,192,128217,1,0,0:0:0:0:
329,192,128405,1,0,0:0:0:0:
182,192,128498,1,0,0:0:0:0:
256,192,128592,1,0,0:0:0:0:
109,192,128686,1,0,0:0:0:0:
402,192,128780,1,0,0:0:0:0:
329,192,128873,1,0,0:0:0:0:
256,192,128967,1,0,0:0:0:0:
182,192,129061,1,0,0:0:0:0:
109,192,129155,1,0,0:0:0:0:
329,192,129342,1,0,0:0:0:0:
182,192,129436,1,0,0:0:0:0:
36,192,129530,128,0,129905:0:0:0:0:
256,192,129530,1,0,0:0:0:0:
475,192,129717,1,0,0:0:0:0:
256,192,129811,1,0,0:0:0:0:
109,192,129905,128,0,130280:0:0:0:0:
402,192,129905,1,0,0:0:0:0:
329,192,130092,1,0,0:0:0:0:
475,192,130186,1,0,0:0:0:0:
182,192,130280,128,0,130655:0:0:0:0:
402,192,130280,1,0,0:0:0:0:
329,192,130467,1,0,0:0:0:0:
36,192,130561,1,0,0:0:0:0:
256,192,130655,128,0,131030:0:0:0:0:
402,192,130655,1,0,0:0:0:0:
109,192,130842,1,0,0:0:0:0:
475,192,130936,1,0,0:0:0:0:
329,192,131030,128,0,131405:0:0:0:0:
36,192,131030,1,0,0:0:0:0:
182,192,131217,1,0,0:0:0:0:
402,192,131405,128,0,136280:0:0:0:0:
109,192,131405,1,0,0:0:0:0:
36,192,131498,1,0,0:0:0:0:
182,192,131592,1,0,0:0:0:0:
109,192,131686,1,0,0:0:0:0:
256,192,131780,1,0,0:0:0:0:
182,192,131873,1,0,0:0:0:0:
329,192,131967,1,0,0:0:0:0:
256,192,132061,1,0,0:0:0:0:
182,192,132155,128,0,132905:0:0:0:0:
329,192,132905,128,0,136280:0:0:0:0:
182,192,138155,1,0,0:0:0:0:
329,192,138201,1,0,0:0:0:0:
475,192,138248,1,0,0:0:0:0:
256,192,138530,1,0,0:0:0:0:
182,192,138905,1,0,0:0:0:0:
402,192,138905,1,0,0:0:0:0:
329,192,139280,1,0,0:0:0:0:
109,192,139280,1,0,0:0:0:0:
256,192,139655,1,0,0:0:0:0:
36,192,139655,1,0,0:0:0:0:
182,192,140030,1,0,0:0:0:0:
109,192,140405,1,0,0:0:0:0:
256,192,140405,1,0,0:0:0:0:
182,192,140780,1,0,0:0:0:0:
256,192,140780,1,0,0:0:0:0:
256,192,141155,1,0,0:0:0:0:
329,192,141155,1,0,0:0:0:0:
182,192,141530,1,0,0:0:0:0:
256,192,141905,1,0,0:0:0:0:
109,192,142280,1,0,0:0:0:0:
182,192,142655,1,0,0:0:0:0:
329,192,142655,1,0,0:0:0:0:
36,192,143030,1,0,0:0:0:0:
109,192,143405,1,0,0:0:0:0:
256,192,143405,1,0,0:0:0:0:
36,192,143780,1,0,0:0:0:0:
182,192,144061,1,0,0:0:0:0:
256,192,144108,1,0,0:0:0:0:
329,192,144155,1,0,0:0:0:0:
109,192,144530,1,0,0:0:0:0:
182,192,144905,1,0,0:0:0:0:
329,192,144905,1,0,0:0:0:0:
256,192,145280,1,0,0:0:0:0:
109,192,145280,1,0,0:0:0:0:
182,192,145655,1,0,0:0:0:0:
329,192,145655,1,0,0:0:0:0:
36,192,146030,1,0,0:0:0:0:
256,192,146030,1,0,0:0:0:0:
182,192,146405,1,0,0:0:0:0:
402,192,146405,1,0,0:0:0:0:
329,192,146780,1,0,0:0:0:0:
109,192,146780,1,0,0:0:0:0:
256,192,147155,1,0,0:0:0:0:
402,192,147155,1,0,0:0:0:0:
182,192,147530,1,0,0:0:0:0:
329,192,147905,1,0,0:0:0:0:
402,192,148155,1,0,0:0:0:0:
475,192,148405,1,0,0:0:0:0:
329,192,148655,1,0,0:0:0:0:
182,192,148701,1,0,0:0:0:0:
36,192,148748,1,0,0:0:0:0:
