osu file format v14

[General]
AudioFilename: audio.mp3
AudioLeadIn: 0
PreviewTime: 11498
Countdown: 0
SampleSet: Soft
StackLeniency: 0.7
Mode: 3
LetterboxInBreaks: 0
SpecialStyle: 0
WidescreenStoryboard: 1

[Editor]
DistanceSpacing: 0.6
BeatDivisor: 3
GridSize: 32
TimelineZoom: 1

[Metadata]
Title:carnation
TitleUnicode:carnation
Artist:AAAA
ArtistUnicode:ああああ
Creator:richardfeder
Version:7K Lv.12
Source:BMS衆議院選
Tags:[Emiria] victorica_db electronic dirge セーブデータとほうき星 Savedata to Houkiboshi stardusts in my memorycard bms_shuinsen piano classical instrumental rhythm vgm featured artist fa
BeatmapID:3192594
BeatmapSetID:1563407

[Difficulty]
HPDrainRate:7
CircleSize:7
OverallDifficulty:7
ApproachRate:5
SliderMultiplier:1.4
SliderTickRate:1

[Events]
//Background and Video events
0,0,"bg.jpg",0,0
//Break Periods
//Storyboard Layer 0 (Background)
//Storyboard Layer 1 (Fail)
//Storyboard Layer 2 (Pass)
//Storyboard Layer 3 (Foreground)
//Storyboard Layer 4 (Overlay)
//Storyboard Sound Samples

[TimingPoints]
155,375,4,2,1,25,1,0
40655,-100,4,2,1,25,0,1
46655,-100,4,2,1,25,0,0
58655,-100,4,2,1,25,0,1
69155,-100,4,2,1,25,0,0
117155,-100,4,2,1,25,0,1
127655,-100,4,2,1,25,0,0

[HitObjects]
109,192,155,5,0,0:0:0:0:
329,192,155,1,0,0:0:0:0:
182,192,530,1,0,0:0:0:0:
329,192,905,1,0,0:0:0:0:
256,192,1280,1,0,0:0:0:0:
36,192,1655,1,0,0:0:0:0:
329,192,1655,1,0,0:0:0:0:
256,192,2030,1,0,0:0:0:0:
256,192,2405,1,0,0:0:0:0:
182,192,2780,1,0,0:0:0:0:
109,192,3155,1,0,0:0:0:0:
329,192,3155,1,0,0:0:0:0:
256,192,3530,1,0,0:0:0:0:
182,192,3905,1,0,0:0:0:0:
109,192,3905,1,0,0:0:0:0:
329,192,4280,1,0,0:0:0:0:
402,192,4280,1,0,0:0:0:0:
329,192,4655,1,0,0:0:0:0:
475,192,4655,1,0,0:0:0:0:
109,192,5030,1,0,0:0:0:0:
256,192,5217,1,0,0:0:0:0:
256,192,5405,1,0,0:0:0:0:
36,192,6155,1,0,0:0:0:0:
329,192,6155,1,0,0:0:0:0:
182,192,6530,1,0,0:0:0:0:
475,192,6905,1,0,0:0:0:0:
256,192,6905,1,0,0:0:0:0:
402,192,7280,1,0,0:0:0:0:
182,192,7280,1,0,0:0:0:0:
329,192,7655,1,0,0:0:0:0:
109,192,7655,1,0,0:0:0:0:
182,192,8030,1,0,0:0:0:0:
329,192,8405,1,0,0:0:0:0:
402,192,8780,1,0,0:0:0:0:
182,192,9155,128,0,10655:0:0:0:0:
36,192,9155,1,0,0:0:0:0:
402,192,9530,1,0,0:0:0:0:
109,192,9905,1,0,0:0:0:0:
329,192,10280,1,0,0:0:0:0:
36,192,10655,1,0,0:0:0:0:
329,192,10655,1,0,0:0:0:0:
256,192,10842,1,0,0:0:0:0:
109,192,11030,1,0,0:0:0:0:
402,192,11217,1,0,0:0:0:0:
329,192,11405,128,0,12155:0:0:0:0:
109,192,11780,128,0,12155:0:0:0:0:
36,192,12155,1,0,0:0:0:0:
256,192,12155,1,0,0:0:0:0:
329,192,12530,1,0,0:0:0:0:
109,192,12623,1,0,0:0:0:0:
402,192,12717,1,0,0:0:0:0:
182,192,12811,1,0,0:0:0:0:
475,192,12905,128,0,13280:0:0:0:0:
256,192,13280,128,0,13655:0:0:0:0:
36,192,13655,1,0,0:0:0:0:
182,192,13655,1,0,0:0:0:0:
329,192,13842,1,0,0:0:0:0:
475,192,13842,1,0,0:0:0:0:
109,192,14030,1,0,0:0:0:0:
182,192,14030,1,0,0:0:0:0:
402,192,14217,1,0,0:0:0:0:
329,192,14217,1,0,0:0:0:0:
182,192,14405,128,0,15155:0:0:0:0:
36,192,14405,1,0,0:0:0:0:
475,192,14686,1,0,0:0:0:0:
329,192,14780,1,0,0:0:0:0:
36,192,15155,1,0,0:0:0:0:
475,192,15155,1,0,0:0:0:0:
256,192,15342,1,0,0:0:0:0:
36,192,15530,1,0,0:0:0:0:
109,192,15623,1,0,0:0:0:0:
182,192,15717,1,0,0:0:0:0:
256,192,15811,1,0,0:0:0:0:
329,192,15905,1,0,0:0:0:0:
475,192,15905,128,0,16655:0:0:0:0:
182,192,16092,1,0,0:0:0:0:
256,192,16280,128,0,16655:0:0:0:0:
329,192,16655,1,0,0:0:0:0:
36,192,16655,1,0,0:0:0:0:
475,192,16842,1,0,0:0:0:0:
256,192,16842,1,0,0:0:0:0:
182,192,17030,1,0,0:0:0:0:
402,192,17030,1,0,0:0:0:0:
109,192,17217,1,0,0:0:0:0:
329,192,17217,1,0,0:0:0:0:
109,192,17405,1,0,0:0:0:0:
329,192,17405,1,0,0:0:0:0:
182,192,17686,1,0,0:0:0:0:
36,192,17686,1,0,0:0:0:0:
329,192,17780,1,0,0:0:0:0:
475,192,17780,1,0,0:0:0:0:
256,192,18155,1,0,0:0:0:0:
475,192,18155,1,0,0:0:0:0:
402,192,18436,1,0,0:0:0:0:
182,192,18436,1,0,0:0:0:0:
329,192,18530,1,0,0:0:0:0:
109,192,18530,1,0,0:0:0:0:
256,192,18717,1,0,0:0:0:0:
36,192,18717,1,0,0:0:0:0:
329,192,18905,1,0,0:0:0:0:
109,192,18905,128,0,19655:0:0:0:0:
475,192,19280,1,0,0:0:0:0:
402,192,19373,1,0,0:0:0:0:
329,192,19467,1,0,0:0:0:0:
256,192,19561,1,0,0:0:0:0:
182,192,19655,1,0,0:0:0:0:
36,192,19842,1,0,0:0:0:0:
256,192,20030,1,0,0:0:0:0:
402,192,20217,1,0,0:0:0:0:
182,192,20405,1,0,0:0:0:0:
329,192,20592,1,0,0:0:0:0:
109,192,20780,1,0,0:0:0:0:
256,192,20967,1,0,0:0:0:0:
36,192,21155,1,0,0:0:0:0:
182,192,21342,1,0,0:0:0:0:
109,192,21530,1,0,0:0:0:0:
256,192,21717,1,0,0:0:0:0:
182,192,21905,1,0,0:0:0:0:
182,192,22092,1,0,0:0:0:0:
402,192,22280,1,0,0:0:0:0:
475,192,22467,1,0,0:0:0:0:
475,192,22655,1,0,0:0:0:0:
402,192,22842,1,0,0:0:0:0:
329,192,23030,1,0,0:0:0:0:
109,192,23030,1,0,0:0:0:0:
402,192,23217,1,0,0:0:0:0:
182,192,23217,1,0,0:0:0:0:
329,192,23405,1,0,0:0:0:0:
256,192,23592,1,0,0:0:0:0:
36,192,23780,1,0,0:0:0:0:
329,192,23780,1,0,0:0:0:0:
109,192,23967,1,0,0:0:0:0:
402,192,23967,1,0,0:0:0:0:
182,192,24155,128,0,28280:0:0:0:0:
329,192,24155,1,0,0:0:0:0:
36,192,24342,1,0,0:0:0:0:
329,192,24530,1,0,0:0:0:0:
109,192,24717,1,0,0:0:0:0:
402,192,24905,1,0,0:0:0:0:
256,192,25092,1,0,0:0:0:0:
36,192,25280,1,0,0:0:0:0:
402,192,25655,128,0,28280:0:0:0:0:
256,192,29780,1,0,0:0:0:0:
329,192,29967,1,0,0:0:0:0:
402,192,30155,1,0,0:0:0:0:
182,192,30155,1,0,0:0:0:0:
402,192,30530,128,0,30717:0:0:0:0:
475,192,30530,128,0,30717:0:0:0:0:
402,192,30905,128,0,31092:0:0:0:0:
329,192,30905,128,0,31092:0:0:0:0:
329,192,31280,128,0,31467:0:0:0:0:
256,192,31280,128,0,31467:0:0:0:0:
256,192,31655,1,0,0:0:0:0:
36,192,31655,1,0,0:0:0:0:
182,192,31842,1,0,0:0:0:0:
109,192,32030,1,0,0:0:0:0:
329,192,32217,1,0,0:0:0:0:
182,192,32405,128,0,32592:0:0:0:0:
256,192,32405,128,0,32592:0:0:0:0:
329,192,32780,1,0,0:0:0:0:
256,192,32967,1,0,0:0:0:0:
109,192,33155,1,0,0:0:0:0:
329,192,33155,1,0,0:0:0:0:
256,192,33530,128,0,33717:0:0:0:0:
329,192,33530,128,0,33717:0:0:0:0:
182,192,33905,128,0,34092:0:0:0:0:
256,192,33905,128,0,34092:0:0:0:0:
109,192,34280,128,0,34467:0:0:0:0:
182,192,34280,128,0,34467:0:0:0:0:
36,192,34655,128,0,35217:0:0:0:0:
256,192,34655,1,0,0:0:0:0:
182,192,35217,1,0,0:0:0:0:
36,192,35405,128,0,35780:0:0:0:0:
256,192,35405,1,0,0:0:0:0:
182,192,35780,1,0,0:0:0:0:
256,192,35873,1,0,0:0:0:0:
329,192,35967,1,0,0:0:0:0:
402,192,36061,1,0,0:0:0:0:
475,192,36155,1,0,0:0:0:0:
182,192,36155,1,0,0:0:0:0:
256,192,36342,1,0,0:0:0:0:
329,192,36530,128,0,36717:0:0:0:0:
402,192,36530,128,0,36717:0:0:0:0:
256,192,36905,128,0,37092:0:0:0:0:
329,192,36905,128,0,37092:0:0:0:0:
182,192,37280,128,0,37467:0:0:0:0:
256,192,37280,128,0,37467:0:0:0:0:
109,192,37655,128,0,37842:0:0:0:0:
182,192,37655,128,0,37842:0:0:0:0:
182,192,38030,1,0,0:0:0:0:
256,192,38217,1,0,0:0:0:0:
402,192,38405,1,0,0:0:0:0:
329,192,38592,1,0,0:0:0:0:
256,192,38780,1,0,0:0:0:0:
402,192,38967,1,0,0:0:0:0:
36,192,39155,128,0,39342:0:0:0:0:
109,192,39155,128,0,39342:0:0:0:0:
256,192,39530,128,0,39717:0:0:0:0:
329,192,39530,128,0,39717:0:0:0:0:
109,192,39905,128,0,40092:0:0:0:0:
182,192,39905,128,0,40092:0:0:0:0:
402,192,40280,128,0,40655:0:0:0:0:
475,192,40280,128,0,40655:0:0:0:0:
109,192,40655,128,0,40842:0:0:0:0:
329,192,40842,1,0,0:0:0:0:
182,192,41030,128,0,41217:0:0:0:0:
402,192,41217,1,0,0:0:0:0:
109,192,41405,128,0,41592:0:0:0:0:
329,192,41592,1,0,0:0:0:0:
182,192,41780,128,0,41967:0:0:0:0:
402,192,41967,1,0,0:0:0:0:
329,192,42155,128,0,42342:0:0:0:0:
475,192,42342,1,0,0:0:0:0:
256,192,42530,128,0,42717:0:0:0:0:
402,192,42717,1,0,0:0:0:0:
182,192,42905,128,0,43092:0:0:0:0:
329,192,43092,1,0,0:0:0:0:
36,192,43280,1,0,0:0:0:0:
256,192,43280,1,0,0:0:0:0:
36,192,43467,1,0,0:0:0:0:
256,192,43467,1,0,0:0:0:0:
109,192,43655,128,0,43842:0:0:0:0:
182,192,43842,1,0,0:0:0:0:
329,192,44030,128,0,44217:0:0:0:0:
256,192,44217,1,0,0:0:0:0:
36,192,44405,128,0,44592:0:0:0:0:
109,192,44592,1,0,0:0:0:0:
256,192,44780,128,0,44967:0:0:0:0:
182,192,44967,1,0,0:0:0:0:
402,192,45155,128,0,45342:0:0:0:0:
475,192,45342,1,0,0:0:0:0:
329,192,45530,128,0,45717:0:0:0:0:
402,192,45717,1,0,0:0:0:0:
256,192,45905,128,0,46092:0:0:0:0:
329,192,46092,1,0,0:0:0:0:
182,192,46280,128,0,46655:0:0:0:0:
36,192,46280,1,0,0:0:0:0:
329,192,46655,1,0,0:0:0:0:
402,192,46655,1,0,0:0:0:0:
256,192,47030,128,0,47405:0:0:0:0:
475,192,47030,1,0,0:0:0:0:
182,192,47405,128,0,47780:0:0:0:0:
402,192,47405,1,0,0:0:0:0:
109,192,47780,128,0,48155:0:0:0:0:
329,192,47780,1,0,0:0:0:0:
36,192,48155,128,0,48905:0:0:0:0:
402,192,48155,1,0,0:0:0:0:
256,192,48342,1,0,0:0:0:0:
329,192,48530,1,0,0:0:0:0:
182,192,48717,1,0,0:0:0:0:
402,192,48905,128,0,49655:0:0:0:0:
256,192,48905,1,0,0:0:0:0:
182,192,49092,1,0,0:0:0:0:
36,192,49280,1,0,0:0:0:0:
109,192,49467,1,0,0:0:0:0:
182,192,49655,128,0,50030:0:0:0:0:
329,192,49655,1,0,0:0:0:0:
475,192,49842,1,0,0:0:0:0:
256,192,50030,128,0,50405:0:0:0:0:
36,192,50030,1,0,0:0:0:0:
109,192,50217,1,0,0:0:0:0:
329,192,50405,128,0,50780:0:0:0:0:
36,192,50405,1,0,0:0:0:0:
182,192,50592,1,0,0:0:0:0:
402,192,50780,128,0,51155:0:0:0:0:
109,192,50780,1,0,0:0:0:0:
256,192,50967,1,0,0:0:0:0:
475,192,51155,128,0,51717:0:0:0:0:
182,192,51155,1,0,0:0:0:0:
256,192,51342,1,0,0:0:0:0:
109,192,51530,1,0,0:0:0:0:
329,192,51717,1,0,0:0:0:0:
256,192,51905,128,0,52280:0:0:0:0:
475,192,51905,1,0,0:0:0:0:
36,192,52280,1,0,0:0:0:0:
109,192,52373,1,0,0:0:0:0:
182,192,52467,1,0,0:0:0:0:
256,192,52561,1,0,0:0:0:0:
329,192,52655,1,0,0:0:0:0:
475,192,52655,1,0,0:0:0:0:
182,192,52842,1,0,0:0:0:0:
256,192,53030,128,0,53405:0:0:0:0:
36,192,53030,1,0,0:0:0:0:
329,192,53405,128,0,53780:0:0:0:0:
109,192,53405,1,0,0:0:0:0:
402,192,53780,128,0,54155:0:0:0:0:
182,192,53780,1,0,0:0:0:0:
475,192,54155,128,0,54530:0:0:0:0:
256,192,54155,1,0,0:0:0:0:
109,192,54530,1,0,0:0:0:0:
256,192,54717,1,0,0:0:0:0:
402,192,54905,1,0,0:0:0:0:
182,192,54905,1,0,0:0:0:0:
329,192,55092,1,0,0:0:0:0:
109,192,55092,1,0,0:0:0:0:
36,192,55280,1,0,0:0:0:0:
256,192,55280,1,0,0:0:0:0:
109,192,55467,1,0,0:0:0:0:
329,192,55467,1,0,0:0:0:0:
182,192,55655,128,0,56030:0:0:0:0:
402,192,55655,1,0,0:0:0:0:
329,192,55842,1,0,0:0:0:0:
36,192,56030,128,0,56405:0:0:0:0:
475,192,56030,1,0,0:0:0:0:
402,192,56217,1,0,0:0:0:0:
109,192,56405,128,0,56780:0:0:0:0:
256,192,56405,1,0,0:0:0:0:
402,192,56592,1,0,0:0:0:0:
182,192,56780,128,0,57155:0:0:0:0:
329,192,56780,1,0,0:0:0:0:
402,192,56967,1,0,0:0:0:0:
475,192,57155,1,0,0:0:0:0:
256,192,57155,1,0,0:0:0:0:
329,192,57342,1,0,0:0:0:0:
109,192,57530,1,0,0:0:0:0:
182,192,57717,1,0,0:0:0:0:
402,192,57717,1,0,0:0:0:0:
402,192,57905,1,0,0:0:0:0:
182,192,57905,1,0,0:0:0:0:
109,192,58092,1,0,0:0:0:0:
329,192,58092,1,0,0:0:0:0:
256,192,58280,1,0,0:0:0:0:
36,192,58280,1,0,0:0:0:0:
109,192,58467,1,0,0:0:0:0:
329,192,58467,1,0,0:0:0:0:
182,192,58655,1,0,0:0:0:0:
402,192,58655,1,0,0:0:0:0:
182,192,58936,1,0,0:0:0:0:
329,192,58936,1,0,0:0:0:0:
36,192,59030,128,0,59780:0:0:0:0:
475,192,59030,128,0,60155:0:0:0:0:
329,192,59780,1,0,0:0:0:0:
256,192,59873,1,0,0:0:0:0:
182,192,59967,1,0,0:0:0:0:
109,192,60061,1,0,0:0:0:0:
36,192,60155,1,0,0:0:0:0:
256,192,60155,1,0,0:0:0:0:
109,192,60436,1,0,0:0:0:0:
402,192,60436,1,0,0:0:0:0:
182,192,60530,128,0,61280:0:0:0:0:
475,192,60530,128,0,61655:0:0:0:0:
36,192,61280,1,0,0:0:0:0:
109,192,61373,1,0,0:0:0:0:
182,192,61467,1,0,0:0:0:0:
256,192,61561,1,0,0:0:0:0:
329,192,61655,1,0,0:0:0:0:
36,192,61655,1,0,0:0:0:0:
109,192,61936,1,0,0:0:0:0:
402,192,61936,1,0,0:0:0:0:
475,192,62030,1,0,0:0:0:0:
182,192,62030,1,0,0:0:0:0:
256,192,62217,1,0,0:0:0:0:
36,192,62217,1,0,0:0:0:0:
329,192,62405,128,0,63155:0:0:0:0:
109,192,62405,1,0,0:0:0:0:
402,192,62592,1,0,0:0:0:0:
182,192,62780,1,0,0:0:0:0:
475,192,62967,1,0,0:0:0:0:
109,192,63155,1,0,0:0:0:0:
256,192,63342,1,0,0:0:0:0:
36,192,63530,1,0,0:0:0:0:
182,192,63717,1,0,0:0:0:0:
402,192,63905,1,0,0:0:0:0:
256,192,64092,1,0,0:0:0:0:
475,192,64280,1,0,0:0:0:0:
329,192,64467,1,0,0:0:0:0:
329,192,64655,1,0,0:0:0:0:
109,192,64655,1,0,0:0:0:0:
182,192,64936,1,0,0:0:0:0:
36,192,64936,1,0,0:0:0:0:
329,192,65030,128,0,65780:0:0:0:0:
475,192,65030,128,0,66155:0:0:0:0:
109,192,65780,1,0,0:0:0:0:
182,192,65873,1,0,0:0:0:0:
36,192,65967,1,0,0:0:0:0:
256,192,65967,1,0,0:0:0:0:
329,192,66061,1,0,0:0:0:0:
36,192,66155,1,0,0:0:0:0:
402,192,66155,1,0,0:0:0:0:
402,192,66436,1,0,0:0:0:0:
182,192,66436,1,0,0:0:0:0:
329,192,66530,128,0,67280:0:0:0:0:
109,192,66530,128,0,67655:0:0:0:0:
475,192,67280,1,0,0:0:0:0:
402,192,67373,1,0,0:0:0:0:
329,192,67467,1,0,0:0:0:0:
256,192,67561,1,0,0:0:0:0:
475,192,67655,1,0,0:0:0:0:
182,192,67655,1,0,0:0:0:0:
256,192,67936,1,0,0:0:0:0:
402,192,67936,1,0,0:0:0:0:
182,192,68030,1,0,0:0:0:0:
36,192,68030,1,0,0:0:0:0:
329,192,68217,1,0,0:0:0:0:
182,192,68405,128,0,69155:0:0:0:0:
329,192,68592,1,0,0:0:0:0:
402,192,68780,128,0,69155:0:0:0:0:
36,192,69155,1,0,0:0:0:0:
109,192,69342,1,0,0:0:0:0:
256,192,69436,1,0,0:0:0:0:
402,192,69530,1,0,0:0:0:0:
182,192,69717,1,0,0:0:0:0:
329,192,69811,1,0,0:0:0:0:
475,192,69905,1,0,0:0:0:0:
109,192,70092,1,0,0:0:0:0:
256,192,70186,1,0,0:0:0:0:
402,192,70280,1,0,0:0:0:0:
36,192,70467,1,0,0:0:0:0:
182,192,70561,1,0,0:0:0:0:
329,192,70655,1,0,0:0:0:0:
109,192,70842,1,0,0:0:0:0:
256,192,70936,1,0,0:0:0:0:
402,192,71030,1,0,0:0:0:0:
182,192,71217,1,0,0:0:0:0:
329,192,71405,128,0,71780:0:0:0:0:
109,192,71780,128,0,72155:0:0:0:0:
475,192,72155,1,0,0:0:0:0:
256,192,72342,1,0,0:0:0:0:
329,192,72436,1,0,0:0:0:0:
402,192,72530,1,0,0:0:0:0:
36,192,72717,1,0,0:0:0:0:
109,192,72811,1,0,0:0:0:0:
182,192,72905,1,0,0:0:0:0:
329,192,73092,1,0,0:0:0:0:
402,192,73186,1,0,0:0:0:0:
475,192,73280,1,0,0:0:0:0:
182,192,73467,1,0,0:0:0:0:
256,192,73561,1,0,0:0:0:0:
329,192,73655,1,0,0:0:0:0:
109,192,73842,1,0,0:0:0:0:
256,192,74030,1,0,0:0:0:0:
182,192,74217,1,0,0:0:0:0:
109,192,74405,128,0,75155:0:0:0:0:
256,192,74780,128,0,75155:0:0:0:0:
329,192,75155,128,0,78530:0:0:0:0:
36,192,75905,128,0,78530:0:0:0:0:
182,192,79655,1,0,0:0:0:0:
402,192,79655,1,0,0:0:0:0:
256,192,80030,1,0,0:0:0:0:
475,192,80405,1,0,0:0:0:0:
329,192,80405,1,0,0:0:0:0:
402,192,80780,1,0,0:0:0:0:
329,192,81155,1,0,0:0:0:0:
109,192,81155,1,0,0:0:0:0:
256,192,81530,1,0,0:0:0:0:
182,192,81905,1,0,0:0:0:0:
256,192,82280,1,0,0:0:0:0:
329,192,82655,1,0,0:0:0:0:
36,192,82655,1,0,0:0:0:0:
109,192,83030,1,0,0:0:0:0:
182,192,83405,1,0,0:0:0:0:
256,192,83780,1,0,0:0:0:0:
256,192,84155,1,0,0:0:0:0:
402,192,84155,1,0,0:0:0:0:
182,192,84530,1,0,0:0:0:0:
329,192,84717,1,0,0:0:0:0:
329,192,84905,1,0,0:0:0:0:
109,192,85280,1,0,0:0:0:0:
36,192,85655,1,0,0:0:0:0:
256,192,85655,128,0,86405:0:0:0:0:
182,192,86405,128,0,86780:0:0:0:0:
402,192,86405,1,0,0:0:0:0:
109,192,86780,128,0,87155:0:0:0:0:
329,192,86780,1,0,0:0:0:0:
182,192,87155,128,0,87530:0:0:0:0:
402,192,87155,1,0,0:0:0:0:
36,192,87530,128,0,87905:0:0:0:0:
256,192,87530,1,0,0:0:0:0:
109,192,87905,128,0,88280:0:0:0:0:
329,192,87905,1,0,0:0:0:0:
182,192,88280,128,0,88655:0:0:0:0:
402,192,88280,1,0,0:0:0:0:
475,192,88655,128,0,88748:0:0:0:0:
402,192,88655,128,0,88748:0:0:0:0:
402,192,89030,128,0,89123:0:0:0:0:
329,192,89030,128,0,89123:0:0:0:0:
329,192,89405,128,0,89498:0:0:0:0:
256,192,89405,128,0,89498:0:0:0:0:
256,192,89780,128,0,89873:0:0:0:0:
182,192,89780,128,0,89873:0:0:0:0:
182,192,90155,128,0,90248:0:0:0:0:
109,192,90155,128,0,90248:0:0:0:0:
109,192,90905,128,0,90998:0:0:0:0:
36,192,90905,128,0,90998:0:0:0:0:
475,192,91092,1,0,0:0:0:0:
402,192,91186,1,0,0:0:0:0:
329,192,91280,1,0,0:0:0:0:
256,192,91373,1,0,0:0:0:0:
182,192,91467,1,0,0:0:0:0:
109,192,91561,1,0,0:0:0:0:
36,192,91655,1,0,0:0:0:0:
109,192,92405,1,0,0:0:0:0:
329,192,92405,1,0,0:0:0:0:
182,192,92655,1,0,0:0:0:0:
402,192,92655,1,0,0:0:0:0:
256,192,92905,1,0,0:0:0:0:
475,192,92905,1,0,0:0:0:0:
402,192,93155,1,0,0:0:0:0:
182,192,93155,1,0,0:0:0:0:
329,192,93905,1,0,0:0:0:0:
109,192,93905,1,0,0:0:0:0:
36,192,94655,1,0,0:0:0:0:
475,192,94655,1,0,0:0:0:0:
109,192,95405,1,0,0:0:0:0:
402,192,95405,1,0,0:0:0:0:
182,192,96155,1,0,0:0:0:0:
329,192,96155,1,0,0:0:0:0:
256,192,96905,1,0,0:0:0:0:
109,192,96905,1,0,0:0:0:0:
182,192,97155,1,0,0:0:0:0:
329,192,97155,1,0,0:0:0:0:
256,192,97405,1,0,0:0:0:0:
402,192,97405,1,0,0:0:0:0:
329,192,97655,1,0,0:0:0:0:
475,192,97655,1,0,0:0:0:0:
36,192,98405,1,0,0:0:0:0:
256,192,98405,1,0,0:0:0:0:
109,192,98655,1,0,0:0:0:0:
329,192,98655,1,0,0:0:0:0:
182,192,98905,1,0,0:0:0:0:
402,192,98905,1,0,0:0:0:0:
256,192,99155,1,0,0:0:0:0:
475,192,99155,1,0,0:0:0:0:
329,192,99530,1,0,0:0:0:0:
109,192,99530,1,0,0:0:0:0:
182,192,99905,1,0,0:0:0:0:
402,192,99905,1,0,0:0:0:0:
256,192,100280,1,0,0:0:0:0:
475,192,100280,1,0,0:0:0:0:
475,192,100655,128,0,101030:0:0:0:0:
329,192,100655,1,0,0:0:0:0:
402,192,101030,128,0,101405:0:0:0:0:
256,192,101030,1,0,0:0:0:0:
329,192,101405,128,0,101780:0:0:0:0:
182,192,101405,1,0,0:0:0:0:
256,192,101780,128,0,102155:0:0:0:0:
109,192,101780,1,0,0:0:0:0:
475,192,102155,128,0,102530:0:0:0:0:
402,192,102155,128,0,102530:0:0:0:0:
182,192,102530,128,0,102905:0:0:0:0:
109,192,102530,128,0,102905:0:0:0:0:
329,192,102905,128,0,103280:0:0:0:0:
402,192,102905,128,0,103280:0:0:0:0:
109,192,103280,128,0,103655:0:0:0:0:
36,192,103280,128,0,103655:0:0:0:0:
256,192,103655,1,0,0:0:0:0:
475,192,103655,1,0,0:0:0:0:
402,192,104030,1,0,0:0:0:0:
182,192,104030,1,0,0:0:0:0:
329,192,104405,1,0,0:0:0:0:
109,192,104405,1,0,0:0:0:0:
256,192,104780,1,0,0:0:0:0:
36,192,104780,1,0,0:0:0:0:
182,192,105155,1,0,0:0:0:0:
402,192,105155,128,0,105905:0:0:0:0:
256,192,105905,1,0,0:0:0:0:
329,192,106155,1,0,0:0:0:0:
109,192,106155,1,0,0:0:0:0:
256,192,106405,1,0,0:0:0:0:
36,192,106405,1,0,0:0:0:0:
109,192,106655,1,0,0:0:0:0:
329,192,106655,1,0,0:0:0:0:
36,192,107405,1,0,0:0:0:0:
256,192,107405,1,0,0:0:0:0:
109,192,107780,1,0,0:0:0:0:
329,192,107780,1,0,0:0:0:0:
182,192,108155,1,0,0:0:0:0:
402,192,108155,1,0,0:0:0:0:
256,192,108780,1,0,0:0:0:0:
109,192,108780,1,0,0:0:0:0:
329,192,108905,1,0,0:0:0:0:
475,192,108905,1,0,0:0:0:0:
182,192,109280,128,0,109655:0:0:0:0:
256,192,109655,1,0,0:0:0:0:
329,192,109655,1,0,0:0:0:0:
475,192,110030,128,0,110405:0:0:0:0:
256,192,110030,1,0,0:0:0:0:
402,192,110405,128,0,110780:0:0:0:0:
182,192,110405,1,0,0:0:0:0:
329,192,110780,128,0,111155:0:0:0:0:
109,192,110780,1,0,0:0:0:0:
256,192,111155,128,0,111530:0:0:0:0:
36,192,111155,1,0,0:0:0:0:
182,192,111530,128,0,111905:0:0:0:0:
475,192,111530,1,0,0:0:0:0:
109,192,111905,128,0,112280:0:0:0:0:
402,192,111905,1,0,0:0:0:0:
36,192,112280,128,0,112655:0:0:0:0:
329,192,112280,1,0,0:0:0:0:
109,192,112655,128,0,114155:0:0:0:0:
256,192,112655,1,0,0:0:0:0:
475,192,113030,128,0,113155:0:0:0:0:
402,192,113405,128,0,113530:0:0:0:0:
475,192,113780,128,0,113905:0:0:0:0:
256,192,114155,128,0,114905:0:0:0:0:
109,192,114905,1,0,0:0:0:0:
182,192,115092,1,0,0:0:0:0:
256,192,115280,1,0,0:0:0:0:
329,192,115467,1,0,0:0:0:0:
402,192,115655,1,0,0:0:0:0:
109,192,115655,1,0,0:0:0:0:
329,192,115936,1,0,0:0:0:0:
182,192,115936,1,0,0:0:0:0:
36,192,116030,128,0,116780:0:0:0:0:
475,192,116030,128,0,117155:0:0:0:0:
109,192,116780,1,0,0:0:0:0:
182,192,116873,1,0,0:0:0:0:
256,192,116967,1,0,0:0:0:0:
329,192,117061,1,0,0:0:0:0:
402,192,117155,1,0,0:0:0:0:
109,192,117155,1,0,0:0:0:0:
329,192,117436,1,0,0:0:0:0:
36,192,117436,1,0,0:0:0:0:
182,192,117530,128,0,118280:0:0:0:0:
475,192,117530,128,0,118655:0:0:0:0:
36,192,118280,1,0,0:0:0:0:
109,192,118373,1,0,0:0:0:0:
182,192,118467,1,0,0:0:0:0:
256,192,118561,1,0,0:0:0:0:
329,192,118655,1,0,0:0:0:0:
109,192,118655,1,0,0:0:0:0:
36,192,118936,1,0,0:0:0:0:
256,192,118936,1,0,0:0:0:0:
329,192,119030,1,0,0:0:0:0:
109,192,119030,1,0,0:0:0:0:
256,192,119217,1,0,0:0:0:0:
475,192,119217,1,0,0:0:0:0:
182,192,119405,128,0,120155:0:0:0:0:
402,192,119405,1,0,0:0:0:0:
109,192,119592,1,0,0:0:0:0:
329,192,119780,1,0,0:0:0:0:
36,192,119967,1,0,0:0:0:0:
402,192,120155,1,0,0:0:0:0:
256,192,120342,1,0,0:0:0:0:
475,192,120530,1,0,0:0:0:0:
329,192,120717,1,0,0:0:0:0:
109,192,120905,1,0,0:0:0:0:
256,192,121092,1,0,0:0:0:0:
36,192,121280,1,0,0:0:0:0:
182,192,121467,1,0,0:0:0:0:
182,192,121655,1,0,0:0:0:0:
402,192,121655,1,0,0:0:0:0:
329,192,121936,1,0,0:0:0:0:
475,192,121936,1,0,0:0:0:0:
182,192,122030,128,0,122780:0:0:0:0:
36,192,122030,128,0,123155:0:0:0:0:
402,192,122780,1,0,0:0:0:0:
329,192,122873,1,0,0:0:0:0:
256,192,122967,1,0,0:0:0:0:
182,192,123061,1,0,0:0:0:0:
475,192,123155,1,0,0:0:0:0:
109,192,123155,1,0,0:0:0:0:
36,192,123436,1,0,0:0:0:0:
329,192,123436,1,0,0:0:0:0:
402,192,123530,128,0,124655:0:0:0:0:
109,192,123530,128,0,124280:0:0:0:0:
329,192,124280,1,0,0:0:0:0:
256,192,124373,1,0,0:0:0:0:
182,192,124467,1,0,0:0:0:0:
109,192,124561,1,0,0:0:0:0:
36,192,124655,1,0,0:0:0:0:
329,192,124655,1,0,0:0:0:0:
256,192,124936,1,0,0:0:0:0:
109,192,124936,1,0,0:0:0:0:
329,192,125030,1,0,0:0:0:0:
475,192,125030,1,0,0:0:0:0:
402,192,125217,1,0,0:0:0:0:
329,192,125405,128,0,126155:0:0:0:0:
182,192,125592,1,0,0:0:0:0:
109,192,125780,128,0,126155:0:0:0:0:
475,192,126155,1,0,0:0:0:0:
402,192,126342,1,0,0:0:0:0:
256,192,126436,1,0,0:0:0:0:
109,192,126530,1,0,0:0:0:0:
329,192,126717,1,0,0:0:0:0:
182,192,126811,1,0,0:0:0:0:
36,192,126905,1,0,0:0:0:0:
402,192,127092,1,0,0:0:0:0:
256,192,127186,1,0,0:0:0:0:
109,192,127280,1,0,0:0:0:0:
475,192,127467,1,0,0:0:0:0:
329,192,127561,1,0,0:0:0:0:
182,192,127655,1,0,0:0:0:0:
402,192,127842,1,0,0:0:0:0:
256,192,127936,1,0,0:0:0:0:
109,192,128030,1,0,0:0:0:0:
329,192,128217,1,0,0:0:0:0:
182,192,128405,128,0,128780:0:0:0:0:
402,192,128780,128,0,129155:0:0:0:0:
36,192,129155,1,0,0:0:0:0:
256,192,129342,1,0,0:0:0:0:
182,192,129436,1,0,0:0:0:0:
109,192,129530,1,0,0:0:0:0:
475,192,129717,1,0,0:0:0:0:
402,192,129811,1,0,0:0:0:0:
329,192,129905,1,0,0:0:0:0:
182,192,130092,1,0,0:0:0:0:
109,192,130186,1,0,0:0:0:0:
36,192,130280,1,0,0:0:0:0:
329,192,130467,1,0,0:0:0:0:
256,192,130561,1,0,0:0:0:0:
182,192,130655,1,0,0:0:0:0:
402,192,130842,1,0,0:0:0:0:
256,192,131030,1,0,0:0:0:0:
329,192,131217,1,0,0:0:0:0:
402,192,131405,128,0,132155:0:0:0:0:
256,192,131780,128,0,132155:0:0:0:0:
182,192,132155,128,0,136280:0:0:0:0:
475,192,132905,128,0,136280:0:0:0:0:
182,192,138155,1,0,0:0:0:0:
402,192,138155,1,0,0:0:0:0:
256,192,138530,1,0,0:0:0:0:
329,192,138905,1,0,0:0:0:0:
256,192,139280,1,0,0:0:0:0:
182,192,139655,1,0,0:0:0:0:
109,192,140030,1,0,0:0:0:0:
36,192,140405,1,0,0:0:0:0:
109,192,140780,1,0,0:0:0:0:
182,192,141155,1,0,0:0:0:0:
109,192,141530,1,0,0:0:0:0:
329,192,141905,1,0,0:0:0:0:
256,192,142280,1,0,0:0:0:0:
329,192,142655,1,0,0:0:0:0:
182,192,143030,1,0,0:0:0:0:
256,192,143405,1,0,0:0:0:0:
109,192,143780,1,0,0:0:0:0:
329,192,144155,1,0,0:0:0:0:
182,192,144530,1,0,0:0:0:0:
475,192,144905,1,0,0:0:0:0:
256,192,144905,1,0,0:0:0:0:
329,192,145280,1,0,0:0:0:0:
256,192,145655,1,0,0:0:0:0:
475,192,145655,1,0,0:0:0:0:
109,192,146030,1,0,0:0:0:0:
182,192,146405,1,0,0:0:0:0:
256,192,146780,1,0,0:0:0:0:
182,192,147155,1,0,0:0:0:0:
36,192,147155,1,0,0:0:0:0:
329,192,147530,1,0,0:0:0:0:
182,192,147905,1,0,0:0:0:0:
256,192,148155,1,0,0:0:0:0:
329,192,148405,1,0,0:0:0:0:
402,192,148655,1,0,0:0:0:0:
109,192,148655,1,0,0:0:0:0:
