osu file format v14

[General]
AudioFilename: audio.mp3
AudioLeadIn: 0
PreviewTime: 79218
Countdown: 0
SampleSet: Soft
StackLeniency: 0.7
Mode: 0
LetterboxInBreaks: 0
WidescreenStoryboard: 1

[Editor]
Bookmarks: 93,12093,18093,25622,40593,46593,58593,64593,76059,85593,91593,103593,114122,121593,133059,136218,148622
DistanceSpacing: 1.3
BeatDivisor: 1
GridSize: 32
TimelineZoom: 1.1

[Metadata]
Title:carnation
TitleUnicode:carnation
Artist:AAAA
ArtistUnicode:ああああ
Creator:Veridian
Version:noffy's normal
Source:BMS
Tags:piano classical rhythm game stream noffy naotoshi nao tomori monstrata
BeatmapID:1438652
BeatmapSetID:677687

[Difficulty]
HPDrainRate:3
CircleSize:3
OverallDifficulty:4
ApproachRate:4.7
SliderMultiplier:1
SliderTickRate:1

[Events]
//Background and Video events
0,0,"60515982_p0.png",0,0
//Break Periods
2,79593,84357
//Storyboard Layer 0 (Background)
//Storyboard Layer 1 (Fail)
//Storyboard Layer 2 (Pass)
//Storyboard Layer 3 (Foreground)
//Storyboard Sound Samples

[TimingPoints]
-1407,375,4,2,1,20,1,0
4221,-100,4,2,1,50,0,0
4971,-100,4,2,1,20,0,0
6843,-100,4,2,1,40,0,0
8343,-100,4,2,1,50,0,0
9093,-100,4,2,1,60,0,0
11343,-100,4,2,1,50,0,0
11811,-100,4,2,1,40,0,0
12093,-100,4,2,1,40,0,1
12096,-100,4,2,1,50,0,1
12843,-100,4,2,1,50,0,0
16780,-100,4,2,1,65,0,0
18093,-100,4,2,1,80,0,0
19593,-100,4,2,1,40,0,0
21843,-100,4,2,1,30,0,0
22593,-100,4,2,1,45,0,0
24093,-100,4,2,1,50,0,0
25593,-100,4,2,1,5,0,0
30093,-100,4,2,1,30,0,0
34593,-100,4,2,1,40,0,0
35718,-100,4,2,1,20,0,0
36093,-100,4,2,1,60,0,0
36468,-100,4,2,1,40,0,0
40218,-100,4,2,1,86,0,0
40593,-100,4,2,1,50,0,1
42280,-100,4,2,1,65,0,1
43218,-100,4,2,1,75,0,1
43780,-100,4,2,1,50,0,1
44718,-100,4,2,1,65,0,1
46218,-100,4,2,1,75,0,1
46593,-100,4,2,1,35,0,0
49968,-100,4,2,1,65,0,0
50343,-100,4,2,1,35,0,0
51093,-100,4,2,1,65,0,0
51468,-100,4,2,1,35,0,0
52218,-100,4,2,1,20,0,0
52596,-100,4,2,1,50,0,0
57093,-100,4,2,1,60,0,0
57655,-100,4,2,1,70,0,0
58218,-100,4,2,1,80,0,0
58593,-100,4,2,1,90,0,1
63093,-100,4,2,1,50,0,0
64593,-100,4,2,1,100,0,1
67593,-100,4,2,1,85,0,1
70593,-100,4,2,1,75,0,1
71155,-100,4,2,1,60,0,1
71530,-100,4,2,1,80,0,1
71999,-100,4,2,1,35,0,0
72374,-100,4,2,1,5,0,0
72843,-100,4,2,1,35,0,0
75096,-100,4,2,1,50,0,0
78374,-100,4,2,1,50,0,0
85593,-100,4,2,1,40,0,0
88968,-100,4,2,1,30,0,0
90093,-100,4,2,1,50,0,0
91218,-100,4,2,1,70,0,0
91593,-100,4,2,1,50,0,0
91718,-100,4,2,1,20,0,0
92343,-100,4,2,1,25,0,0
97593,-100,4,2,1,40,0,0
99096,-100,4,2,1,60,0,0
100593,-100,4,2,1,40,0,0
102093,-100,4,2,1,50,0,0
102468,-100,4,2,1,60,0,0
102843,-100,4,2,1,75,0,0
103218,-100,4,2,1,90,0,0
103593,-100,4,2,1,100,0,1
103968,-100,4,2,1,50,0,1
104343,-100,4,2,1,50,0,0
106093,-100,4,2,1,70,0,0
106593,-100,4,2,1,85,0,0
112968,-100,4,2,1,5,0,0
113343,-100,4,2,1,35,0,0
115218,-100,4,2,1,50,0,0
115593,-100,4,2,1,90,0,1
120093,-100,4,2,1,50,0,0
121593,-100,4,2,1,100,0,1
124593,-100,4,2,1,90,0,1
126093,-100,4,2,1,70,0,1
126843,-100,4,2,1,85,0,1
127593,-100,4,2,1,96,0,1
128343,-100,4,2,1,100,0,1
128530,-100,4,2,1,80,0,1
129093,-100,4,2,1,80,0,0
129096,-100,4,2,1,30,0,0
130593,-100,4,2,1,40,0,0
131718,-100,4,2,1,55,0,0
132096,-100,4,2,1,50,0,0
133124,-100,4,2,1,5,0,0
136218,-100,4,2,1,5,0,0
138096,-100,4,2,1,50,0,0

[Colours]
Combo1 : 250,63,41
Combo2 : 253,207,123
Combo3 : 210,157,142
Combo4 : 206,114,108
Combo5 : 255,140,85
Combo6 : 255,32,77
Combo7 : 223,57,103

[HitObjects]
41,127,93,6,0,B|142:127|93:237|236:219,1,200,0|0,1:0|0:0,0:0:0:0:
256,123,1218,1,0,0:0:0:0:
306,221,1593,2,0,B|400:228|387:120|474:127,1,200,0|0,0:0|0:0,0:0:0:0:
472,236,2718,1,0,0:0:0:0:
395,315,3093,6,0,P|305:331|196:299,1,200,0|0,1:0|0:0,0:0:0:0:
105,249,4218,1,0,0:0:0:0:
103,139,4593,2,0,P|177:118|256:140,1,150,0|0,0:0|0:0,0:0:0:0:
295,159,5343,2,0,L|393:105,1,100,0|0,0:0|0:0,0:0:0:0:
470,177,6093,6,0,L|382:225,1,100,6|0,1:2|0:0,0:0:0:0:
283,273,6843,1,2,0:0:0:0:
183,225,7218,1,0,0:0:0:0:
83,271,7593,2,0,P|73:221|90:169,2,100,2|0|2,1:2|0:0|0:0,0:0:0:0:
173,336,8718,1,2,0:0:0:0:
266,278,9093,6,0,P|276:227|259:175,1,100,6|0,1:2|0:0,0:0:0:0:
178,112,9843,1,0,0:0:0:0:
240,21,10218,1,2,0:0:0:0:
337,72,10593,2,0,P|387:141|404:252,1,200,2|2,1:2|0:0,0:0:0:0:
157,337,12093,54,0,P|104:349|45:330,1,100,4|0,1:0|0:0,0:0:0:0:
9,298,12655,2,0,L|27:229,1,50,0|0,0:0|1:0,0:0:0:0:
64,126,13218,1,2,0:2:0:0:
171,53,13593,2,0,P|255:35|321:59,1,150,0|2,1:0|0:0,0:0:0:0:
368,90,14343,2,0,L|325:184,1,100,2|0,1:2|0:0,0:0:0:0:
256,290,15093,5,6,1:2:0:0:
186,180,15468,2,0,L|165:134,1,50,0|0,0:0|0:0,0:0:0:0:
136,75,15843,1,0,1:0:0:0:
256,26,16218,1,0,0:0:0:0:
376,75,16593,5,0,0:0:0:0:
376,75,16780,2,0,L|397:29,2,50,2|2|2,1:2|1:2|1:2,0:0:0:0:
340,129,17343,1,2,1:2:0:0:
268,237,17718,1,2,1:2:0:0:
362,326,18093,5,6,1:2:0:0:
362,326,18280,2,0,L|408:305,2,50,0|2|0,0:0|0:2|0:0,0:0:0:0:
305,357,18843,1,2,1:2:0:0:
176,338,19218,2,0,P|149:337|127:327,1,50,0|0,0:0|0:0,0:0:0:0:
93,272,19593,54,0,P|95:218|80:172,1,100,2|2,1:2|0:0,0:0:0:0:
15,61,20343,2,0,P|78:46|136:64,1,100,2|2,1:2|0:0,0:0:0:0:
228,109,21093,2,0,P|282:113|344:84,2,100,2|2|2,1:2|0:2|0:0,0:0:0:0:
20,265,22593,5,2,0:0:0:0:
93,157,22968,1,0,1:0:0:0:
217,193,23343,1,2,0:0:0:0:
222,323,23718,1,0,1:0:0:0:
100,368,24093,1,4,1:2:0:0:
28,186,24655,6,0,P|48:156|79:141,1,50,0|0,0:0|0:0,0:0:0:0:
256,192,25593,12,0,28218,0:0:0:0:
30,279,30093,6,0,P|117:315|215:265,1,200,0|2,1:2|0:0,0:0:0:0:
115,178,31218,1,0,0:0:0:0:
24,86,31593,2,0,P|112:45|202:80,1,200,2|2,1:2|0:0,0:0:0:0:
275,330,33093,54,0,P|362:366|460:316,1,200,2|2,1:2|1:2,0:0:0:0:
362,229,34218,1,0,0:0:0:0:
285,123,34593,2,0,P|382:99|448:133,1,150,2|0,1:2|0:0,0:0:0:0:
474,159,35343,2,0,L|490:272,1,100,2|0,1:2|0:0,0:0:0:0:
379,329,36093,6,0,P|291:370|200:334,1,200,2|2,1:2|1:2,0:0:0:0:
108,242,37218,1,0,0:2:0:0:
229,195,37593,2,0,B|279:178|278:212|327:191,1,100,0|0,1:0|0:0,0:0:0:0:
412,93,38343,1,0,1:0:0:0:
295,35,38718,1,2,0:0:0:0:
176,89,39093,6,0,B|126:106|127:72|78:93,2,100,0|2|0,1:0|0:0|1:0,0:0:0:0:
295,35,40218,1,0,1:0:0:0:
422,51,40593,22,0,P|425:121|405:151,1,100,4|0,1:0|1:0,0:0:0:0:
374,199,41155,1,8,0:0:0:0:
336,251,41343,2,0,P|333:321|353:351,1,100,0|10,1:0|1:2,0:0:0:0:
460,280,42093,1,0,0:0:0:0:
507,158,42468,1,0,0:0:0:0:
410,70,42843,1,2,0:0:0:0:
301,142,43218,1,10,1:2:0:0:
182,196,43593,6,0,P|133:208|85:197,1,100,6|0,1:2|1:0,0:0:0:0:
50,143,44155,1,8,0:0:0:0:
85,88,44343,2,0,P|133:77|181:89,1,100,0|10,1:0|1:2,0:0:0:0:
301,142,45093,1,0,1:0:0:0:
410,70,45468,1,0,0:0:0:0:
507,158,45843,1,0,0:0:0:0:
460,280,46218,1,6,1:2:0:0:
339,289,46593,22,0,P|356:345|402:381,2,100,6|2|0,1:2|0:0|1:0,0:0:0:0:
253,192,47718,1,2,0:0:0:0:
167,291,48093,2,0,P|93:372|11:340,1,200,0|2,1:0|0:0,0:0:0:0:
134,108,49593,6,0,P|87:94|38:101,2,100,2|0|2,0:0|1:0|0:0,0:0:0:0:
236,190,50718,1,0,1:0:0:0:
337,109,51093,2,0,P|419:94|483:143,1,150,0|2,1:0|0:0,0:0:0:0:
501,186,51843,2,0,L|461:284,1,100,0|0,1:0|0:0,0:0:0:0:
354,349,52593,6,0,P|304:363|250:345,2,100,4|2|2,1:0|0:0|1:2,0:0:0:0:
302,229,53718,2,0,P|330:223|358:228,1,50,0|0,0:0|0:0,0:0:0:0:
414,239,54093,2,0,L|448:120,1,100,2|0,1:2|0:0,0:0:0:0:
384,25,54843,1,2,1:2:0:0:
309,131,55218,1,2,0:0:0:0:
192,86,55593,6,0,P|141:75|92:91,2,100,0|2|0,1:0|0:0|1:0,0:0:0:0:
150,209,56718,1,2,1:2:0:0:
201,328,57093,2,0,P|283:343|347:294,1,150,2|2,1:2|0:0,0:0:0:0:
361,249,57843,2,0,L|323:156,1,100,0|0,0:0|1:0,0:0:0:0:
421,70,58593,6,0,L|463:175,1,100,6|0,1:2|0:0,0:0:0:0:
481,290,59343,2,0,P|469:314|446:330,1,50,0|8,1:2|0:0,0:0:0:0:
390,351,59718,1,10,1:2:0:0:
296,260,60093,6,0,L|254:155,1,100,6|2,1:2|0:0,0:0:0:0:
212,45,60843,2,0,P|189:30|161:27,1,50,2|10,0:0|1:2,0:0:0:0:
102,37,61218,1,8,0:0:0:0:
36,149,61593,6,0,L|78:253,1,100,6|2,1:2|1:2,0:0:0:0:
145,348,62343,2,0,P|170:356|197:352,1,50,0|8,1:2|0:0,0:0:0:0:
253,329,62718,1,0,1:2:0:0:
341,233,63093,6,0,P|393:223|441:236,1,100,2|2,0:0|0:0,0:0:0:0:
391,355,63843,1,2,0:0:0:0:
263,331,64218,1,2,0:0:0:0:
137,364,64593,54,0,L|95:259,1,100,6|2,1:2|0:0,0:0:0:0:
77,144,65343,2,0,P|89:120|112:104,1,50,2|10,1:2|0:0,0:0:0:0:
168,83,65718,1,10,0:0:0:0:
297,76,66093,6,0,L|261:183,1,100,6|2,1:2|0:0,0:0:0:0:
224,295,66843,2,0,P|231:321|251:341,1,50,2|10,1:2|0:0,0:0:0:0:
303,372,67218,1,8,1:2:0:0:
430,348,67593,6,0,L|388:244,1,100,6|2,1:2|0:0,0:0:0:0:
321,149,68343,2,0,P|296:141|269:145,1,50,2|8,1:2|0:0,0:0:0:0:
210,162,68718,2,0,P|185:164|161:156,1,50,10|8,1:2|0:0,0:0:0:0:
99,137,69093,70,0,B|49:154|50:120|-3:142,1,100,6|0,0:0|1:0,0:0:0:0:
1,270,69843,2,0,B|49:290|48:256|98:273,1,100,2|8,0:0|1:2,0:0:0:0:
216,329,70593,2,0,B|266:346|265:312|313:332,1,100,2|2,0:0|1:2,0:0:0:0:
436,373,71343,1,2,1:2:0:0:
495,265,71718,1,2,1:2:0:0:
392,184,72093,38,0,B|342:167|343:201|294:180,1,100,0|0,0:0|0:0,0:0:0:0:
189,103,72843,2,0,B|139:120|140:86|91:107,1,100,2|0,0:0|0:0,0:0:0:0:
91,236,73593,2,0,B|137:257|139:229|187:235,1,100,2|0,0:0|0:0,0:0:0:0:
315,264,74343,1,2,0:0:0:0:
439,226,74718,1,0,0:0:0:0:
399,102,75093,6,0,P|381:85|330:75,1,50,0|2,1:2|0:0,0:0:0:0:
256,192,75843,12,0,78374,0:0:0:0:
97,22,85593,6,0,P|132:101|117:180,1,150,2|0,1:2|0:0,0:0:0:0:
98,222,86343,2,0,L|182:294,1,100,2|2,0:0|0:0,0:0:0:0:
279,363,87093,1,0,1:2:0:0:
384,287,87468,2,0,L|459:221,2,100,2|2|2,0:0|0:0|0:0,0:0:0:0:
279,363,88593,6,0,P|227:355|181:317,1,100,6|2,1:2|0:0,0:0:0:0:
134,209,89343,2,0,P|186:201|232:163,1,100,0|2,0:0|0:0,0:0:0:0:
139,74,90093,1,2,0:0:0:0:
17,304,90843,2,0,P|57:332|106:339,1,100,2|0,0:0|1:0,0:0:0:0:
236,324,91593,54,0,L|267:213,1,100,6|0,1:2|1:0,0:0:0:0:
358,139,92343,2,0,P|377:168|381:213,2,66.6666666666667,0|2|2,1:0|0:0|0:0,0:0:0:0:
279,101,93093,1,0,1:0:0:0:
24,154,93843,1,0,1:0:0:0:
279,101,94593,6,0,L|385:136,1,100,0|0,1:0|0:0,0:0:0:0:
488,195,95343,2,0,P|477:254|441:288,1,100,0|0,1:0|0:0,0:0:0:0:
336,343,96093,1,0,1:0:0:0:
79,300,96843,6,0,P|82:338|95:363,2,66.6666666666667,2|2|2,0:0|0:0|0:0,0:0:0:0:
91,213,97593,1,6,1:2:0:0:
350,233,98343,2,0,P|347:271|334:296,2,66.6666666666667,2|2|2,0:0|0:0|0:0,0:0:0:0:
338,146,99093,1,6,1:2:0:0:
216,100,99468,2,0,P|214:59|246:7,2,100,2|2|2,0:0|0:0|0:0,0:0:0:0:
289,207,100593,5,0,1:0:0:0:
217,315,100968,1,0,0:0:0:0:
91,279,101343,1,0,1:0:0:0:
95,149,101718,1,0,0:0:0:0:
216,100,102093,54,0,P|268:111|329:88,2,100,0|2|2,1:0|0:0|1:2,0:0:0:0:
96,48,103218,1,2,0:0:0:0:
53,170,103593,5,6,1:2:0:0:
134,271,103968,2,0,L|197:363,1,100,2|2,0:0|0:0,0:0:0:0:
256,241,104718,1,0,0:0:0:0:
321,353,105093,2,0,L|378:271,1,100,2|2,1:2|0:0,0:0:0:0:
297,69,106093,6,0,P|329:50|373:42,2,66.6666666666667,2|2|6,1:2|1:2|1:2,0:0:0:0:
134,271,107343,5,2,1:2:0:0:
256,313,107718,1,2,0:0:0:0:
380,352,108093,2,0,P|439:299|447:215,1,166.666666666667,2|0,1:2|0:0,0:0:0:0:
432,174,108843,2,0,L|337:227,1,100,2|0,1:2|0:0,0:0:0:0:
256,126,109593,1,0,1:0:0:0:
256,192,109968,12,0,112593,0:0:0:0:
213,106,113343,54,0,P|209:163|175:215,1,100,0|0,0:0|0:0,0:0:0:0:
101,299,114093,1,2,0:0:0:0:
101,299,115593,54,0,P|150:278|203:286,1,100,6|2,1:2|0:0,0:0:0:0:
320,319,116343,2,0,P|350:327|391:318,1,50,0|8,1:0|0:0,0:0:0:0:
432,310,116718,1,8,1:2:0:0:
499,198,117093,6,0,P|450:177|397:185,1,100,6|2,1:2|0:0,0:0:0:0:
280,218,117843,2,0,P|250:226|209:217,1,50,2|8,0:2|1:2,0:0:0:0:
168,209,118218,1,8,0:2:0:0:
101,97,118593,6,0,P|150:76|203:84,1,100,6|2,1:2|0:0,0:0:0:0:
320,117,119343,2,0,P|350:125|391:116,1,50,0|10,1:0|0:0,0:0:0:0:
432,108,119718,1,0,1:2:0:0:
499,218,120093,6,0,P|509:270|496:318,1,100,2|0,0:0|0:0,0:0:0:0:
375,270,120843,1,2,0:0:0:0:
253,316,121218,1,2,0:0:0:0:
198,197,121593,54,0,P|144:183|95:199,1,100,6|2,1:2|0:0,0:0:0:0:
38,308,122343,2,0,P|61:321|95:323,1,50,2|10,1:2|0:0,0:0:0:0:
148,315,122718,1,10,1:2:0:0:
198,197,123093,6,0,P|252:183|301:199,1,100,6|2,1:2|0:0,0:0:0:0:
358,308,123843,2,0,P|335:321|301:323,1,50,2|10,1:2|0:0,0:0:0:0:
248,315,124218,1,8,0:0:0:0:
198,197,124593,6,0,L|198:72,1,100,6|2,1:2|0:0,0:0:0:0:
299,15,125343,2,0,L|314:68,1,50,2|8,1:2|0:0,0:0:0:0:
342,121,125718,2,0,P|365:128|390:126,1,50,10|10,1:2|0:0,0:0:0:0:
454,111,126093,70,0,B|471:161|437:160|459:213,1,100,6|0,0:0|1:0,0:0:0:0:
485,336,126843,2,0,B|435:353|436:319|388:339,1,100,6|8,0:0|1:2,0:0:0:0:
262,375,127593,2,0,B|245:325|279:326|259:278,1,100,6|0,0:0|1:0,0:0:0:0:
204,159,128343,1,4,0:0:0:0:
235,32,128718,1,2,0:0:0:0:
112,74,129093,38,0,B|62:91|63:57|14:78,1,100,0|0,0:0|1:0,0:0:0:0:
59,200,129843,2,0,B|80:249|46:248|63:298,1,100,2|0,0:0|1:0,0:0:0:0:
191,280,130593,2,0,B|237:301|239:273|287:279,1,100,2|2,0:0|0:0,0:0:0:0:
414,314,131343,1,0,0:0:0:0:
440,186,131718,1,2,0:0:0:0:
320,136,132093,6,0,P|288:130|262:138,1,50,2|2,1:2|0:0,0:0:0:0:
256,192,132843,12,0,136218,0:0:0:0:
