osu file format v14

[General]
AudioFilename: audio.mp3
AudioLeadIn: 0
PreviewTime: 79218
Countdown: 0
SampleSet: Soft
StackLeniency: 0.3
Mode: 0
LetterboxInBreaks: 0
WidescreenStoryboard: 1

[Editor]
Bookmarks: 25622,76059,88593,114122,133059,148622
DistanceSpacing: 0.6
BeatDivisor: 8
GridSize: 32
TimelineZoom: 1.9

[Metadata]
Title:carnation
TitleUnicode:carnation
Artist:AAAA
ArtistUnicode:ああああ
Creator:Veridian
Version:nao's another
Source:BMS
Tags:piano classical rhythm game stream noffy naotoshi nao tomori monstrata
BeatmapID:1438651
BeatmapSetID:677687

[Difficulty]
HPDrainRate:6.1
CircleSize:3.9
OverallDifficulty:7.2
ApproachRate:8.4
SliderMultiplier:1.2
SliderTickRate:1

[Events]
//Background and Video events
0,0,"60515982_p0.png",0,0
//Break Periods
2,28218,29028
//Storyboard Layer 0 (Background)
//Storyboard Layer 1 (Fail)
//Storyboard Layer 2 (Pass)
//Storyboard Layer 3 (Foreground)
//Storyboard Sound Samples

[TimingPoints]
-1407,375,4,2,1,20,1,0
93,-133.333333333333,4,2,1,20,0,0
4221,-133.333333333333,4,2,1,50,0,0
4971,-133.333333333333,4,2,1,20,0,0
6843,-133.333333333333,4,2,1,40,0,0
8343,-133.333333333333,4,2,1,50,0,0
9093,-133.333333333333,4,2,1,60,0,0
11343,-133.333333333333,4,2,1,50,0,0
11811,-133.333333333333,4,2,1,40,0,0
12093,-100,4,2,1,50,0,1
12096,-100,4,2,1,50,0,1
12843,-100,4,2,1,50,0,0
16596,-100,4,2,1,50,0,0
16780,-100,4,2,1,65,0,0
18093,-100,4,2,1,65,0,0
19593,-100,4,2,1,40,0,0
21093,-114.942528735632,4,2,1,40,0,0
21843,-133.333333333333,4,2,1,30,0,0
22593,-114.942528735632,4,2,1,45,0,0
24093,-100,4,2,1,50,0,0
25593,-100,4,2,1,35,0,0
30093,-133.333333333333,4,2,1,30,0,0
34593,-133.333333333333,4,2,1,40,0,0
35718,-133.333333333333,4,2,1,20,0,0
36093,-133.333333333333,4,2,1,60,0,0
36468,-133.333333333333,4,2,1,40,0,0
40218,-133.333333333333,4,2,1,86,0,0
40499,-133.333333333333,4,2,1,5,0,0
40593,-90.9090909090909,4,2,1,50,0,1
42280,-90.9090909090909,4,2,1,65,0,1
43218,-90.9090909090909,4,2,1,75,0,1
43780,-90.9090909090909,4,2,1,50,0,1
44718,-90.9090909090909,4,2,1,65,0,1
46218,-90.9090909090909,4,2,1,75,0,1
46593,-133.333333333333,4,2,1,35,0,0
49968,-133.333333333333,4,2,1,65,0,0
50343,-133.333333333333,4,2,1,35,0,0
51093,-133.333333333333,4,2,1,65,0,0
51468,-133.333333333333,4,2,1,35,0,0
52218,-133.333333333333,4,2,1,20,0,0
52593,-100,4,2,1,50,0,0
52596,-100,4,2,1,50,0,0
57093,-100,4,2,1,60,0,0
57655,-100,4,2,1,70,0,0
58218,-100,4,2,1,80,0,0
58593,-90.9090909090909,4,2,1,90,0,1
63093,-133.333333333333,4,2,1,50,0,0
64593,-83.3333333333333,4,2,1,100,0,1
67593,-83.3333333333333,4,2,1,85,0,1
70593,-83.3333333333333,4,2,1,75,0,1
71155,-83.3333333333333,4,2,1,60,0,1
71530,-83.3333333333333,4,2,1,80,0,1
71999,-133.333333333333,4,2,1,35,0,0
72374,-133.333333333333,4,2,1,5,0,0
72843,-153.846153846154,4,2,1,35,0,0
75096,-133.333333333333,4,2,1,50,0,0
78468,-133.333333333333,4,2,1,5,0,0
79593,-133.333333333333,4,2,1,31,0,0
85593,-100,4,2,1,40,0,0
88968,-133.333333333333,4,2,1,30,0,0
90093,-133.333333333333,4,2,1,50,0,0
91030,-100,4,2,1,50,0,0
91218,-133.333333333333,4,2,1,70,0,0
91593,-133.333333333333,4,2,1,50,0,0
91718,-133.333333333333,4,2,1,20,0,0
92343,-133.333333333333,4,2,1,25,0,0
96468,-133.333333333333,4,2,1,25,0,0
97593,-133.333333333333,4,2,1,40,0,0
99096,-133.333333333333,4,2,1,60,0,0
100593,-100,4,2,1,40,0,0
102093,-100,4,2,1,50,0,0
102468,-100,4,2,1,60,0,0
102843,-100,4,2,1,75,0,0
103218,-100,4,2,1,90,0,0
103593,-100,4,2,1,100,0,1
103968,-100,4,2,1,50,0,1
104343,-100,4,2,1,50,0,0
106093,-100,4,2,1,70,0,0
106593,-100,4,2,1,85,0,0
109968,-100,4,2,1,85,0,0
111093,-100,4,2,1,85,0,0
112218,-100,4,2,1,85,0,0
112593,-100,4,2,1,85,0,0
112968,-133.333333333333,4,2,1,5,0,0
113343,-133.333333333333,4,2,1,43,0,0
115218,-100,4,2,1,50,0,0
115593,-90.9090909090909,4,2,1,90,0,1
120093,-100,4,2,1,50,0,0
121593,-83.3333333333333,4,2,1,100,0,1
124593,-83.3333333333333,4,2,1,90,0,1
126093,-83.3333333333333,4,2,1,70,0,1
126843,-83.3333333333333,4,2,1,85,0,1
127593,-83.3333333333333,4,2,1,96,0,1
128343,-83.3333333333333,4,2,1,100,0,1
128530,-83.3333333333333,4,2,1,80,0,1
129093,-166.666666666667,4,2,1,30,0,0
129096,-166.666666666667,4,2,1,30,0,0
131718,-133.333333333333,4,2,1,55,0,0
132096,-133.333333333333,4,2,1,50,0,0
133124,-133.333333333333,4,2,1,5,0,0
136218,-133.333333333333,4,2,1,5,0,0

[Colours]
Combo1 : 250,63,41
Combo2 : 253,207,123
Combo3 : 210,157,142
Combo4 : 206,114,108
Combo5 : 255,140,85
Combo6 : 255,32,77
Combo7 : 223,57,103

[HitObjects]
15,341,93,6,0,P|65:333|111:346,1,90.0000034332277,0|0,1:0|0:0,2:0:0:0:
111,242,843,2,0,P|158:260|191:294,1,90.0000034332277,0|0,0:0|0:0,2:0:0:0:
236,136,1593,2,0,P|254:183|288:216,1,90.0000034332277,0|0,0:0|0:0,2:0:0:0:
346,136,2343,2,0,P|385:167|431:179,1,90.0000034332277,0|0,0:0|0:0,2:0:0:0:
425,288,3093,6,0,P|370:308|339:307,1,90.0000034332277,0|0,1:0|0:0,2:0:0:0:
231,251,3843,2,0,P|186:252|145:270,1,90.0000034332277,0|0,0:0|0:0,2:0:0:0:
114,151,4593,2,0,P|75:174|49:210,1,90.0000034332277,0|0,0:0|0:0,2:0:0:0:
66,296,5155,1,0,0:0:0:0:
66,296,5343,1,0,0:0:0:0:
75,304,5999,6,0,B|71:301|74:303|80:292,1,11.2500004291535,0|0,0:0|0:0,2:0:0:0:
80,301,6093,2,0,P|130:296|173:311,1,90.0000034332277,6|0,1:2|0:0,2:0:0:0:
183,205,6843,2,0,P|228:225|258:260,1,90.0000034332277,2|0,0:0|0:0,2:0:0:0:
326,173,7593,2,0,P|355:213|363:258,1,90.0000034332277,2|0,1:2|0:0,2:0:0:0:
256,350,8343,1,2,0:0:0:0:
274,252,8718,1,2,0:0:0:0:
400,341,9093,6,0,P|418:303|454:273,1,90.0000034332277,6|0,1:2|0:0,2:0:0:0:
381,193,9843,2,0,P|415:169|461:161,1,90.0000034332277,0|2,0:0|0:0,2:0:0:0:
380,90,10593,2,0,L|392:28,3,45.0000017166138,2|0|0|0,1:2|0:0|0:0|0:0,2:0:0:0:
296,127,11343,1,2,0:0:0:0:
217,67,11530,1,0,0:0:0:0:
194,63,11623,1,0,0:0:0:0:
166,62,11718,2,0,L|165:22,2,22.5000008583069,2|2|2,0:0|0:0|0:0,2:0:0:0:
64,122,12093,54,0,P|48:169|78:255,1,120,4|0,1:0|0:0,2:0:0:0:
164,289,12655,1,0,0:0:0:0:
164,289,12749,1,2,0:0:0:0:
164,289,12843,2,0,P|207:275|288:304,1,120,0|2,1:0|0:2,2:0:0:0:
277,294,13593,6,0,P|296:259|300:224,2,60,0|2|0,1:0|0:0|0:0,2:0:0:0:
237,164,14155,1,2,0:0:0:0:
383,194,14343,2,0,P|429:199|478:183,1,90,2|2,1:2|0:0,2:0:0:0:
502,116,14718,2,0,P|450:99|427:81,1,60,0|0,0:0|0:0,2:0:0:0:
302,30,15093,6,0,P|332:27|362:34,1,60,6|0,1:2|0:0,2:0:0:0:
190,95,15468,1,0,0:0:0:0:
178,112,15561,1,0,0:0:0:0:
169,131,15655,2,0,L|171:168,1,30,0|2,0:0|0:0,2:0:0:0:
305,203,15843,1,0,1:0:0:0:
363,138,16030,2,0,L|358:90,4,30,0|0|0|2|0,0:0|0:0|0:0|0:0|0:0,2:0:0:0:
438,66,16593,1,0,0:0:0:0:
460,242,16780,5,2,1:2:0:0:
363,138,16968,1,2,1:2:0:0:
512,148,17155,1,2,1:2:0:0:
349,274,17343,1,2,1:2:0:0:
169,178,17624,1,2,0:0:0:0:
169,178,17718,1,2,1:2:0:0:
58,256,17905,53,0,0:0:0:0:
58,256,17999,1,2,0:0:0:0:
58,256,18093,2,0,P|38:314|47:358,1,90,6|2,1:2|0:0,2:0:0:0:
115,366,18468,2,0,P|149:343|178:334,1,60,2|0,0:2|0:0,2:0:0:0:
267,275,18843,2,0,P|301:309|316:343,1,60,2|0,1:2|0:0,2:0:0:0:
423,255,19218,1,0,0:0:0:0:
411,282,19311,1,0,0:0:0:0:
407,312,19405,2,0,L|414:362,1,30,0|2,0:0|0:0,2:0:0:0:
492,373,19593,6,0,P|519:318|501:258,1,120,2|2,1:2|0:0,2:0:0:0:
407,193,20155,1,0,0:0:0:0:
329,276,20343,2,0,P|278:294|198:265,1,120,2|2,1:2|0:0,2:0:0:0:
353,118,21093,6,0,P|404:100|469:119,1,104.40000087616,2|2,1:2|0:2,2:0:0:0:
509,208,21843,2,0,P|451:225|414:214,1,90.0000034332277,2|0,0:0|0:0,2:0:0:0:
350,284,22405,1,0,0:0:0:0:
261,225,22593,6,0,P|242:258|235:286,1,52.2000004380798,2|0,0:0|0:0,2:0:0:0:
139,265,22968,2,0,P|147:313|158:331,1,52.2000004380798,0|0,1:0|0:0,2:0:0:0:
44,231,23343,2,0,P|47:199|43:171,1,52.2000004380798,2|0,0:0|0:0,2:0:0:0:
148,150,23718,2,0,P|134:116|113:90,1,52.2000004380798,0|0,1:0|0:0,2:0:0:0:
230,29,24093,54,0,P|247:70|275:100,2,60,4|0|0,1:2|0:0|0:0,2:0:0:0:
352,19,24655,1,0,0:0:0:0:
352,19,24749,1,2,0:0:0:0:
352,19,24843,2,0,P|403:17|456:82,1,120,0|0,0:0|0:0,2:0:0:0:
379,105,25593,1,0,0:0:0:0:
379,105,29718,5,0,0:0:0:0:
307,129,29905,1,0,0:0:0:0:
275,200,30093,1,0,1:2:0:0:
458,111,30468,1,2,0:0:0:0:
299,277,30843,1,2,0:0:0:0:
512,163,31218,1,0,0:0:0:0:
390,297,31593,2,0,P|406:250|444:216,1,90.0000034332277,2|0,1:2|0:0,2:0:0:0:
510,233,32155,1,0,0:0:0:0:
474,302,32343,2,0,P|414:287|382:302,1,90.0000034332277,2|0,0:0|0:0,2:0:0:0:
332,353,32905,1,2,0:0:0:0:
253,304,33093,6,0,P|238:262|252:210,1,90.0000034332277,2|0,1:2|0:0,2:0:0:0:
367,127,33843,2,0,P|381:168|373:212,1,90.0000034332277,2|0,1:2|0:0,2:0:0:0:
298,176,34405,1,0,0:0:0:0:
298,176,34593,2,0,P|253:160|204:164,1,90.0000034332277,2|0,1:2|0:0,2:0:0:0:
145,218,35155,1,0,0:0:0:0:
78,120,35343,2,0,P|71:83|67:68,1,45.0000017166138,2|0,1:2|0:0,2:0:0:0:
152,57,35718,2,0,L|158:20,3,22.5000008583069,2|2|2|2,0:0|0:0|0:0|0:0,2:0:0:0:
222,97,36093,6,0,P|261:103|317:73,1,90.0000034332277,2|2,1:2|0:0,2:0:0:0:
407,147,36843,2,0,P|422:194|411:234,1,90.0000034332277,2|0,1:2|0:2,2:0:0:0:
324,293,37405,1,2,0:0:0:0:
324,293,37499,1,0,0:0:0:0:
324,293,37593,2,0,P|280:275|233:284,1,90.0000034332277,0|0,1:0|0:0,2:0:0:0:
173,345,38155,1,2,0:0:0:0:
85,301,38343,2,0,P|80:269|84:239,1,45.0000017166138,0|0,1:0|0:0,2:0:0:0:
163,172,38718,2,0,P|168:211|166:231,1,45.0000017166138,2|0,0:0|0:0,2:0:0:0:
254,251,39093,54,0,P|294:262|353:239,1,90.0000034332277,0|2,1:0|0:0,2:0:0:0:
394,166,39655,1,0,0:0:0:0:
394,166,39749,1,2,0:0:0:0:
394,166,39843,1,0,1:0:0:0:
237,65,40218,54,0,P|196:106|190:130,1,67.5000025749207,0|0,1:0|0:0,2:0:0:0:
190,192,40593,6,0,P|132:213|107:210,1,66.0000020141602,4|8,1:0|0:0,2:0:0:0:
94,202,40874,1,2,0:0:0:0:
54,210,40968,2,0,P|50:249|63:284,1,66.0000020141602,0|8,1:0|0:0,2:0:0:0:
147,324,41343,1,0,1:0:0:0:
245,273,41530,1,10,0:0:0:0:
279,266,41624,1,0,0:0:0:0:
315,265,41718,2,0,L|362:274,1,33.0000010070801,10|0,1:2|0:0,2:0:0:0:
372,191,41905,2,0,L|421:181,1,33.0000010070801,10|0,0:0|0:0,2:0:0:0:
336,114,42093,1,0,0:0:0:0:
214,200,42280,5,8,1:2:0:0:
181,195,42373,1,2,0:0:0:0:
148,191,42467,1,0,0:0:0:0:
98,112,42655,1,10,1:2:0:0:
130,107,42748,1,0,0:0:0:0:
163,103,42843,2,0,P|218:108|251:92,1,66.0000020141602,2|10,0:0|1:2,2:0:0:0:
336,37,43218,2,0,L|351:89,1,33.0000010070801,10|0,1:2|0:0,2:0:0:0:
433,167,43405,2,0,L|444:121,1,33.0000010070801,8|0,1:2|0:0,2:0:0:0:
499,50,43593,69,6,1:2:0:0:
346,69,43780,1,8,0:0:0:0:
315,80,43873,1,2,0:0:0:0:
283,89,43967,1,0,1:0:0:0:
216,170,44155,1,8,0:0:0:0:
247,179,44249,1,2,0:0:0:0:
278,187,44342,1,0,1:0:0:0:
310,193,44436,1,0,0:0:0:0:
342,200,44530,2,0,L|362:257,1,33.0000010070801,10|0,0:0|0:0,2:0:0:0:
275,330,44718,6,0,L|278:284,1,33.0000010070801,10|0,1:2|0:0,2:0:0:0:
366,333,44905,2,0,L|376:379,3,33.0000010070801,10|0|0|0,0:0|0:0|1:0|0:0,2:0:0:0:
452,313,45280,2,0,L|460:281,3,33.0000010070801,10|2|0|0,1:2|0:0|0:0|0:0,2:0:0:0:
374,242,45655,2,0,L|362:184,2,33.0000010070801,0|2|8,0:0|0:0|1:2,2:0:0:0:
454,192,46030,1,0,0:0:0:0:
454,159,46124,1,0,0:0:0:0:
456,126,46218,1,6,1:2:0:0:
260,176,46593,21,6,1:2:0:0:
159,101,46968,2,0,P|104:96|55:116,2,90.0000034332277,2|0|2,0:0|1:0|0:0,2:0:0:0:
120,206,48093,6,0,P|78:199|27:225,1,90.0000034332277,0|0,1:0|0:0,2:0:0:0:
69,318,48843,2,0,P|89:284|101:266,1,45.0000017166138,2|0,0:0|0:0,2:0:0:0:
173,273,49218,2,0,P|194:299|215:321,2,45.0000017166138,2|0|2,0:0|0:0|0:0,2:0:0:0:
314,228,49968,1,0,1:0:0:0:
384,336,50343,2,0,P|421:325|448:321,1,45.0000017166138,2|2,0:0|0:0,2:0:0:0:
498,244,50718,2,0,P|510:273|518:307,1,45.0000017166138,0|0,1:0|0:0,2:0:0:0:
403,226,51093,6,0,P|394:199|399:130,1,90.0000034332277,0|0,1:0|0:0,2:0:0:0:
474,64,51655,1,2,0:0:0:0:
477,174,51843,2,0,P|439:151|384:136,1,90.0000034332277,0|0,1:0|0:0,2:0:0:0:
312,178,52405,1,2,0:0:0:0:
298,206,52499,1,0,0:0:0:0:
295,241,52593,6,0,P|259:256|210:259,1,60,4|0,1:0|0:0,2:0:0:0:
150,204,52968,2,0,P|180:153|238:171,1,120,2|2,0:0|1:2,2:0:0:0:
89,276,53718,1,0,0:0:0:0:
47,191,53905,1,0,0:0:0:0:
39,174,53999,1,2,0:0:0:0:
38,149,54093,54,0,P|63:120|144:126,1,120,2|0,1:2|0:0,2:0:0:0:
230,181,54655,1,0,0:0:0:0:
286,92,54843,2,0,P|285:54|272:14,1,60,2|0,1:2|0:0,2:0:0:0:
382,75,55218,2,0,P|425:77|453:71,1,60,2|0,0:0|0:0,2:0:0:0:
491,178,55593,6,0,P|430:166|368:188,1,120,0|2,1:0|0:0,2:0:0:0:
296,259,56155,1,0,0:0:0:0:
279,265,56249,1,2,0:0:0:0:
263,266,56343,2,0,P|248:218|252:196,1,60,0|0,1:0|0:0,2:0:0:0:
430,268,56718,2,0,P|428:297|415:324,1,60,2|0,1:2|0:0,2:0:0:0:
259,367,57093,6,0,P|213:347|132:352,1,120,2|0,1:2|0:0,2:0:0:0:
48,381,57655,1,2,0:0:0:0:
69,283,57843,1,0,0:0:0:0:
207,346,58030,5,2,0:0:0:0:
136,165,58218,1,0,1:0:0:0:
0,314,58405,1,2,0:0:0:0:
123,289,58593,6,0,P|177:285|239:314,1,99.0000030212403,6|2,1:2|0:0,2:0:0:0:
294,324,58968,2,0,P|305:280|307:240,1,66.0000020141602,0|10,0:0|0:0,2:0:0:0:
295,226,59249,1,2,0:0:0:0:
277,200,59343,1,0,1:2:0:0:
383,120,59530,1,8,0:0:0:0:
372,155,59624,1,2,0:0:0:0:
371,197,59718,2,0,L|376:240,1,33.0000010070801,10|0,1:2|0:0,2:0:0:0:
459,286,59905,2,0,L|466:228,1,33.0000010070801,10|0,0:0|0:0,2:0:0:0:
365,343,60093,6,0,P|316:319|272:324,1,99.0000030212403,6|0,1:2|0:0,2:0:0:0:
202,364,60468,2,0,P|149:365|118:349,1,66.0000020141602,2|8,0:0|0:0,2:0:0:0:
114,336,60749,1,0,0:0:0:0:
105,309,60843,1,2,0:0:0:0:
182,176,61030,1,10,1:2:0:0:
193,206,61124,1,0,0:0:0:0:
197,243,61218,2,0,L|189:294,1,33.0000010070801,8|2,0:0|0:0,2:0:0:0:
296,229,61405,2,0,L|288:181,1,33.0000010070801,10|2,1:2|0:0,2:0:0:0:
384,286,61593,6,0,P|433:285|480:239,1,99.0000030212403,6|0,1:2|0:0,2:0:0:0:
458,180,61968,2,0,P|456:145|467:105,1,66.0000020141602,2|8,1:2|0:0,2:0:0:0:
349,54,62343,2,0,P|286:45|230:66,1,99.0000030212403,0|2,1:2|0:0,2:0:0:0:
199,108,62718,2,0,P|190:170|195:199,1,66.0000020141602,0|10,1:2|0:0,2:0:0:0:
201,208,62999,1,2,0:0:0:0:
220,244,63093,6,0,P|266:233|318:246,1,90.0000034332277,2|2,0:0|0:0,2:0:0:0:
351,326,63655,1,2,0:0:0:0:
351,326,63843,2,0,P|304:338|250:323,1,90.0000034332277,2|2,0:0|0:0,2:0:0:0:
307,240,64405,1,2,1:2:0:0:
454,328,64593,54,0,P|448:274|481:216,1,107.999996704102,6|0,1:2|0:0,2:0:0:0:
497,150,64968,2,0,P|460:128|409:126,1,71.9999978027344,2|8,0:0|0:0,2:0:0:0:
401,130,65249,1,0,0:0:0:0:
375,147,65343,1,2,1:2:0:0:
274,98,65530,1,10,0:0:0:0:
247,71,65624,1,0,0:0:0:0:
209,62,65718,1,10,0:0:0:0:
171,66,65811,1,2,0:0:0:0:
136,92,65905,2,0,L|126:149,1,35.9999989013672,8|2,1:2|0:0,2:0:0:0:
44,146,66093,6,0,P|42:197|93:266,1,107.999996704102,6|0,1:2|0:0,2:0:0:0:
142,268,66468,2,0,P|189:250|239:257,1,71.9999978027344,2|8,0:0|0:0,2:0:0:0:
247,264,66749,1,0,0:0:0:0:
277,289,66843,1,2,1:2:0:0:
383,358,67030,1,10,0:0:0:0:
417,366,67123,1,0,0:0:0:0:
447,348,67217,1,8,1:2:0:0:
456,314,67311,1,2,0:0:0:0:
439,283,67405,2,0,L|428:224,1,35.9999989013672,8|2,0:0|0:0,2:0:0:0:
340,166,67593,6,0,P|375:137|460:133,1,107.999996704102,6|0,1:2|0:0,2:0:0:0:
506,168,67968,2,0,P|516:125|509:88,2,71.9999978027344,2|8|2,0:0|0:0|1:2,2:0:0:0:
394,276,68530,1,8,0:0:0:0:
394,276,68624,1,2,0:0:0:0:
394,276,68718,1,10,1:2:0:0:
358,270,68811,1,2,0:0:0:0:
322,274,68905,2,0,L|254:261,1,35.9999989013672,8|0,0:0|0:0,2:0:0:0:
209,344,69093,70,0,P|162:341|89:372,1,107.999996704102,6|0,0:0|0:0,2:0:0:0:
37,320,69468,2,0,P|19:277|34:207,1,107.999996704102,0|0,1:0|0:0,2:0:0:0:
94,171,69843,2,0,P|129:188|213:177,1,107.999996704102,2|0,0:0|0:0,2:0:0:0:
265,140,70218,2,0,P|254:100|261:43,1,71.9999978027344,8|8,1:2|0:0,2:0:0:0:
284,40,70499,1,0,0:0:0:0:
328,44,70593,6,0,P|362:65|447:55,1,107.999996704102,2|2,0:0|0:0,2:0:0:0:
500,33,70968,2,0,P|511:83|500:134,1,71.9999978027344,2|8,1:2|0:0,2:0:0:0:
438,179,71343,1,2,1:2:0:0:
330,149,71530,1,8,0:0:0:0:
294,141,71623,1,0,0:0:0:0:
259,143,71718,2,0,L|206:156,1,35.9999989013672,2|2,1:2|0:0,2:0:0:0:
132,236,71905,1,2,0:0:0:0:
124,273,71999,1,4,0:0:0:0:
136,298,72843,22,0,P|168:333|187:364,1,77.9999964294435,2|0,0:0|0:0,2:0:0:0:
107,370,73593,2,0,P|121:324|138:292,1,77.9999964294435,2|0,0:0|0:0,2:0:0:0:
183,358,74343,2,0,P|136:368|100:369,1,77.9999964294435,2|0,0:0|0:0,2:0:0:0:
223,270,75093,6,0,L|222:258,4,9.74999955368044,2|0|0|2|0,0:0|0:0|0:0|0:0|0:0,0:0:0:0:
256,192,75843,12,0,78468,0:0:0:0:
255,192,79593,6,0,L|252:180,2,11.2500004291535,0|0|0,0:0|0:0|0:0,2:0:0:0:
333,188,79968,1,0,0:0:0:0:
411,206,80343,1,2,0:0:0:0:
484,237,80718,1,0,0:0:0:0:
474,159,81093,1,0,0:0:0:0:
399,181,81468,1,0,0:0:0:0:
332,225,81843,1,2,0:0:0:0:
274,279,82218,1,0,0:0:0:0:
255,192,82593,5,2,0:0:0:0:
333,188,82968,1,0,0:0:0:0:
411,206,83343,1,2,0:0:0:0:
484,237,83718,1,0,0:0:0:0:
474,159,84093,1,0,0:0:0:0:
399,181,84468,1,0,0:0:0:0:
332,225,84655,1,2,0:0:0:0:
332,225,84843,1,2,0:0:0:0:
274,279,85218,1,0,0:0:0:0:
184,215,85499,2,0,B|168:210,1,11.2500004291535,0|0,0:0|0:0,2:0:0:0:
188,220,85593,54,0,P|178:258|184:282,3,60,2|0|0|0,1:2|0:0|0:0|0:0,2:0:0:0:
271,273,86343,2,0,P|274:243|265:215,1,60,2|0,0:0|0:0,2:0:0:0:
357,187,86718,2,0,P|388:170|420:179,1,60,2|0,0:0|0:0,2:0:0:0:
499,177,87093,6,0,P|516:127|463:104,1,120,0|2,1:2|0:0,2:0:0:0:
382,60,87843,2,0,P|377:23|446:40,1,120,2|2,0:0|0:0,2:0:0:0:
385,147,88593,6,0,P|323:130|272:161,1,120,6|2,1:2|0:0,2:0:0:0:
204,116,89343,2,0,P|196:167|215:208,1,90.0000034332277,0|2,0:0|0:0,2:0:0:0:
294,244,90093,6,0,P|337:229|383:243,1,90.0000034332277,2|0,0:0|0:0,2:0:0:0:
421,306,90655,1,0,0:0:0:0:
458,236,90843,1,2,0:0:0:0:
417,168,91030,1,2,0:0:0:0:
397,159,91123,1,0,0:0:0:0:
372,157,91218,2,0,L|330:154,1,22.5000008583069,0|2,1:0|0:0,2:0:0:0:
286,228,91405,2,0,L|244:231,1,22.5000008583069,0|2,0:0|0:0,2:0:0:0:
341,303,91593,53,6,1:2:0:0:
238,361,91968,2,0,P|201:340|135:346,1,90.0000034332277,0|0,1:0|1:0,2:0:0:0:
89,274,92593,2,0,P|71:301|60:348,1,60.0000022888184,2|2,0:0|0:0,2:0:0:0:
176,234,93093,2,0,P|185:184|164:124,1,90.0000034332277,0|0,1:0|0:0,2:0:0:0:
10,187,93843,2,0,P|60:196|120:175,1,90.0000034332277,0|0,1:0|0:0,2:0:0:0:
130,74,94593,6,0,L|132:29,2,30.0000011444092
205,120,94968,2,0,L|203:165,2,30.0000011444092
117,171,95343,2,0,L|116:201,2,30.0000011444092
189,276,95718,2,0,L|191:247,2,30.0000011444092
267,170,96093,5,0,1:0:0:0:
267,170,96218,2,0,L|270:217,1,30.0000011444092,2|0,0:0|0:0,2:0:0:0:
198,286,96468,1,0,1:0:0:0:
198,286,96593,2,0,L|194:332,1,30.0000011444092,2|0,0:0|0:0,2:0:0:0:
327,357,96843,5,2,0:0:0:0:
436,271,97093,1,2,0:0:0:0:
301,224,97343,1,2,0:0:0:0:
400,335,97593,54,0,P|455:334|492:347,1,90.0000034332277,6|0,1:2|0:0,2:0:0:0:
440,242,98343,5,2,0:0:0:0:
466,109,98593,1,2,0:0:0:0:
331,156,98843,1,2,0:0:0:0:
503,184,99093,5,6,1:2:0:0:
340,71,99468,1,2,0:0:0:0:
356,267,99843,1,2,0:0:0:0:
466,109,100218,1,2,0:0:0:0:
312,171,100593,6,0,L|238:166,2,40,0|2|2,1:0|0:0|0:0,2:0:0:0:
218,253,100968,2,0,L|292:248,2,40,0|2|2,0:0|0:0|0:0,2:0:0:0:
338,330,101343,2,0,L|298:332,2,40,0|2|2,1:0|0:0|0:0,2:0:0:0:
352,248,101718,2,0,L|391:250,2,40,0|2|2,0:0|0:0|0:0,2:0:0:0:
457,318,102093,53,0,1:0:0:0:
482,272,102218,1,2,0:0:0:0:
476,219,102343,1,2,0:0:0:0:
440,181,102468,5,2,0:0:0:0:
402,217,102593,1,2,0:0:0:0:
349,223,102718,1,0,0:0:0:0:
303,198,102843,5,2,1:2:0:0:
313,147,102968,1,0,0:0:0:0:
279,108,103093,1,2,0:0:0:0:
228,111,103218,2,0,L|225:84,1,20,2|2,1:2|0:0,2:0:0:0:
195,150,103343,2,0,L|173:114,1,40,2|0,0:0|0:0,2:0:0:0:
103,194,103593,6,0,P|58:215|-19:189,1,120,6|2,1:2|0:0,2:0:0:0:
170,86,104343,2,0,P|210:114|226:194,1,120,2|0,0:0|0:0,2:0:0:0:
103,194,105093,1,2,1:2:0:0:
288,291,105468,1,2,0:0:0:0:
254,309,105593,1,0,0:0:0:0:
214,311,105718,1,0,0:0:0:0:
178,295,105843,1,2,0:0:0:0:
222,173,106093,53,2,1:2:0:0:
348,218,106343,1,2,1:2:0:0:
178,295,106593,6,0,P|113:279|56:315,1,120,6|0,1:2|0:0,2:0:0:0:
348,218,107343,2,0,P|401:241|458:224,1,120,2|2,1:2|0:0,2:0:0:0:
257,173,108093,2,0,P|247:221|280:291,1,120,2|0,1:2|0:0,2:0:0:0:
424,290,108718,1,2,0:0:0:0:
424,290,108843,1,2,1:2:0:0:
358,190,109124,1,2,0:0:0:0:
358,190,109218,2,0,L|363:136,3,30,0|2|2|2,0:0|0:0|0:0|0:0,2:0:0:0:
427,97,109593,6,0,P|382:70|304:86,1,120,0|0,1:0|0:0,2:0:0:0:
238,161,110155,1,2,0:0:0:0:
208,166,110248,1,0,0:0:0:0:
179,172,110343,2,0,L|173:127,1,30,2|2,1:2|0:0,2:0:0:0:
87,186,110530,2,0,L|84:216,1,30,2|0,0:0|0:0,2:0:0:0:
157,279,110718,1,0,0:0:0:0:
257,214,110905,1,2,2:2:0:0:
297,204,110999,1,2,0:0:0:0:
341,216,111093,5,2,1:2:0:0:
366,231,111186,1,2,0:0:0:0:
395,234,111280,1,2,0:0:0:0:
422,222,111374,1,2,0:0:0:0:
443,201,111468,2,0,L|455:155,4,30,2|0|0|2|0,0:0|0:0|0:0|0:0|2:0,2:0:0:0:
493,282,112030,1,2,0:0:0:0:
504,316,112124,1,2,0:0:0:0:
497,355,112218,2,0,P|450:366|405:353,1,80,2|2,0:0|0:0,2:0:0:0:
346,305,112593,54,0,P|304:328|220:318,1,120,6|0,1:2|0:0,2:0:0:0:
185,239,113343,2,0,P|239:231|283:239,1,90.0000034332277,0|0,0:0|0:0,2:0:0:0:
346,305,113905,1,0,0:0:0:0:
346,305,113999,1,0,0:0:0:0:
346,305,114093,2,0,P|387:311|443:301,1,90.0000034332277,0|0,0:0|0:0,2:0:0:0:
461,139,114843,5,0,0:0:0:0:
429,107,115030,1,0,0:0:0:0:
378,98,115218,1,0,0:0:0:0:
325,128,115405,1,2,0:0:0:0:
294,243,115593,37,6,1:2:0:0:
133,124,115874,1,0,0:0:0:0:
133,124,115968,1,2,0:0:0:0:
87,241,116155,1,10,0:0:0:0:
87,241,116249,1,2,0:0:0:0:
87,241,116343,2,0,L|128:247,1,33.0000010070801,0|2,1:0|0:0,2:0:0:0:
194,306,116530,2,0,L|246:293,1,33.0000010070801,8|2,0:0|0:0,2:0:0:0:
286,225,116718,1,8,1:2:0:0:
411,311,116905,1,10,0:0:0:0:
457,306,116999,1,0,0:0:0:0:
502,299,117093,5,6,1:2:0:0:
419,150,117374,1,0,0:0:0:0:
419,150,117468,1,2,0:0:0:0:
322,204,117655,1,8,0:0:0:0:
299,219,117749,1,0,0:0:0:0:
274,231,117843,2,0,L|228:236,1,33.0000010070801,2|0,0:2|0:0,2:0:0:0:
144,156,118030,1,8,1:2:0:0:
120,189,118124,1,0,0:0:0:0:
108,222,118218,1,8,0:2:0:0:
189,340,118405,1,10,1:2:0:0:
228,322,118499,1,2,0:0:0:0:
271,315,118593,5,6,1:2:0:0:
447,366,118874,1,0,0:0:0:0:
447,366,118968,1,2,0:0:0:0:
364,212,119155,1,10,0:0:0:0:
361,316,119343,2,0,P|400:284|468:270,1,99.0000030212403,0|0,1:0|0:0,2:0:0:0:
493,189,119718,2,0,L|513:136,3,33.0000010070801,0|2|10|0,1:2|0:0|0:0|0:0,2:0:0:0:
401,186,120093,6,0,P|362:176|331:175,1,60,2|0,0:0|0:0,2:0:0:0:
273,272,120468,2,0,P|228:278|193:274,1,60,0|2,0:0|0:0,2:0:0:0:
127,194,120843,2,0,L|121:117,1,60,2|0,0:0|0:0,2:0:0:0:
14,99,121218,1,2,0:0:0:0:
141,22,121405,1,2,0:0:0:0:
299,116,121593,53,6,1:2:0:0:
221,190,121874,1,0,0:0:0:0:
221,190,121968,1,2,0:0:0:0:
141,252,122155,1,8,0:0:0:0:
162,282,122248,1,0,0:0:0:0:
177,316,122343,2,0,L|181:367,1,35.9999989013672,2|0,1:2|0:0,2:0:0:0:
288,318,122530,1,10,0:0:0:0:
298,280,122623,1,0,0:0:0:0:
305,243,122718,2,0,L|301:192,1,35.9999989013672,10|2,1:2|0:0,2:0:0:0:
362,113,122905,1,10,0:0:0:0:
383,78,122999,1,2,0:0:0:0:
410,111,123093,5,6,1:2:0:0:
512,215,123374,1,2,0:0:0:0:
512,215,123468,1,2,0:0:0:0:
406,290,123655,1,8,0:0:0:0:
414,203,123843,1,2,1:2:0:0:
485,295,124030,2,0,L|495:354,1,35.9999989013672,10|0,0:0|0:0,2:0:0:0:
326,328,124218,2,0,L|332:292,1,35.9999989013672,8|2,0:0|0:0,2:0:0:0:
414,203,124405,1,10,1:2:0:0:
412,161,124499,1,2,0:0:0:0:
391,125,124593,5,6,1:2:0:0:
239,208,124874,1,0,0:0:0:0:
239,208,124968,1,2,0:0:0:0:
273,76,125155,1,8,0:0:0:0:
306,101,125249,1,0,0:0:0:0:
329,137,125343,1,2,1:2:0:0:
125,188,125530,1,8,0:0:0:0:
148,152,125624,1,0,0:0:0:0:
181,127,125718,2,0,L|224:151,2,35.9999989013672,10|2|10,1:2|0:0|0:0,2:0:0:0:
72,68,126093,70,0,P|114:27|189:19,1,107.999996704102,6|0,0:0|0:0,2:0:0:0:
232,51,126468,2,0,P|290:60|356:30,1,107.999996704102,0|0,1:0|0:0,2:0:0:0:
413,37,126843,2,0,P|427:86|408:159,1,107.999996704102,6|0,0:0|0:0,2:0:0:0:
350,184,127218,2,0,P|305:176|251:179,1,71.9999978027344,8|8,1:2|0:0,2:0:0:0:
244,190,127499,1,0,0:0:0:0:
218,220,127593,6,0,P|197:265|202:336,1,107.999996704102,6|0,0:0|0:0,2:0:0:0:
266,364,127968,2,0,P|312:338|359:327,1,71.9999978027344,0|8,1:0|0:0,2:0:0:0:
458,364,128343,1,4,0:0:0:0:
508,245,128530,1,10,0:0:0:0:
502,213,128624,1,2,0:0:0:0:
489,180,128718,2,0,L|453:144,1,35.9999989013672,2|0,0:0|0:0,2:0:0:0:
352,206,128905,1,0,0:0:0:0:
312,200,128999,1,2,0:0:0:0:
137,276,129468,22,0,P|172:275|205:260,1,71.9999978027344,0|2,1:0|0:0,2:0:0:0:
179,175,130218,2,0,P|144:176|112:192,1,71.9999978027344,0|2,1:0|0:0,2:0:0:0:
265,195,130968,2,0,L|339:196,1,71.9999978027344,2|0,0:0|0:0,2:0:0:0:
403,146,131718,2,0,P|405:116|400:92,1,45.0000017166138,2|0,0:0|0:0,2:0:0:0:
352,32,132093,6,0,L|357:16,4,11.2500004291535,0|0|0|2|2,0:0|0:0|0:0|0:0|0:0,0:0:0:0:
256,192,132843,12,0,136218,0:0:0:0:
