osu file format v14

[General]
AudioFilename: audio.mp3
AudioLeadIn: 0
PreviewTime: 79218
Countdown: 0
SampleSet: Soft
StackLeniency: 0.4
Mode: 0
LetterboxInBreaks: 0
WidescreenStoryboard: 0

[Editor]
Bookmarks: 25622,76059,88593,114122,133059,148622
DistanceSpacing: 0.6
BeatDivisor: 8
GridSize: 32
TimelineZoom: 3.299999

[Metadata]
Title:carnation
TitleUnicode:carnation
Artist:AAAA
ArtistUnicode:ああああ
Creator:Veridian
Version:monstrata's extra
Source:BMS
Tags:piano classical rhythm game stream noffy naotoshi nao tomori monstrata
BeatmapID:1490588
BeatmapSetID:677687

[Difficulty]
HPDrainRate:6
CircleSize:4
OverallDifficulty:9
ApproachRate:9.5
SliderMultiplier:1.7
SliderTickRate:1

[Events]
//Background and Video events
0,0,"60515982_p0.png",0,0
//Break Periods
//Storyboard Layer 0 (Background)
//Storyboard Layer 1 (Fail)
//Storyboard Layer 2 (Pass)
//Storyboard Layer 3 (Foreground)
//Storyboard Sound Samples

[TimingPoints]
-1407,375,4,2,1,20,1,0
93,-200,4,2,1,20,0,0
4221,-200,4,2,1,50,0,0
4971,-200,4,2,1,20,0,0
6843,-200,4,2,1,40,0,0
8343,-200,4,2,1,50,0,0
9093,-200,4,2,1,60,0,0
11343,-200,4,2,1,50,0,0
11718,-166.666666666667,4,2,1,50,0,0
11811,-166.666666666667,4,2,1,40,0,0
11905,-142.857142857143,4,2,1,40,0,0
12093,-142.857142857143,4,2,1,50,0,0
12468,-142.857142857143,4,2,1,50,0,0
16780,-100,4,2,1,65,0,0
18093,-100,4,2,1,80,0,0
19593,-100,4,2,1,40,0,0
19968,-133.333333333333,4,2,1,40,0,0
21843,-133.333333333333,4,2,1,30,0,0
22593,-133.333333333333,4,2,1,45,0,0
24093,-133.333333333333,4,2,1,50,0,0
25593,-133.333333333333,4,2,1,5,0,0
30093,-133.333333333333,4,2,1,30,0,0
34593,-133.333333333333,4,2,1,40,0,0
35718,-133.333333333333,4,2,1,20,0,0
36093,-114.285714285714,4,2,1,60,0,0
36468,-114.285714285714,4,2,1,40,0,0
40218,-114.285714285714,4,2,1,86,0,0
40593,-100,4,2,1,50,0,1
42280,-100,4,2,1,65,0,1
43218,-100,4,2,1,75,0,1
43780,-100,4,2,1,50,0,1
44718,-100,4,2,1,65,0,1
46218,-100,4,2,1,75,0,1
46593,-100,4,2,1,35,0,0
48843,-166.666666666667,4,2,1,35,0,0
49968,-166.666666666667,4,2,1,65,0,0
50343,-166.666666666667,4,2,1,35,0,0
51093,-166.666666666667,4,2,1,65,0,0
51468,-166.666666666667,4,2,1,35,0,0
52218,-166.666666666667,4,2,1,20,0,0
52593,-125,4,2,1,20,0,0
52596,-125,4,2,1,50,0,0
54655,-100,4,2,1,50,0,0
55593,-125,4,2,1,50,0,0
57093,-125,4,2,1,60,0,0
57655,-125,4,2,1,70,0,0
58218,-125,4,2,1,80,0,0
58593,-100,4,2,1,90,0,1
63093,-100,4,2,1,50,0,0
64593,-100,4,2,1,100,0,1
67593,-100,4,2,1,85,0,1
69093,-133.333333333333,4,2,1,85,0,1
70593,-133.333333333333,4,2,1,75,0,1
71155,-133.333333333333,4,2,1,60,0,1
71530,-133.333333333333,4,2,1,80,0,1
72093,-133.333333333333,4,2,1,35,0,0
75096,-133.333333333333,4,2,1,50,0,0
79593,-200,4,2,1,50,0,0
85593,-200,4,2,1,40,0,0
87093,-133.333333333333,4,2,1,40,0,0
88968,-133.333333333333,4,2,1,30,0,0
90093,-133.333333333333,4,2,1,50,0,0
91218,-133.333333333333,4,2,1,70,0,0
91593,-133.333333333333,4,2,1,50,0,0
91718,-133.333333333333,4,2,1,20,0,0
92343,-133.333333333333,4,2,1,25,0,0
97593,-114.285714285714,4,2,1,40,0,0
99093,-100,4,2,1,40,0,0
99096,-100,4,2,1,60,0,0
100593,-100,4,2,1,40,0,0
102093,-100,4,2,1,50,0,0
102468,-100,4,2,1,60,0,0
102843,-100,4,2,1,75,0,0
103218,-100,4,2,1,90,0,0
103593,-200,4,2,1,100,0,0
103968,-200,4,2,1,50,0,0
106093,-200,4,2,1,70,0,0
106343,-153.846153846154,4,2,1,70,0,0
106593,-125,4,2,1,85,0,0
112780,-125,4,2,1,5,0,0
113343,-125,4,2,1,20,0,0
114843,-125,4,2,1,25,0,0
115030,-125,4,2,1,35,0,0
115218,-125,4,2,1,45,0,0
115405,-125,4,2,1,50,0,0
115593,-100,4,2,1,90,0,1
120093,-166.666666666667,4,2,1,50,0,0
121593,-100,4,2,1,100,0,1
124593,-100,4,2,1,90,0,1
125343,-133.333333333333,4,2,1,90,0,1
126093,-133.333333333333,4,2,1,70,0,1
126843,-133.333333333333,4,2,1,85,0,1
127593,-133.333333333333,4,2,1,96,0,1
128343,-133.333333333333,4,2,1,100,0,1
128530,-133.333333333333,4,2,1,80,0,1
129093,-133.333333333333,4,2,1,30,0,0
130593,-133.333333333333,4,2,1,40,0,0
131718,-133.333333333333,4,2,1,55,0,0
132096,-133.333333333333,4,2,1,50,0,0
133124,-133.333333333333,4,2,1,5,0,0
133593,-193.236714975845,4,2,1,5,0,0
138096,-193.236714975845,4,2,1,50,0,0

[Colours]
Combo1 : 250,63,41
Combo2 : 253,207,123
Combo3 : 210,157,142
Combo4 : 206,114,108
Combo5 : 255,140,85
Combo6 : 255,32,77
Combo7 : 223,57,103

[HitObjects]
249,250,93,6,0,L|237:346,1,85,0|0,1:0|0:0,0:0:0:0:
327,216,843,1,0,0:0:0:0:
181,198,1218,1,0,0:0:0:0:
269,79,1593,6,0,L|259:164,1,85,0|0,0:0|0:0,0:0:0:0:
110,145,2343,1,0,0:0:0:0:
201,27,2718,1,0,0:0:0:0:
181,198,3093,6,0,P|218:239|265:250,1,85,0|0,1:0|0:0,0:0:0:0:
269,79,3843,1,0,0:0:0:0:
100,233,4218,1,0,0:0:0:0:
322,213,4593,6,0,P|296:179|258:162,1,85,0|0,0:0|0:0,0:0:0:0:
242,253,5155,1,0,0:0:0:0:
317,302,5343,2,0,P|357:295|410:216,1,127.5,0|0,0:0|0:0,0:0:0:0:
425,250,5999,1,0,0:0:0:0:
425,250,6093,54,0,L|447:148,1,85,6|0,1:2|0:0,0:0:0:0:
329,85,6843,1,2,0:0:0:0:
217,253,7218,1,0,0:0:0:0:
183,85,7593,1,2,1:2:0:0:
295,253,7968,1,0,0:0:0:0:
256,48,8343,5,2,0:0:0:0:
256,321,8718,1,2,0:0:0:0:
69,166,9093,6,0,L|87:250,1,85,6|0,1:2|0:0,0:0:0:0:
295,253,9843,1,0,0:0:0:0:
183,85,10218,1,2,0:0:0:0:
256,321,10593,5,2,1:2:0:0:
295,253,10780,1,0,0:0:0:0:
256,185,10968,1,0,0:0:0:0:
295,117,11155,1,0,0:0:0:0:
256,49,11343,54,0,L|240:16,3,21.25,2|0|0|0,0:0|0:0|0:0|0:0,0:0:0:0:
216,115,11718,2,0,L|192:88,1,25.4999992218018,2|2,0:0|0:0,0:0:0:0:
194,190,11905,2,0,L|163:169,1,29.7499990921021,2|2,0:0|0:0,0:0:0:0:
191,267,12093,6,0,L|128:245,1,59.4999981842042,4|0,1:0|0:0,0:0:0:0:
260,231,12468,2,0,P|288:224|317:229,1,59.4999981842042,0|0,0:0|0:0,0:0:0:0:
344,242,12749,1,2,0:0:0:0:
344,242,12843,2,0,P|373:246|401:239,1,59.4999981842042,0|0,1:0|0:0,0:0:0:0:
367,112,13218,2,0,P|362:141|370:170,1,59.4999981842042,2|0,0:2|0:0,0:0:0:0:
441,137,13593,5,0,1:0:0:0:
425,60,13780,1,2,0:0:0:0:
350,35,13968,1,0,0:0:0:0:
383,190,14155,1,2,0:0:0:0:
500,84,14343,2,0,P|504:55|496:27,1,59.4999981842042,2|0,1:2|0:0,0:0:0:0:
425,60,14624,1,2,0:0:0:0:
425,60,14718,2,0,P|420:89|428:117,1,59.4999981842042,0|0,0:0|0:0,0:0:0:0:
395,297,15093,6,0,P|371:278|343:270,1,59.4999981842042,6|0,1:2|0:0,0:0:0:0:
275,341,15468,2,0,L|330:333,1,29.7499990921021,0|0,0:0|0:0,0:0:0:0:
275,238,15655,2,0,L|245:242,1,29.7499990921021,0|2,0:0|0:0,0:0:0:0:
209,384,15843,1,0,1:0:0:0:
343,270,16030,1,0,0:0:0:0:
348,251,16123,1,0,0:0:0:0:
349,231,16217,1,0,0:0:0:0:
345,212,16311,1,2,0:0:0:0:
336,194,16405,1,0,0:0:0:0:
323,180,16498,1,2,0:0:0:0:
306,169,16592,53,0,0:0:0:0:
384,113,16780,2,0,L|434:109,1,42.5,2|0,1:2|0:0,0:0:0:0:
228,225,16968,2,0,L|171:229,1,42.5,2|0,1:2|0:0,0:0:0:0:
250,90,17155,2,0,L|245:33,1,42.5,2|0,1:2|0:0,0:0:0:0:
362,246,17343,6,0,L|368:341,1,85,2|0,1:2|0:0,0:0:0:0:
427,192,17624,1,2,0:0:0:0:
427,192,17718,2,0,P|468:182|518:197,1,85,2|0,1:2|0:0,0:0:0:0:
509,337,17999,1,2,0:0:0:0:
509,337,18093,6,0,P|479:306|467:255,1,85,6|0,1:2|0:0,0:0:0:0:
320,175,18374,1,2,0:0:0:0:
320,175,18468,2,0,L|325:231,1,42.5,2|0,0:2|0:0,0:0:0:0:
188,217,18655,2,0,L|192:175,1,42.5,0|0,0:0|0:0,0:0:0:0:
256,36,18843,2,0,L|256:140,1,85,2|0,1:2|0:0,0:0:0:0:
75,245,19218,1,0,0:0:0:0:
97,222,19311,1,2,0:0:0:0:
126,209,19405,1,0,0:0:0:0:
158,207,19499,1,2,0:0:0:0:
188,216,19593,5,2,1:2:0:0:
147,293,19780,1,0,0:0:0:0:
105,125,19968,2,0,L|84:43,1,63.7500024318696,2|0,0:0|0:0,0:0:0:0:
230,140,20343,1,2,1:2:0:0:
188,216,20530,1,0,0:0:0:0:
210,55,20718,2,0,P|241:53|272:64,1,63.7500024318696,2|0,0:0|0:0,0:0:0:0:
249,224,21093,54,0,P|218:226|188:216,1,63.7500024318696,2|0,1:2|0:2,0:0:0:0:
314,120,21468,2,0,P|315:151|305:181,1,63.7500024318696,2|0,0:2|0:2,0:0:0:0:
145,159,21843,2,0,P|143:127|153:97,1,63.7500024318696,2|0,0:0|0:0,0:0:0:0:
210,272,22218,1,0,0:0:0:0:
230,140,22405,1,0,0:0:0:0:
125,291,22593,5,2,0:0:0:0:
283,315,22780,1,0,0:0:0:0:
271,211,22968,5,2,0:0:0:0:
113,187,23155,1,0,0:0:0:0:
210,272,23343,5,2,0:0:0:0:
332,150,23530,1,0,0:0:0:0:
235,65,23718,53,2,0:0:0:0:
271,211,23905,1,0,0:0:0:0:
296,4,24093,5,4,0:2:0:0:
256,192,24186,12,0,25593,0:0:0:0:
256,192,25686,12,0,28218,0:0:0:0:
308,169,29718,5,0,0:0:0:0:
300,186,29905,1,0,0:0:0:0:
406,284,30093,1,0,1:2:0:0:
381,204,30280,1,0,0:0:0:0:
268,328,30468,5,2,0:0:0:0:
260,311,30842,1,2,0:0:0:0:
252,294,31218,1,0,0:0:0:0:
194,233,31593,54,0,P|253:212|314:238,1,127.500004863739,2|0,1:2|0:0,0:0:0:0:
363,300,32155,1,0,0:0:0:0:
414,363,32343,2,0,P|462:370|496:353,1,63.7500024318696,2|0,0:0|0:0,0:0:0:0:
475,234,32718,2,0,P|444:228|414:237,1,63.7500024318696,0|2,0:0|0:0,0:0:0:0:
280,311,33093,5,2,1:2:0:0:
331,377,33280,1,0,0:0:0:0:
363,300,33468,1,0,0:0:0:0:
197,322,33843,1,2,1:2:0:0:
31,344,34218,1,0,0:0:0:0:
146,256,34593,5,2,1:2:0:0:
229,245,34780,1,0,0:0:0:0:
197,322,34968,1,0,0:0:0:0:
119,290,35155,1,0,0:0:0:0:
86,212,35343,1,2,1:2:0:0:
117,133,35530,1,0,0:0:0:0:
194,99,35718,1,2,0:0:0:0:
209,99,35811,1,2,0:0:0:0:
224,103,35905,1,2,0:0:0:0:
238,110,35999,1,2,0:0:0:0:
266,140,36093,6,0,P|273:176|265:212,1,74.3750007092953,2|0,1:2|0:0,0:0:0:0:
203,335,36468,2,0,P|195:298|203:262,1,74.3750007092953,2|0,0:0|0:0,0:0:0:0:
334,254,36843,2,0,P|370:261|406:254,1,74.3750007092953,2|0,1:2|0:0,0:0:0:0:
266,140,37218,2,0,P|230:133|194:140,1,74.3750007092953,0|2,0:2|0:0,0:0:0:0:
228,215,37499,1,0,0:0:0:0:
228,215,37593,54,0,L|344:108,1,148.750001418591,0|0,1:0|0:0,0:0:0:0:
193,139,38155,1,2,0:0:0:0:
263,291,38343,1,0,1:0:0:0:
193,245,38530,1,0,0:0:0:0:
263,93,38718,1,2,0:0:0:0:
333,139,38905,1,0,0:0:0:0:
193,244,39093,6,0,P|157:253|120:247,1,74.3750007092953,0|0,1:0|0:0,0:0:0:0:
337,55,39468,2,0,P|372:46|409:52,1,74.3750007092953,2|0,0:0|0:0,0:0:0:0:
479,14,39749,1,2,0:0:0:0:
479,14,39843,2,0,P|487:49|481:86,1,74.3750007092953,0|0,1:0|0:0,0:0:0:0:
155,174,40218,2,0,P|146:138|152:101,1,74.3750007092953,0|0,1:0|0:0,0:0:0:0:
357,210,40593,37,4,1:0:0:0:
364,233,40686,1,0,0:0:0:0:
365,258,40780,1,8,0:0:0:0:
359,282,40874,1,2,0:0:0:0:
282,322,40968,5,0,1:0:0:0:
274,298,41061,1,0,0:0:0:0:
273,273,41155,1,8,0:0:0:0:
279,249,41249,1,2,0:0:0:0:
356,209,41343,5,0,1:0:0:0:
398,216,41436,1,0,0:0:0:0:
438,203,41530,1,10,0:0:0:0:
468,173,41624,1,0,0:0:0:0:
392,43,41718,69,10,1:2:0:0:
317,87,41811,1,0,0:0:0:0:
295,171,41905,1,10,0:0:0:0:
338,245,41999,1,0,0:0:0:0:
422,268,42093,5,0,0:0:0:0:
440,273,42186,1,0,0:0:0:0:
440,139,42280,5,8,1:2:0:0:
422,144,42373,1,2,0:0:0:0:
338,245,42468,69,0,0:0:0:0:
356,250,42561,1,2,0:0:0:0:
356,162,42655,5,10,1:2:0:0:
338,167,42748,1,0,0:0:0:0:
254,222,42843,5,2,0:0:0:0:
272,227,42936,1,0,0:0:0:0:
272,185,43030,69,10,1:2:0:0:
254,190,43123,1,0,0:0:0:0:
287,306,43218,6,0,L|360:326,1,42.5,10|0,1:2|0:0,0:0:0:0:
312,38,43405,2,0,L|239:58,1,42.5,8|0,1:2|0:0,0:0:0:0:
164,233,43593,5,6,1:2:0:0:
187,244,43687,1,0,0:0:0:0:
216,246,43781,1,8,0:0:0:0:
242,236,43874,1,2,0:0:0:0:
288,162,43968,69,0,1:0:0:0:
262,151,44062,1,0,0:0:0:0:
235,150,44156,1,8,0:0:0:0:
208,159,44249,1,2,0:0:0:0:
164,233,44343,5,0,1:0:0:0:
122,238,44436,1,0,0:0:0:0:
82,224,44530,1,10,0:0:0:0:
53,193,44624,1,0,0:0:0:0:
109,31,44718,5,10,1:2:0:0:
185,75,44811,1,0,0:0:0:0:
207,159,44905,1,10,0:0:0:0:
164,233,44999,1,0,0:0:0:0:
81,254,45093,69,0,1:0:0:0:
56,259,45186,1,0,0:0:0:0:
57,119,45280,5,10,1:2:0:0:
82,124,45373,1,2,0:0:0:0:
189,228,45468,5,0,0:0:0:0:
164,233,45561,1,0,0:0:0:0:
165,145,45655,69,10,1:2:0:0:
190,150,45748,1,2,0:0:0:0:
297,202,45844,5,0,0:0:0:0:
272,207,45937,1,2,0:0:0:0:
273,171,46031,5,8,1:2:0:0:
298,176,46124,1,2,0:0:0:0:
384,223,46218,69,6,1:2:0:0:
378,243,46311,1,0,0:0:0:0:
366,260,46405,1,0,0:0:0:0:
351,275,46499,1,0,0:0:0:0:
332,285,46593,37,6,1:2:0:0:
177,179,46968,1,2,0:0:0:0:
364,173,47343,1,0,1:0:0:0:
215,287,47718,1,2,0:0:0:0:
267,107,48093,5,0,1:0:0:0:
364,173,48280,1,0,0:0:0:0:
332,285,48468,1,0,0:0:0:0:
215,287,48655,1,0,0:0:0:0:
177,179,48843,2,0,L|159:128,1,50.9999984436036,2|0,0:0|0:0,0:0:0:0:
267,107,49218,2,0,L|266:53,1,50.9999984436036,2|0,0:0|0:0,0:0:0:0:
364,173,49593,6,0,L|379:121,2,50.9999984436036,2|0|0,0:0|0:0|1:0,0:0:0:0:
215,287,50343,2,0,L|230:235,1,50.9999984436036,2|2,0:0|0:0,0:0:0:0:
173,186,50718,1,0,1:0:0:0:
420,225,51093,5,0,1:0:0:0:
364,173,51280,1,0,0:0:0:0:
403,300,51468,1,0,0:0:0:0:
476,277,51655,1,2,0:0:0:0:
346,247,51843,1,0,1:0:0:0:
329,321,52030,1,0,0:0:0:0:
384,372,52218,2,0,P|421:373|436:367,1,50.9999984436036,0|2,0:0|0:0,0:0:0:0:
403,300,52499,1,0,0:0:0:0:
403,300,52593,54,0,L|423:217,1,68,4|0,1:0|0:0,0:0:0:0:
503,128,52968,2,0,L|486:194,1,68,2|0,0:0|0:0,0:0:0:0:
288,192,53343,2,0,P|320:184|353:191,1,68,2|0,1:2|0:0,0:0:0:0:
224,245,53718,2,0,P|191:252|158:245,1,68,0|0,0:0|0:0,0:0:0:0:
192,176,53999,1,2,0:0:0:0:
192,176,54093,6,0,L|189:334,1,136,2|0,1:2|0:0,0:0:0:0:
106,174,54655,5,0,0:0:0:0:
234,102,54843,1,2,1:2:0:0:
150,101,55030,1,0,0:0:0:0:
277,176,55218,1,2,0:0:0:0:
193,29,55405,1,0,0:0:0:0:
192,175,55593,6,0,P|204:221|233:249,1,68,0|0,1:0|0:0,0:0:0:0:
311,178,55968,2,0,L|277:175,1,34,2|0,0:0|0:0,0:0:0:0:
362,245,56155,1,0,0:0:0:0:
362,245,56249,1,2,0:0:0:0:
362,245,56343,2,0,P|384:220|395:188,1,68,0|0,1:0|0:0,0:0:0:0:
299,91,56718,1,2,1:2:0:0:
289,262,56905,1,0,0:0:0:0:
364,40,57093,54,0,P|329:14|237:37,1,136,2|0,1:2|0:0,0:0:0:0:
367,226,57655,1,2,0:0:0:0:
372,139,57843,1,0,0:0:0:0:
299,91,58030,1,2,0:0:0:0:
289,262,58218,1,2,1:2:0:0:
449,99,58405,1,2,0:0:0:0:
226,42,58593,54,0,P|212:82|218:124,1,85,6|0,1:2|0:0,0:0:0:0:
151,3,58874,1,2,0:2:0:0:
305,3,58968,2,0,L|378:-6,1,42.5,2|0,1:2|0:0,0:0:0:0:
251,201,59155,5,10,0:0:0:0:
237,205,59248,1,2,0:0:0:0:
223,206,59342,1,0,1:2:0:0:
209,206,59436,1,2,0:0:0:0:
195,204,59530,1,8,0:0:0:0:
181,199,59623,1,2,0:0:0:0:
169,193,59718,5,10,1:2:0:0:
178,162,59811,1,0,0:0:0:0:
176,131,59905,1,10,0:0:0:0:
161,103,59999,1,0,0:0:0:0:
137,82,60093,70,0,P|96:73|56:86,1,85,6|0,1:2|0:0,0:0:0:0:
6,207,60374,1,2,0:2:0:0:
85,194,60468,2,0,P|95:175|99:154,1,42.5,2|0,1:2|0:0,0:0:0:0:
52,278,60655,5,8,0:0:0:0:
66,276,60748,1,0,0:0:0:0:
80,275,60842,1,2,0:0:0:0:
94,273,60936,1,0,0:0:0:0:
108,272,61030,1,10,1:2:0:0:
122,270,61123,1,0,0:0:0:0:
136,269,61218,5,8,0:0:0:0:
123,298,61311,1,2,0:0:0:0:
124,329,61405,1,10,1:2:0:0:
136,358,61499,1,2,0:0:0:0:
159,380,61593,70,0,P|215:381|263:348,1,85,6|0,1:2|0:0,0:0:0:0:
316,236,61874,1,2,0:2:0:0:
256,296,61968,2,0,L|213:292,1,42.5,10|0,0:2|0:0,0:0:0:0:
377,298,62155,2,0,L|419:294,1,42.5,2|0,1:2|0:0,0:0:0:0:
256,169,62343,6,0,P|215:160|176:176,1,85,0|8,1:2|0:0,0:0:0:0:
317,107,62624,1,2,0:0:0:0:
317,107,62718,2,0,P|358:114|397:100,1,85,0|10,1:2|0:0,0:0:0:0:
252,50,63093,21,2,0:0:0:0:
177,94,63280,1,0,0:0:0:0:
283,187,63468,1,2,0:0:0:0:
317,107,63655,1,2,0:0:0:0:
195,178,63843,5,2,0:0:0:0:
224,318,64030,1,0,0:0:0:0:
283,187,64218,1,2,0:0:0:0:
157,258,64405,1,2,1:2:0:0:
302,274,64593,38,0,P|339:255|370:197,1,85,6|0,1:2|0:0,0:0:0:0:
273,101,64874,1,2,0:0:0:0:
218,246,64968,2,0,P|213:267|216:288,1,42.5,2|0,1:2|0:0,0:0:0:0:
347,127,65155,5,8,0:0:0:0:
351,99,65248,1,0,0:0:0:0:
345,71,65342,1,2,1:2:0:0:
330,47,65436,1,0,0:0:0:0:
307,31,65530,1,10,0:0:0:0:
280,23,65623,1,0,0:0:0:0:
252,26,65718,6,0,L|203:34,1,42.5,10|2,0:0|0:0,0:0:0:0:
172,195,65905,2,0,L|130:202,1,42.5,8|2,1:2|0:0,0:0:0:0:
273,101,66093,70,0,L|176:118,1,85,6|0,1:2|0:0,0:0:0:0:
109,86,66374,1,2,0:0:0:0:
168,26,66468,2,0,L|238:38,1,42.5,2|0,1:2|0:0,0:0:0:0:
311,173,66655,5,8,0:0:0:0:
295,195,66749,1,0,0:0:0:0:
275,215,66842,1,2,1:2:0:0:
249,224,66936,1,0,0:0:0:0:
220,224,67030,1,10,0:0:0:0:
194,214,67124,1,0,0:0:0:0:
172,195,67218,6,0,L|176:128,1,42.5,8|2,1:2|0:0,0:0:0:0:
88,241,67405,2,0,L|92:174,1,42.5,8|2,0:0|0:0,0:0:0:0:
106,322,67593,70,0,L|8:329,1,85,6|0,1:2|0:0,0:0:0:0:
142,355,67874,1,2,0:0:0:0:
211,311,67968,2,0,L|295:304,1,85,2|8,1:2|0:0,0:0:0:0:
136,182,68343,2,0,L|79:78,1,85,2|8,1:2|0:0,0:0:0:0:
90,253,68718,1,10,1:2:0:0:
90,253,68811,1,2,0:0:0:0:
90,253,68905,1,8,0:0:0:0:
292,204,69093,6,0,P|300:173|296:142,1,63.7500024318696,6|8,0:0|0:0,0:0:0:0:
228,324,69374,1,2,0:0:0:0:
228,324,69468,1,2,1:2:0:0:
222,168,69655,1,8,0:0:0:0:
90,253,69843,6,0,P|81:283|86:314,1,63.7500024318696,2|8,0:0|0:0,0:0:0:0:
154,132,70124,1,2,0:0:0:0:
154,132,70218,1,10,1:2:0:0:
158,288,70405,1,8,0:0:0:0:
222,168,70593,70,0,P|230:137|225:106,1,63.7500024318696,2|8,0:0|0:0,0:0:0:0:
90,253,70874,1,2,0:0:0:0:
90,253,70968,1,2,1:2:0:0:
154,132,71155,1,10,0:0:0:0:
225,245,71343,5,2,1:2:0:0:
239,251,71436,1,0,0:0:0:0:
255,253,71530,1,8,0:0:0:0:
271,253,71624,1,0,0:0:0:0:
307,177,71718,5,2,1:2:0:0:
341,157,71811,1,2,0:0:0:0:
381,156,71905,1,2,0:0:0:0:
416,175,71999,1,0,0:0:0:0:
436,208,72093,6,0,L|445:271,1,63.7500024318696,4|0,0:0|0:0,0:0:0:0:
363,237,72374,5,2,0:0:0:0:
363,237,72468,2,0,L|372:300,1,63.7500024318696,2|0,0:0|0:0,0:0:0:0:
290,266,72749,5,0,0:0:0:0:
290,266,72843,2,0,L|299:329,1,63.7500024318696,2|0,0:0|0:0,0:0:0:0:
217,295,73124,5,2,0:0:0:0:
217,295,73218,2,0,L|226:358,1,63.7500024318696,2|0,0:0|0:0,0:0:0:0:
144,321,73499,53,0,0:0:0:0:
144,321,73593,2,0,L|153:384,1,63.7500024318696,2|0,0:0|0:0,0:0:0:0:
72,351,73874,5,2,0:0:0:0:
72,351,73968,2,0,L|76:382,1,31.8750012159348,2|0,0:0|0:0,0:0:0:0:
31,251,74155,2,0,L|26:282,1,31.8750012159348,2|0,0:0|0:0,0:0:0:0:
93,199,74343,5,2,0:0:0:0:
96,178,74436,1,0,0:0:0:0:
99,157,74530,1,0,0:0:0:0:
102,136,74624,1,0,0:0:0:0:
71,114,74718,5,2,0:0:0:0:
73,124,74811,1,0,0:0:0:0:
75,135,74905,1,0,0:0:0:0:
76,145,74999,1,0,0:0:0:0:
102,136,75093,54,0,L|106:107,4,15.9375006079674,0|0|0|2|2,1:2|0:0|0:0|0:0|0:0,0:0:0:0:
410,248,75843,2,0,L|413:274,3,15.9375006079674,0|0|0|2,0:2|0:0|0:0|0:0,0:0:0:0:
256,192,76593,12,0,78468,0:0:0:0:
248,148,79593,5,0,0:0:0:0:
248,148,79686,2,0,L|320:128,1,63.75
97,221,80343,5,0,0:0:0:0:
36,161,80718,1,0,0:0:0:0:
181,243,81093,5,0,0:0:0:0:
158,159,81468,1,0,0:0:0:0:
242,302,81843,53,0,0:0:0:0:
264,218,82218,1,0,0:0:0:0:
264,383,82593,6,0,P|301:362|349:365,1,85,2|0,0:0|0:0,0:0:0:0:
286,134,83343,1,0,0:0:0:0:
242,302,83718,1,0,0:0:0:0:
102,223,84093,6,0,P|138:243|186:241,1,85,2|0,0:0|0:0,0:0:0:0:
264,218,84655,1,0,0:0:0:0:
347,193,84843,2,0,P|389:192|426:213,1,85,0|0,0:0|0:0,0:0:0:0:
242,302,85499,6,0,L|238:317,2,10.625,0|0|2,0:0|0:0|1:2,0:0:0:0:
264,218,85780,1,0,0:0:0:0:
180,242,85968,1,0,0:0:0:0:
202,158,86155,1,0,0:0:0:0:
326,278,86343,53,2,0:0:0:0:
348,194,86531,1,0,0:0:0:0:
264,218,86718,1,2,0:0:0:0:
286,134,86905,1,0,0:0:0:0:
410,254,87093,6,0,L|496:233,1,63.7500024318696,0|0,1:2|0:0,0:0:0:0:
370,110,87468,2,0,L|349:23,1,63.7500024318696,2|0,0:0|0:0,0:0:0:0:
266,294,87843,2,0,L|245:380,1,63.7500024318696,2|0,0:0|0:0,0:0:0:0:
226,150,88218,2,0,L|163:135,1,63.7500024318696,2|0,0:0|0:0,0:0:0:0:
354,333,88593,5,6,1:2:0:0:
397,94,88968,1,2,0:0:0:0:
158,51,89343,1,0,0:0:0:0:
115,290,89718,1,2,0:0:0:0:
336,202,90093,6,0,L|398:190,1,63.7500024318696,2|0,0:0|0:0,0:0:0:0:
176,182,90468,2,0,L|113:193,1,63.7500024318696,0|0,0:0|0:0,0:0:0:0:
246,272,90843,1,2,0:0:0:0:
266,112,91030,2,0,L|316:102,1,31.8750012159348,2|0,0:0|0:0,0:0:0:0:
336,202,91218,2,0,L|367:207,1,31.8750012159348,2|2,0:0|0:0,0:0:0:0:
406,112,91405,2,0,L|437:106,1,31.8750012159348,0|2,0:0|0:0,0:0:0:0:
475,201,91593,54,0,P|492:236|492:301,1,85.0000032424928,6|0,1:2|0:0,0:0:0:0:
284,272,91968,2,0,P|267:307|267:372,1,85.0000032424928,0|2,1:0|0:0,0:0:0:0:
389,202,92343,6,0,P|372:214|352:221,1,42.5000016212464,0|0,1:0|0:0,0:0:0:0:
241,165,92593,2,0,P|260:174|276:189,1,42.5000016212464,2|0,0:0|0:0,0:0:0:0:
343,98,92843,2,0,P|345:119|341:140,1,42.5000016212464,2|0,0:0|0:0,0:0:0:0:
283,272,93093,6,0,P|282:293|286:313,2,42.5000016212464,2|0|0,1:2|0:0|0:0,0:0:0:0:
134,222,93468,2,0,P|154:218|175:219,2,42.5000016212464
377,161,93843,2,0,P|357:165|336:164,2,42.5000016212464,2|0|0,1:2|0:0|0:0,0:0:0:0:
225,70,94218,2,0,P|229:90|228:111,2,42.5000016212464,0|0|0,0:0|0:0|0:0,0:0:0:0:
373,271,94593,6,0,B|406:273|406:273|442:249,2,42.5000016212464,2|0|0,1:2|0:0|0:0,0:0:0:0:
339,123,94968,2,0,B|334:131|334:131|336:164,2,42.5000016212464
139,271,95343,2,0,B|106:273|106:273|70:249,2,42.5000016212464,2|0|0,1:2|0:0|0:0,0:0:0:0:
172,123,95718,2,0,B|178:131|178:131|176:164,2,42.5000016212464
369,311,96093,54,0,B|374:303|374:303|372:270,2,42.5000016212464,2|0|0,1:2|0:0|0:0,0:0:0:0:
138,270,96468,2,0,B|136:303|136:303|142:311,2,42.5000016212464,0|0|0,1:0|0:0|0:0,0:0:0:0:
353,194,96843,6,0,L|432:181,1,42.5000016212464,2|0,0:0|0:0,0:0:0:0:
159,194,97093,2,0,L|80:181,1,42.5000016212464,2|0,0:0|0:0,0:0:0:0:
256,32,97343,2,0,L|256:104,1,42.5000016212464,2|0,0:0|0:0,0:0:0:0:
303,318,97593,6,0,L|385:305,1,49.5833338061969,6|0,1:2|0:0,0:0:0:0:
209,318,97843,1,0,0:0:0:0:
209,318,97968,2,0,L|127:305,1,49.5833338061969,0|0,0:0|0:0,0:0:0:0:
256,248,98218,1,0,0:0:0:0:
256,248,98343,6,0,L|256:164,1,49.5833338061969,2|0,0:0|0:0,0:0:0:0:
153,227,98593,2,0,L|71:240,1,49.5833338061969,2|0,0:0|0:0,0:0:0:0:
359,227,98843,2,0,L|441:240,1,49.5833338061969,2|0,0:0|0:0,0:0:0:0:
178,43,99093,54,0,B|168:63|168:63|190:151,1,113.333333333333,6|0,1:2|0:0,0:0:0:0:
321,151,99468,2,0,B|344:63|344:63|334:43,1,113.333333333333,2|0,0:0|0:0,0:0:0:0:
104,234,99843,2,0,B|94:254|94:254|116:342,1,113.333333333333,2|0,0:0|0:0,0:0:0:0:
395,342,100218,2,0,B|418:254|418:254|408:234,1,113.333333333333,2|0,0:0|0:0,0:0:0:0:
177,42,100593,6,0,P|149:44|124:56,1,56.6666666666667,0|0,1:0|0:0,0:0:0:0:
34,116,100843,1,2,0:0:0:0:
34,116,100968,2,0,P|62:117|87:129,1,56.6666666666667,2|0,0:0|0:0,0:0:0:0:
177,189,101218,1,2,0:0:0:0:
177,189,101343,2,0,P|148:190|123:202,1,56.6666666666667,2|0,1:2|0:0,0:0:0:0:
33,262,101593,1,2,0:0:0:0:
33,262,101718,2,0,P|61:263|86:275,2,56.6666666666667,2|0|2,0:0|0:0|0:0,0:0:0:0:
132,347,102093,5,0,1:0:0:0:
212,340,102218,1,2,0:0:0:0:
167,274,102343,1,2,0:0:0:0:
160,366,102468,5,2,0:0:0:0:
238,345,102593,1,2,0:0:0:0:
182,288,102718,1,0,0:0:0:0:
192,380,102843,53,2,1:2:0:0:
265,346,102968,1,0,0:0:0:0:
200,299,103093,1,2,0:0:0:0:
226,388,103218,5,2,0:0:0:0:
241,384,103280,1,0,0:0:0:0:
255,377,103343,1,2,0:0:0:0:
267,368,103405,1,0,0:0:0:0:
278,356,103468,1,2,0:0:0:0:
286,343,103530,1,0,0:0:0:0:
292,328,103593,6,0,P|315:318|388:336,1,85,6|2,1:2|0:0,0:0:0:0:
200,299,104343,2,0,P|176:308|104:291,1,85,2|2,0:0|0:0,0:0:0:0:
264,85,105093,2,0,P|259:105|257:126,1,42.5,2|0,1:2|0:0,0:0:0:0:
379,223,105468,5,2,0:0:0:0:
411,151,105593,1,0,0:0:0:0:
339,119,105718,1,2,0:0:0:0:
307,191,105843,1,2,0:0:0:0:
98,87,106093,54,0,L|43:79,1,28.3333333333333,2|0,1:2|0:0,0:0:0:0:
182,54,106343,6,0,L|148:9,1,36.8333316472372,2|0,1:2|0:0,0:0:0:0:
264,90,106593,6,0,L|272:34,1,45.3333333333333,6|0,1:2|0:0,0:0:0:0:
198,140,106843,1,0,0:0:0:0:
198,140,106968,2,0,L|204:184,2,45.3333333333333,0|0|0,0:0|0:0|0:0,0:0:0:0:
291,171,107343,2,0,L|278:261,1,90.6666666666667,2|0,1:2|0:0,0:0:0:0:
178,362,107718,2,0,L|191:272,1,90.6666666666667,2|0,0:0|0:0,0:0:0:0:
347,317,108093,6,0,P|391:325|434:313,1,90.6666666666667,2|0,1:2|0:0,0:0:0:0:
407,77,108468,2,0,P|384:73|362:76,1,45.3333333333333
387,232,108718,1,0,0:0:0:0:
387,232,108843,54,0,P|393:208|383:158,1,68,2|0,1:2|0:0,0:0:0:0:
305,163,109124,1,0,0:0:0:0:
305,163,109218,2,0,P|271:169|238:164,1,68
189,36,109499,1,2,0:0:0:0:
189,36,109593,6,0,P|195:69|190:102,1,68,0|0,1:0|0:0,0:0:0:0:
172,244,109874,1,0,0:0:0:0:
172,244,109968,2,0,P|171:227|174:210,1,34,0|0,0:0|0:0,0:0:0:0:
94,147,110155,2,0,P|111:147|128:149,1,34,2|0,0:0|0:0,0:0:0:0:
238,164,110343,37,2,1:2:0:0:
250,184,110437,37,2,0:0:0:0:
271,169,110530,53,2,0:0:0:0:
279,183,110625,37,0,0:0:0:0:
303,158,110718,53,0,0:0:0:0:
308,169,110811,37,0,0:0:0:0:
326,133,110905,53,2,1:2:0:0:
327,144,111000,37,2,0:0:0:0:
335,101,111093,53,2,0:0:0:0:
333,113,111186,37,2,0:0:0:0:
350,71,111280,53,2,0:0:0:0:
343,84,111374,37,0,0:0:0:0:
379,55,111467,53,2,0:0:0:0:
368,65,111561,37,0,0:0:0:0:
412,59,111655,53,2,0:0:0:0:
400,65,111749,37,0,0:0:0:0:
437,81,111843,53,2,1:2:0:0:
424,82,111936,37,0,0:0:0:0:
444,114,112030,53,2,0:0:0:0:
435,113,112124,37,2,0:0:0:0:
431,145,112218,53,2,0:0:0:0:
427,144,112311,37,2,0:0:0:0:
402,162,112405,53,2,0:0:0:0:
402,162,112498,37,0,0:0:0:0:
351,217,112593,54,0,P|328:277|358:356,1,136,6|0,1:2|0:0,0:0:0:0:
160,217,113343,2,0,P|183:277|154:356,1,136
256,192,114093,37,2,0:0:0:0:
160,217,114843,5,0,0:0:0:0:
256,192,115030,1,0,0:0:0:0:
352,167,115218,1,0,0:0:0:0:
213,26,115405,1,2,0:0:0:0:
298,357,115593,38,0,P|340:364|380:350,1,85,6|0,1:2|0:0,0:0:0:0:
331,279,115874,1,2,0:0:0:0:
227,310,115968,2,0,L|216:358,1,42.5,2|0,1:2|0:0,0:0:0:0:
331,279,116155,1,10,0:0:0:0:
346,256,116248,1,2,0:0:0:0:
356,229,116342,1,0,1:0:0:0:
359,201,116436,1,2,0:0:0:0:
356,173,116530,1,8,0:0:0:0:
346,147,116623,1,2,0:0:0:0:
331,123,116718,2,0,L|338:41,1,42.5,8|0,1:2|0:0,0:0:0:0:
256,192,116905,2,0,L|248:110,1,42.5,10|0,0:0|0:0,0:0:0:0:
322,364,117093,6,0,L|330:275,1,85,6|0,1:2|0:0,0:0:0:0:
256,275,117374,1,2,0:0:0:0:
190,364,117468,2,0,L|183:291,1,42.5,2|0,1:2|0:0,0:0:0:0:
51,190,117655,1,8,0:0:0:0:
84,178,117748,1,0,0:0:0:0:
119,177,117842,1,2,0:2:0:0:
153,188,117936,1,0,0:0:0:0:
186,200,118030,1,8,1:2:0:0:
221,201,118123,1,0,0:0:0:0:
255,190,118218,2,0,P|273:180|287:164,1,42.5,8|2,0:2|0:0,0:0:0:0:
199,76,118405,2,0,P|199:97|206:118,1,42.5,10|2,1:2|0:0,0:0:0:0:
271,275,118593,6,0,L|393:292,1,85,6|0,1:2|0:0,0:0:0:0:
450,212,118874,1,2,0:0:0:0:
482,290,118968,2,0,L|506:351,1,42.5,2|0,1:2|0:0,0:0:0:0:
371,158,119155,2,0,L|366:201,1,42.5,10|2,0:0|0:0,0:0:0:0:
444,32,119343,2,0,L|456:124,1,85,0|10,1:0|0:0,0:0:0:0:
360,74,119624,1,0,0:0:0:0:
360,74,119718,2,0,L|372:166,1,85,0|10,1:2|0:0,0:0:0:0:
276,116,119999,1,0,0:0:0:0:
276,116,120093,6,0,L|284:176,1,50.9999984436036,2|0,0:0|0:0,0:0:0:0:
236,268,120468,2,0,L|227:207,1,50.9999984436036,0|2,0:0|0:0,0:0:0:0:
266,39,120843,1,2,0:0:0:0:
204,145,121030,1,0,0:0:0:0:
304,325,121218,1,2,0:0:0:0:
266,39,121405,1,2,0:0:0:0:
123,343,121593,54,0,P|77:337|46:314,1,85,6|0,1:2|0:0,0:0:0:0:
110,259,121874,1,2,0:0:0:0:
191,290,121968,2,8,P|196:269|189:219,1,42.5,2|0,1:2|0:0,0:0:0:0:
88,90,122155,1,8,0:0:0:0:
91,118,122248,1,0,0:0:0:0:
95,146,122342,1,2,1:2:0:0:
98,174,122436,1,0,0:0:0:0:
102,202,122530,1,10,0:0:0:0:
105,230,122623,1,0,0:0:0:0:
109,258,122718,2,0,L|35:244,1,42.5,10|2,1:2|0:0,0:0:0:0:
212,104,122905,2,0,L|138:90,1,42.5,10|2,0:0|0:0,0:0:0:0:
272,277,123093,6,0,P|225:270|194:247,1,85,6|8,1:2|0:0,0:0:0:0:
340,224,123374,1,2,0:0:0:0:
430,341,123468,2,0,P|436:362|436:383,1,42.5,2|0,1:2|0:0,0:0:0:0:
259,192,123655,1,8,0:0:0:0:
274,168,123748,1,0,0:0:0:0:
296,150,123842,1,2,1:2:0:0:
322,140,123936,1,2,0:0:0:0:
350,139,124030,1,10,0:0:0:0:
377,148,124123,1,0,0:0:0:0:
400,164,124218,2,0,P|424:168|442:164,1,42.5,8|2,0:0|0:0,0:0:0:0:
342,56,124405,2,0,P|346:35|342:15,1,42.5,10|2,1:2|0:0,0:0:0:0:
161,50,124593,6,0,P|190:86|225:101,1,85,6|0,1:2|0:0,0:0:0:0:
240,18,124874,1,2,0:0:0:0:
135,144,124968,2,0,L|122:225,1,42.5,2|0,1:2|0:0,0:0:0:0:
283,160,125155,2,0,L|364:173,1,42.5,8|0,0:0|0:0,0:0:0:0:
196,289,125343,70,0,P|227:282|259:286,1,63.7500024318696,2|8,1:2|0:0,0:0:0:0:
326,348,125718,1,10,1:2:0:0:
326,348,125811,1,2,0:0:0:0:
326,348,125905,1,10,0:0:0:0:
381,287,126093,6,0,P|412:291|443:284,1,63.7500024318696,6|8,0:0|0:0,0:0:0:0:
287,210,126374,1,0,0:0:0:0:
287,210,126468,1,0,1:0:0:0:
409,211,126655,1,8,0:0:0:0:
236,148,126843,6,0,P|216:173|207:203,1,63.7500024318696,6|8,0:0|0:0,0:0:0:0:
349,105,127124,1,0,0:0:0:0:
349,105,127218,1,8,1:2:0:0:
287,210,127405,1,8,0:0:0:0:
427,91,127593,70,0,P|415:61|394:38,1,63.7500024318696,6|8,0:0|0:0,0:0:0:0:
409,211,127874,1,0,0:0:0:0:
409,211,127968,1,0,1:0:0:0:
349,105,128155,1,8,0:0:0:0:
287,210,128343,5,4,0:0:0:0:
291,230,128436,1,0,0:0:0:0:
296,251,128530,1,10,0:0:0:0:
300,272,128624,1,2,0:0:0:0:
365,319,128718,5,2,0:0:0:0:
391,301,128811,1,0,0:0:0:0:
422,295,128905,1,0,0:0:0:0:
453,300,128999,1,2,0:0:0:0:
480,317,129093,6,0,L|472:394,1,63.7500024318696
384,237,129374,5,2,0:0:0:0:
384,237,129468,2,0,L|392:314,1,63.7500024318696,2|0,1:2|0:0,0:0:0:0:
300,316,129749,5,0,0:0:0:0:
300,316,129843,2,0,L|294:380,1,63.7500024318696,2|0,0:0|0:0,0:0:0:0:
204,236,130124,5,2,0:0:0:0:
204,236,130218,2,0,L|212:313,1,63.7500024318696,2|0,1:2|0:0,0:0:0:0:
120,315,130499,53,0,0:0:0:0:
120,315,130593,2,0,L|113:378,1,63.7500024318696,2|0,0:0|0:0,0:0:0:0:
22,235,130874,5,2,0:0:0:0:
22,235,130968,2,0,L|27:286,1,31.8750012159348,2|0,1:2|0:0,0:0:0:0:
119,155,131155,2,0,L|113:205,1,31.8750012159348
19,43,131343,5,2,0:0:0:0:
21,64,131436,1,0,0:0:0:0:
23,85,131530,1,0,0:0:0:0:
26,107,131624,1,0,0:0:0:0:
99,82,131718,5,2,0:0:0:0:
97,71,131811,1,0,0:0:0:0:
96,60,131905,1,2,0:0:0:0:
95,50,131999,1,0,0:0:0:0:
172,57,132093,54,0,L|195:54,3,15.9375006079674,0|0|0|2,1:2|0:0|0:0|0:0,0:0:0:0:
318,331,132843,2,0,L|336:333,3,15.9375006079674,0|0|0|2,0:2|0:0|0:0|0:0,0:0:0:0:
348,112,133593,6,0,B|276:114|290:57|224:49|224:49|244:288|244:288|189:361|62:309|158:200|240:258,1,616,0|0,0:0|0:0,0:0:0:0:
