osu file format v14

[General]
AudioFilename: audio.mp3
AudioLeadIn: 0
PreviewTime: 79218
Countdown: 0
SampleSet: Soft
StackLeniency: 0.7
Mode: 0
LetterboxInBreaks: 0
WidescreenStoryboard: 1

[Editor]
Bookmarks: 25622,76059,88593,114122,133059,148622
DistanceSpacing: 1.5
BeatDivisor: 1
GridSize: 32
TimelineZoom: 1.9

[Metadata]
Title:carnation
TitleUnicode:carnation
Artist:AAAA
ArtistUnicode:ああああ
Creator:Veridian
Version:hyper
Source:BMS
Tags:piano classical rhythm game stream noffy naotoshi nao tomori monstrata
BeatmapID:1436105
BeatmapSetID:677687

[Difficulty]
HPDrainRate:5.5
CircleSize:3.5
OverallDifficulty:6
ApproachRate:6.9
SliderMultiplier:1.2
SliderTickRate:1

[Events]
//Background and Video events
0,0,"60515982_p0.png",0,0
//Break Periods
2,79593,84679
//Storyboard Layer 0 (Background)
//Storyboard Layer 1 (Fail)
//Storyboard Layer 2 (Pass)
//Storyboard Layer 3 (Foreground)
//Storyboard Sound Samples

[TimingPoints]
-1407,375,4,2,1,20,1,0
93,-133.333333333333,4,2,1,20,0,0
4221,-133.333333333333,4,2,1,50,0,0
4971,-133.333333333333,4,2,1,20,0,0
6843,-133.333333333333,4,2,1,40,0,0
8343,-133.333333333333,4,2,1,50,0,0
9093,-133.333333333333,4,2,1,60,0,0
11343,-133.333333333333,4,2,1,50,0,0
11811,-133.333333333333,4,2,1,40,0,0
12093,-100,4,2,1,50,0,1
12843,-100,4,2,1,50,0,0
16596,-100,4,2,1,50,0,0
16780,-100,4,2,1,65,0,0
19593,-133.333333333333,4,2,1,40,0,0
21843,-133.333333333333,4,2,1,30,0,0
22593,-133.333333333333,4,2,1,45,0,0
24093,-133.333333333333,4,2,1,50,0,0
25593,-100,4,2,1,5,0,0
30093,-133.333333333333,4,2,1,30,0,0
34593,-133.333333333333,4,2,1,40,0,0
35718,-133.333333333333,4,2,1,20,0,0
36093,-133.333333333333,4,2,1,60,0,0
36468,-133.333333333333,4,2,1,40,0,0
40218,-133.333333333333,4,2,1,86,0,0
40593,-90.9090909090909,4,2,1,50,0,1
42280,-90.9090909090909,4,2,1,65,0,1
43218,-90.9090909090909,4,2,1,75,0,1
43780,-90.9090909090909,4,2,1,50,0,1
44718,-90.9090909090909,4,2,1,65,0,1
46218,-90.9090909090909,4,2,1,75,0,1
46593,-133.333333333333,4,2,1,35,0,0
49968,-133.333333333333,4,2,1,65,0,0
50343,-133.333333333333,4,2,1,35,0,0
51093,-133.333333333333,4,2,1,65,0,0
51468,-133.333333333333,4,2,1,35,0,0
52218,-133.333333333333,4,2,1,20,0,0
52593,-100,4,2,1,50,0,0
57093,-100,4,2,1,60,0,0
57655,-100,4,2,1,70,0,0
58218,-100,4,2,1,80,0,0
58593,-90.9090909090909,4,2,1,90,0,1
63093,-133.333333333333,4,2,1,50,0,0
64593,-90.9090909090909,4,2,1,100,0,1
67593,-90.9090909090909,4,2,1,85,0,1
70593,-90.9090909090909,4,2,1,75,0,1
71155,-90.9090909090909,4,2,1,60,0,1
71530,-90.9090909090909,4,2,1,80,0,1
71999,-133.333333333333,4,2,1,35,0,0
72374,-133.333333333333,4,2,1,5,0,0
72843,-133.333333333333,4,2,1,35,0,0
75096,-133.333333333333,4,2,1,50,0,0
78468,-133.333333333333,4,2,1,5,0,0
85593,-100,4,2,1,40,0,0
88968,-133.333333333333,4,2,1,30,0,0
90093,-133.333333333333,4,2,1,50,0,0
91030,-100,4,2,1,50,0,0
91218,-133.333333333333,4,2,1,70,0,0
91593,-133.333333333333,4,2,1,50,0,0
91718,-133.333333333333,4,2,1,20,0,0
92343,-133.333333333333,4,2,1,25,0,0
97593,-133.333333333333,4,2,1,40,0,0
99096,-133.333333333333,4,2,1,60,0,0
100593,-100,4,2,1,40,0,0
102093,-100,4,2,1,50,0,0
102468,-100,4,2,1,60,0,0
102843,-100,4,2,1,75,0,0
103218,-100,4,2,1,90,0,0
103593,-100,4,2,1,100,0,1
103968,-100,4,2,1,50,0,1
104343,-100,4,2,1,50,0,0
106093,-100,4,2,1,70,0,0
106593,-100,4,2,1,85,0,0
109968,-100,4,2,1,85,0,0
111093,-100,4,2,1,85,0,0
112593,-100,4,2,1,85,0,0
112968,-133.333333333333,4,2,1,60,0,0
114093,-133.333333333333,4,2,1,30,0,0
115218,-100,4,2,1,50,0,0
115593,-90.9090909090909,4,2,1,90,0,1
120093,-100,4,2,1,50,0,0
121593,-83.3333333333333,4,2,1,100,0,1
124593,-83.3333333333333,4,2,1,90,0,1
126093,-83.3333333333333,4,2,1,70,0,1
126843,-83.3333333333333,4,2,1,85,0,1
127593,-83.3333333333333,4,2,1,96,0,1
128343,-83.3333333333333,4,2,1,100,0,1
128530,-83.3333333333333,4,2,1,80,0,1
129093,-133.333333333333,4,2,1,30,0,0
130593,-133.333333333333,4,2,1,40,0,0
131718,-133.333333333333,4,2,1,55,0,0
132096,-133.333333333333,4,2,1,50,0,0
133124,-133.333333333333,4,2,1,5,0,0
138096,-100,4,2,1,50,0,0

[Colours]
Combo1 : 250,63,41
Combo2 : 253,207,123
Combo3 : 210,157,142
Combo4 : 206,114,108
Combo5 : 255,140,85
Combo6 : 255,32,77
Combo7 : 223,57,103

[HitObjects]
56,304,93,6,0,L|156:296,1,90.0000034332277,0|0,1:0|0:0,0:0:0:0:
256,220,843,1,0,0:0:0:0:
256,356,1218,1,0,0:0:0:0:
366,296,1593,2,0,L|455:303,1,90.0000034332277,0|0,0:0|0:0,0:0:0:0:
512,180,2343,1,0,0:0:0:0:
512,180,2718,1,0,0:0:0:0:
460,56,3093,6,0,L|264:68,1,180.000006866455,0|0,1:0|0:0,0:0:0:0:
156,12,4218,1,0,0:0:0:0:
164,148,4593,2,0,P|152:192|168:244,1,90.0000034332277,0|0,0:0|0:0,0:0:0:0:
204,288,5155,1,0,0:0:0:0:
204,288,5343,2,0,L|304:280,1,90.0000034332277,0|0,0:0|0:0,0:0:0:0:
404,360,6093,6,0,P|436:280|400:192,1,180.000006866455,6|2,1:2|0:0,0:0:0:0:
312,96,7218,1,0,0:0:0:0:
220,196,7593,2,0,P|172:204|116:188,2,90.0000034332277,2|0|2,1:2|0:0|0:0,0:0:0:0:
312,96,8718,1,2,0:0:0:0:
404,196,9093,6,0,L|384:380,1,180.000006866455,6|0,1:2|0:0,0:0:0:0:
256,328,10218,1,2,0:0:0:0:
127,374,10593,2,0,L|108:196,1,180.000006866455,2|2,1:2|0:0,0:0:0:0:
188,88,11718,2,0,L|192:124,3,22.5000008583069,2|2|2|2,0:0|0:0|0:0|0:0,0:0:0:0:
216,132,12093,54,0,P|268:152|336:124,1,120,4|0,1:0|0:0,0:0:0:0:
388,68,12655,1,0,0:0:0:0:
448,132,12843,2,0,P|452:164|448:192,1,60,0|0,1:0|0:0,0:0:0:0:
372,248,13218,2,0,P|368:280|372:308,1,60,2|0,0:2|0:0,0:0:0:0:
304,368,13593,1,0,1:0:0:0:
236,308,13780,2,0,P|239:278|235:248,2,60,2|0|2,0:0|0:0|0:0,0:0:0:0:
148,284,14343,2,0,P|88:304|20:272,1,120,2|0,1:2|0:0,0:0:0:0:
36,108,15093,6,0,P|92:90|152:112,1,120,6|0,1:2|0:0,0:0:0:0:
208,176,15655,1,0,0:0:0:0:
268,108,15843,1,0,1:0:0:0:
408,228,16218,2,0,P|412:268|404:296,2,60,0|0|0,0:0|0:0|0:0,0:0:0:0:
324,256,16780,1,2,1:2:0:0:
256,312,16968,1,2,1:2:0:0:
184,256,17155,1,2,1:2:0:0:
256,200,17343,2,0,L|256:72,1,120,2|2,1:2|1:2,0:0:0:0:
95,160,18093,6,0,L|95:280,1,120,6|2,1:2|0:2,0:0:0:0:
156,344,18655,1,0,0:0:0:0:
220,280,18843,2,0,B|272:280|272:328|328:328,1,120,2|0,1:2|0:0,0:0:0:0:
404,376,19405,1,0,0:0:0:0:
488,328,19593,6,0,P|500:288|484:236,1,90.0000034332277,2|2,1:2|0:0,0:0:0:0:
380,164,20343,1,2,1:2:0:0:
380,164,20718,1,2,0:0:0:0:
268,240,21093,2,0,L|164:232,1,90.0000034332277,2|2,1:2|0:2,0:0:0:0:
136,104,21843,2,0,L|276:116,1,135.000005149841,2|0,0:0|0:0,0:0:0:0:
352,80,22593,54,0,P|356:56|340:20,3,45.0000017166138,2|0|0|0,0:0|0:0|1:0|0:0,0:0:0:0:
400,160,23343,2,0,P|395:181|399:203,3,45.0000017166138,2|0|0|0,0:0|0:0|1:0|0:0,0:0:0:0:
444,288,24093,2,0,B|352:324|352:244|268:292,1,180.000006866455,4|2,1:2|0:0,0:0:0:0:
256,192,25593,12,0,28218,0:0:0:0:
254,49,30093,5,0,1:2:0:0:
254,49,30468,1,2,0:0:0:0:
254,49,30843,2,0,P|266:89|246:149,1,90.0000034332277,2|0,0:0|0:0,0:0:0:0:
170,237,31593,2,0,B|256:260|256:260|348:236,1,180.000006866455,2|2,1:2|0:0,0:0:0:0:
256,136,32718,1,0,0:0:0:0:
176,28,33093,6,0,P|130:18|72:37,1,90.0000034332277,2|0,1:2|0:0,0:0:0:0:
8,136,33843,2,0,P|-2:182|16:236,1,90.0000034332277,2|0,1:2|0:0,0:0:0:0:
84,336,34593,2,0,L|272:320,1,180.000006866455,2|2,1:2|1:2,0:0:0:0:
364,228,35718,1,2,0:0:0:0:
492,272,36093,6,0,P|502:228|492:185,1,90.0000034332277,2|2,1:2|0:0,0:0:0:0:
412,76,36843,2,0,P|368:65|325:75,1,90.0000034332277,2|0,1:2|0:2,0:0:0:0:
260,192,37593,1,0,1:0:0:0:
260,192,37968,1,0,0:0:0:0:
186,75,38343,2,0,P|143:65|100:76,1,90.0000034332277,0|2,1:0|0:0,0:0:0:0:
168,192,39093,53,0,1:0:0:0:
168,192,39468,2,0,P|211:202|254:191,1,90.0000034332277,2|0,0:0|1:0,0:0:0:0:
256,44,40218,1,0,1:0:0:0:
340,224,40593,54,0,P|344:260|336:304,1,66.0000020141602,4|8,1:0|0:0,0:0:0:0:
256,344,40968,1,0,1:0:0:0:
171,289,41155,2,0,P|167:256|172:224,1,66.0000020141602,8|0,0:0|1:0,0:0:0:0:
80,184,41530,1,8,0:0:0:0:
116,92,41718,2,0,L|184:88,1,66.0000020141602,8|8,1:2|0:0,0:0:0:0:
256,156,42093,5,0,1:2:0:0:
330,88,42280,2,0,L|396:92,1,66.0000020141602,8|0,1:2|0:0,0:0:0:0:
472,156,42655,2,0,P|477:200|468:228,1,66.0000020141602,10|2,1:2|0:0,0:0:0:0:
396,288,43030,1,10,1:2:0:0:
320,224,43218,1,10,1:2:0:0:
200,316,43405,1,8,1:2:0:0:
120,256,43593,5,6,1:2:0:0:
196,192,43780,2,0,P|203:159|190:116,1,66.0000020141602,8|0,0:0|1:0,0:0:0:0:
256,48,44155,1,8,0:0:0:0:
315,127,44343,2,0,P|309:159|316:192,1,66.0000020141602,0|10,1:0|0:0,0:0:0:0:
368,276,44718,2,0,L|452:272,1,66.0000020141602,10|10,1:2|0:0,0:0:0:0:
388,360,45093,69,0,1:0:0:0:
292,332,45280,2,0,P|257:326|212:338,1,66.0000020141602,10|0,1:2|0:0,0:0:0:0:
228,232,45655,2,0,P|260:237|292:231,1,66.0000020141602,10|0,1:2|0:0,0:0:0:0:
256,140,46030,1,8,1:2:0:0:
304,52,46218,2,0,P|248:40|200:56,1,99.0000030212403,6|0,1:2|0:0,0:0:0:0:
184,72,46593,38,0,L|84:68,1,90.0000034332277,6|2,1:2|0:0,0:0:0:0:
24,184,47343,2,0,L|124:188,1,90.0000034332277,0|2,1:0|0:0,0:0:0:0:
196,296,48093,1,0,1:0:0:0:
336,64,48843,1,2,0:0:0:0:
436,156,49218,2,0,P|440:192|432:208,1,45.0000017166138,2|0,0:0|0:0,0:0:0:0:
376,261,49593,6,0,P|348:269|288:261,1,90.0000034332277,2|0,0:0|1:0,0:0:0:0:
196,172,50343,2,0,P|168:164|100:176,1,90.0000034332277,2|0,0:0|1:0,0:0:0:0:
88,304,51093,2,0,P|128:320|228:292,1,135.000005149841,0|2,1:0|0:0,0:0:0:0:
271,361,51843,1,0,1:0:0:0:
380,300,52218,2,0,P|384:268|376:240,1,45.0000017166138,0|2,0:0|0:0,0:0:0:0:
352,172,52593,6,0,L|476:168,2,120,4|2|2,1:0|0:0|1:2,0:0:0:0:
204,68,53718,2,0,P|165:63|132:75,1,60,0|0,0:0|0:0,0:0:0:0:
72,136,54093,2,0,P|52:188|72:252,1,120,2|0,1:2|0:0,0:0:0:0:
132,312,54655,1,0,0:0:0:0:
196,248,54843,2,0,L|280:244,1,60,2|0,1:2|0:0,0:0:0:0:
264,336,55218,2,0,L|352:332,1,60,2|0,0:0|0:0,0:0:0:0:
400,380,55593,5,0,1:0:0:0:
484,220,55968,2,0,P|500:184|476:104,1,120,2|0,0:0|1:0,0:0:0:0:
420,40,56530,1,0,0:0:0:0:
360,108,56718,2,0,L|280:104,1,60,2|0,1:2|0:0,0:0:0:0:
256,184,57093,53,2,1:2:0:0:
128,56,57468,1,0,0:0:0:0:
56,108,57655,2,0,P|48:132|56:168,1,60,2|0,0:0|0:0,0:0:0:0:
76,252,58030,2,0,L|-8:248,2,60,2|0|2,0:0|1:0|0:0,0:0:0:0:
128,336,58593,54,0,P|176:324|228:340,1,99.0000030212403,6|2,1:2|0:0,0:0:0:0:
256,376,58968,1,0,0:0:0:0:
328,308,59155,2,0,L|324:224,1,66.0000020141602,10|0,0:0|1:2,0:0:0:0:
408,188,59530,1,8,0:0:0:0:
492,244,59718,2,0,L|489:310,1,66.0000020141602,10|10,1:2|0:0,0:0:0:0:
408,368,60093,6,0,L|408:240,1,99.0000030212403,6|0,1:2|0:0,0:0:0:0:
408,220,60468,1,2,0:0:0:0:
480,156,60655,1,8,0:0:0:0:
408,88,60843,2,0,P|367:82|332:93,1,66.0000020141602,2|10,0:0|1:2,0:0:0:0:
288,172,61218,2,0,P|247:178|196:160,1,66.0000020141602,8|10,0:0|1:2,0:0:0:0:
168,88,61593,6,0,P|124:76|52:96,1,99.0000030212403,6|0,1:2|0:0,0:0:0:0:
36,120,61968,1,2,1:2:0:0:
116,176,62155,1,8,0:0:0:0:
32,228,62343,2,0,P|16:268|44:340,1,99.0000030212403,0|2,1:2|0:0,0:0:0:0:
64,352,62718,2,0,L|156:348,1,66.0000020141602,0|10,1:2|0:0,0:0:0:0:
204,292,63093,6,0,L|196:244,3,45.0000017166138,2|0|2|2,0:0|0:0|0:0|0:0,0:0:0:0:
308,292,63843,2,0,L|316:244,3,45.0000017166138,2|0|2|2,0:0|0:0|0:0|1:2,0:0:0:0:
304,148,64593,54,0,P|260:160|188:136,1,99.0000030212403,6|0,1:2|0:0,0:0:0:0:
164,168,64968,1,2,0:0:0:0:
72,132,65155,2,0,P|64:170|76:208,1,66.0000020141602,8|2,0:0|1:2,0:0:0:0:
60,296,65530,1,10,0:0:0:0:
140,356,65718,2,0,L|232:348,1,66.0000020141602,10|8,0:0|1:2,0:0:0:0:
304,352,66093,6,0,L|416:360,1,99.0000030212403,6|0,1:2|0:0,0:0:0:0:
444,332,66468,1,2,0:0:0:0:
384,256,66655,1,8,0:0:0:0:
440,176,66843,2,0,P|448:132|436:100,1,66.0000020141602,2|10,1:2|0:0,0:0:0:0:
376,40,67218,2,0,P|336:32|292:56,1,66.0000020141602,8|8,1:2|0:0,0:0:0:0:
256,120,67593,6,0,L|264:236,1,99.0000030212403,6|0,1:2|0:0,0:0:0:0:
268,268,67968,1,2,0:0:0:0:
196,336,68155,1,8,0:0:0:0:
124,268,68343,2,0,L|128:184,1,66.0000020141602,2|8,1:2|0:0,0:0:0:0:
64,128,68718,1,10,1:2:0:0:
64,128,68905,1,8,0:0:0:0:
136,60,69093,70,0,P|176:60|212:92,1,66.0000020141602,6|8,0:0|0:0,0:0:0:0:
376,60,69468,2,0,P|336:60|300:92,1,66.0000020141602,0|8,1:0|0:0,0:0:0:0:
136,72,69843,2,0,P|176:72|212:104,1,66.0000020141602,2|8,0:0|0:0,0:0:0:0:
376,72,70218,2,0,P|336:72|300:104,1,66.0000020141602,8|8,1:2|0:0,0:0:0:0:
136,84,70593,6,0,P|176:84|212:116,1,66.0000020141602,2|8,0:0|0:0,0:0:0:0:
376,84,70968,2,0,P|336:84|300:116,1,66.0000020141602,2|8,1:2|0:0,0:0:0:0:
256,180,71343,1,2,1:2:0:0:
320,256,71530,2,0,L|308:328,2,66.0000020141602,8|2|2,0:0|1:2|0:0,0:0:0:0:
192,256,72093,22,0,L|208:360,2,90.0000034332277,0|0|2,0:0|0:0|0:0,0:0:0:0:
256,136,73218,1,0,0:0:0:0:
320,256,73593,2,0,L|304:360,2,90.0000034332277,2|0|2,0:0|0:0|0:0,0:0:0:0:
256,136,74718,2,0,L|256:84,1,45.0000017166138,0|2,0:0|0:0,0:0:0:0:
204,48,75093,6,0,B|296:88|296:4|401:51,1,202.500007724762,0|2,1:2|0:0,0:0:0:0:
256,192,76030,12,0,78468,0:0:0:0:
348,108,85593,5,2,1:2:0:0:
405,176,85780,2,0,P|409:212|397:248,2,60,0|0|0,0:0|0:0|0:0,0:0:0:0:
320,200,86343,2,0,B|260:216|260:180|192:200,1,120,2|2,0:0|0:0,0:0:0:0:
132,252,86905,1,0,0:0:0:0:
60,196,87093,2,0,P|56:160|60:136,1,60,0|0,1:2|0:0,0:0:0:0:
120,68,87468,2,0,L|-20:72,2,120,2|2|2,0:0|0:0|0:0,0:0:0:0:
192,12,88405,1,0,0:0:0:0:
256,76,88593,6,0,B|272:132|236:132|256:200,4,120,6|2|0|2|2,1:2|0:0|0:0|0:0|0:0,0:0:0:0:
256,344,90843,1,2,0:0:0:0:
336,300,91030,2,0,P|368:296|408:304,1,60,2|0,0:0|1:0,0:0:0:0:
464,236,91405,1,0,0:0:0:0:
396,172,91593,54,0,P|346:182|300:168,1,90.0000034332277,6|0,1:2|1:0,0:0:0:0:
196,96,92343,2,0,P|192:64|200:24,2,60.0000022888184,0|2|2,1:0|0:0|0:0,0:0:0:0:
148,172,93093,2,0,L|168:268,1,90.0000034332277,0|0,1:0|0:0,0:0:0:0:
345,260,93843,2,0,L|364:172,1,90.0000034332277,0|0,1:0|0:0,0:0:0:0:
256,92,94593,6,0,L|256:200,1,90.0000034332277,0|0,1:0|0:0,0:0:0:0:
212,308,95343,2,0,P|252:300|312:312,1,90.0000034332277,0|0,1:0|0:0,0:0:0:0:
424,364,96093,1,0,1:0:0:0:
476,240,96468,1,0,1:0:0:0:
476,240,96843,2,0,P|482:201|464:160,2,60.0000022888184,2|2|2,0:0|0:0|0:0,0:0:0:0:
392,212,97593,6,0,L|284:216,1,90.0000034332277,6|0,1:2|0:0,0:0:0:0:
36,240,98343,2,0,P|30:201|48:160,2,60.0000022888184,2|2|2,0:0|0:0|0:0,0:0:0:0:
120,212,99093,2,0,L|228:216,1,90.0000034332277,6|2,1:2|0:0,0:0:0:0:
256,88,99843,1,2,0:0:0:0:
256,88,100218,1,2,0:0:0:0:
384,212,100593,6,0,L|432:208,2,40,0|2|2,1:0|0:0|0:0,0:0:0:0:
380,272,100968,2,0,L|444:296,2,40,0|2|2,0:0|0:0|0:0,0:0:0:0:
340,316,101343,2,0,L|376:360,2,40,0|2|2,1:0|0:0|0:0,0:0:0:0:
288,344,101718,2,0,L|300:400,2,40,0|2|2,0:0|0:0|0:0,0:0:0:0:
224,344,102093,54,0,L|215:383,2,40,0|2|2,1:0|0:0|0:0,0:0:0:0:
172,316,102468,2,0,L|146:346,2,40,2|2|0,0:0|0:0|0:0,0:0:0:0:
132,272,102842,2,0,L|94:286,2,40,2|0|2,1:2|0:0|0:0,0:0:0:0:
128,212,103217,2,0,L|65:206,2,40,2|2|2,0:0|0:0|0:0,0:0:0:0:
160,160,103593,6,0,P|144:116|172:36,1,120,6|2,1:2|0:0,0:0:0:0:
344,48,104343,2,0,P|362:103|344:160,1,120,2|0,0:0|0:0,0:0:0:0:
256,316,105093,2,0,L|256:184,1,120,2|2,1:2|0:0,0:0:0:0:
424,132,105843,1,2,0:0:0:0:
492,232,106093,2,0,L|472:320,1,80,2|2,1:2|1:2,0:0:0:0:
356,336,106593,6,0,L|388:200,1,120,6|0,1:2|0:0,0:0:0:0:
300,136,107218,1,0,0:0:0:0:
248,168,107343,2,0,P|200:184|108:148,1,120,2|2,1:2|0:0,0:0:0:0:
244,28,108093,2,0,P|292:12|384:48,1,120,2|0,1:2|0:0,0:0:0:0:
448,108,108718,1,0,0:0:0:0:
480,160,108843,2,0,P|490:205|464:270,1,90,2|0,1:2|0:0,0:0:0:0:
450,276,109218,2,0,L|410:272,3,30,0|2|2|2,0:0|0:0|0:0|0:0,0:0:0:0:
384,298,109593,5,0,1:0:0:0:
214,188,109968,2,0,L|210:112,1,60,0|2,0:0|0:0,0:0:0:0:
302,128,110343,2,0,L|298:192,1,60,2|2,1:2|0:0,0:0:0:0:
256,268,110718,1,0,0:0:0:0:
100,180,111093,54,0,P|80:124|112:56,1,120,2|2,0:0|0:0,0:0:0:0:
172,12,111655,1,2,0:0:0:0:
256,48,111843,2,0,L|256:116,2,60,2|2|2,1:2|0:0|0:0,0:0:0:0:
340,12,112405,1,2,0:0:0:0:
412,68,112593,6,0,P|431:124|412:180,1,120,6|0,1:2|0:0,0:0:0:0:
364,228,113155,1,0,0:0:0:0:
416,268,113343,2,0,L|496:264,2,67.5000025749207,2|0|2,0:0|0:0|0:0,0:0:0:0:
364,228,114093,1,2,0:0:0:0:
256,192,114280,12,0,115218,0:0:0:0:
480,152,115593,38,0,L|480:268,1,99.0000030212403,6|0,1:2|0:0,0:0:0:0:
480,300,115968,1,2,0:0:0:0:
400,356,116155,1,10,0:0:0:0:
316,304,116343,2,0,P|308:268|331:218,1,66.0000020141602,0|8,1:0|0:0,0:0:0:0:
384,168,116718,2,0,P|392:132|369:82,1,66.0000020141602,8|10,1:2|0:0,0:0:0:0:
304,48,117093,6,0,L|180:52,1,99.0000030212403,6|0,1:2|0:0,0:0:0:0:
168,20,117468,1,2,0:0:0:0:
116,104,117655,2,0,P|109:136|117:167,1,66.0000020141602,8|2,0:0|0:2,0:0:0:0:
184,244,118030,1,8,1:2:0:0:
256,176,118218,2,0,L|340:172,1,66.0000020141602,8|10,0:2|1:2,0:0:0:0:
380,252,118593,6,0,P|396:300|364:360,1,99.0000030212403,6|0,1:2|0:0,0:0:0:0:
344,380,118968,1,2,0:0:0:0:
256,336,119155,1,10,0:0:0:0:
164,368,119343,2,0,P|155:336|162:304,1,66.0000020141602,0|10,1:0|0:0,0:0:0:0:
236,240,119718,2,0,P|244:208|237:176,1,66.0000020141602,0|10,1:2|0:0,0:0:0:0:
196,96,120093,6,0,L|204:32,3,60,2|0|0|2,0:0|0:0|0:0|0:0,0:0:0:0:
316,96,120843,2,0,L|308:32,3,60,2|0|2|2,0:0|0:0|0:0|0:0,0:0:0:0:
412,12,121593,54,0,L|432:136,1,107.999996704102,6|0,1:2|0:0,0:0:0:0:
460,164,121968,2,0,P|468:212|440:256,1,71.9999978027344,2|8,0:0|0:0,0:0:0:0:
388,312,122343,1,2,1:2:0:0:
388,312,122530,1,10,0:0:0:0:
312,236,122718,2,0,L|264:240,3,35.9999989013672,10|2|10|2,1:2|0:0|0:0|0:0,0:0:0:0:
232,204,123093,6,0,L|104:212,1,107.999996704102,6|2,1:2|0:0,0:0:0:0:
80,176,123468,2,0,P|72:136|100:80,1,71.9999978027344,2|8,0:0|0:0,0:0:0:0:
156,32,123843,1,2,1:2:0:0:
156,32,124030,1,10,0:0:0:0:
236,104,124218,2,0,L|336:100,1,71.9999978027344,8|10,0:0|1:2,0:0:0:0:
404,52,124593,6,0,P|416:104|399:160,1,107.999996704102,6|0,1:2|0:0,0:0:0:0:
368,200,124968,2,0,P|360:232|380:292,1,71.9999978027344,2|8,0:0|0:0,0:0:0:0:
344,376,125343,2,0,L|436:372,2,71.9999978027344,2|8|10,1:2|0:0|1:2,0:0:0:0:
256,316,125905,1,10,0:0:0:0:
168,252,126093,70,0,P|174:216|166:182,1,71.9999978027344,6|8,0:0|0:0,0:0:0:0:
344,252,126468,2,0,P|337:216|345:182,1,71.9999978027344,0|8,1:0|0:0,0:0:0:0:
168,244,126843,2,0,P|174:208|166:174,1,71.9999978027344,6|8,0:0|0:0,0:0:0:0:
344,244,127218,2,0,P|337:208|345:174,1,71.9999978027344,8|8,1:2|0:0,0:0:0:0:
168,236,127593,6,0,P|174:200|166:166,1,71.9999978027344,6|8,0:0|0:0,0:0:0:0:
344,236,127968,2,0,P|337:200|345:166,1,71.9999978027344,0|8,1:0|0:0,0:0:0:0:
256,108,128343,1,4,0:0:0:0:
344,44,128530,2,0,L|428:48,2,71.9999978027344,10|2|0,0:0|0:0|0:0,0:0:0:0:
256,108,129093,22,0,L|256:208,1,90.0000034332277,0|0,0:0|1:0,0:0:0:0:
156,288,129843,2,0,L|140:196,1,90.0000034332277,2|0,0:0|1:0,0:0:0:0:
371,199,130593,2,0,L|356:288,1,90.0000034332277,2|2,0:0|0:0,0:0:0:0:
344,372,131155,1,0,1:0:0:0:
268,328,131343,2,0,L|275:287,3,22.5000008583069,0|0|2|0,0:0|0:0|0:0|0:0,0:0:0:0:
252,264,131718,2,0,L|260:222,3,22.5000008583069,2|0|2|2,0:0|0:0|0:0|0:0,0:0:0:0:
232,200,132093,6,0,B|152:156|128:248|32:200,1,202.500007724762,2|2,1:2|0:0,0:0:0:0:
256,192,133030,12,0,136218,0:0:0:0:
