osu file format v14

[General]
AudioFilename: audio.mp3
AudioLeadIn: 0
PreviewTime: 79218
Countdown: 0
SampleSet: Soft
StackLeniency: 0.4
Mode: 0
LetterboxInBreaks: 0
WidescreenStoryboard: 0

[Editor]
Bookmarks: 25622,76059,88593,114122,133059,148622
DistanceSpacing: 0.6
BeatDivisor: 1
GridSize: 32
TimelineZoom: 3.699998

[Metadata]
Title:carnation
TitleUnicode:carnation
Artist:AAAA
ArtistUnicode:ああああ
Creator:Veridian
Version:extreme
Source:BMS
Tags:piano classical rhythm game stream noffy naotoshi nao tomori monstrata
BeatmapID:1439137
BeatmapSetID:677687

[Difficulty]
HPDrainRate:7.8
CircleSize:4.8
OverallDifficulty:8.5
ApproachRate:9
SliderMultiplier:2
SliderTickRate:1

[Events]
//Background and Video events
0,0,"60515982_p0.png",0,0
//Break Periods
2,79593,84964
//Storyboard Layer 0 (Background)
//Storyboard Layer 1 (Fail)
//Storyboard Layer 2 (Pass)
//Storyboard Layer 3 (Foreground)
//Storyboard Sound Samples

[TimingPoints]
-1407,375,4,2,1,20,1,0
93,-200,4,2,1,20,0,0
4221,-200,4,2,1,50,0,0
4971,-200,4,2,1,20,0,0
6843,-200,4,2,1,40,0,0
8343,-200,4,2,1,50,0,0
9093,-200,4,2,1,60,0,0
11343,-133.333333333333,4,2,1,50,0,0
11811,-133.333333333333,4,2,1,40,0,0
12093,-111.111111111111,4,2,1,50,0,1
12843,-111.111111111111,4,2,1,50,0,0
16596,-100,4,2,1,50,0,0
16780,-100,4,2,1,65,0,0
18093,-100,4,2,1,80,0,0
19593,-133.333333333333,4,2,1,40,0,0
21843,-133.333333333333,4,2,1,30,0,0
22593,-133.333333333333,4,2,1,45,0,0
24093,-133.333333333333,4,2,1,50,0,0
25593,-133.333333333333,4,2,1,5,0,0
30093,-200,4,2,1,30,0,0
34593,-200,4,2,1,40,0,0
35718,-200,4,2,1,20,0,0
36093,-133.333333333333,4,2,1,60,0,0
36468,-133.333333333333,4,2,1,40,0,0
40218,-200,4,2,1,86,0,0
40593,-90.9090909090909,4,2,1,50,0,1
42280,-90.9090909090909,4,2,1,65,0,1
43218,-90.9090909090909,4,2,1,75,0,1
43780,-90.9090909090909,4,2,1,50,0,1
44718,-90.9090909090909,4,2,1,65,0,1
46218,-90.9090909090909,4,2,1,75,0,1
46593,-200,4,2,1,35,0,0
49968,-200,4,2,1,65,0,0
50343,-200,4,2,1,35,0,0
51093,-200,4,2,1,65,0,0
51468,-200,4,2,1,35,0,0
52218,-200,4,2,1,20,0,0
52596,-133.333333333333,4,2,1,50,0,0
57093,-133.333333333333,4,2,1,60,0,0
57655,-133.333333333333,4,2,1,70,0,0
58218,-133.333333333333,4,2,1,80,0,0
58593,-90.9090909090909,4,2,1,90,0,1
63093,-133.333333333333,4,2,1,50,0,0
64593,-83.3333333333333,4,2,1,100,0,1
67593,-83.3333333333333,4,2,1,85,0,1
69561,-83.3333333333333,4,2,1,5,0,1
69655,-83.3333333333333,4,2,1,85,0,1
69936,-83.3333333333333,4,2,1,5,0,1
70030,-83.3333333333333,4,2,1,85,0,1
70311,-83.3333333333333,4,2,1,5,0,1
70405,-83.3333333333333,4,2,1,85,0,1
70593,-83.3333333333333,4,2,1,75,0,1
70686,-83.3333333333333,4,2,1,5,0,1
70780,-83.3333333333333,4,2,1,85,0,1
71155,-83.3333333333333,4,2,1,60,0,1
71530,-83.3333333333333,4,2,1,80,0,1
71999,-83.3333333333333,4,2,1,35,0,1
72093,-200,4,2,1,35,0,0
72843,-200,4,2,1,35,0,0
74718,-200,4,2,1,35,0,0
75096,-200,4,2,1,50,0,0
85593,-133.333333333333,4,2,1,40,0,0
88968,-133.333333333333,4,2,1,30,0,0
90093,-200,4,2,1,50,0,0
91030,-100,4,2,1,50,0,0
91218,-100,4,2,1,70,0,0
91593,-153.846153846153,4,2,1,50,0,0
91718,-153.846153846153,4,2,1,20,0,0
92343,-153.846153846153,4,2,1,25,0,0
97593,-153.846153846154,4,2,1,40,0,0
99096,-100,4,2,1,60,0,0
100593,-90.9090909090909,4,2,1,40,0,0
102093,-83.3333333333333,4,2,1,50,0,0
102468,-83.3333333333333,4,2,1,60,0,0
102843,-83.3333333333333,4,2,1,75,0,0
103218,-83.3333333333333,4,2,1,90,0,0
103593,-133.333333333333,4,2,1,100,0,1
103968,-133.333333333333,4,2,1,50,0,1
104343,-133.333333333333,4,2,1,50,0,0
106093,-133.333333333333,4,2,1,70,0,0
106593,-133.333333333333,4,2,1,85,0,0
109968,-100,4,2,1,85,0,0
111093,-83.3333333333333,4,2,1,85,0,0
112593,-200,4,2,1,85,0,0
112780,-200,4,2,1,85,0,0
112968,-200,4,2,1,5,0,0
114843,-200,4,2,1,50,0,0
115405,-200,4,2,1,50,0,0
115593,-83.3333333333333,4,2,1,90,0,1
120093,-117.647058823529,4,2,1,50,0,0
121593,-76.9230769230769,4,2,1,100,0,1
124593,-76.9230769230769,4,2,1,90,0,1
126093,-76.9230769230769,4,2,1,70,0,1
126561,-76.9230769230769,4,2,1,5,0,1
126655,-76.9230769230769,4,2,1,85,0,1
126843,-76.9230769230769,4,2,1,85,0,1
126936,-76.9230769230769,4,2,1,5,0,1
127030,-76.9230769230769,4,2,1,85,0,1
127311,-76.9230769230769,4,2,1,5,0,1
127405,-76.9230769230769,4,2,1,85,0,1
127593,-76.9230769230769,4,2,1,96,0,1
128343,-76.9230769230769,4,2,1,100,0,1
128530,-83.3333333333333,4,2,1,80,0,1
129093,-153.846153846154,4,2,1,30,0,0
130593,-153.846153846154,4,2,1,40,0,0
131718,-153.846153846154,4,2,1,55,0,0
132096,-200,4,2,1,50,0,0
133124,-200,4,2,1,5,0,0
138096,-200,4,2,1,50,0,0

[Colours]
Combo1 : 250,63,41
Combo2 : 253,207,123
Combo3 : 210,157,142
Combo4 : 206,114,108
Combo5 : 255,140,85
Combo6 : 255,32,77
Combo7 : 223,57,103

[HitObjects]
204,168,93,6,0,L|212:232,1,50,0|0,1:0|0:0,0:0:0:0:
300,216,468,2,0,L|306:166,1,50,0|0,0:0|0:0,0:0:0:0:
256,100,843,1,0,0:0:0:0:
256,284,1218,1,2,0:0:0:0:
372,192,1593,6,0,P|377:166|368:132,1,50,0|0,1:0|0:0,0:0:0:0:
356,60,1968,2,0,P|330:68|306:93,1,50,0|0,0:0|0:0,0:0:0:0:
248,140,2343,2,0,P|268:157|301:166,1,50,2|0,0:0|0:0,0:0:0:0:
256,28,2718,1,0,0:0:0:0:
308,292,3093,6,0,L|312:224,1,50,0|0,1:0|0:0,0:0:0:0:
201,242,3468,2,0,L|204:292,1,50,0|0,0:0|0:0,0:0:0:0:
256,174,3843,2,0,L|256:124,1,50,0|0,0:0|0:0,0:0:0:0:
36,348,4218,1,2,0:0:0:0:
416,44,4593,6,0,P|440:39|480:52,1,50,6|0,0:0|0:0,0:0:0:0:
440,116,4968,1,0,0:0:0:0:
336,48,5155,1,0,0:0:0:0:
392,180,5343,2,0,P|436:196|496:172,1,100,2|0,0:0|0:0,0:0:0:0:
208,28,6093,54,0,L|204:92,1,50,6|0,1:2|0:0,0:0:0:0:
307,77,6468,2,0,L|304:28,1,50,0|0,0:0|0:0,0:0:0:0:
124,124,6843,1,2,0:0:0:0:
388,124,7218,1,0,0:0:0:0:
208,172,7593,6,0,P|204:208|216:236,1,50,2|0,1:2|0:0,0:0:0:0:
304,220,7968,2,0,P|308:196|304:172,1,50,0|0,0:0|0:0,0:0:0:0:
48,168,8343,2,0,P|44:204|56:232,1,50,2|0,0:0|0:0,0:0:0:0:
464,168,8718,2,0,P|468:204|456:232,1,50,2|0,0:0|0:0,0:0:0:0:
40,44,9093,6,0,L|96:36,1,50,6|0,1:2|0:0,0:0:0:0:
144,104,9468,2,0,L|216:96,1,50,0|0,0:0|0:0,0:0:0:0:
256,152,9843,1,0,0:0:0:0:
464,40,10218,1,2,0:0:0:0:
209,216,10593,2,0,P|259:232|316:204,1,100,2|0,1:2|0:0,0:0:0:0:
256,160,11155,1,0,0:0:0:0:
120,168,11343,5,2,0:0:0:0:
124,176,11436,1,0,0:0:0:0:
128,184,11530,1,0,0:0:0:0:
132,192,11624,1,0,0:0:0:0:
104,260,11718,1,2,0:0:0:0:
108,268,11811,1,2,0:0:0:0:
112,276,11905,1,2,0:0:0:0:
116,284,11999,1,2,0:0:0:0:
184,328,12093,53,4,1:0:0:0:
44,328,12280,1,0,0:0:0:0:
260,372,12468,2,0,P|272:344|252:276,1,89.9999972534181,0|0,0:0|0:0,0:0:0:0:
204,220,12749,1,2,0:0:0:0:
210,210,12843,1,0,1:0:0:0:
256,92,13030,1,0,0:0:0:0:
112,192,13218,2,0,L|12:188,1,89.9999972534181,2|0,0:2|0:0,0:0:0:0:
256,92,13593,5,0,1:0:0:0:
256,216,13780,1,2,0:0:0:0:
160,88,13968,1,0,0:0:0:0:
348,184,14155,1,2,0:0:0:0:
100,28,14343,2,0,P|148:4|228:36,1,134.999995880127,2|2,1:2|0:0,0:0:0:0:
320,20,14718,2,0,L|312:124,1,89.9999972534181,0|0,0:0|0:0,0:0:0:0:
192,368,15093,6,0,L|185:278,1,89.9999972534181,6|0,1:2|0:0,0:0:0:0:
60,200,15468,1,0,0:0:0:0:
80,212,15561,1,0,0:0:0:0:
104,216,15655,1,0,0:0:0:0:
136,212,15749,1,2,0:0:0:0:
164,196,15843,2,0,P|192:192|232:208,1,44.999998626709,0|0,1:0|0:0,0:0:0:0:
288,256,16030,5,0,0:0:0:0:
312,276,16124,1,0,0:0:0:0:
340,288,16218,1,0,0:0:0:0:
370,294,16311,1,2,0:0:0:0:
404,288,16405,1,0,0:0:0:0:
432,276,16499,1,2,0:0:0:0:
456,256,16593,1,0,0:0:0:0:
256,40,16780,53,2,1:2:0:0:
368,204,16968,1,2,1:2:0:0:
488,44,17155,1,2,1:2:0:0:
272,168,17343,2,0,P|244:232|296:320,1,150,2|2,1:2|0:0,0:0:0:0:
336,236,17718,2,0,L|408:232,1,50,2|0,1:2|0:0,0:0:0:0:
264,48,17905,1,0,0:0:0:0:
264,48,17999,1,2,0:0:0:0:
198,84,18093,6,0,L|26:92,1,150,6|2,1:2|0:0,0:0:0:0:
4,172,18468,1,2,0:2:0:0:
124,280,18655,1,0,0:0:0:0:
220,172,18843,2,0,L|125:178,1,50,2|0,1:2|0:0,0:0:0:0:
48,332,19030,1,0,0:0:0:0:
68,360,19124,1,0,0:0:0:0:
100,376,19218,1,0,0:0:0:0:
136,376,19311,1,2,0:0:0:0:
170,368,19405,2,0,P|192:354|210:301,1,50,0|2,0:0|0:0,0:0:0:0:
324,192,19593,5,2,1:2:0:0:
188,192,19780,1,0,0:0:0:0:
356,260,19968,1,2,0:0:0:0:
156,260,20155,1,0,0:0:0:0:
308,192,20343,1,2,1:2:0:0:
204,192,20530,1,0,0:0:0:0:
256,372,20718,2,0,L|256:288,1,75.0000028610231,2|0,0:0|0:0,0:0:0:0:
140,172,21093,6,0,P|168:136|212:124,1,75.0000028610231,2|0,1:2|0:2,0:0:0:0:
368,176,21468,2,0,P|340:140|296:128,1,75.0000028610231,2|0,0:2|0:2,0:0:0:0:
164,48,21843,2,0,P|260:102|360:24,1,225.000008583069,2|0,0:0|0:0,0:0:0:0:
152,144,22593,53,2,0:0:0:0:
360,276,22780,1,0,0:0:0:0:
200,356,22968,1,0,1:0:0:0:
200,356,23155,1,0,0:0:0:0:
360,144,23343,1,2,0:0:0:0:
152,276,23530,1,0,0:0:0:0:
312,356,23718,1,0,1:0:0:0:
312,356,23905,1,0,0:0:0:0:
256,24,24093,5,4,1:2:0:0:
256,296,24655,1,0,0:0:0:0:
264,309,24718,1,2,0:0:0:0:
256,312,24780,1,0,0:0:0:0:
258,325,24843,1,2,0:0:0:0:
256,192,25593,12,0,28218,0:0:0:0:
256,372,29718,6,0,L|256:288,1,75.0000028610231,0|0,0:0|0:0,0:0:0:0:
256,192,30093,1,0,1:2:0:0:
256,192,30280,1,0,0:0:0:0:
192,252,30468,2,0,P|172:220|168:188,1,50,2|0,0:0|0:0,0:0:0:0:
320,252,30843,2,0,P|340:220|344:188,1,50,2|0,0:0|0:0,0:0:0:0:
256,100,31218,1,0,0:0:0:0:
436,248,31593,6,0,L|424:144,1,100,2|0,1:2|0:0,0:0:0:0:
412,64,32155,1,0,0:0:0:0:
336,128,32343,2,0,L|344:192,1,50,2|0,0:0|0:0,0:0:0:0:
292,252,32718,1,0,0:0:0:0:
408,236,32905,1,2,0:0:0:0:
360,48,33093,54,0,L|292:56,1,50,2|0,1:2|0:0,0:0:0:0:
152,48,33468,2,0,L|220:56,1,50,0|0,0:0|0:0,0:0:0:0:
408,124,33843,2,0,L|340:132,1,50,2|0,1:2|0:0,0:0:0:0:
104,124,34218,2,0,L|172:132,1,50,0|0,0:0|0:0,0:0:0:0:
256,376,34593,2,0,L|256:272,1,100,2|0,1:2|0:0,0:0:0:0:
256,180,35155,1,0,0:0:0:0:
168,252,35343,2,0,P|164:280|172:312,1,50,2|0,1:2|0:0,0:0:0:0:
170,151,35718,5,2,0:0:0:0:
162,135,35812,1,2,0:0:0:0:
154,120,35906,1,2,0:0:0:0:
146,104,35999,1,2,0:0:0:0:
112,44,36093,5,2,1:2:0:0:
112,224,36280,1,0,0:0:0:0:
232,80,36468,2,0,L|324:72,1,75.0000028610231,2|0,0:0|0:0,0:0:0:0:
112,224,36843,2,0,L|20:216,1,75.0000028610231,2|0,1:2|0:0,0:0:0:0:
4,116,37218,1,0,0:2:0:0:
188,160,37405,1,2,0:0:0:0:
188,160,37499,1,0,0:0:0:0:
188,160,37593,6,0,P|212:232|160:308,1,150.000005722046,0|0,1:0|0:0,0:0:0:0:
112,224,38155,1,2,0:0:0:0:
400,224,38343,1,0,1:0:0:0:
340,304,38530,1,0,0:0:0:0:
284,192,38718,1,2,0:0:0:0:
341,329,38905,1,0,0:0:0:0:
320,116,39093,54,0,P|281:106|237:123,1,75.0000028610231,0|0,1:0|0:0,0:0:0:0:
176,328,39468,2,0,P|211:337|247:327,1,75.0000028610231,2|0,0:0|0:0,0:0:0:0:
212,260,39749,1,2,0:0:0:0:
212,260,39843,2,0,L|192:160,1,75.0000028610231,0|0,1:0|0:0,0:0:0:0:
314,186,40218,6,0,L|300:260,1,75.0000028610231,0|0,1:0|0:0,0:0:0:0:
256,128,40593,37,4,1:0:0:0:
356,92,40780,1,8,0:0:0:0:
392,68,40874,1,2,0:0:0:0:
436,60,40968,2,0,P|480:64|512:100,1,55.0000016784668,0|0,1:0|0:0,0:0:0:0:
156,92,41155,1,8,0:0:0:0:
120,68,41249,1,2,0:0:0:0:
76,60,41343,2,0,P|32:64|0:100,1,55.0000016784668,0|0,1:0|0:0,0:0:0:0:
204,228,41530,6,0,L|216:144,1,55.0000016784668,10|0,0:0|0:0,0:0:0:0:
80,160,41718,1,10,1:2:0:0:
72,204,41811,1,0,0:0:0:0:
64,248,41905,1,10,0:0:0:0:
56,292,41999,1,0,0:0:0:0:
180,352,42093,5,0,0:0:0:0:
176,308,42186,1,0,0:0:0:0:
204,228,42280,2,0,P|168:223|120:256,1,55.0000016784668,8|2,1:2|0:0,0:0:0:0:
332,352,42468,1,0,0:0:0:0:
336,308,42561,1,2,0:0:0:0:
308,228,42655,2,0,P|344:223|392:256,1,55.0000016784668,10|0,1:2|0:0,0:0:0:0:
176,88,42843,69,2,0:0:0:0:
208,116,42936,1,0,0:0:0:0:
252,128,43030,1,10,1:2:0:0:
296,116,43124,1,0,0:0:0:0:
332,88,43218,2,0,L|348:8,1,55.0000016784668,10|0,1:2|0:0,0:0:0:0:
76,72,43405,2,0,L|86:125,1,55.0000016784668,8|0,1:2|0:0,0:0:0:0:
425,125,43593,6,0,L|436:72,1,55.0000016784668,6|0,1:2|0:0,0:0:0:0:
336,232,43780,1,8,0:0:0:0:
380,224,43874,1,2,0:0:0:0:
424,216,43968,1,0,1:0:0:0:
176,232,44155,1,8,0:0:0:0:
132,224,44249,1,2,0:0:0:0:
88,216,44343,1,0,1:0:0:0:
256,356,44530,6,0,L|256:276,1,55.0000016784668,10|0,0:0|0:0,0:0:0:0:
325,75,44718,1,10,1:2:0:0:
281,43,44811,1,0,0:0:0:0:
233,43,44905,1,10,0:0:0:0:
189,71,44999,1,0,0:0:0:0:
319,186,45093,69,0,1:0:0:0:
367,177,45186,1,0,0:0:0:0:
406,150,45280,2,0,P|428:123|427:54,1,55.0000016784668,10|2,1:2|0:0,0:0:0:0:
194,186,45468,1,0,0:0:0:0:
145,177,45561,1,0,0:0:0:0:
106,150,45655,2,0,P|83:123|84:54,1,55.0000016784668,10|2,1:2|0:0,0:0:0:0:
192,292,45843,5,0,0:0:0:0:
232,276,45936,1,2,0:0:0:0:
276,276,46030,1,8,1:2:0:0:
316,292,46124,1,2,0:0:0:0:
292,356,46218,1,6,1:2:0:0:
268,348,46311,1,0,0:0:0:0:
244,348,46405,1,0,0:0:0:0:
224,356,46499,1,0,0:0:0:0:
256,186,46593,22,0,L|256:136,1,50,6|0,1:2|0:0,0:0:0:0:
204,48,46968,1,2,0:0:0:0:
344,172,47343,1,0,1:0:0:0:
256,264,47530,1,0,0:0:0:0:
172,172,47718,2,0,P|168:144|176:108,1,50,2|0,0:0|0:0,0:0:0:0:
256,264,48093,6,0,P|261:291|255:315,1,50,0|0,1:0|0:0,0:0:0:0:
88,260,48468,1,0,0:0:0:0:
172,288,48655,1,0,0:0:0:0:
108,344,48843,1,2,0:0:0:0:
152,204,49030,1,0,0:0:0:0:
208,376,49218,1,2,0:0:0:0:
152,128,49405,1,0,0:0:0:0:
60,196,49593,6,0,L|64:264,1,50,2|0,0:0|0:0,0:0:0:0:
449,245,49968,2,0,L|452:196,1,50,0|0,1:0|0:0,0:0:0:0:
256,184,50343,2,0,L|256:256,1,50,2|2,0:0|0:0,0:0:0:0:
200,304,50718,1,0,1:0:0:0:
312,304,50905,1,0,0:0:0:0:
132,68,51093,2,0,P|156:116|160:176,1,100,0|0,1:0|0:0,0:0:0:0:
256,104,51655,1,2,0:0:0:0:
350,161,51843,2,0,P|357:112|380:68,1,100,0|0,1:0|0:0,0:0:0:0:
416,288,52405,1,2,0:0:0:0:
408,284,52498,1,0,0:0:0:0:
336,248,52593,69,4,1:0:0:0:
464,152,52780,1,0,0:0:0:0:
328,96,52968,2,0,L|332:176,1,75.0000028610231,2|0,0:0|0:0,0:0:0:0:
180,170,53343,2,0,L|184:96,1,75.0000028610231,2|0,1:2|0:0,0:0:0:0:
256,16,53718,1,0,0:0:0:0:
156,256,53905,5,0,0:0:0:0:
148,260,53999,1,2,0:0:0:0:
140,264,54093,2,0,P|104:272|56:254,1,75.0000028610231,2|0,1:2|0:0,0:0:0:0:
108,184,54468,1,0,0:0:0:0:
108,348,54655,1,0,0:0:0:0:
48,92,54843,1,2,1:2:0:0:
108,204,55030,1,0,0:0:0:0:
168,92,55218,1,2,0:0:0:0:
108,224,55405,1,0,0:0:0:0:
140,20,55593,6,0,L|236:28,1,75.0000028610231,0|0,1:0|0:0,0:0:0:0:
384,156,55968,2,0,L|288:164,1,75.0000028610231,2|0,0:0|0:0,0:0:0:0:
256,208,56249,1,2,0:0:0:0:
252,220,56343,1,0,1:0:0:0:
308,80,56530,1,0,0:0:0:0:
288,280,56718,2,0,P|246:290|196:264,1,75.0000028610231,2|0,1:2|0:0,0:0:0:0:
28,164,57093,6,0,P|80:140|176:176,1,150.000005722046,2|0,1:2|0:0,0:0:0:0:
96,228,57655,1,2,0:0:0:0:
96,68,57843,1,0,0:0:0:0:
188,176,58030,1,2,0:0:0:0:
8,176,58218,1,0,1:0:0:0:
232,104,58405,1,2,0:0:0:0:
93,381,58593,6,0,B|65:285|65:285|109:201,1,165.000005035401,6|2,1:2|0:0,0:0:0:0:
164,292,58968,1,0,0:0:0:0:
12,156,59155,1,10,0:0:0:0:
48,124,59249,1,2,0:0:0:0:
96,112,59343,1,0,1:2:0:0:
144,124,59436,1,2,0:0:0:0:
180,156,59530,1,8,0:0:0:0:
216,192,59624,1,2,0:0:0:0:
264,204,59718,1,10,1:2:0:0:
312,192,59811,1,0,0:0:0:0:
344,156,59905,2,0,P|351:125|324:80,1,55.0000016784668,10|0,0:0|0:0,0:0:0:0:
440,368,60093,6,0,P|412:296|456:200,1,165.000005035401,6|0,1:2|0:0,0:0:0:0:
508,152,60468,1,2,0:0:0:0:
236,40,60655,1,8,0:0:0:0:
244,88,60749,1,0,0:0:0:0:
252,136,60843,1,2,0:0:0:0:
260,184,60936,1,0,0:0:0:0:
268,232,61030,2,0,L|280:320,1,55.0000016784668,10|0,1:2|0:0,0:0:0:0:
328,148,61218,1,8,0:0:0:0:
288,116,61311,1,2,0:0:0:0:
236,116,61405,1,10,1:2:0:0:
196,144,61499,1,2,0:0:0:0:
88,68,61593,6,0,L|124:276,1,165.000005035401,6|0,1:2|0:0,0:0:0:0:
56,308,61968,1,2,1:2:0:0:
256,356,62155,1,8,0:0:0:0:
244,308,62249,1,0,0:0:0:0:
232,260,62343,69,0,1:2:0:0:
32,160,62530,1,8,0:0:0:0:
72,188,62624,1,2,0:0:0:0:
124,188,62718,1,0,1:2:0:0:
164,160,62811,1,0,0:0:0:0:
208,136,62905,1,10,0:0:0:0:
256,136,62999,1,2,0:0:0:0:
296,160,63093,5,2,0:0:0:0:
356,256,63280,1,0,0:0:0:0:
412,136,63468,1,2,0:0:0:0:
356,280,63655,1,2,0:0:0:0:
288,136,63843,1,2,0:0:0:0:
356,308,64030,1,0,0:0:0:0:
424,112,64218,1,2,0:0:0:0:
356,340,64405,1,2,1:2:0:0:
480,32,64593,6,0,P|516:84|462:196,1,179.999994506836,6|0,1:2|0:0,0:0:0:0:
404,248,64968,1,2,0:0:0:0:
320,112,65155,1,8,0:0:0:0:
276,80,65249,1,0,0:0:0:0:
224,72,65343,1,2,1:2:0:0:
172,88,65436,1,0,0:0:0:0:
132,124,65530,1,10,0:0:0:0:
84,152,65624,1,0,0:0:0:0:
32,140,65718,1,10,0:0:0:0:
12,92,65811,1,2,0:0:0:0:
36,44,65905,2,0,P|68:37|115:58,1,59.9999981689454,8|2,1:2|0:0,0:0:0:0:
233,177,66093,70,0,L|212:356,1,179.999994506836,6|0,1:2|0:0,0:0:0:0:
136,300,66468,1,2,0:0:0:0:
256,80,66655,1,8,0:0:0:0:
305,100,66749,1,0,0:0:0:0:
333,146,66843,1,2,1:2:0:0:
332,199,66936,1,0,0:0:0:0:
307,247,67030,2,0,P|274:269|221:268,1,59.9999981689454,10|0,0:0|0:0,0:0:0:0:
420,128,67218,1,8,1:2:0:0:
416,180,67311,1,2,0:0:0:0:
408,232,67405,1,8,0:0:0:0:
404,284,67499,1,2,0:0:0:0:
248,176,67593,6,0,B|168:128|160:212|72:172,1,179.999994506836,6|0,1:2|0:0,0:0:0:0:
116,88,67968,1,2,0:0:0:0:
200,348,68155,1,8,0:0:0:0:
176,300,68249,1,0,0:0:0:0:
200,252,68343,1,2,1:2:0:0:
376,96,68530,1,8,0:0:0:0:
352,144,68624,1,2,0:0:0:0:
308,172,68718,1,10,1:2:0:0:
256,180,68811,1,2,0:0:0:0:
204,172,68905,1,8,0:0:0:0:
156,144,68999,1,0,0:0:0:0:
128,96,69093,5,6,0:0:0:0:
332,240,69280,1,8,0:0:0:0:
328,268,69374,1,0,0:0:0:0:
324,296,69468,2,0,L|312:376,1,59.9999981689454,0|0,1:0|0:0,0:0:0:0:
180,240,69655,1,8,0:0:0:0:
184,268,69749,1,0,0:0:0:0:
188,296,69843,2,0,L|196:372,1,59.9999981689454,2|0,0:0|0:0,0:0:0:0:
372,264,70030,1,8,0:0:0:0:
368,292,70124,1,0,0:0:0:0:
364,320,70218,2,0,L|353:393,1,59.9999981689454,8|0,1:2|0:0,0:0:0:0:
136,264,70405,1,8,0:0:0:0:
140,292,70499,1,0,0:0:0:0:
144,320,70593,70,0,L|152:392,1,59.9999981689454,2|0,0:0|0:0,0:0:0:0:
256,176,70780,1,8,0:0:0:0:
256,140,70874,1,2,0:0:0:0:
256,72,70968,1,2,1:2:0:0:
256,368,71155,1,8,0:0:0:0:
112,140,71343,5,2,1:2:0:0:
156,172,71436,1,0,0:0:0:0:
212,172,71530,1,8,0:0:0:0:
256,140,71624,1,0,0:0:0:0:
300,172,71718,1,2,1:2:0:0:
352,172,71811,1,2,0:0:0:0:
396,140,71905,2,0,P|403:104|382:62,1,59.9999981689454,2|4,0:0|0:0,0:0:0:0:
216,268,72093,22,0,P|164:256|120:256,1,75,0|0,0:0|0:0,0:0:0:0:
296,268,72468,2,0,P|348:256|392:256,1,75,0|0,0:0|0:0,0:0:0:0:
204,300,72843,2,0,P|164:304|120:320,1,75,2|0,0:0|0:0,0:0:0:0:
308,300,73218,2,0,P|348:304|392:320,1,75,0|0,0:0|0:0,0:0:0:0:
256,368,73593,1,2,0:0:0:0:
384,228,73780,1,0,0:0:0:0:
376,204,73874,1,0,0:0:0:0:
368,180,73968,2,0,L|352:112,1,50,0|2,0:0|0:0,0:0:0:0:
256,60,74343,5,2,0:0:0:0:
240,44,74436,1,0,0:0:0:0:
220,36,74530,1,0,0:0:0:0:
200,32,74624,1,0,0:0:0:0:
176,32,74718,1,0,0:0:0:0:
152,36,74811,1,0,0:0:0:0:
132,44,74905,1,2,0:0:0:0:
116,60,74999,1,0,0:0:0:0:
56,16,75093,5,0,1:2:0:0:
52,25,75139,1,0,0:0:0:0:
47,33,75186,2,0,L|38:50,2,12.5,0|2|2,0:0|0:0|0:0,0:0:0:0:
252,240,75843,5,0,0:0:0:0:
256,231,75889,1,0,0:0:0:0:
261,220,75936,2,0,L|270:199,1,12.5,2|0,0:0|0:0,0:0:0:0:
256,192,76093,12,0,78531,0:0:0:0:
256,136,85593,101,2,1:2:0:0:
272,232,85780,1,0,0:0:0:0:
168,188,85968,1,0,0:0:0:0:
340,188,86155,1,0,0:0:0:0:
192,360,86343,2,0,L|184:272,1,75.0000028610231,2|0,0:0|0:0,0:0:0:0:
326,285,86718,2,0,L|320:360,1,75.0000028610231,2|0,0:0|0:0,0:0:0:0:
252,80,87093,53,0,1:2:0:0:
328,140,87280,1,0,0:0:0:0:
176,140,87468,1,2,0:0:0:0:
308,16,87655,1,0,0:0:0:0:
164,156,87843,2,0,P|120:164|72:144,1,75.0000028610231,2|0,0:0|0:0,0:0:0:0:
348,156,88218,2,0,P|392:164|440:144,1,75.0000028610231,2|0,0:0|0:0,0:0:0:0:
48,80,88593,5,6,1:2:0:0:
256,240,88968,1,2,0:0:0:0:
464,80,89343,5,0,0:0:0:0:
180,152,89718,1,2,0:0:0:0:
332,152,90093,1,2,0:0:0:0:
284,212,90280,1,0,0:0:0:0:
256,280,90468,1,0,0:0:0:0:
228,212,90655,1,0,0:0:0:0:
180,152,90843,1,2,0:0:0:0:
316,20,91030,2,0,L|344:72,1,50,2|0,0:0|0:0,0:0:0:0:
464,276,91218,1,0,1:0:0:0:
432,244,91311,1,2,0:0:0:0:
388,232,91405,1,0,0:0:0:0:
344,244,91499,1,2,0:0:0:0:
316,276,91593,6,0,P|260:300|180:256,1,129.999994049073,6|0,1:2|1:0,0:0:0:0:
256,72,92218,1,2,0:0:0:0:
300,128,92343,2,0,L|292:200,1,43.3333313496908,0|0,1:0|0:0,0:0:0:0:
216,172,92593,2,0,L|211:128,1,43.3333313496908,2|0,0:0|0:0,0:0:0:0:
364,176,92843,2,0,L|356:248,1,43.3333313496908,2|0,0:0|0:0,0:0:0:0:
148,220,93093,54,0,L|132:108,1,86.6666626993817,0|2,1:0|0:0,0:0:0:0:
164,64,93468,2,0,L|156:0,2,43.3333313496908,0|0|2,0:0|0:0|0:0,0:0:0:0:
296,132,93843,2,0,P|256:144|200:120,1,86.6666626993817,0|0,1:0|0:0,0:0:0:0:
348,64,94218,2,0,L|356:0,2,43.3333313496908,0|0|0,0:0|0:0|0:0,0:0:0:0:
392,220,94593,6,0,L|408:116,1,86.6666626993817,0|2,1:0|0:0,0:0:0:0:
460,84,94968,2,0,L|520:80,2,43.3333313496908,0|0|2,0:0|0:0|0:0,0:0:0:0:
300,220,95343,2,0,L|284:116,1,86.6666626993817,0|2,1:0|0:0,0:0:0:0:
232,84,95718,2,0,L|172:80,2,43.3333313496908,0|0|2,0:0|0:0|0:0,0:0:0:0:
132,220,96093,6,0,P|144:172|116:120,1,86.6666626993817,0|0,1:0|0:0,0:0:0:0:
52,180,96468,2,0,P|39:221|52:261,1,86.6666626993817,0|0,1:0|0:0,0:0:0:0:
124,308,96843,2,0,L|188:292,1,43.3333313496908,2|0,0:0|0:0,0:0:0:0:
388,308,97093,2,0,L|324:292,1,43.3333313496908,2|0,0:0|0:0,0:0:0:0:
256,132,97343,2,0,L|256:212,1,43.3333313496908,2|0,0:0|0:0,0:0:0:0:
256,376,97593,5,6,1:2:0:0:
256,52,97968,1,0,0:0:0:0:
68,64,98343,2,0,L|132:80,1,43.3333313496908,2|0,0:0|0:0,0:0:0:0:
444,64,98593,2,0,L|380:80,1,43.3333313496908,2|0,0:0|0:0,0:0:0:0:
256,336,98843,2,0,L|257:270,1,43.3333313496908,2|0,0:0|0:0,0:0:0:0:
256,8,99093,53,6,1:2:0:0:
368,160,99468,2,0,P|384:208|352:296,1,133.333333333333,2|0,0:0|0:0,0:0:0:0:
150,285,99843,2,0,P|127:223|144:160,1,133.333333333333,2|0,0:0|0:0,0:0:0:0:
256,32,100218,2,0,L|256:200,1,133.333333333333,2|0,0:0|0:0,0:0:0:0:
472,40,100593,5,0,1:0:0:0:
412,68,100718,1,2,0:0:0:0:
380,124,100843,1,2,0:0:0:0:
380,192,100968,1,0,0:0:0:0:
416,248,101093,1,2,0:0:0:0:
476,280,101218,1,2,0:0:0:0:
476,160,101343,5,0,1:0:0:0:
428,116,101468,1,2,0:0:0:0:
364,116,101593,1,2,0:0:0:0:
312,160,101718,1,0,0:0:0:0:
260,200,101843,1,2,0:0:0:0:
194,200,101968,1,2,0:0:0:0:
160,76,102093,5,0,1:0:0:0:
188,0,102218,1,2,0:0:0:0:
268,0,102343,1,2,0:0:0:0:
300,76,102468,1,2,0:0:0:0:
228,132,102593,1,2,0:0:0:0:
160,76,102718,1,0,0:0:0:0:
348,8,102843,53,2,1:2:0:0:
388,88,102968,1,0,0:0:0:0:
344,164,103093,1,2,0:0:0:0:
276,220,103218,2,0,L|224:208,1,39.9999987792969,2|0,0:0|0:0,0:0:0:0:
272,304,103343,2,0,L|220:328,1,39.9999987792969,2|2,0:0|0:0,0:0:0:0:
348,344,103468,2,0,L|340:388,1,39.9999987792969,2|2,0:0|0:0,0:0:0:0:
464,252,103593,6,0,L|364:260,1,100.000003814697,6|0,1:2|0:0,0:0:0:0:
260,144,103968,2,0,L|359:152,1,100.000003814697,2|0,0:0|0:0,0:0:0:0:
165,193,104343,2,0,P|152:146|168:100,1,100.000003814697,2|0,0:0|0:0,0:0:0:0:
72,264,104718,2,0,P|88:310|75:358,1,100.000003814697,0|0,0:0|0:0,0:0:0:0:
0,176,105093,5,2,1:2:0:0:
256,360,105468,1,2,0:0:0:0:
256,292,105593,1,0,0:0:0:0:
256,224,105718,1,0,0:0:0:0:
256,152,105843,2,0,L|256:80,1,50.0000019073487,2|0,0:0|0:0,0:0:0:0:
172,200,106093,2,0,L|144:132,1,50.0000019073487,2|0,1:2|0:0,0:0:0:0:
340,200,106343,2,0,L|368:132,1,50.0000019073487,2|0,1:2|0:0,0:0:0:0:
80,108,106593,6,0,P|66:155|102:227,1,100.000003814697,6|0,1:2|0:0,0:0:0:0:
108,292,106968,2,0,P|75:287|39:313,2,50.0000019073487,0|0|0,0:0|0:0|0:0,0:0:0:0:
188,204,107343,2,0,L|312:200,1,100.000003814697,2|0,1:2|0:0,0:0:0:0:
392,296,107718,2,0,L|264:300,1,100.000003814697,2|0,0:0|0:0,0:0:0:0:
128,112,108093,54,0,L|304:108,1,150.000005722046,2|0,1:2|0:0,0:0:0:0:
432,28,108718,1,2,0:0:0:0:
484,116,108843,2,0,P|500:176|472:237,1,112.500004291535,2|0,1:2|0:0,0:0:0:0:
440,276,109218,2,0,P|437:306|458:340,3,37.5000014305115,0|2|2|2,0:0|0:0|0:0|0:0,0:0:0:0:
493,367,109593,2,0,P|445:351|377:375,1,112.500004291535,0|0,1:0|0:0,0:0:0:0:
344,288,109968,5,0,0:0:0:0:
336,256,110061,1,0,0:0:0:0:
328,220,110155,1,2,0:0:0:0:
320,184,110249,1,0,0:0:0:0:
176,296,110343,5,2,1:2:0:0:
184,252,110436,1,2,0:0:0:0:
192,208,110530,1,2,0:0:0:0:
200,164,110624,1,0,0:0:0:0:
208,124,110718,2,0,L|216:56,1,50,0|0,0:0|0:0,0:0:0:0:
304,76,110905,2,0,L|309:126,1,50,2|2,1:2|0:0,0:0:0:0:
204,264,111093,5,2,0:0:0:0:
244,236,111187,1,2,0:0:0:0:
292,236,111281,1,2,0:0:0:0:
332,264,111374,1,0,0:0:0:0:
360,300,111468,1,2,0:0:0:0:
404,312,111562,1,0,0:0:0:0:
448,300,111656,1,2,0:0:0:0:
480,264,111749,1,0,0:0:0:0:
404,228,111843,53,2,1:2:0:0:
432,192,111936,1,0,0:0:0:0:
432,144,112030,1,2,0:0:0:0:
408,104,112124,1,2,0:0:0:0:
360,96,112218,1,2,0:0:0:0:
316,116,112311,1,2,0:0:0:0:
300,160,112405,1,2,0:0:0:0:
308,208,112499,1,0,0:0:0:0:
368,168,112593,5,6,1:2:0:0:
256,192,112780,12,0,113905,0:0:0:0:
256,192,114093,12,2,114843,0:0:0:0:
432,32,115593,38,0,L|408:188,1,119.999996337891,6|0,1:2|0:0,0:0:0:0:
396,264,115874,1,0,0:0:0:0:
440,252,115968,2,0,P|472:247|528:277,1,59.9999981689454,2|0,0:0|0:0,0:0:0:0:
384,380,116155,1,10,0:0:0:0:
332,360,116249,1,2,0:0:0:0:
288,328,116343,1,0,1:0:0:0:
264,280,116436,1,2,0:0:0:0:
256,228,116530,1,8,0:0:0:0:
248,280,116624,1,2,0:0:0:0:
224,328,116717,1,8,1:2:0:0:
180,360,116811,1,0,0:0:0:0:
128,380,116905,2,0,P|88:384|36:364,1,59.9999981689454,10|0,0:0|0:0,0:0:0:0:
128,248,117093,6,0,P|110:194|142:120,1,119.999996337891,6|0,1:2|0:0,0:0:0:0:
200,8,117374,1,0,0:0:0:0:
156,20,117468,2,0,P|124:25|64:0,1,59.9999981689454,2|0,0:0|0:0,0:0:0:0:
256,108,117655,1,8,0:0:0:0:
296,72,117749,1,0,0:0:0:0:
348,64,117843,1,2,0:2:0:0:
400,76,117936,1,0,0:0:0:0:
440,112,118030,2,0,P|447:146|422:197,1,59.9999981689454,8|0,1:2|0:0,0:0:0:0:
352,360,118218,1,8,0:2:0:0:
344,308,118311,1,2,0:0:0:0:
336,256,118405,1,10,1:2:0:0:
328,204,118499,1,2,0:0:0:0:
188,204,118593,6,0,L|164:356,1,119.999996337891,6|0,1:2|0:0,0:0:0:0:
68,264,118874,1,0,0:0:0:0:
76,224,118968,2,0,L|92:128,1,59.9999981689454,2|0,0:0|0:0,0:0:0:0:
212,48,119155,1,10,0:0:0:0:
164,76,119249,1,2,0:0:0:0:
120,48,119343,86,0,L|28:48,1,59.9999981689454,0|0,1:0|0:0,0:0:0:0:
256,160,119530,1,10,0:0:0:0:
300,128,119624,1,0,0:0:0:0:
344,160,119718,2,0,L|428:160,1,59.9999981689454,0|2,1:2|0:0,0:0:0:0:
256,252,119905,2,0,L|168:252,1,59.9999981689454,10|0,0:0|0:0,0:0:0:0:
128,160,120093,21,2,0:0:0:0:
64,280,120280,1,0,0:0:0:0:
140,136,120468,1,0,0:0:0:0:
52,304,120655,1,2,0:0:0:0:
24,64,120843,1,2,0:0:0:0:
72,212,121030,1,0,0:0:0:0:
8,24,121218,1,2,0:0:0:0:
128,364,121405,1,2,0:0:0:0:
504,188,121593,54,0,B|464:168|464:168|356:196,1,129.999994049073,6|0,1:2|0:0,0:0:0:0:
256,228,121874,1,0,0:0:0:0:
216,188,121968,2,0,P|209:157|236:100,1,64.9999970245363,2|0,0:0|0:0,0:0:0:0:
344,280,122155,1,8,0:0:0:0:
312,328,122249,1,0,0:0:0:0:
256,344,122343,1,2,1:2:0:0:
200,328,122436,1,0,0:0:0:0:
160,284,122530,1,10,0:0:0:0:
112,248,122624,1,0,0:0:0:0:
56,236,122718,1,10,1:2:0:0:
8,268,122811,1,2,0:0:0:0:
12,328,122905,2,0,P|52:336|100:314,1,64.9999970245363,10|2,0:0|0:0,0:0:0:0:
512,25,123093,6,0,P|448:6|364:51,1,129.999994049073,6|8,1:2|0:0,0:0:0:0:
292,108,123374,1,2,0:0:0:0:
244,76,123468,2,0,L|252:-8,1,64.9999970245363,2|0,0:0|0:0,0:0:0:0:
352,228,123655,1,8,0:0:0:0:
292,224,123749,1,0,0:0:0:0:
232,220,123843,1,2,1:2:0:0:
176,212,123936,1,2,0:0:0:0:
116,204,124030,2,0,L|2:193,1,64.9999970245363,10|0,0:0|0:0,0:0:0:0:
172,132,124218,1,8,0:0:0:0:
204,180,124311,1,2,0:0:0:0:
204,240,124405,1,10,1:2:0:0:
168,284,124499,1,2,0:0:0:0:
312,152,124593,6,0,P|292:96|320:24,1,129.999994049073,6|0,1:2|0:0,0:0:0:0:
408,92,124874,1,0,0:0:0:0:
456,124,124968,2,0,P|463:158|414:220,1,64.9999970245363,2|0,0:0|0:0,0:0:0:0:
488,328,125155,1,8,0:0:0:0:
428,328,125249,1,0,0:0:0:0:
368,324,125343,2,0,L|240:316,1,64.9999970245363,2|0,1:2|0:0,0:0:0:0:
136,240,125530,2,0,L|200:235,1,64.9999970245363,8|0,0:0|0:0,0:0:0:0:
348,52,125718,1,10,1:2:0:0:
312,96,125811,1,2,0:0:0:0:
256,108,125905,1,10,0:0:0:0:
200,96,125999,1,2,0:0:0:0:
164,52,126093,69,6,0:0:0:0:
360,200,126280,1,8,0:0:0:0:
384,252,126374,1,0,0:0:0:0:
360,304,126468,2,0,L|376:388,1,64.9999970245363,0|0,1:0|0:0,0:0:0:0:
152,200,126655,1,8,0:0:0:0:
128,252,126749,1,0,0:0:0:0:
152,304,126843,2,0,L|140:388,1,64.9999970245363,6|0,0:0|0:0,0:0:0:0:
392,200,127030,1,8,0:0:0:0:
416,252,127124,1,0,0:0:0:0:
392,304,127218,2,0,L|408:400,1,64.9999970245363,8|0,1:2|0:0,0:0:0:0:
120,200,127405,1,8,0:0:0:0:
96,252,127499,1,0,0:0:0:0:
120,304,127593,6,0,L|104:400,1,64.9999970245363,6|0,0:0|0:0,0:0:0:0:
256,156,127780,1,8,0:0:0:0:
256,112,127874,1,0,0:0:0:0:
256,28,127968,1,2,1:2:0:0:
256,348,128155,1,10,0:0:0:0:
388,236,128343,5,4,0:0:0:0:
352,192,128436,1,0,0:0:0:0:
300,180,128530,1,10,0:0:0:0:
256,212,128624,1,2,0:0:0:0:
212,180,128718,1,2,0:0:0:0:
160,188,128811,1,0,0:0:0:0:
124,228,128905,2,0,P|120:260|140:329,1,59.9999981689454,0|2,0:0|0:0,0:0:0:0:
328,96,129093,6,0,P|368:68|432:56,1,97.4999955368044,0|0,0:0|0:0,0:0:0:0:
184,96,129468,2,0,P|144:68|80:56,1,97.4999955368044,0|0,1:0|0:0,0:0:0:0:
344,120,129843,2,0,P|388:124|452:160,1,97.4999955368044,2|0,0:0|0:0,0:0:0:0:
168,120,130218,2,0,P|124:124|60:160,1,97.4999955368044,0|0,1:0|0:0,0:0:0:0:
144,212,130593,1,2,0:0:0:0:
240,48,130780,1,0,0:0:0:0:
212,40,130874,1,0,0:0:0:0:
184,32,130968,2,0,L|108:16,1,64.9999970245363,2|0,0:0|1:0,0:0:0:0:
144,212,131343,6,0,P|136:248|156:292,1,64.9999970245363,0|2,0:0|0:0,0:0:0:0:
164,296,131624,1,0,0:0:0:0:
192,316,131718,1,2,0:0:0:0:
220,320,131811,1,0,0:0:0:0:
252,313,131905,1,2,0:0:0:0:
277,294,131999,1,2,0:0:0:0:
340,328,132093,5,0,1:2:0:0:
348,326,132139,1,0,0:0:0:0:
357,324,132186,2,0,L|377:320,2,12.5,0|2|2,0:0|0:0|0:0,0:0:0:0:
251,171,132843,5,0,0:0:0:0:
243,172,132889,1,0,0:0:0:0:
235,174,132936,2,0,L|212:177,1,12.5,2|2,0:0|0:0,0:0:0:0:
256,192,133030,12,0,136218,0:0:0:0:
