osu file format v14

[General]
AudioFilename: audio.mp3
AudioLeadIn: 0
PreviewTime: 79218
Countdown: 0
SampleSet: Soft
StackLeniency: 0.7
Mode: 0
LetterboxInBreaks: 0
WidescreenStoryboard: 1

[Editor]
Bookmarks: 25622,76059,88593,114122,133059,148622
DistanceSpacing: 1.2
BeatDivisor: 1
GridSize: 32
TimelineZoom: 0.8999997

[Metadata]
Title:carnation
TitleUnicode:carnation
Artist:AAAA
ArtistUnicode:ああああ
Creator:Veridian
Version:beginner
Source:BMS
Tags:piano classical rhythm game stream noffy naotoshi nao tomori monstrata
BeatmapID:1438649
BeatmapSetID:677687

[Difficulty]
HPDrainRate:1
CircleSize:2.5
OverallDifficulty:2
ApproachRate:2.5
SliderMultiplier:0.8
SliderTickRate:1

[Events]
//Background and Video events
0,0,"60515982_p0.png",0,0
//Break Periods
2,79593,84093
//Storyboard Layer 0 (Background)
//Storyboard Layer 1 (Fail)
//Storyboard Layer 2 (Pass)
//Storyboard Layer 3 (Foreground)
//Storyboard Sound Samples

[TimingPoints]
-1407,375,4,2,1,20,1,0
93,-100,4,2,1,20,0,0
4221,-100,4,2,1,50,0,0
4971,-100,4,2,1,20,0,0
6843,-100,4,2,1,40,0,0
8343,-100,4,2,1,50,0,0
9093,-100,4,2,1,60,0,0
11343,-100,4,2,1,50,0,0
11811,-100,4,2,1,40,0,0
12093,-100,4,2,1,40,0,1
12096,-100,4,2,1,50,0,1
12843,-100,4,2,1,50,0,0
16596,-100,4,2,1,50,0,0
16780,-100,4,2,1,65,0,0
18093,-100,4,2,1,80,0,0
19593,-100,4,2,1,40,0,0
21843,-100,4,2,1,30,0,0
22593,-100,4,2,1,45,0,0
24093,-100,4,2,1,50,0,0
25593,-100,4,2,1,5,0,0
30093,-100,4,2,1,30,0,0
34593,-100,4,2,1,40,0,0
35718,-100,4,2,1,20,0,0
36093,-100,4,2,1,60,0,0
36468,-100,4,2,1,40,0,0
40218,-100,4,2,1,86,0,0
40593,-100,4,2,1,50,0,1
42280,-100,4,2,1,65,0,1
43218,-100,4,2,1,75,0,1
43780,-100,4,2,1,50,0,1
44718,-100,4,2,1,65,0,1
46218,-100,4,2,1,75,0,1
46593,-100,4,2,1,35,0,0
49968,-100,4,2,1,65,0,0
50343,-100,4,2,1,35,0,0
51093,-100,4,2,1,65,0,0
51468,-100,4,2,1,35,0,0
52218,-100,4,2,1,20,0,0
52593,-100,4,2,1,20,0,0
52596,-100,4,2,1,50,0,0
57093,-100,4,2,1,60,0,0
57655,-100,4,2,1,70,0,0
58218,-100,4,2,1,80,0,0
58593,-100,4,2,1,90,0,1
63093,-100,4,2,1,50,0,0
64593,-100,4,2,1,100,0,1
67593,-100,4,2,1,85,0,1
70593,-100,4,2,1,75,0,1
71155,-100,4,2,1,60,0,1
71530,-100,4,2,1,80,0,1
71999,-100,4,2,1,35,0,0
72374,-100,4,2,1,5,0,0
72843,-100,4,2,1,35,0,0
75096,-100,4,2,1,50,0,0
78468,-100,4,2,1,50,0,0
85593,-100,4,2,1,40,0,0
88968,-100,4,2,1,30,0,0
90093,-100,4,2,1,50,0,0
91030,-100,4,2,1,50,0,0
91218,-100,4,2,1,70,0,0
91593,-100,4,2,1,50,0,0
91718,-100,4,2,1,20,0,0
92343,-100,4,2,1,25,0,0
97593,-100,4,2,1,40,0,0
99096,-100,4,2,1,60,0,0
100593,-100,4,2,1,40,0,0
102093,-100,4,2,1,50,0,0
102468,-100,4,2,1,60,0,0
102843,-100,4,2,1,75,0,0
103218,-100,4,2,1,90,0,0
103593,-100,4,2,1,100,0,1
103968,-100,4,2,1,50,0,1
104343,-100,4,2,1,50,0,0
106093,-100,4,2,1,70,0,0
106593,-100,4,2,1,85,0,0
109968,-100,4,2,1,85,0,0
111093,-100,4,2,1,85,0,0
112593,-100,4,2,1,85,0,0
112968,-100,4,2,1,65,0,0
114093,-100,4,2,1,45,0,0
115218,-100,4,2,1,50,0,0
115593,-100,4,2,1,90,0,1
120093,-100,4,2,1,50,0,0
121593,-100,4,2,1,100,0,1
124593,-100,4,2,1,90,0,1
126093,-100,4,2,1,70,0,1
126843,-100,4,2,1,85,0,1
127593,-100,4,2,1,96,0,1
128343,-100,4,2,1,100,0,1
128530,-100,4,2,1,80,0,1
129093,-100,4,2,1,80,0,0
129096,-100,4,2,1,30,0,0
130593,-100,4,2,1,40,0,0
131718,-100,4,2,1,55,0,0
132096,-100,4,2,1,50,0,0
133124,-100,4,2,1,5,0,0
138096,-100,4,2,1,50,0,0

[Colours]
Combo1 : 250,63,41
Combo2 : 253,207,123
Combo3 : 210,157,142
Combo4 : 206,114,108
Combo5 : 255,140,85
Combo6 : 255,32,77
Combo7 : 223,57,103

[HitObjects]
256,64,93,5,0,1:0:0:0:
256,320,1593,1,0,0:0:0:0:
128,192,3093,1,0,1:0:0:0:
384,192,4218,1,0,0:0:0:0:
330,271,4593,2,0,P|302:287|178:267,1,160,0|0,0:0|0:0,0:0:0:0:
256,92,6093,5,6,1:2:0:0:
316,276,6843,1,2,0:0:0:0:
160,164,7593,1,2,1:2:0:0:
352,164,8343,1,2,0:0:0:0:
196,276,9093,6,0,L|172:104,1,160,6|0,1:2|0:0,0:0:0:0:
340,24,10593,1,2,1:2:0:0:
380,212,11343,2,0,P|340:220|292:208,1,80,2|0,0:0|0:0,0:0:0:0:
212,252,12093,6,0,L|208:160,2,80,4|0|0,1:0|0:0|1:0,0:0:0:0:
136,312,13218,1,2,0:2:0:0:
56,260,13593,2,0,L|64:92,1,160,0|2,1:0|1:2,0:0:0:0:
136,36,14718,1,0,0:0:0:0:
208,100,15093,54,0,P|280:128|364:92,2,160,6|0|0,1:2|1:0|0:0,0:0:0:0:
132,44,16968,1,2,1:2:0:0:
56,100,17343,2,0,P|48:132|64:192,1,80,2|2,1:2|1:2,0:0:0:0:
96,264,18093,6,0,L|268:252,1,160,6|2,1:2|1:2,0:0:0:0:
332,312,19218,1,0,0:0:0:0:
408,252,19593,6,0,L|416:160,2,80,2|2|2,1:2|0:0|1:2,0:0:0:0:
332,312,20718,1,2,0:0:0:0:
260,252,21093,2,0,L|252:160,2,80,2|2|2,1:2|0:2|0:0,0:0:0:0:
336,76,22593,6,0,P|364:68|428:84,1,80,2|0,0:0|1:0,0:0:0:0:
468,156,23343,2,0,P|476:184|460:248,1,80,2|0,0:0|1:0,0:0:0:0:
408,308,24093,1,4,1:2:0:0:
256,240,24843,1,2,0:0:0:0:
256,192,25593,12,0,28218,0:0:0:0:
256,76,30093,53,0,1:2:0:0:
256,268,30843,1,2,0:0:0:0:
140,112,31593,2,0,P|132:80|144:28,2,80,2|0|2,1:2|0:0|0:0,0:0:0:0:
316,184,33093,6,0,L|308:276,1,80,2|0,1:2|0:0,0:0:0:0:
202,263,33843,2,0,L|196:184,1,80,2|0,1:2|0:0,0:0:0:0:
256,108,34593,1,2,1:2:0:0:
408,228,35343,2,0,P|416:264|404:312,1,80,2|0,1:2|0:0,0:0:0:0:
336,368,36093,6,0,B|260:380|260:380|160:364,1,160,2|2,1:2|1:2,0:0:0:0:
256,192,37593,1,0,1:0:0:0:
344,152,37968,2,0,P|352:192|340:236,2,80,0|0|2,0:0|1:0|0:0,0:0:0:0:
296,68,39093,2,0,P|257:59|218:67,2,80,0|2|0,1:0|0:0|1:0,0:0:0:0:
256,156,40218,1,0,1:0:0:0:
160,144,40593,22,0,L|72:136,1,80,4|0,1:0|1:0,0:0:0:0:
92,232,41343,2,0,L|171:239,1,80,0|10,1:0|1:2,0:0:0:0:
256,288,42093,5,0,0:0:0:0:
340,244,42468,1,0,0:0:0:0:
428,284,42843,2,0,P|438:253|424:200,1,80,2|10,0:0|1:2,0:0:0:0:
484,128,43593,5,6,1:2:0:0:
428,52,43968,2,0,L|332:64,1,80,0|0,1:0|1:0,0:0:0:0:
256,92,44718,1,10,1:2:0:0:
163,61,45093,70,0,L|84:52,1,80,0|0,1:0|0:0,0:0:0:0:
12,112,45843,1,0,0:0:0:0:
80,180,46218,1,6,1:2:0:0:
12,248,46593,38,0,P|88:224|172:256,2,160,6|0|0,1:2|1:0|1:0,0:0:0:0:
160,372,48843,1,2,0:0:0:0:
340,308,49593,2,0,P|348:268|332:216,1,80,2|0,0:0|1:0,0:0:0:0:
268,164,50343,2,0,P|260:124|276:72,1,80,2|0,0:0|1:0,0:0:0:0:
332,16,51093,1,0,1:0:0:0:
476,140,51843,2,0,P|484:178|476:217,1,80,0|0,1:0|0:0,0:0:0:0:
392,268,52593,6,0,L|392:348,2,80,4|2|2,1:0|0:0|1:2,0:0:0:0:
304,224,53718,1,0,0:0:0:0:
216,260,54093,2,0,B|132:288|144:216|56:260,1,160,2|2,1:2|1:2,0:0:0:0:
4,180,55218,1,2,0:0:0:0:
60,104,55593,6,0,B|141:144|129:72|213:100,1,160,0|0,1:0|1:0,0:0:0:0:
296,52,56718,1,2,1:2:0:0:
376,104,57093,2,0,P|396:140|364:260,1,160,2|0,1:2|0:0,0:0:0:0:
292,304,58218,1,0,1:0:0:0:
256,216,58593,22,0,L|256:128,2,80,6|0|0,1:2|0:0|1:2,0:0:0:0:
256,312,59718,1,10,1:2:0:0:
172,268,60093,2,0,L|84:228,2,80,6|2|2,1:2|0:0|0:0,0:0:0:0:
256,312,61218,1,8,0:0:0:0:
340,268,61593,6,0,L|428:228,2,80,6|2|0,1:2|1:2|1:2,0:0:0:0:
256,312,62718,1,0,1:2:0:0:
172,268,63093,1,2,0:0:0:0:
256,112,64593,6,0,L|256:24,2,80,6|2|2,1:2|0:0|1:2,0:0:0:0:
256,208,65718,1,10,0:0:0:0:
172,160,66093,2,0,P|140:144|92:144,2,80,6|2|2,1:2|0:0|1:2,0:0:0:0:
256,208,67218,1,8,1:2:0:0:
340,160,67593,70,0,P|372:144|420:144,2,80,6|2|2,1:2|0:0|1:2,0:0:0:0:
256,208,68718,1,10,1:2:0:0:
168,247,69093,6,0,P|158:213|172:163,1,80,6|0,0:0|1:0,0:0:0:0:
180,76,69843,2,0,P|214:84|250:121,1,80,2|8,0:0|1:2,0:0:0:0:
322,169,70593,2,0,P|297:194|247:207,2,80,2|2|2,0:0|1:2|1:2,0:0:0:0:
372,88,71718,1,2,1:2:0:0:
424,168,72093,6,0,L|404:336,1,160,0|2,0:0|0:0,0:0:0:0:
106,326,73593,2,0,L|88:168,1,160,2|2,0:0|0:0,0:0:0:0:
256,76,75093,1,0,1:2:0:0:
256,292,75936,1,2,0:0:0:0:
256,192,76218,12,0,78468,0:0:0:0:
256,116,85593,5,2,1:2:0:0:
408,236,86343,2,0,P|416:264|404:328,1,80,2|2,0:0|0:0,0:0:0:0:
332,368,87093,1,0,1:2:0:0:
180,252,87843,2,0,P|172:224|184:160,1,80,2|2,0:0|0:0,0:0:0:0:
256,120,88593,6,0,B|332:120|316:176|400:176,2,160,6|0|2,1:2|0:0|0:0,0:0:0:0:
76,192,90843,1,2,0:0:0:0:
128,272,91218,1,0,1:0:0:0:
176,188,91593,6,0,L|132:20,1,160,6|0,1:2|1:0,0:0:0:0:
24,188,93093,2,0,L|48:276,1,80,0|0,1:0|0:0,0:0:0:0:
76,356,93843,1,0,1:0:0:0:
192,200,94593,6,0,P|260:160|324:204,2,160,0|0|0,1:0|1:0|1:0,0:0:0:0:
256,272,96468,1,0,1:0:0:0:
320,344,96843,2,0,L|412:332,1,80,2|0,0:0|0:0,0:0:0:0:
488,368,97593,53,6,1:2:0:0:
400,196,98343,2,0,L|308:184,1,80,2|0,0:0|0:0,0:0:0:0:
256,256,99093,1,6,1:2:0:0:
192,184,99468,2,0,P|184:152|196:100,2,80,2|2|2,0:0|0:0|0:0,0:0:0:0:
256,192,100593,12,0,102843,1:0:0:0:
400,208,103593,6,0,L|424:296,2,80,6|2|2,1:2|0:0|0:0,0:0:0:0:
368,116,104718,1,0,0:0:0:0:
300,184,105093,2,0,P|256:192|208:180,1,80,2|2,1:2|0:0,0:0:0:0:
152,248,105843,1,2,0:0:0:0:
104,64,106593,6,0,P|180:40|256:64,1,160,6|2,1:2|1:2,0:0:0:0:
336,16,107718,1,2,0:0:0:0:
416,68,108093,2,0,L|384:236,1,160,2|2,1:2|1:2,0:0:0:0:
364,320,109218,2,0,P|328:312|272:328,1,80,0|0,0:0|1:0,0:0:0:0:
256,192,109968,12,0,111843,1:2:0:0:
368,52,113343,6,0,L|456:48,2,80,2|0|2,0:0|0:0|0:0,0:0:0:0:
256,316,115218,1,0,0:0:0:0:
208,232,115593,6,0,P|200:200|208:152,2,80,6|2|0,1:2|0:0|1:0,0:0:0:0:
256,316,116718,1,8,1:2:0:0:
304,232,117093,2,0,P|312:200|304:152,2,80,6|2|2,1:2|0:0|0:2,0:0:0:0:
256,316,118218,1,8,0:2:0:0:
180,256,118593,6,0,L|92:264,2,80,6|2|0,1:2|0:0|1:0,0:0:0:0:
256,316,119718,1,0,1:2:0:0:
336,368,120093,1,2,0:0:0:0:
88,72,121593,6,0,P|116:100|132:148,1,80,6|2,1:2|0:0,0:0:0:0:
68,212,122343,1,2,1:2:0:0:
152,260,122718,1,10,1:2:0:0:
216,188,123093,70,0,P|252:180|304:192,1,80,6|2,1:2|0:0,0:0:0:0:
360,260,123843,1,2,1:2:0:0:
444,212,124218,1,8,0:0:0:0:
381,137,124593,2,0,P|395:100|424:72,2,80,6|2|2,1:2|0:0|1:2,0:0:0:0:
444,212,125718,1,10,1:2:0:0:
380,284,126093,6,0,P|387:334|376:369,1,80,6|0,0:0|1:0,0:0:0:0:
292,324,126843,2,0,P|245:305|220:278,1,80,6|8,0:0|1:2,0:0:0:0:
304,228,127593,2,0,P|343:196|379:188,2,80,6|0|4,0:0|1:0|0:0,0:0:0:0:
256,144,128718,1,2,0:0:0:0:
208,228,129093,22,0,L|36:204,2,160,0|2|2,0:0|0:0|0:0,0:0:0:0:
256,312,130968,1,2,0:0:0:0:
336,256,131343,2,0,L|432:268,1,80,0|2,0:0|0:0,0:0:0:0:
476,192,132093,1,2,1:2:0:0:
332,64,132843,1,0,0:0:0:0:
256,192,133218,12,0,136218,0:0:0:0:
