osu file format v14

[General]
AudioFilename: audio.mp3
AudioLeadIn: 0
PreviewTime: 79218
Countdown: 0
SampleSet: Soft
StackLeniency: 0.7
Mode: 0
LetterboxInBreaks: 0
WidescreenStoryboard: 0

[Editor]
Bookmarks: 25622,76059,88593,114122,133059,148622
DistanceSpacing: 1.1
BeatDivisor: 1
GridSize: 32
TimelineZoom: 3.099999

[Metadata]
Title:carnation
TitleUnicode:carnation
Artist:AAAA
ArtistUnicode:ああああ
Creator:Veridian
Version:black another
Source:BMS
Tags:piano classical rhythm game stream noffy naotoshi nao tomori monstrata
BeatmapID:1433158
BeatmapSetID:677687

[Difficulty]
HPDrainRate:7.5
CircleSize:4.5
OverallDifficulty:8
ApproachRate:8.5
SliderMultiplier:1.6
SliderTickRate:1

[Events]
//Background and Video events
0,0,"60515982_p0.png",0,0
//Break Periods
2,79593,84843
//Storyboard Layer 0 (Background)
//Storyboard Layer 1 (Fail)
//Storyboard Layer 2 (Pass)
//Storyboard Layer 3 (Foreground)
//Storyboard Sound Samples

[TimingPoints]
-1407,375,4,2,1,20,1,0
93,-200,4,2,1,20,0,0
4221,-200,4,2,1,50,0,0
4971,-200,4,2,1,20,0,0
6843,-200,4,2,1,40,0,0
8343,-200,4,2,1,50,0,0
9093,-200,4,2,1,60,0,0
11343,-133.333333333333,4,2,1,50,0,0
11811,-133.333333333333,4,2,1,40,0,0
12093,-111.111111111111,4,2,1,50,0,1
12843,-111.111111111111,4,2,1,50,0,0
16596,-100,4,2,1,50,0,0
16780,-100,4,2,1,65,0,0
18093,-100,4,2,1,80,0,0
19593,-133.333333333333,4,2,1,40,0,0
21843,-133.333333333333,4,2,1,30,0,0
22593,-133.333333333333,4,2,1,45,0,0
24093,-133.333333333333,4,2,1,50,0,0
25593,-133.333333333333,4,2,1,5,0,0
30093,-200,4,2,1,30,0,0
34593,-200,4,2,1,40,0,0
35718,-200,4,2,1,20,0,0
36093,-133.333333333333,4,2,1,60,0,0
36468,-133.333333333333,4,2,1,40,0,0
40218,-133.333333333333,4,2,1,86,0,0
40593,-90.9090909090909,4,2,1,50,0,1
42280,-90.9090909090909,4,2,1,65,0,1
43218,-90.9090909090909,4,2,1,75,0,1
43780,-90.9090909090909,4,2,1,50,0,1
44718,-90.9090909090909,4,2,1,65,0,1
46218,-90.9090909090909,4,2,1,75,0,1
46593,-200,4,2,1,35,0,0
49968,-200,4,2,1,65,0,0
50343,-200,4,2,1,35,0,0
51093,-200,4,2,1,65,0,0
51468,-200,4,2,1,35,0,0
52218,-200,4,2,1,20,0,0
52596,-133.333333333333,4,2,1,50,0,0
57093,-133.333333333333,4,2,1,60,0,0
57655,-133.333333333333,4,2,1,70,0,0
58218,-133.333333333333,4,2,1,80,0,0
58593,-90.9090909090909,4,2,1,90,0,1
63093,-133.333333333333,4,2,1,50,0,0
64593,-83.3333333333333,4,2,1,100,0,1
67593,-83.3333333333333,4,2,1,85,0,1
70593,-83.3333333333333,4,2,1,75,0,1
71155,-83.3333333333333,4,2,1,60,0,1
71530,-83.3333333333333,4,2,1,80,0,1
71999,-200,4,2,1,35,0,0
72843,-200,4,2,1,35,0,0
75096,-200,4,2,1,50,0,0
85593,-133.333333333333,4,2,1,40,0,0
88968,-133.333333333333,4,2,1,30,0,0
90093,-200,4,2,1,50,0,0
91030,-100,4,2,1,50,0,0
91218,-100,4,2,1,70,0,0
91593,-153.846153846153,4,2,1,50,0,0
91718,-153.846153846153,4,2,1,20,0,0
92343,-153.846153846153,4,2,1,25,0,0
97593,-153.846153846154,4,2,1,40,0,0
99096,-100,4,2,1,60,0,0
100593,-90.9090909090909,4,2,1,40,0,0
102093,-83.3333333333333,4,2,1,50,0,0
102468,-83.3333333333333,4,2,1,60,0,0
102843,-83.3333333333333,4,2,1,75,0,0
103218,-83.3333333333333,4,2,1,90,0,0
103593,-133.333333333333,4,2,1,100,0,1
103968,-133.333333333333,4,2,1,50,0,1
104343,-133.333333333333,4,2,1,50,0,0
106093,-133.333333333333,4,2,1,70,0,0
106593,-133.333333333333,4,2,1,85,0,0
109968,-100,4,2,1,85,0,0
111093,-83.3333333333333,4,2,1,85,0,0
112593,-200,4,2,1,85,0,0
112968,-200,4,2,1,5,0,0
115218,-200,4,2,1,50,0,0
115593,-83.3333333333333,4,2,1,90,0,1
120093,-117.647058823529,4,2,1,50,0,0
121593,-76.9230769230769,4,2,1,100,0,1
124593,-76.9230769230769,4,2,1,90,0,1
126093,-76.9230769230769,4,2,1,70,0,1
126843,-76.9230769230769,4,2,1,85,0,1
127593,-76.9230769230769,4,2,1,96,0,1
128343,-76.9230769230769,4,2,1,100,0,1
128530,-83.3333333333333,4,2,1,80,0,1
129093,-153.846153846154,4,2,1,30,0,0
130593,-153.846153846154,4,2,1,40,0,0
131718,-153.846153846154,4,2,1,55,0,0
132096,-200,4,2,1,50,0,0
133124,-200,4,2,1,5,0,0
138096,-200,4,2,1,50,0,0

[Colours]
Combo1 : 250,63,41
Combo2 : 253,207,123
Combo3 : 210,157,142
Combo4 : 206,114,108
Combo5 : 255,140,85
Combo6 : 255,32,77
Combo7 : 223,57,103

[HitObjects]
426,118,93,6,0,L|330:122,1,80,0|0,1:0|0:0,0:0:0:0:
256,124,843,1,0,0:0:0:0:
312,204,1218,1,2,0:0:0:0:
256,40,1593,1,0,1:0:0:0:
200,204,1968,1,0,0:0:0:0:
352,136,2343,1,2,0:0:0:0:
256,40,2718,1,0,0:0:0:0:
124,164,3093,6,0,P|116:208|132:256,1,80,0|0,1:0|0:0,0:0:0:0:
200,308,3843,1,0,0:0:0:0:
352,112,4218,1,2,0:0:0:0:
88,328,4593,2,0,L|176:336,1,80,6|0,0:0|0:0,0:0:0:0:
256,280,5155,1,0,0:0:0:0:
256,280,5343,1,2,0:0:0:0:
424,56,6093,6,0,L|336:48,1,80,6|0,1:2|0:0,0:0:0:0:
168,196,6843,1,2,0:0:0:0:
344,344,7218,1,0,0:0:0:0:
256,88,7593,1,2,1:2:0:0:
256,276,7968,1,0,0:0:0:0:
256,12,8343,1,2,0:0:0:0:
256,364,8718,1,2,0:0:0:0:
476,48,9093,6,0,P|436:37|388:56,1,80,6|0,1:2|0:0,0:0:0:0:
256,136,9843,1,0,0:0:0:0:
396,356,10218,1,2,0:0:0:0:
512,200,10593,2,0,L|416:192,1,80,2|0,1:2|0:0,0:0:0:0:
352,252,11155,1,0,0:0:0:0:
300,176,11343,2,0,L|304:144,3,30.0000011444092,2|0|0|0,0:0|0:0|0:0|0:0,0:0:0:0:
212,176,11718,2,2,L|208:144,3,30.0000011444092
256,244,12093,53,4,1:0:0:0:
256,72,12280,1,0,0:0:0:0:
124,108,12468,2,0,P|116:157|144:200,1,71.9999978027344
96,260,12749,1,2,0:0:0:0:
96,260,12843,2,0,L|200:252,1,71.9999978027344,0|0,1:0|0:0,0:0:0:0:
416,260,13218,2,0,L|312:252,1,71.9999978027344,2|0,0:2|0:0,0:0:0:0:
252,192,13593,5,0,1:0:0:0:
348,144,13780,1,2,0:0:0:0:
344,254,13968,1,0,0:0:0:0:
260,80,14155,1,2,0:0:0:0:
440,216,14343,2,0,L|432:308,1,71.9999978027344,2|0,1:2|0:0,0:0:0:0:
424,364,14624,1,2,0:0:0:0:
424,364,14718,2,0,P|382:372|328:352,1,71.9999978027344
36,264,15093,6,0,P|101:286|180:256,1,143.999995605469,6|0,1:2|0:0,0:0:0:0:
168,144,15655,1,0,0:0:0:0:
168,144,15749,1,2,0:0:0:0:
168,144,15843,2,0,L|160:56,1,71.9999978027344,0|0,1:0|0:0,0:0:0:0:
340,88,16218,2,0,L|336:152,3,35.9999989013672,0|2|0|2,0:0|0:0|0:0|0:0,0:0:0:0:
332,212,16593,1,0,0:0:0:0:
464,32,16780,5,2,1:2:0:0:
232,128,16968,1,2,1:2:0:0:
460,284,17155,1,2,1:2:0:0:
332,352,17343,2,0,B|288:368|288:368|204:348,1,120,2|2,1:2|0:0,0:0:0:0:
144,376,17718,1,2,1:2:0:0:
288,124,17905,1,0,0:0:0:0:
288,124,17999,1,2,0:0:0:0:
288,124,18093,54,0,P|304:180|272:248,1,120,6|2,1:2|0:0,0:0:0:0:
196,176,18468,2,0,P|156:184|100:164,1,80,2|0,0:2|0:0,0:0:0:0:
157,56,18843,1,2,1:2:0:0:
84,296,19030,1,0,0:0:0:0:
24,120,19218,2,0,L|0:56,3,40,0|2|0|2,0:0|0:0|0:0|0:0,0:0:0:0:
104,52,19593,6,0,P|146:47|182:65,1,60.0000022888184,2|0,1:2|0:0,0:0:0:0:
256,104,19968,1,2,0:0:0:0:
160,160,20155,1,0,0:0:0:0:
408,52,20343,2,0,P|366:47|330:65,1,60.0000022888184,2|0,1:2|0:0,0:0:0:0:
256,104,20718,1,2,0:0:0:0:
352,160,20905,1,0,0:0:0:0:
208,296,21093,6,0,L|196:228,1,60.0000022888184,2|0,1:2|0:2,0:2:0:0:
314,236,21468,2,0,L|304:296,1,60.0000022888184,2|0,0:2|0:2,0:2:0:0:
256,176,21843,2,0,B|300:88|216:88|256:4,1,180.000006866455,2|0,0:0|0:0,0:0:0:0:
332,48,22593,5,2,0:0:0:0:
332,48,22780,1,0,0:0:0:0:
464,120,22968,1,0,1:0:0:0:
344,192,23155,1,0,0:0:0:0:
412,52,23343,1,2,0:0:0:0:
412,52,23530,1,0,0:0:0:0:
424,196,23718,1,0,1:0:0:0:
292,124,23905,1,0,0:0:0:0:
512,124,24093,54,0,L|492:306,1,180.000006866455,4|0,1:2|0:0,0:0:0:0:
491,311,24718,53,2,0:0:0:0:
490,320,24780,1,0,0:0:0:0:
489,327,24843,1,2,0:0:0:0:
256,192,25593,12,0,28218,0:0:0:0:
352,112,30093,70,0,L|344:204,2,80,0|2|2,1:2|0:0|0:0,0:0:0:0:
256,32,31218,1,0,0:0:0:0:
160,112,31593,2,0,L|176:276,1,160,2|2,1:2|0:0,0:0:0:0:
256,368,32718,1,0,0:0:0:0:
256,368,32905,1,2,0:0:0:0:
328,276,33093,5,2,1:2:0:0:
148,368,33468,1,0,0:0:0:0:
364,368,33843,1,2,1:2:0:0:
184,276,34218,1,0,0:0:0:0:
256,52,34593,2,0,L|256:140,1,80,2|0,1:2|0:0,0:0:0:0:
260,224,35155,1,0,0:0:0:0:
260,224,35343,1,2,1:2:0:0:
152,136,35718,2,2,P|151:122|154:109,3,20
360,100,36093,54,0,P|364:144|352:176,1,60.0000022888184,2|0,1:2|0:0,0:0:0:0:
196,304,36468,2,0,L|184:232,1,60.0000022888184,2|0,0:0|0:0,0:0:0:0:
325,244,36843,2,0,L|316:304,1,60.0000022888184,2|0,1:2|0:0,0:0:0:0:
151,158,37218,2,0,P|146:129|152:100,1,60.0000022888184,0|2,0:2|0:0,0:0:0:0:
120,24,37499,1,0,0:0:0:0:
120,24,37593,6,0,L|196:20,1,60.0000022888184,0|0,1:0|0:0,0:0:0:0:
396,136,37968,2,0,L|320:132,1,60.0000022888184,0|2,0:0|0:0,0:0:0:0:
256,129,38249,1,0,0:0:0:0:
256,129,38343,1,0,1:0:0:0:
440,48,38718,1,2,0:0:0:0:
440,48,38905,1,0,0:0:0:0:
496,192,39093,21,0,1:0:0:0:
256,272,39468,1,2,0:0:0:0:
220,344,39655,1,0,0:0:0:0:
260,356,39749,1,2,0:0:0:0:
296,344,39843,1,0,1:0:0:0:
16,192,40218,1,0,1:0:0:0:
256,24,40593,6,0,L|256:72,1,44.0000013427735,4|0,1:0|0:0,0:0:0:0:
256,176,40780,1,8,0:0:0:0:
216,168,40874,1,2,0:0:0:0:
176,160,40968,2,0,L|104:148,1,44.0000013427735,0|0,1:0|0:0,0:0:0:0:
296,260,41155,1,8,0:0:0:0:
336,252,41249,1,2,0:0:0:0:
376,244,41343,2,0,L|448:232,1,44.0000013427735,0|0,1:0|0:0,0:0:0:0:
362,378,41530,5,10,0:0:0:0:
326,346,41624,1,0,0:0:0:0:
278,334,41718,1,10,1:2:0:0:
230,334,41811,1,0,0:0:0:0:
186,350,41905,2,0,P|158:374|146:402,1,44.0000013427735,10|0,0:0|0:0,0:0:0:0:
382,192,42093,6,0,P|379:159|395:130,1,44.0000013427735
480,220,42280,1,8,1:2:0:0:
452,260,42374,1,2,0:0:0:0:
408,284,42468,1,0,0:0:0:0:
360,284,42561,1,2,0:0:0:0:
316,260,42655,69,10,1:2:0:0:
288,220,42749,1,0,0:0:0:0:
256,184,42843,1,2,0:0:0:0:
216,156,42936,1,0,0:0:0:0:
168,148,43030,5,10,1:2:0:0:
120,156,43124,1,0,0:0:0:0:
84,188,43218,2,0,P|80:224|96:252,1,44.0000013427735,10|0,1:2|0:0,0:0:0:0:
256,352,43405,1,8,1:2:0:0:
429,231,43593,6,0,P|433:210|428:188,1,44.0000013427735,6|0,1:2|0:0,0:0:0:0:
436,92,43780,1,8,0:0:0:0:
396,84,43874,1,2,0:0:0:0:
356,76,43968,2,0,L|284:64,1,44.0000013427735,0|0,1:0|0:0,0:0:0:0:
76,168,44155,1,8,0:0:0:0:
116,160,44249,1,2,0:0:0:0:
156,152,44343,2,0,L|228:140,1,44.0000013427735,0|0,1:0|0:0,0:0:0:0:
368,312,44530,69,10,0:0:0:0:
332,280,44624,1,0,0:0:0:0:
284,268,44718,1,10,1:2:0:0:
236,268,44811,1,0,0:0:0:0:
192,284,44905,2,0,P|164:308|152:336,1,44.0000013427735,10|0,0:0|0:0,0:0:0:0:
448,356,45093,21,0,1:0:0:0:
444,308,45186,1,0,0:0:0:0:
440,260,45280,1,10,1:2:0:0:
436,212,45374,1,2,0:0:0:0:
432,168,45468,69,0,0:0:0:0:
392,196,45561,1,0,0:0:0:0:
344,208,45655,1,10,1:2:0:0:
296,200,45749,1,2,0:0:0:0:
256,172,45843,5,0,0:0:0:0:
216,148,45936,1,2,0:0:0:0:
168,148,46030,1,8,1:2:0:0:
120,160,46124,1,2,0:0:0:0:
84,192,46218,6,0,P|80:215|92:251,3,44.0000013427735,6|0|0|0,1:2|0:0|0:0|0:0,0:0:0:0:
304,312,46593,6,0,L|400:320,1,80,6|2,1:2|0:0,0:0:0:0:
196,240,47343,2,0,L|100:248,1,80,0|2,1:0|0:0,0:0:0:0:
304,148,48093,2,0,L|468:160,1,160,0|2,1:0|0:0,0:0:0:0:
508,84,49030,1,0,0:0:0:0:
460,8,49218,1,2,0:0:0:0:
372,16,49405,1,0,0:0:0:0:
92,92,49593,5,2,0:0:0:0:
420,92,49968,1,0,1:0:0:0:
140,16,50343,1,2,0:0:0:0:
52,8,50530,1,2,0:0:0:0:
4,84,50718,1,0,1:0:0:0:
256,76,51093,2,0,L|256:172,1,80,0|0,1:0|0:0,0:0:0:0:
260,248,51655,1,2,0:0:0:0:
260,248,51843,1,0,1:0:0:0:
128,168,52218,2,2,L|132:136,3,20,0|2|2|2,0:0|0:0|0:0|0:0,0:0:0:0:
144,68,52593,5,4,1:0:0:0:
116,248,52780,1,0,0:0:0:0:
32,168,52968,2,0,L|44:80,1,60.0000022888184,2|0,0:0|0:0,0:0:0:0:
172,308,53343,2,0,P|131:329|51:294,1,120.000004577637,2|0,1:2|0:0,0:0:0:0:
344,312,53905,1,0,0:0:0:0:
344,312,53999,1,2,0:0:0:0:
344,312,54093,6,0,P|385:333|465:298,1,120.000004577637,2|0,1:2|0:0,0:0:0:0:
400,248,54655,1,0,0:0:0:0:
256,356,54843,1,2,1:2:0:0:
112,248,55030,1,0,0:0:0:0:
308,276,55218,1,2,0:0:0:0:
204,276,55405,1,0,0:0:0:0:
256,24,55593,54,0,L|256:156,1,120.000004577637,0|2,1:0|0:0,0:0:0:0:
176,80,56155,1,0,0:0:0:0:
176,80,56249,1,2,0:0:0:0:
176,80,56343,2,0,P|135:75|97:90,1,60.0000022888184,0|0,1:0|0:0,0:0:0:0:
224,220,56718,2,0,P|265:225|303:210,1,60.0000022888184,2|0,1:2|0:0,0:0:0:0:
200,56,57093,6,0,P|143:38|76:64,1,120.000004577637,2|0,1:2|0:0,0:0:0:0:
144,146,57655,1,2,0:0:0:0:
416,24,57843,1,0,0:0:0:0:
368,146,58030,1,2,0:0:0:0:
96,24,58218,1,0,1:0:0:0:
256,264,58405,1,2,0:0:0:0:
424,80,58593,38,0,B|384:56|384:56|288:84,1,132.00000402832,6|2,1:2|0:0,1:2:0:0:
204,112,58968,1,0,0:0:0:0:
136,12,59155,1,10,0:0:0:0:
100,44,59249,1,2,0:0:0:0:
76,84,59343,1,0,1:2:0:0:
76,132,59436,1,2,0:0:0:0:
96,176,59530,1,8,0:0:0:0:
136,204,59624,1,2,0:0:0:0:
184,204,59718,1,10,1:2:0:0:
220,176,59811,1,0,0:0:0:0:
260,148,59905,1,10,0:0:0:0:
308,148,59999,1,0,0:0:0:0:
348,176,60093,6,0,P|372:228|320:312,1,132.00000402832,6|0,1:2|0:0,0:0:0:0:
276,352,60468,1,2,0:0:0:0:
112,284,60655,1,8,0:0:0:0:
120,236,60749,1,0,0:0:0:0:
128,188,60843,1,2,0:0:0:0:
136,140,60936,1,0,0:0:0:0:
148,92,61030,2,0,L|160:20,1,44.0000013427735,10|0,1:2|0:0,0:0:0:0:
236,176,61218,1,8,0:0:0:0:
272,204,61311,1,2,0:0:0:0:
320,216,61405,1,10,1:2:0:0:
368,204,61499,1,2,0:0:0:0:
404,172,61593,6,0,P|428:124|388:44,1,132.00000402832,6|0,1:2|0:0,0:0:0:0:
328,16,61968,1,2,1:2:0:0:
256,192,62155,1,8,0:0:0:0:
184,16,62343,1,0,1:2:0:0:
364,208,62530,1,8,0:0:0:0:
344,252,62624,1,2,0:0:0:0:
304,280,62718,1,0,1:2:0:0:
256,292,62811,1,0,0:0:0:0:
208,280,62905,1,10,0:0:0:0:
172,248,62999,1,2,0:0:0:0:
148,208,63093,5,2,0:0:0:0:
256,116,63280,1,0,0:0:0:0:
256,208,63468,1,2,0:0:0:0:
172,36,63655,1,2,0:0:0:0:
368,164,63843,1,2,0:0:0:0:
140,164,64030,1,0,0:0:0:0:
340,36,64218,1,2,0:0:0:0:
256,328,64405,53,2,1:2:0:0:
84,80,64593,2,0,B|132:60|132:60|224:88,1,143.999995605469,6|0,1:2|0:0,0:0:0:0:
340,36,64968,2,0,L|352:152,1,95.9999970703126,2|8,0:0|0:0,0:0:0:0:
396,160,65249,1,0,0:0:0:0:
432,196,65343,1,2,1:2:0:0:
436,248,65436,1,0,0:0:0:0:
412,296,65530,1,10,0:0:0:0:
364,320,65624,1,0,0:0:0:0:
312,316,65718,1,10,0:0:0:0:
272,284,65811,1,2,0:0:0:0:
220,268,65905,1,8,1:2:0:0:
168,280,65999,1,2,0:0:0:0:
128,316,66093,6,0,L|112:136,1,143.999995605469,6|0,1:2|0:0,0:0:0:0:
64,52,66468,2,0,P|116:40|176:64,1,95.9999970703126,2|8,0:0|0:0,0:0:0:0:
196,88,66749,1,0,0:0:0:0:
248,104,66843,1,2,1:2:0:0:
300,92,66936,1,0,0:0:0:0:
336,56,67030,1,10,0:0:0:0:
380,28,67124,1,0,0:0:0:0:
432,36,67218,1,8,1:2:0:0:
468,76,67311,1,2,0:0:0:0:
468,128,67405,1,8,0:0:0:0:
436,168,67499,1,2,0:0:0:0:
384,172,67593,6,0,P|356:228|392:316,1,143.999995605469,6|0,1:2|0:0,0:0:0:0:
268,380,67968,2,0,P|280:344|252:276,1,95.9999970703126,2|8,0:0|0:0,0:0:0:0:
200,240,68249,1,0,0:0:0:0:
200,240,68343,1,2,1:2:0:0:
130,99,68530,1,8,0:0:0:0:
170,135,68624,1,2,0:0:0:0:
222,135,68718,1,10,1:2:0:0:
258,99,68811,1,2,0:0:0:0:
298,67,68905,1,8,0:0:0:0:
350,67,68999,1,0,0:0:0:0:
386,107,69093,70,0,L|380:216,1,95.9999970703126,6|8,0:0|0:0,0:0:0:0:
478,109,69374,1,0,0:0:0:0:
478,109,69468,2,0,L|484:204,1,95.9999970703126,0|8,1:0|0:0,0:0:0:0:
364,108,69749,1,0,0:0:0:0:
364,108,69843,2,0,L|358:205,1,95.9999970703126,2|8,0:0|0:0,0:0:0:0:
500,108,70124,1,0,0:0:0:0:
500,108,70218,2,0,L|509:203,1,95.9999970703126,8|8,1:2|0:0,0:0:0:0:
332,108,70499,1,0,0:0:0:0:
332,108,70593,6,0,L|326:209,1,95.9999970703126,2|8,0:0|0:0,0:0:0:0:
416,312,70874,1,2,0:0:0:0:
416,312,70968,1,2,1:2:0:0:
284,360,71155,1,8,0:0:0:0:
236,340,71249,1,0,0:0:0:0:
188,360,71343,1,2,1:2:0:0:
12,176,71530,5,8,0:0:0:0:
44,216,71624,1,0,0:0:0:0:
92,236,71718,1,2,1:2:0:0:
144,236,71811,1,2,0:0:0:0:
192,216,71905,1,2,0:0:0:0:
228,176,71999,6,0,P|296:148|396:184,1,180,4|2,0:0|0:0,0:0:0:0:
308,272,73218,1,0,0:0:0:0:
136,204,73593,2,0,L|144:120,1,80,2|0,0:0|0:0,0:0:0:0:
304,192,74155,1,2,0:0:0:0:
304,192,74343,2,0,L|296:284,1,80,2|0,0:0|0:0,0:0:0:0:
304,288,74811,1,0,0:0:0:0:
308,308,74905,1,2,0:0:0:0:
304,328,74999,1,0,0:0:0:0:
296,348,75093,6,0,P|293:357|297:361,4,10,0|0|0|2|2,1:2|0:0|0:0|0:0|0:0,0:0:0:0:
448,320,75843,6,0,P|450:314|447:307,3,10,0|0|2|0,1:2|0:0|0:0|0:0,0:0:0:0:
256,192,76030,12,0,78468,0:0:0:0:
352,64,85593,6,0,L|344:128,1,60.0000022888184,2|0,1:2|0:0,0:0:0:0:
332,216,85968,1,0,0:0:0:0:
252,172,86155,1,0,0:0:0:0:
416,176,86343,1,2,0:0:0:0:
256,268,86530,1,0,0:0:0:0:
444,180,86718,1,2,0:0:0:0:
256,300,86905,1,0,0:0:0:0:
160,60,87093,6,0,L|168:124,1,60.0000022888184,0|0,1:2|0:0,0:0:0:0:
184,232,87468,1,2,0:0:0:0:
96,188,87655,1,0,0:0:0:0:
256,164,87843,1,2,0:0:0:0:
200,312,88030,1,0,0:0:0:0:
160,104,88218,1,2,0:0:0:0:
256,204,88405,1,0,0:0:0:0:
364,12,88593,54,0,P|424:0|492:16,2,120.000004577637,6|2|0,1:2|0:0|0:0,0:0:0:0:
256,236,89718,1,2,0:0:0:0:
164,136,90093,2,0,P|88:156|-4:128,1,160,2|2,0:0|0:0,0:0:0:0:
256,80,91030,5,2,0:0:0:0:
280,116,91124,1,0,0:0:0:0:
280,160,91218,1,0,1:0:0:0:
256,196,91311,1,2,0:0:0:0:
236,236,91405,1,0,0:0:0:0:
236,280,91499,1,2,0:0:0:0:
256,320,91593,6,0,P|258:343|240:379,2,34.6666650797527,6|0|2,1:2|0:0|0:0,0:0:0:0:
164,332,91968,2,0,L|120:328,2,34.6666650797527,0|0|2,1:0|0:0|0:0,0:0:0:0:
348,332,92343,2,0,L|432:320,2,69.3333301595054,0|2|2,1:0|0:0|0:0,0:0:0:0:
296,140,93093,2,0,L|304:96,2,34.6666650797527,0|0|2,1:0|0:0|0:0,0:0:0:0:
216,140,93468,2,0,L|208:96,2,34.6666650797527,0|0|2,0:0|0:0|0:0,0:0:0:0:
256,212,93843,2,0,L|256:336,1,103.999995239258,0|0,1:0|0:0,0:0:0:0:
144,132,94593,6,0,P|124:112|112:84,2,34.6666650797527,0|0|2,1:0|0:0|0:0,0:0:0:0:
204,64,94968,2,0,P|196:36|200:8,2,34.6666650797527,0|0|2,0:0|0:0|0:0,0:0:0:0:
304,64,95343,2,0,P|312:36|308:8,2,34.6666650797527,0|0|2,1:0|0:0|0:0,0:0:0:0:
360,132,95718,2,0,P|380:112|392:84,2,34.6666650797527,0|0|2,0:0|0:0|0:0,0:0:0:0:
256,164,96093,2,0,L|256:284,1,103.999995239258,0|0,1:0|1:0,0:0:0:0:
144,196,96843,2,0,P|137:160|150:118,2,69.3333301595054,2|2|2,0:0|0:0|0:0,0:0:0:0:
368,207,97593,54,0,P|381:157|368:108,1,103.999995239258,6|0,1:2|0:0,0:0:0:0:
336,316,98343,2,0,L|432:308,2,69.3333301595054,2|2|2,0:0|0:0|0:0,0:0:0:0:
176,144,99093,2,0,L|48:136,2,103.999995239258,6|2|2,1:2|0:0|0:0,0:0:0:0:
256,16,100218,1,2,0:0:0:0:
328,144,100593,5,0,1:0:0:0:
372,96,100718,1,2,0:0:0:0:
436,96,100843,1,2,0:0:0:0:
484,136,100968,1,0,0:0:0:0:
496,200,101093,1,2,0:0:0:0:
464,256,101218,1,2,0:0:0:0:
404,280,101343,1,0,1:0:0:0:
344,256,101468,1,2,0:0:0:0:
312,200,101593,1,2,0:0:0:0:
268,152,101718,1,0,0:0:0:0:
212,120,101843,1,2,0:0:0:0:
148,120,101968,1,2,0:0:0:0:
88,156,102093,5,0,1:0:0:0:
120,220,102218,1,2,0:0:0:0:
188,244,102343,1,2,0:0:0:0:
256,224,102468,1,2,0:0:0:0:
308,180,102593,1,2,0:0:0:0:
332,112,102718,1,0,0:0:0:0:
312,44,102843,1,2,1:2:0:0:
256,0,102968,5,0,0:0:0:0:
200,44,103093,1,2,0:0:0:0:
180,112,103218,1,2,0:0:0:0:
204,180,103343,1,2,0:0:0:0:
256,224,103468,1,2,0:0:0:0:
312,288,103593,54,0,P|253:308|193:278,2,120.000004577637,6|2|2,1:2|0:0|0:0,0:0:0:0:
416,192,104718,1,0,0:0:0:0:
312,96,105093,2,0,P|253:76|193:106,1,120.000004577637,2|2,1:2|0:0,0:0:0:0:
164,120,105593,1,0,0:0:0:0:
120,120,105718,1,0,0:0:0:0:
84,96,105843,1,2,0:0:0:0:
16,244,106093,2,0,L|124:240,1,80.0000030517579,2|2,1:2|1:2,0:0:0:0:
372,172,106593,6,0,L|364:316,1,120.000004577637,6|0,1:2|0:0,0:0:0:0:
172,64,107343,1,2,1:2:0:0:
348,64,107718,1,2,0:0:0:0:
146,291,108093,2,0,L|140:172,1,120.000004577637,2|0,1:2|0:0,0:0:0:0:
348,64,108718,1,2,0:0:0:0:
372,88,108843,2,0,P|384:128|356:196,1,90.0000034332277,2|0,1:2|0:0,0:0:0:0:
348,208,109218,1,0,0:0:0:0:
308,236,109311,1,2,0:0:0:0:
260,244,109405,1,2,0:0:0:0:
212,232,109499,1,2,0:0:0:0:
176,204,109593,5,0,1:0:0:0:
80,84,109780,2,0,L|120:88,1,30.0000011444092
256,36,109968,1,0,0:0:0:0:
296,52,110061,1,0,0:0:0:0:
320,88,110155,1,2,0:0:0:0:
328,132,110249,1,0,0:0:0:0:
316,176,110343,5,2,1:2:0:0:
288,208,110436,1,2,0:0:0:0:
256,236,110530,1,2,0:0:0:0:
220,260,110624,1,0,0:0:0:0:
208,304,110718,1,0,0:0:0:0:
220,348,110811,1,0,0:0:0:0:
256,372,110905,1,2,1:2:0:0:
296,348,110999,1,2,0:0:0:0:
312,296,111093,53,2,0:0:0:0:
284,252,111186,1,2,0:0:0:0:
236,228,111280,1,2,0:0:0:0:
184,228,111374,1,0,0:0:0:0:
140,256,111468,1,2,0:0:0:0:
184,284,111561,1,0,0:0:0:0:
236,284,111655,1,2,0:0:0:0:
288,268,111749,1,0,0:0:0:0:
324,228,111843,5,2,1:2:0:0:
340,176,111936,1,0,0:0:0:0:
324,124,112030,1,2,0:0:0:0:
284,88,112124,1,2,0:0:0:0:
232,88,112218,1,2,0:0:0:0:
192,124,112311,1,2,0:0:0:0:
180,176,112405,1,2,0:0:0:0:
196,228,112499,1,0,0:0:0:0:
240,256,112593,6,0,B|320:332|384:260|384:252|384:244|464:176|540:256,1,320,6|0,1:2|0:0,0:0:0:0:
256,192,114186,12,2,115405,0:0:0:0:
220,60,115593,22,0,L|240:220,1,143.999995605469,6|0,1:2|0:0,0:0:0:0:
256,300,115968,1,2,0:0:0:0:
344,136,116155,1,10,0:0:0:0:
380,96,116249,1,2,0:0:0:0:
432,104,116343,1,0,1:0:0:0:
460,148,116436,1,2,0:0:0:0:
440,196,116530,1,8,0:0:0:0:
396,224,116624,1,2,0:0:0:0:
344,224,116718,1,8,1:2:0:0:
296,200,116811,1,0,0:0:0:0:
252,168,116905,1,10,0:0:0:0:
200,164,116999,1,0,0:0:0:0:
152,184,117093,6,0,P|125:247|161:326,1,143.999995605469,6|0,1:2|0:0,0:0:0:0:
220,380,117468,1,2,0:0:0:0:
372,316,117655,1,8,0:0:0:0:
364,264,117749,1,0,0:0:0:0:
356,212,117843,1,2,0:2:0:0:
348,160,117936,1,0,0:0:0:0:
340,108,118030,2,0,L|328:28,1,47.9999985351563,8|0,1:2|0:0,0:0:0:0:
256,184,118218,1,8,0:2:0:0:
292,224,118311,1,2,0:0:0:0:
344,236,118405,1,10,1:2:0:0:
400,224,118499,1,2,0:0:0:0:
432,180,118593,6,0,P|456:132|416:36,1,143.999995605469,6|0,1:2|0:0,0:0:0:0:
328,8,118968,1,2,0:0:0:0:
256,184,119155,1,10,0:0:0:0:
264,236,119249,1,2,0:0:0:0:
272,288,119343,1,0,1:0:0:0:
376,152,119530,1,10,0:0:0:0:
352,104,119624,1,0,0:0:0:0:
308,76,119718,1,0,1:2:0:0:
256,64,119811,1,2,0:0:0:0:
204,76,119905,1,10,0:0:0:0:
160,108,119999,1,0,0:0:0:0:
136,152,120093,6,0,L|160:304,1,136.000002593994,2|0,0:0|0:0,0:0:0:0:
256,368,120655,1,2,0:0:0:0:
256,176,120843,1,2,0:0:0:0:
104,344,121030,1,0,0:0:0:0:
384,276,121218,1,2,0:0:0:0:
80,168,121405,1,2,0:0:0:0:
456,336,121593,54,0,B|480:284|480:284|436:148,1,155.999992858887,6|0,1:2|0:0,0:0:0:0:
496,80,121968,2,0,L|372:88,1,103.999995239258,2|8,0:0|0:0,0:0:0:0:
348,52,122249,1,0,0:0:0:0:
304,16,122343,1,2,1:2:0:0:
248,8,122436,1,0,0:0:0:0:
196,36,122530,1,10,0:0:0:0:
172,88,122624,1,0,0:0:0:0:
184,144,122718,1,10,1:2:0:0:
144,104,122811,1,2,0:0:0:0:
88,88,122905,2,2,L|-12:92,1,51.999997619629,10|2,0:0|0:0,0:0:0:0:
192,328,123093,6,0,L|324:316,1,103.999995239258,6|8,1:2|0:0,0:0:0:0:
376,368,123374,1,2,0:0:0:0:
376,368,123468,1,2,0:0:0:0:
480,192,123655,1,8,0:0:0:0:
448,240,123749,1,0,0:0:0:0:
392,256,123843,1,2,1:2:0:0:
336,240,123936,1,2,0:0:0:0:
304,192,124030,1,10,0:0:0:0:
256,164,124124,1,0,0:0:0:0:
200,164,124218,1,8,0:0:0:0:
152,192,124311,1,2,0:0:0:0:
124,240,124405,2,2,P|119:275|141:321,1,51.999997619629,10|2,1:2|0:0,0:0:0:0:
388,168,124593,6,0,P|416:96|372:12,1,155.999992858887,6|0,1:2|0:0,0:0:0:0:
308,96,124968,2,0,L|180:104,1,103.999995239258,2|8,0:0|0:0,0:0:0:0:
112,16,125343,1,2,1:2:0:0:
4,192,125530,2,0,L|88:188,1,51.999997619629,8|0,0:0|0:0,0:0:0:0:
212,328,125718,1,10,1:2:0:0:
168,292,125811,1,2,0:0:0:0:
152,236,125905,1,10,0:0:0:0:
168,180,125999,1,2,0:0:0:0:
212,144,126093,70,0,L|204:12,1,103.999995239258,6|8,0:0|0:0,0:0:0:0:
324,148,126374,1,0,0:0:0:0:
324,148,126468,2,0,L|332:16,1,103.999995239258,0|8,1:0|0:0,0:0:0:0:
174,148,126749,1,0,0:0:0:0:
174,148,126843,2,0,L|166:16,1,103.999995239258,6|8,0:0|0:0,0:0:0:0:
358,153,127124,1,0,0:0:0:0:
358,153,127218,2,0,L|366:21,1,103.999995239258,8|8,1:2|0:0,0:0:0:0:
129,151,127499,1,0,0:0:0:0:
129,151,127593,6,0,L|121:19,1,103.999995239258,6|8,0:0|0:0,0:0:0:0:
398,155,127874,1,0,0:0:0:0:
398,155,127968,2,0,L|406:23,1,103.999995239258,0|8,1:0|0:0,0:0:0:0:
260,288,128249,1,2,0:0:0:0:
260,288,128343,5,4,0:0:0:0:
144,84,128530,1,10,0:0:0:0:
176,36,128624,1,2,0:0:0:0:
228,12,128718,1,2,0:0:0:0:
284,12,128811,1,0,0:0:0:0:
336,36,128905,1,0,0:0:0:0:
364,84,128999,1,2,0:0:0:0:
371,130,129093,6,0,P|373:148|365:190,2,34.6666650797527
359,251,129468,2,0,L|426:244,1,51.999997619629,0|0,1:0|0:0,0:0:0:0:
285,187,129843,2,0,L|215:182,1,51.999997619629,2|0,0:0|0:0,0:0:0:0:
377,276,130218,2,0,L|450:270,1,51.999997619629,0|0,1:0|0:0,0:0:0:0:
279,163,130593,2,0,L|212:157,1,51.999997619629,2|0,0:0|0:0,0:0:0:0:
256,272,130968,1,2,0:0:0:0:
256,64,131155,1,0,1:0:0:0:
160,128,131343,5,0,0:0:0:0:
176,152,131436,1,0,0:0:0:0:
200,168,131530,1,2,0:0:0:0:
228,180,131624,1,0,0:0:0:0:
256,184,131718,1,2,0:0:0:0:
284,180,131811,1,0,0:0:0:0:
312,168,131905,1,2,0:0:0:0:
336,148,131999,1,2,0:0:0:0:
348,124,132093,6,0,P|359:124|370:126,4,12.9999994049073,0|0|0|2|2,1:2|0:0|0:0|0:0|0:0,0:0:0:0:
264,296,132843,2,0,P|253:297|247:295,3,10,0|0|2|2,0:0|0:0|0:0|0:0,0:0:0:0:
256,192,133124,12,0,136218,0:0:0:0:
