osu file format v14

[General]
AudioFilename: audio.mp3
AudioLeadIn: 0
PreviewTime: 115069
Countdown: 0
SampleSet: Soft
StackLeniency: 0.7
Mode: 0
LetterboxInBreaks: 0
WidescreenStoryboard: 0

[Editor]
Bookmarks: 58632,64444,100632
DistanceSpacing: 1
BeatDivisor: 8
GridSize: 4
TimelineZoom: 3.799999

[Metadata]
Title:carnation
TitleUnicode:carnation
Artist:AAAA
ArtistUnicode:ああああ
Creator:Ultima Fox
Version:Tango
Source:
Tags:
BeatmapID:1416328
BeatmapSetID:669582

[Difficulty]
HPDrainRate:5.8
CircleSize:4
OverallDifficulty:7.3
ApproachRate:9.6
SliderMultiplier:2.1
SliderTickRate:1

[Events]
//Background and Video events
0,0,"bgg.png",0,0
//Break Periods
//Storyboard Layer 0 (Background)
//Storyboard Layer 1 (Fail)
//Storyboard Layer 2 (Pass)
//Storyboard Layer 3 (Foreground)
//Storyboard Sound Samples

[TimingPoints]
132,375,4,2,1,45,1,0
132,-200,4,2,1,26,0,0
9694,-200,4,2,1,5,0,0
9882,-200,4,2,1,26,0,0
11382,-133.333333333333,4,2,1,26,0,0
12132,-100,4,2,1,26,0,0
20007,-133.333333333333,4,2,1,26,0,0
21882,-200,4,2,1,26,0,0
22632,-133.333333333333,4,2,1,26,0,0
24882,-200,4,2,1,26,0,0
25632,-800,4,2,1,26,0,0
29757,-200,4,2,1,26,0,0
39882,-133.333333333333,4,2,1,26,0,0
39975,-133.333333333333,4,2,1,5,0,0
40069,-133.333333333333,4,2,1,26,0,0
40538,-133.333333333333,4,2,1,5,0,0
40632,-90.9090909090909,4,2,1,26,0,0
46632,-133.333333333333,4,2,1,26,0,0
48132,-200,4,2,1,26,0,0
48882,-133.333333333333,4,2,1,26,0,0
52632,-111.111111111111,4,2,1,26,0,0
57132,-200,4,2,1,26,0,0
57882,-133.333333333333,4,2,1,26,0,0
58632,-100,4,2,1,26,0,1
69132,-133.333333333333,4,2,1,26,0,0
72132,-200,4,2,1,20,0,0
72507,-181.818181818182,4,2,1,20,0,0
72882,-166.666666666667,4,2,1,20,0,0
73257,-153.846153846154,4,2,1,20,0,0
73632,-142.857142857143,4,2,1,20,0,0
79632,-200,4,2,1,20,0,0
91632,-166.666666666667,4,2,1,20,0,0
103632,-100,4,2,1,20,0,0
112632,-133.333333333333,4,2,1,20,0,0
114132,-200,4,2,1,20,0,0
115632,-90.9090909090909,4,2,1,20,0,1
126132,-133.333333333333,4,2,1,20,0,0
129132,-200,4,2,1,20,0,0
129507,-181.818181818182,4,2,1,20,0,0
129882,-166.666666666667,4,2,1,20,0,0
130257,-153.846153846154,4,2,1,20,0,0
130632,-142.857142857143,4,2,1,20,0,0

[Colours]
Combo1 : 254,254,252
Combo2 : 253,250,189
Combo3 : 255,28,33
Combo4 : 109,130,135
SliderBorder : 255,255,255
SliderTrackOverride : 0,0,0

[HitObjects]
252,228,132,6,0,L|356:235,1,105
292,120,882,2,0,L|184:128,1,105
388,248,1632,5,0,0:0:0:0:
422,122,2007,1,0,0:0:0:0:
305,297,2382,1,0,0:0:0:0:
282,173,2757,1,0,0:0:0:0:
492,245,3132,6,0,L|383:248,1,105
223,304,3882,1,0,0:0:0:0:
304,135,4257,1,0,0:0:0:0:
304,135,4632,2,0,P|313:177|312:250,1,105
261,297,5194,1,0,0:0:0:0:
124,236,5382,2,0,P|176:221|233:226,1,105
344,320,6038,6,0,B|347:343,1,13.125
344,320,6132,2,0,P|396:335|453:330,1,105
322,172,6882,1,0,0:0:0:0:
234,370,7257,1,0,0:0:0:0:
452,250,7632,6,0,L|441:135,1,105
302,26,8382,1,0,0:0:0:0:
496,75,8757,1,0,0:0:0:0:
314,221,9132,6,0,B|228:204|248:256|144:231,1,157.5
193,148,9882,1,0,0:0:0:0:
278,309,10257,1,0,0:0:0:0:
457,135,10632,6,0,L|286:125,1,157.5
270,158,11382,6,0,L|370:149,1,78.7500030040742
151,83,11757,1,0,0:0:0:0:
169,125,11850,1,0,0:0:0:0:
173,172,11944,1,0,0:0:0:0:
154,215,12038,1,0,0:0:0:0:
114,246,12132,6,0,L|24:241,1,52.5
243,338,12319,2,0,L|333:333,1,52.5
362,177,12507,5,0,0:0:0:0:
319,156,12600,1,0,0:0:0:0:
271,153,12694,1,0,0:0:0:0:
231,179,12788,1,0,0:0:0:0:
213,223,12882,1,0,0:0:0:0:
391,318,13069,1,0,0:0:0:0:
467,171,13257,2,0,P|444:105|400:57,1,105
170,157,13632,5,0,0:0:0:0:
356,232,13819,1,0,0:0:0:0:
216,292,14007,5,0,0:0:0:0:
291,106,14194,1,0,0:0:0:0:
457,322,14382,6,0,P|380:305|315:362,1,157.5
310,373,14757,2,0,P|303:301|279:247,1,105
144,122,15084,5,0,0:0:0:0:
144,122,15132,2,0,P|213:137|266:127,1,105
432,54,15507,1,0,0:0:0:0:
388,72,15600,1,0,0:0:0:0:
363,112,15694,1,0,0:0:0:0:
365,159,15788,1,0,0:0:0:0:
394,196,15882,2,0,L|481:191,1,52.5
419,321,16069,5,0,0:0:0:0:
372,313,16163,1,0,0:0:0:0:
325,305,16257,1,0,0:0:0:0:
278,298,16350,1,0,0:0:0:0:
231,287,16444,2,0,L|240:372,1,52.5
133,183,16632,1,0,0:0:0:0:
372,313,16819,5,0,0:0:0:0:
291,62,17007,1,0,0:0:0:0:
119,268,17194,1,0,0:0:0:0:
431,187,17382,6,0,P|379:160|282:177,1,157.5
273,188,17757,2,0,P|324:213|382:207,1,105
180,119,18038,6,0,L|148:134,1,26.25
182,132,18132,2,0,P|179:215|204:269,1,105
329,308,18413,1,0,0:0:0:0:
329,308,18507,2,0,L|437:299,1,105
512,161,18882,2,0,L|404:152,1,105
242,105,19257,2,0,L|175:110,1,52.5
340,66,19444,5,0,0:0:0:0:
329,112,19538,1,0,0:0:0:0:
319,158,19632,2,0,L|332:293,1,105
198,344,20007,5,0,0:0:0:0:
210,237,20194,1,0,0:0:0:0:
388,329,20382,2,0,P|328:350|289:342,1,78.7500030040742
150,167,20757,2,0,P|210:146|249:154,1,78.7500030040742
368,230,21132,6,0,P|353:183|363:57,1,157.500006008148
319,310,21882,2,0,P|288:277|260:209,1,105
350,104,22444,1,0,0:0:0:0:
498,205,22632,6,0,L|400:214,1,78.7500030040742
260,72,23007,2,0,L|338:79,1,78.7500030040742
212,219,23382,1,0,0:0:0:0:
158,89,23569,1,0,0:0:0:0:
308,172,23757,2,0,L|304:268,1,78.7500030040742
239,363,24132,6,0,P|285:332|410:364,1,157.500006008148
495,209,24741,2,0,B|491:204|494:207|487:191,2,19.6875007510186
495,209,24882,2,0,P|419:223|384:215,1,105
227,80,25632,6,0,P|245:117|261:261,1,183.75
261,256,29757,6,0,L|269:314,1,52.5
280,324,30132,6,0,L|156:319,1,105
88,158,30882,2,0,L|212:153,1,105
363,54,31632,1,0,0:0:0:0:
307,253,32007,1,0,0:0:0:0:
505,162,32382,2,0,L|386:175,1,105
467,82,32944,1,0,0:0:0:0:
464,262,33132,6,0,L|345:249,1,105
196,209,33882,2,0,P|214:272|219:326,1,105
8,170,34632,2,0,L|128:164,1,105
262,130,35194,1,0,0:0:0:0:
164,41,35382,2,0,L|176:104,1,52.5
334,198,35757,2,0,L|341:156,3,26.25
253,245,36132,5,0,0:0:0:0:
420,215,36319,1,0,0:0:0:0:
262,130,36507,1,0,0:0:0:0:
419,297,36882,6,0,P|411:244|413:224,1,52.5
508,180,37257,1,0,0:0:0:0:
397,109,37444,5,0,0:0:0:0:
397,109,37538,1,0,0:0:0:0:
397,109,37632,2,0,L|324:115,2,52.5
255,51,38194,1,0,0:0:0:0:
233,191,38382,2,0,L|306:197,2,52.5
339,269,38944,1,0,0:0:0:0:
189,125,39132,6,0,P|160:155|161:229,1,105
274,288,39694,1,0,0:0:0:0:
274,288,39788,1,0,0:0:0:0:
274,288,39882,2,0,L|335:283,1,39.3750015020371
313,284,40257,6,0,L|320:147,1,118.125004506111
365,55,40632,5,0,0:0:0:0:
285,62,40725,1,0,0:0:0:0:
204,69,40819,2,0,L|194:156,1,57.7500017623902
342,25,41007,5,0,0:0:0:0:
262,32,41100,1,0,0:0:0:0:
181,39,41194,2,0,L|171:126,1,57.7500017623902
274,253,41382,5,0,0:0:0:0:
310,268,41475,1,0,0:0:0:0:
350,270,41569,1,0,0:0:0:0:
388,258,41663,1,0,0:0:0:0:
410,186,41757,5,0,0:0:0:0:
348,144,41850,1,0,0:0:0:0:
273,153,41944,1,0,0:0:0:0:
218,205,42038,1,0,0:0:0:0:
208,279,42132,6,0,L|221:370,1,57.7500017623902
43,272,42319,5,0,0:0:0:0:
118,266,42413,1,0,0:0:0:0:
193,259,42507,2,0,L|180:350,1,57.7500017623902
360,253,42694,5,0,0:0:0:0:
285,247,42788,1,0,0:0:0:0:
210,240,42882,2,0,L|223:331,1,57.7500017623902
52,212,43069,5,0,0:0:0:0:
16,145,43163,1,0,0:0:0:0:
57,82,43257,6,0,L|141:91,1,57.7500017623902
337,195,43444,2,0,L|253:204,1,57.7500017623902
221,57,43632,5,0,0:0:0:0:
295,64,43725,1,0,0:0:0:0:
369,71,43819,2,0,L|377:151,1,57.7500017623902
242,33,44007,5,0,0:0:0:0:
316,40,44100,1,0,0:0:0:0:
390,47,44194,2,0,L|398:127,1,57.7500017623902
410,235,44382,5,0,0:0:0:0:
380,217,44475,1,0,0:0:0:0:
345,210,44569,1,0,0:0:0:0:
311,218,44663,1,0,0:0:0:0:
274,145,44757,5,0,0:0:0:0:
235,209,44850,1,0,0:0:0:0:
161,225,44944,1,0,0:0:0:0:
93,192,45038,1,0,0:0:0:0:
73,119,45132,6,0,L|79:45,1,57.7500017623902
213,28,45319,5,0,0:0:0:0:
266,80,45413,1,0,0:0:0:0:
291,150,45507,2,0,P|289:193|276:239,1,57.7500017623902
361,80,45694,5,0,0:0:0:0:
380,150,45788,1,0,0:0:0:0:
367,224,45882,2,0,P|343:260|309:293,1,57.7500017623902
129,314,46069,5,0,0:0:0:0:
185,264,46163,1,0,0:0:0:0:
257,285,46257,2,0,L|269:383,1,57.7500017623902
372,384,46444,2,0,L|379:326,1,57.7500017623902
468,205,46632,6,0,P|431:223|372:225,1,78.7500030040742
294,137,47007,1,0,0:0:0:0:
294,137,47382,2,0,P|308:205|306:233,1,78.7500030040742
221,313,47757,1,0,0:0:0:0:
221,313,48132,6,0,P|285:297|381:350,1,157.5
367,349,48882,2,0,P|356:290|360:253,1,78.7500030040742
462,168,49257,1,0,0:0:0:0:
493,301,49444,1,0,0:0:0:0:
277,177,49632,6,0,L|371:171,1,78.7500030040742
180,79,50007,2,0,B|161:82|147:77|147:77|137:79|137:79|130:76|130:76|110:71|86:76,1,78.7500030040742
257,191,50382,1,0,0:0:0:0:
277,48,50569,1,0,0:0:0:0:
141,174,50757,2,0,L|149:258,1,78.7500030040742
276,366,51132,6,0,L|283:196,1,157.500006008148
226,103,51694,1,0,0:0:0:0:
370,176,51882,2,0,L|373:269,1,78.7500030040742
341,373,52257,2,0,L|390:378,3,39.3750015020371
256,321,52632,6,0,L|157:330,1,94.499997116089
324,205,53007,1,0,0:0:0:0:
324,205,53382,6,0,L|339:309,1,94.499997116089
176,203,53757,1,0,0:0:0:0:
294,95,53944,5,0,0:0:0:0:
294,95,54038,1,0,0:0:0:0:
294,95,54132,2,0,P|351:98|414:84,1,94.499997116089
196,23,54507,1,0,0:0:0:0:
264,197,54694,1,0,0:0:0:0:
390,71,54882,6,0,P|333:68|270:82,1,94.499997116089
381,267,55257,2,0,P|427:273|474:269,1,94.499997116089
273,178,55632,6,0,P|299:264|275:365,1,188.999994232178
75,169,56194,1,0,0:0:0:0:
75,169,56288,1,0,0:0:0:0:
75,169,56382,2,0,L|189:161,1,94.499997116089
315,48,56757,2,0,L|201:40,1,94.499997116089
98,192,57132,6,0,L|226:184,1,105
387,168,57694,1,0,0:0:0:0:
283,71,57882,2,0,P|292:127|291:181,1,78.7500030040742
156,288,58257,1,0,0:0:0:0:
156,117,58444,1,0,0:0:0:0:
431,253,58632,6,0,P|381:286|274:273,1,157.5
276,270,59007,2,0,P|330:247|395:258,1,105
495,124,59382,5,0,0:0:0:0:
467,139,59475,1,0,0:0:0:0:
430,146,59569,1,0,0:0:0:0:
388,139,59663,1,0,0:0:0:0:
344,120,59757,1,0,0:0:0:0:
292,111,59850,1,0,0:0:0:0:
234,119,59944,1,0,0:0:0:0:
180,152,60038,1,0,0:0:0:0:
147,212,60132,6,0,P|136:278|156:376,1,157.5
141,379,60507,2,0,P|194:356|251:357,1,105
406,369,60788,5,0,0:0:0:0:
406,369,60882,1,0,0:0:0:0:
388,336,60975,1,0,0:0:0:0:
384,299,61069,1,0,0:0:0:0:
397,264,61163,1,0,0:0:0:0:
421,236,61257,2,0,L|493:241,1,52.5
286,166,61444,2,0,L|214:171,1,52.5
387,61,61632,6,0,L|412:235,1,157.5
421,236,62007,2,0,P|357:220|307:238,1,105
240,350,62382,1,0,0:0:0:0:
93,210,62569,5,0,0:0:0:0:
147,229,62663,1,0,0:0:0:0:
203,217,62757,1,0,0:0:0:0:
238,172,62850,1,0,0:0:0:0:
248,114,62944,1,0,0:0:0:0:
216,65,63038,1,0,0:0:0:0:
165,37,63132,6,0,L|57:45,1,105
238,172,63507,1,0,0:0:0:0:
287,5,63694,1,0,0:0:0:0:
131,165,63882,6,0,L|140:245,1,52.5
276,334,64069,2,0,L|281:281,1,52.5
58,207,64257,2,0,L|49:287,1,52.5
198,377,64444,2,0,L|192:324,1,52.5
131,165,64632,6,0,P|192:210|286:185,1,157.5
280,189,65007,2,0,P|268:130|274:59,1,105
388,45,65288,5,0,0:0:0:0:
388,45,65382,2,0,L|457:48,1,52.5
512,170,65569,1,0,0:0:0:0:
459,175,65663,1,0,0:0:0:0:
406,181,65757,1,0,0:0:0:0:
354,187,65850,1,0,0:0:0:0:
301,193,65944,2,0,L|294:276,1,52.5
207,366,66132,6,0,L|181:195,1,157.5
196,198,66507,2,0,P|138:225|66:215,1,105
201,65,66882,5,0,0:0:0:0:
231,60,66975,1,0,0:0:0:0:
262,64,67069,1,0,0:0:0:0:
292,71,67163,1,0,0:0:0:0:
318,87,67257,2,0,L|313:172,1,52.5
443,244,67444,2,0,L|439:191,1,52.5
235,165,67632,6,0,P|277:213|370:200,1,157.5
362,193,68007,2,0,P|340:250|349:309,1,105
505,188,68382,1,0,0:0:0:0:
412,83,68569,2,0,L|315:90,1,52.5
237,64,68757,5,0,0:0:0:0:
266,93,68850,1,0,0:0:0:0:
281,132,68944,1,0,0:0:0:0:
278,174,69038,1,0,0:0:0:0:
256,216,69132,6,0,L|145:213,1,78.7500030040742
162,237,69413,1,0,0:0:0:0:
162,237,69507,2,0,L|273:234,1,78.7500030040742
370,101,69882,6,0,L|481:98,1,78.7500030040742
464,122,70163,1,0,0:0:0:0:
464,122,70257,2,0,L|353:119,1,78.7500030040742
247,70,70632,6,0,P|262:126|263:167,1,78.7500030040742
263,146,70913,1,0,0:0:0:0:
263,146,71007,1,0,0:0:0:0:
155,206,71194,1,0,0:0:0:0:
341,216,71382,6,0,P|356:160|357:119,1,78.7500030040742
285,65,71663,1,0,0:0:0:0:
285,65,71757,2,0,L|228:70,1,39.3750015020371
461,100,71944,2,0,L|518:105,1,39.3750015020371
342,216,72132,6,0,L|243:209,1,78.75
229,235,72507,6,0,L|332:228,1,86.6250026435853
344,257,72882,6,0,L|236:252,1,94.499997116089
226,283,73257,6,0,L|328:276,1,102.374995313645
348,310,73632,6,0,L|236:303,1,110.249996635437
87,339,74007,2,0,L|80:304,1,36.749998878479
168,245,74194,2,0,L|160:280,1,36.749998878479
38,213,74382,6,0,L|106:216,3,36.749998878479
224,136,74757,2,0,L|156:139,3,36.749998878479
268,277,75132,6,0,L|295:279,3,24.4999992523194
256,192,75413,12,0,78507,0:0:0:0:
196,162,79632,6,0,P|208:207|212:269,1,105
87,247,80382,1,0,0:0:0:0:
320,199,80757,1,0,0:0:0:0:
184,334,81132,6,0,L|308:342,1,105
408,168,81882,2,0,L|284:176,1,105
440,364,82632,6,0,P|456:300|448:248,1,105
312,152,83382,1,0,0:0:0:0:
280,352,83757,1,0,0:0:0:0:
432,164,84132,6,0,L|320:176,1,105
280,256,84694,1,0,0:0:0:0:
280,256,84882,2,0,L|168:244,1,105
44,148,85538,5,0,0:0:0:0:
44,148,85585,1,0,0:0:0:0:
44,148,85632,2,0,L|120:140,1,52.5
168,53,86007,2,0,L|116:48,1,52.5
184,228,86382,5,0,0:0:0:0:
216,128,86569,1,0,0:0:0:0:
260,292,86757,5,0,0:0:0:0:
112,160,86944,1,0,0:0:0:0:
336,192,87132,6,0,L|260:200,1,52.5
120,304,87507,2,0,L|196:312,1,52.5
352,320,87882,5,0,0:0:0:0:
188,216,88069,1,0,0:0:0:0:
276,372,88257,5,0,0:0:0:0:
336,240,88444,1,0,0:0:0:0:
468,348,88632,6,0,L|364:340,3,105
348,340,90132,6,0,P|332:292|356:228,1,105
448,164,90694,1,0,0:0:0:0:
480,284,90882,2,0,L|404:288,1,52.5
336,256,91163,1,0,0:0:0:0:
324,232,91257,1,0,0:0:0:0:
320,208,91350,1,0,0:0:0:0:
324,180,91444,1,0,0:0:0:0:
336,156,91538,1,0,0:0:0:0:
356,140,91632,6,0,L|416:144,2,41.9999987182618
264,80,92007,2,0,L|204:84,2,41.9999987182618
128,168,92382,6,0,L|188:172,1,41.9999987182618
340,240,92632,2,0,L|280:244,1,41.9999987182618
136,184,92882,2,0,L|196:188,1,41.9999987182618
216,328,93132,6,0,L|200:248,2,41.9999987182618
348,198,93507,2,0,L|339:239,2,41.9999987182618
200,172,93882,6,0,L|184:92,2,41.9999987182618
332,42,94257,2,0,L|323:83,2,41.9999987182618
464,176,94632,5,0,0:0:0:0:
422,181,94757,1,0,0:0:0:0:
384,187,94882,1,0,0:0:0:0:
328,268,95007,5,0,0:0:0:0:
286,262,95132,1,0,0:0:0:0:
248,257,95257,1,0,0:0:0:0:
165,187,95382,5,0,0:0:0:0:
150,147,95507,1,0,0:0:0:0:
161,106,95632,1,0,0:0:0:0:
264,75,95757,6,0,L|320:67,2,41.9999987182618
207,187,96132,5,0,0:0:0:0:
165,187,96257,1,0,0:0:0:0:
123,187,96382,1,0,0:0:0:0:
10,164,96507,6,0,L|19:218,2,41.9999987182618
64,316,96882,6,0,P|120:300|180:304,2,83.9999974365235
236,196,97632,2,0,P|288:212|372:204,1,125.999996154785
358,207,98382,6,0,L|368:112,2,83.9999974365235
204,176,99132,2,0,L|220:304,1,125.999996154785
456,140,99882,2,0,P|416:116|332:108,1,125.999996154785
338,106,100632,5,0,0:0:0:0:
338,148,100757,1,0,0:0:0:0:
301,127,100882,1,0,0:0:0:0:
352,120,101007,5,0,0:0:0:0:
342,177,101132,1,0,0:0:0:0:
297,140,101257,1,0,0:0:0:0:
364,137,101382,5,0,0:0:0:0:
328,203,101507,1,0,0:0:0:0:
288,139,101632,1,0,0:0:0:0:
369,160,101757,5,0,0:0:0:0:
302,223,101882,1,0,0:0:0:0:
278,133,102007,1,0,0:0:0:0:
410,236,102132,5,0,0:0:0:0:
278,309,102257,2,0,L|271:346,2,20.9999993591309
369,160,102507,5,0,0:0:0:0:
362,325,102632,1,0,0:0:0:0:
222,239,102757,1,0,0:0:0:0:
457,217,102882,5,0,0:0:0:0:
281,117,103007,1,0,0:0:0:0:
278,309,103132,1,0,0:0:0:0:
381,136,103257,6,0,L|373:98,2,20.9999993591309
478,98,103444,2,0,L|486:60,2,20.9999993591309
398,17,103632,6,0,P|282:35|198:-1,1,210
90,228,104382,2,0,P|186:191|288:210,1,210
406,354,105132,6,0,P|395:291|421:201,1,140
434,205,105507,2,0,L|506:211,2,70
321,141,105882,2,0,L|237:146,1,70
102,125,106132,6,0,P|133:162|142:213,1,70
88,325,106382,2,0,P|104:279|144:246,1,70
276,235,106632,6,0,P|228:243|179:225,2,70
355,123,107007,2,0,L|345:47,2,70
454,233,107382,6,0,L|445:314,1,70
267,148,107632,1,0,0:0:0:0:
486,209,107757,6,0,L|493:278,1,70
267,148,108007,1,0,0:0:0:0:
490,95,108132,6,0,P|406:111|321:23,1,210
322,30,108757,1,0,0:0:0:0:
255,170,108882,2,0,L|242:80,2,70
382,248,109257,6,0,L|455:239,1,52.5
223,313,109444,2,0,L|150:304,1,52.5
321,384,109632,6,0,L|298:250,1,105
327,108,110007,5,0,0:0:0:0:
308,117,110100,1,0,0:0:0:0:
286,117,110194,1,0,0:0:0:0:
266,109,110288,1,0,0:0:0:0:
250,94,110382,5,0,0:0:0:0:
257,134,110475,1,0,0:0:0:0:
246,174,110569,1,0,0:0:0:0:
213,200,110663,1,0,0:0:0:0:
171,207,110757,6,0,L|92:197,1,52.5
245,318,110944,2,0,L|324:308,1,52.5
425,225,111132,5,0,0:0:0:0:
387,206,111225,1,0,0:0:0:0:
345,196,111319,1,0,0:0:0:0:
302,198,111413,1,0,0:0:0:0:
261,211,111507,1,0,0:0:0:0:
223,228,111600,1,0,0:0:0:0:
181,236,111694,1,0,0:0:0:0:
138,235,111788,1,0,0:0:0:0:
98,221,111882,6,0,L|83:129,1,52.5
217,55,112069,2,0,L|208:106,1,52.5
310,249,112257,6,0,L|295:157,1,52.5
429,83,112444,2,0,L|420:134,1,52.5
477,285,112632,6,0,P|414:255|322:266,1,157.500006008148
171,365,113382,2,0,P|172:300|151:191,1,157.500006008148
44,63,114132,6,0,P|87:84|151:90,1,105
143,90,115069,5,0,0:0:0:0:
113,2,115257,1,0,0:0:0:0:
44,63,115444,1,0,0:0:0:0:
249,187,115632,6,0,P|249:109|198:27,1,173.250005287171
190,35,116007,2,0,P|254:51|313:42,1,115.50000352478
427,174,116382,5,0,0:0:0:0:
396,190,116475,1,0,0:0:0:0:
411,227,116569,1,0,0:0:0:0:
456,232,116663,1,0,0:0:0:0:
493,195,116757,1,0,0:0:0:0:
489,138,116850,1,0,0:0:0:0:
436,103,116944,1,0,0:0:0:0:
361,125,117038,1,0,0:0:0:0:
345,198,117132,6,0,L|356:372,1,173.250005287171
370,370,117507,2,0,P|316:347|258:349,1,115.50000352478
101,226,117882,1,0,0:0:0:0:
141,247,117975,1,0,0:0:0:0:
187,252,118069,1,0,0:0:0:0:
230,237,118163,1,0,0:0:0:0:
265,207,118257,2,0,L|251:103,1,57.7500017623902
386,93,118444,2,0,L|378:150,1,57.7500017623902
335,295,118632,6,0,P|379:253|495:263,1,173.250005287171
506,272,119007,2,0,P|510:334|496:384,1,115.50000352478
255,282,119382,1,0,0:0:0:0:
405,174,119569,5,0,0:0:0:0:
456,137,119663,1,0,0:0:0:0:
472,76,119757,1,0,0:0:0:0:
444,19,119850,1,0,0:0:0:0:
383,0,119944,1,0,0:0:0:0:
325,28,120038,1,0,0:0:0:0:
299,86,120132,6,0,L|311:210,1,115.50000352478
176,300,120507,1,0,0:0:0:0:
200,191,120694,1,0,0:0:0:0:
286,380,120882,5,0,0:0:0:0:
262,271,121069,1,0,0:0:0:0:
133,378,121257,1,0,0:0:0:0:
393,318,121444,2,0,L|335:314,1,57.7500017623902
161,373,121632,6,0,P|177:280|149:207,1,173.250005287171
131,207,122007,2,0,P|196:231|252:218,1,115.50000352478
326,142,122288,5,0,0:0:0:0:
326,142,122382,2,0,L|316:71,1,57.7500017623902
506,218,122569,1,0,0:0:0:0:
449,206,122663,1,0,0:0:0:0:
395,228,122757,1,0,0:0:0:0:
370,279,122850,1,0,0:0:0:0:
382,335,122944,2,0,L|434:341,2,28.8750008811951
272,250,123132,6,0,B|183:225|181:296|71:250,1,173.250005287171
83,253,123507,2,0,P|107:317|107:366,1,115.50000352478
11,134,123882,5,0,0:0:0:0:
50,130,123975,1,0,0:0:0:0:
90,126,124069,1,0,0:0:0:0:
130,123,124163,1,0,0:0:0:0:
190,190,124257,5,0,0:0:0:0:
247,194,124350,1,0,0:0:0:0:
304,198,124444,2,0,L|311:251,2,28.8750008811951
412,297,124632,6,0,P|412:230|456:125,1,173.250005287171
468,125,125007,2,0,P|404:144|339:125,1,115.50000352478
139,242,125382,6,0,P|195:233|249:251,1,115.50000352478
380,374,125757,1,0,0:0:0:0:
371,317,125850,1,0,0:0:0:0:
362,259,125944,1,0,0:0:0:0:
353,201,126038,1,0,0:0:0:0:
346,144,126132,6,0,L|446:154,1,78.7500030040742
446,125,126413,1,0,0:0:0:0:
446,125,126507,2,0,L|346:135,1,78.7500030040742
231,218,126882,6,0,L|131:228,1,78.7500030040742
131,199,127163,1,0,0:0:0:0:
131,199,127257,2,0,L|231:209,1,78.7500030040742
355,314,127632,6,0,L|346:224,1,78.7500030040742
347,235,127913,1,0,0:0:0:0:
347,235,128007,1,0,0:0:0:0:
262,94,128194,1,0,0:0:0:0:
471,140,128382,6,0,L|377:138,1,78.7500030040742
271,177,128663,1,0,0:0:0:0:
271,177,128757,2,0,L|267:235,1,39.3750015020371
162,103,128944,2,0,L|159:63,1,39.3750015020371
44,232,129132,6,0,P|84:232|136:256,1,78.75
84,200,129507,6,0,P|121:213|164:260,1,86.6250026435853
132,176,129882,6,0,P|162:201|188:256,1,94.499997116089
184,168,130257,6,0,P|203:202|208:272,1,102.374995313645
240,172,130632,6,0,P|246:211|232:284,1,110.249996635437
332,368,131007,2,0,P|324:312|328:300,1,36.749998878479
432,296,131194,2,0,P|429:314|421:330,1,36.749998878479
320,248,131382,6,0,L|364:252,3,36.749998878479
468,196,131757,2,0,L|424:200,3,36.749998878479
293,160,132132,6,0,L|325:163,3,24.4999992523194
256,192,132413,12,0,136257,0:0:0:0:
