osu file format v14

[General]
AudioFilename: audio.mp3
AudioLeadIn: 0
PreviewTime: 115069
Countdown: 0
SampleSet: None
StackLeniency: 0.7
Mode: 0
LetterboxInBreaks: 0
WidescreenStoryboard: 1

[Editor]
Bookmarks: 58632,64444,100632
DistanceSpacing: 1
BeatDivisor: 4
GridSize: 4
TimelineZoom: 3.799999

[Metadata]
Title:carnation
TitleUnicode:carnation
Artist:AAAA
ArtistUnicode:ああああ
Creator:Ultima Fox
Version:Normal
Source:
Tags:
BeatmapID:1434823
BeatmapSetID:669582

[Difficulty]
HPDrainRate:3
CircleSize:3
OverallDifficulty:4
ApproachRate:5
SliderMultiplier:1.2
SliderTickRate:1

[Events]
//Background and Video events
0,0,"bgg.png",0,0
//Break Periods
//Storyboard Layer 0 (Background)
//Storyboard Layer 1 (Fail)
//Storyboard Layer 2 (Pass)
//Storyboard Layer 3 (Foreground)
//Storyboard Sound Samples

[TimingPoints]
132,375,4,2,1,26,1,0
58632,-100,4,2,1,26,0,1
69132,-100,4,2,1,26,0,0
72132,-100,4,2,1,20,0,0
115632,-100,4,2,1,20,0,1
126132,-100,4,2,1,20,0,0

[Colours]
Combo1 : 254,254,252
Combo2 : 253,250,189
Combo3 : 255,28,33
Combo4 : 109,130,135
SliderBorder : 255,255,255
SliderTrackOverride : 0,0,0

[HitObjects]
92,127,132,6,0,B|209:95|210:181|347:135,1,240
401,47,1257,1,0,0:0:0:0:
487,129,1632,2,0,L|484:262,2,120
401,47,2757,1,0,0:0:0:0:
327,142,3132,6,0,B|217:193|217:193|105:137,1,240
220,91,4257,1,0,0:0:0:0:
327,142,4632,2,0,P|343:253|304:322,1,180
258,332,5382,2,0,P|207:313|124:326,1,120
95,208,6132,6,0,P|154:213|210:194,1,120
304,119,6882,2,0,L|295:-5,2,120
405,183,8007,1,0,0:0:0:0:
300,244,8382,2,0,L|168:232,1,120
110,330,9132,6,0,L|348:352,1,240
447,284,10257,1,0,0:0:0:0:
348,214,10632,2,0,P|332:175|361:43,1,180
406,7,11382,2,0,P|352:28|271:27,1,120
199,109,12132,6,0,P|150:77|24:97,1,180
0,134,12882,2,0,L|11:261,1,120
99,333,13632,1,0,0:0:0:0:
176,244,14007,1,0,0:0:0:0:
270,317,14382,2,0,L|401:324,1,120
464,229,15132,6,0,P|455:156|460:99,1,120
355,47,15882,1,0,0:0:0:0:
280,140,16257,2,0,P|235:145|195:141,1,60
169,111,16632,2,0,P|192:158|188:248,1,120
115,315,17382,1,0,0:0:0:0:
231,343,17757,1,0,0:0:0:0:
194,224,18132,6,0,L|52:229,1,120
109,113,18882,2,0,L|251:118,1,120
341,76,19632,2,0,P|331:143|339:198,1,120
235,257,20382,2,0,P|241:197|232:138,1,120
124,86,21132,6,0,L|1:94,2,120
224,20,22257,2,0,L|288:25,1,60
343,28,22632,2,0,L|363:107,2,60
257,112,23382,2,0,L|237:191,2,60
359,175,24132,6,0,L|377:295,1,120
286,372,24882,2,0,P|231:373|172:258,1,180
256,192,25632,12,0,28257,0:0:0:0:
194,160,30132,6,0,L|69:149,2,120
291,90,31257,1,0,0:0:0:0:
289,209,31632,2,0,P|288:294|299:341,2,120
389,143,32757,2,0,L|462:148,1,60
506,131,33132,6,0,L|487:274,1,120
469,368,33882,2,0,P|416:344|346:343,1,120
302,232,34632,2,0,P|244:265|129:263,1,180
83,230,35382,2,0,L|80:110,1,120
104,55,35944,1,0,0:0:0:0:
152,19,36132,6,0,P|224:9|274:18,1,120
390,15,36882,2,0,P|413:70|418:136,1,120
339,220,37632,2,0,L|207:228,1,120
159,235,38194,1,0,0:0:0:0:
122,282,38382,2,0,L|117:356,2,60
64,176,39132,6,0,L|56:42,1,120
163,2,39882,1,0,0:0:0:0:
244,90,40257,1,0,0:0:0:0:
343,23,40632,6,0,L|423:29,2,60
257,107,41382,2,0,L|177:113,2,60
369,149,42132,6,0,P|377:180|377:217,1,60
330,244,42507,2,0,P|322:275|322:312,1,60
365,343,42882,2,0,L|441:338,2,60
251,381,43632,6,0,L|239:304,2,60
147,320,44382,2,0,L|159:243,2,60
59,238,45132,6,0,L|47:161,1,60
67,121,45507,2,0,P|111:113|140:120,1,60
182,135,45882,2,0,P|226:143|255:136,2,60
221,21,46632,5,0,0:0:0:0:
325,80,47007,1,0,0:0:0:0:
244,168,47382,2,0,L|113:158,1,120
11,118,48132,2,0,P|37:180|37:300,1,180
4,340,48882,2,0,P|49:316|117:316,1,120
209,239,49632,6,0,P|254:263|322:263,1,120
434,221,50382,2,0,L|443:84,1,120
348,25,51132,2,0,P|277:4|169:30,1,180
140,75,51882,2,0,P|131:139|136:212,1,120
160,311,52632,6,0,P|220:298|294:313,1,120
346,208,53382,2,0,P|286:216|228:203,1,120
163,102,54132,1,0,0:0:0:0:
85,193,54507,2,0,L|88:263,2,60
196,240,55257,2,0,L|193:310,1,60
223,351,55632,6,0,P|287:371|363:355,1,120
425,281,56382,2,0,L|420:153,1,120
416,40,57132,2,0,P|376:70|245:61,1,180
202,29,57882,2,0,P|142:14|74:33,1,120
3,113,58632,6,0,L|16:250,1,120
109,305,59382,2,0,L|103:386,2,60
196,221,60132,6,0,P|254:205|323:223,1,120
423,261,60882,2,0,P|462:268|489:264,2,60
367,154,61632,6,0,B|378:94|378:94|360:19,1,120
311,7,62194,1,0,0:0:0:0:
252,0,62382,2,0,L|166:6,1,60
146,43,62757,2,0,L|60:37,1,60
32,11,63132,5,0,0:0:0:0:
79,121,63507,1,0,0:0:0:0:
3,214,63882,2,0,L|18:336,1,120
69,363,64444,1,0,0:0:0:0:
127,376,64632,6,0,P|181:384|251:364,1,120
336,292,65382,2,0,P|376:284|416:292,2,60
224,256,66132,6,0,P|228:200|216:116,1,120
111,87,66882,2,0,L|42:94,2,60
211,20,67632,6,0,L|347:27,1,120
449,9,68382,2,0,P|434:67|434:150,1,120
486,234,69132,6,0,L|358:241,1,120
296,142,69882,2,0,L|424:149,1,120
475,253,70632,6,0,L|347:260,1,120
299,236,71194,1,0,0:0:0:0:
243,211,71382,2,0,L|115:204,1,120
4,221,72132,6,0,P|1:273|11:362,2,120
68,119,73257,1,0,0:0:0:0:
163,191,73632,2,0,P|212:211|289:202,1,120
293,87,74382,2,0,P|244:67|167:76,1,120
256,192,75132,12,0,78507,0:0:0:0:
24,268,79632,6,0,P|53:219|227:218,1,240
285,310,80757,1,0,0:0:0:0:
370,225,81132,2,0,L|377:90,1,120
265,59,81882,2,0,L|271:178,1,120
197,273,82632,6,0,P|151:306|18:207,1,240
83,119,83757,1,0,0:0:0:0:
186,179,84132,2,0,L|381:191,1,180
424,176,84882,2,0,P|402:238|404:303,1,120
303,361,85632,6,0,P|296:296|272:243,1,120
163,200,86382,2,0,L|99:202,2,60
253,121,87132,6,0,L|382:129,1,120
490,103,87882,2,0,P|474:166|474:234,1,120
508,335,88632,5,0,0:0:0:0:
400,280,89007,1,0,0:0:0:0:
296,341,89382,1,0,0:0:0:0:
191,282,89757,1,0,0:0:0:0:
83,335,90132,6,0,L|63:135,1,180
87,99,90882,2,0,P|133:85|224:83,1,120
324,100,91632,6,0,P|302:189|303:237,1,120
221,306,92382,2,0,P|195:251|182:193,1,120
173,73,93132,6,0,P|227:88|295:86,2,120
76,1,94257,1,0,0:0:0:0:
16,105,94632,6,0,L|25:235,1,120
125,289,95382,2,0,L|133:169,1,120
198,68,96132,6,0,P|262:47|331:61,1,120
433,52,96882,2,0,P|414:130|414:195,1,120
312,237,97632,6,0,P|331:315|331:380,2,120
202,186,98757,1,0,0:0:0:0:
298,115,99132,6,0,L|429:126,1,120
367,15,99882,2,0,L|247:4,1,120
127,13,100632,6,0,P|101:54|96:146,1,120
144,232,101382,2,0,P|173:270|258:306,1,120,0|0,2:0|2:0,2:0:0:0:
355,289,102132,6,0,L|369:161,1,120
288,79,102882,2,0,L|288:9,2,60
201,162,103632,6,0,P|157:178|63:161,1,120
75,51,104382,2,0,P|119:35|213:52,1,120
298,95,105132,6,0,L|289:234,2,120
393,12,106257,1,0,0:0:0:0:
398,131,106632,6,0,L|407:270,1,120
316,331,107382,2,0,P|256:345|180:324,1,120
116,247,108132,6,0,L|135:65,1,180
176,24,108882,2,0,P|220:13|304:27,1,120
372,112,109632,5,0,0:0:0:0:
280,189,110007,2,0,L|213:180,2,60
367,271,110757,2,0,L|434:262,2,60
270,343,111507,6,0,L|203:334,1,60
154,357,111882,2,0,P|167:289|146:219,1,120
121,125,112632,6,0,B|292:192|292:76|483:132,1,360
507,244,114132,1,0,0:0:0:0:
507,244,115069,6,0,L|501:314,2,60
481,189,115632,2,0,P|438:165|360:169,1,120
281,248,116382,2,0,L|292:324,2,60
178,185,117132,6,0,P|185:112|181:39,1,120
67,34,117882,2,0,L|5:41,2,60
186,35,118632,6,0,L|316:45,1,120
365,37,119194,1,0,0:0:0:0:
391,90,119382,2,0,L|401:155,1,60
347,177,119757,2,0,L|337:242,1,60
370,287,120132,5,0,0:0:0:0:
274,359,120507,1,0,0:0:0:0:
208,258,120882,2,0,L|202:127,1,120
224,82,121444,1,0,0:0:0:0:
270,44,121632,6,0,P|328:36|391:46,1,120
481,120,122382,2,0,P|491:159|488:198,1,60
440,210,122757,2,0,P|422:246|395:274,1,60
349,258,123132,6,0,P|292:274|206:259,1,120
170,165,123882,2,0,L|176:100,2,60
75,238,124632,6,0,L|83:373,1,120
189,304,125382,1,0,0:0:0:0:
279,383,125757,1,0,0:0:0:0:
345,283,126132,6,0,L|349:158,1,120
239,112,126882,2,0,L|242:231,1,120
358,263,127632,6,0,L|362:138,1,120
335,88,128194,1,0,0:0:0:0:
284,55,128382,2,0,P|237:47|159:58,1,120
81,140,129132,6,0,L|75:266,2,120
182,75,130257,1,0,0:0:0:0:
260,165,130632,2,0,P|317:197|391:183,1,120
400,77,131382,2,0,P|343:45|269:59,1,120
256,192,132132,12,0,136163,0:0:0:0:
