osu file format v14

[General]
AudioFilename: audio.mp3
AudioLeadIn: 0
PreviewTime: 57905
Countdown: 0
SampleSet: Soft
StackLeniency: 0.7
Mode: 3
LetterboxInBreaks: 0
SpecialStyle: 0
WidescreenStoryboard: 1

[Editor]
DistanceSpacing: 0.6
BeatDivisor: 4
GridSize: 32
TimelineZoom: 1.6

[Metadata]
Title:carnation
TitleUnicode:carnation
Artist:AAAA
ArtistUnicode:ああああ
Creator:Touru0711
Version:Normal
Source:BMS衆議院選
Tags:electronic dirge japan セーブデータとほうき星 Savedata to Houkiboshi stardusts in my memorycard bms_shuin piano classical instrumental rhythm video game music vgm
BeatmapID:2910107
BeatmapSetID:1410399

[Difficulty]
HPDrainRate:7
CircleSize:6
OverallDifficulty:6.8
ApproachRate:5
SliderMultiplier:1.4
SliderTickRate:1

[Events]
//Background and Video events
0,0,"background.jpg",0,0
//Break Periods
//Storyboard Layer 0 (Background)
//Storyboard Layer 1 (Fail)
//Storyboard Layer 2 (Pass)
//Storyboard Layer 3 (Foreground)
//Storyboard Layer 4 (Overlay)
//Storyboard Sound Samples

[TimingPoints]
155,375,4,2,1,50,1,0
58655,-100,4,2,1,50,0,1
75905,-100,4,2,1,50,0,0
115655,-100,4,2,1,50,0,1
132905,-100,4,2,1,50,0,0

[HitObjects]
42,192,155,5,0,0:0:0:0:
298,192,155,1,0,0:0:0:0:
128,192,530,1,0,0:0:0:0:
213,192,905,1,0,0:0:0:0:
298,192,905,1,0,0:0:0:0:
469,192,1280,1,0,0:0:0:0:
298,192,1655,1,0,0:0:0:0:
384,192,1655,1,0,0:0:0:0:
128,192,2030,1,0,0:0:0:0:
213,192,2030,1,0,0:0:0:0:
128,192,2405,1,0,0:0:0:0:
384,192,2405,1,0,0:0:0:0:
213,192,2780,1,0,0:0:0:0:
298,192,3155,1,0,0:0:0:0:
42,192,3155,1,0,0:0:0:0:
128,192,3530,1,0,0:0:0:0:
213,192,3905,1,0,0:0:0:0:
298,192,3905,1,0,0:0:0:0:
42,192,4280,1,0,0:0:0:0:
469,192,4280,1,0,0:0:0:0:
213,192,4655,1,0,0:0:0:0:
469,192,4655,1,0,0:0:0:0:
42,192,5030,1,0,0:0:0:0:
128,192,5030,1,0,0:0:0:0:
384,192,5217,1,0,0:0:0:0:
384,192,5405,1,0,0:0:0:0:
213,192,5405,1,0,0:0:0:0:
384,192,6155,1,0,0:0:0:0:
469,192,6155,1,0,0:0:0:0:
213,192,6530,1,0,0:0:0:0:
384,192,6905,1,0,0:0:0:0:
469,192,6905,1,0,0:0:0:0:
213,192,7280,1,0,0:0:0:0:
298,192,7280,1,0,0:0:0:0:
469,192,7655,1,0,0:0:0:0:
42,192,7655,1,0,0:0:0:0:
128,192,8030,1,0,0:0:0:0:
213,192,8030,1,0,0:0:0:0:
42,192,8405,1,0,0:0:0:0:
298,192,8405,1,0,0:0:0:0:
213,192,8780,1,0,0:0:0:0:
469,192,8780,1,0,0:0:0:0:
298,192,9155,1,0,0:0:0:0:
384,192,9155,1,0,0:0:0:0:
42,192,9155,1,0,0:0:0:0:
213,192,9530,1,0,0:0:0:0:
298,192,9905,1,0,0:0:0:0:
128,192,9905,1,0,0:0:0:0:
469,192,10280,1,0,0:0:0:0:
213,192,10655,1,0,0:0:0:0:
384,192,10655,1,0,0:0:0:0:
42,192,10842,1,0,0:0:0:0:
128,192,11030,1,0,0:0:0:0:
469,192,11217,1,0,0:0:0:0:
298,192,11405,1,0,0:0:0:0:
213,192,11405,1,0,0:0:0:0:
384,192,11592,128,0,11780:0:0:0:0:
298,192,11780,128,0,11967:0:0:0:0:
213,192,11967,128,0,12155:0:0:0:0:
469,192,12155,1,0,0:0:0:0:
42,192,12155,1,0,0:0:0:0:
128,192,12155,1,0,0:0:0:0:
298,192,12342,1,0,0:0:0:0:
384,192,12530,1,0,0:0:0:0:
469,192,12717,128,0,12905:0:0:0:0:
42,192,12905,1,0,0:0:0:0:
128,192,12905,1,0,0:0:0:0:
213,192,13092,1,0,0:0:0:0:
298,192,13280,1,0,0:0:0:0:
384,192,13280,1,0,0:0:0:0:
42,192,13655,1,0,0:0:0:0:
469,192,13655,1,0,0:0:0:0:
128,192,13842,1,0,0:0:0:0:
298,192,14030,1,0,0:0:0:0:
469,192,14217,1,0,0:0:0:0:
213,192,14217,1,0,0:0:0:0:
128,192,14405,1,0,0:0:0:0:
384,192,14405,1,0,0:0:0:0:
298,192,14686,1,0,0:0:0:0:
42,192,14780,1,0,0:0:0:0:
384,192,15155,1,0,0:0:0:0:
469,192,15155,1,0,0:0:0:0:
213,192,15530,128,0,15717:0:0:0:0:
298,192,15717,128,0,15905:0:0:0:0:
469,192,15905,1,0,0:0:0:0:
42,192,15905,1,0,0:0:0:0:
384,192,16092,128,0,16280:0:0:0:0:
298,192,16280,128,0,16467:0:0:0:0:
213,192,16467,128,0,16655:0:0:0:0:
42,192,16655,1,0,0:0:0:0:
128,192,16655,1,0,0:0:0:0:
384,192,16842,1,0,0:0:0:0:
469,192,16842,1,0,0:0:0:0:
213,192,17030,1,0,0:0:0:0:
298,192,17030,1,0,0:0:0:0:
42,192,17217,1,0,0:0:0:0:
128,192,17217,1,0,0:0:0:0:
213,192,17405,1,0,0:0:0:0:
469,192,17405,1,0,0:0:0:0:
384,192,17686,1,0,0:0:0:0:
128,192,17780,1,0,0:0:0:0:
213,192,17967,128,0,18155:0:0:0:0:
469,192,18155,1,0,0:0:0:0:
42,192,18155,1,0,0:0:0:0:
213,192,18436,1,0,0:0:0:0:
298,192,18530,1,0,0:0:0:0:
384,192,18717,1,0,0:0:0:0:
469,192,18717,1,0,0:0:0:0:
128,192,18905,1,0,0:0:0:0:
42,192,18905,1,0,0:0:0:0:
298,192,19092,128,0,19280:0:0:0:0:
213,192,19280,128,0,19467:0:0:0:0:
469,192,19467,128,0,19655:0:0:0:0:
384,192,19655,1,0,0:0:0:0:
128,192,19655,1,0,0:0:0:0:
298,192,20030,1,0,0:0:0:0:
213,192,20030,1,0,0:0:0:0:
384,192,20217,1,0,0:0:0:0:
469,192,20405,1,0,0:0:0:0:
128,192,20592,1,0,0:0:0:0:
42,192,20780,1,0,0:0:0:0:
298,192,20780,1,0,0:0:0:0:
384,192,21155,1,0,0:0:0:0:
469,192,21155,1,0,0:0:0:0:
128,192,21342,1,0,0:0:0:0:
298,192,21530,1,0,0:0:0:0:
213,192,21717,1,0,0:0:0:0:
42,192,21905,1,0,0:0:0:0:
469,192,21905,1,0,0:0:0:0:
128,192,22280,1,0,0:0:0:0:
213,192,22467,1,0,0:0:0:0:
42,192,22655,1,0,0:0:0:0:
469,192,22655,1,0,0:0:0:0:
384,192,22842,1,0,0:0:0:0:
213,192,23030,1,0,0:0:0:0:
298,192,23217,1,0,0:0:0:0:
42,192,23405,1,0,0:0:0:0:
384,192,23405,1,0,0:0:0:0:
298,192,23592,1,0,0:0:0:0:
128,192,23780,1,0,0:0:0:0:
213,192,23967,1,0,0:0:0:0:
298,192,24155,1,0,0:0:0:0:
469,192,24155,1,0,0:0:0:0:
42,192,24155,1,0,0:0:0:0:
128,192,24530,1,0,0:0:0:0:
213,192,24717,128,0,24905:0:0:0:0:
298,192,24905,1,0,0:0:0:0:
384,192,24905,1,0,0:0:0:0:
42,192,25092,1,0,0:0:0:0:
213,192,25280,1,0,0:0:0:0:
298,192,25467,1,0,0:0:0:0:
469,192,25655,1,0,0:0:0:0:
42,192,25655,128,0,28280:0:0:0:0:
213,192,29780,1,0,0:0:0:0:
298,192,29967,1,0,0:0:0:0:
384,192,30155,1,0,0:0:0:0:
128,192,30155,1,0,0:0:0:0:
213,192,30342,1,0,0:0:0:0:
298,192,30530,1,0,0:0:0:0:
469,192,30530,1,0,0:0:0:0:
213,192,30905,1,0,0:0:0:0:
384,192,30905,1,0,0:0:0:0:
128,192,31280,1,0,0:0:0:0:
298,192,31280,1,0,0:0:0:0:
42,192,31655,1,0,0:0:0:0:
469,192,31655,1,0,0:0:0:0:
128,192,31842,1,0,0:0:0:0:
384,192,32030,1,0,0:0:0:0:
298,192,32217,1,0,0:0:0:0:
213,192,32405,1,0,0:0:0:0:
469,192,32405,1,0,0:0:0:0:
384,192,32780,1,0,0:0:0:0:
298,192,32967,1,0,0:0:0:0:
42,192,33155,1,0,0:0:0:0:
128,192,33155,1,0,0:0:0:0:
213,192,33342,1,0,0:0:0:0:
384,192,33530,1,0,0:0:0:0:
469,192,33530,1,0,0:0:0:0:
213,192,33905,1,0,0:0:0:0:
298,192,33905,1,0,0:0:0:0:
128,192,34280,1,0,0:0:0:0:
42,192,34280,1,0,0:0:0:0:
384,192,34467,1,0,0:0:0:0:
213,192,34655,1,0,0:0:0:0:
469,192,34655,1,0,0:0:0:0:
298,192,34842,1,0,0:0:0:0:
128,192,35030,1,0,0:0:0:0:
384,192,35030,1,0,0:0:0:0:
469,192,35217,1,0,0:0:0:0:
213,192,35405,1,0,0:0:0:0:
298,192,35405,1,0,0:0:0:0:
384,192,35780,128,0,35967:0:0:0:0:
298,192,35967,128,0,36155:0:0:0:0:
128,192,36155,1,0,0:0:0:0:
42,192,36155,1,0,0:0:0:0:
213,192,36342,1,0,0:0:0:0:
469,192,36342,1,0,0:0:0:0:
298,192,36530,1,0,0:0:0:0:
384,192,36530,1,0,0:0:0:0:
213,192,36905,1,0,0:0:0:0:
128,192,36905,1,0,0:0:0:0:
42,192,37280,1,0,0:0:0:0:
469,192,37280,1,0,0:0:0:0:
298,192,37467,128,0,37655:0:0:0:0:
213,192,37655,1,0,0:0:0:0:
128,192,37655,1,0,0:0:0:0:
298,192,38030,1,0,0:0:0:0:
213,192,38030,1,0,0:0:0:0:
384,192,38217,1,0,0:0:0:0:
469,192,38405,1,0,0:0:0:0:
42,192,38405,1,0,0:0:0:0:
298,192,38592,1,0,0:0:0:0:
213,192,38780,1,0,0:0:0:0:
128,192,38780,1,0,0:0:0:0:
384,192,38967,1,0,0:0:0:0:
42,192,39155,1,0,0:0:0:0:
298,192,39155,1,0,0:0:0:0:
213,192,39530,1,0,0:0:0:0:
384,192,39530,1,0,0:0:0:0:
469,192,39717,128,0,39905:0:0:0:0:
128,192,39905,1,0,0:0:0:0:
298,192,39905,1,0,0:0:0:0:
42,192,40280,1,0,0:0:0:0:
213,192,40280,1,0,0:0:0:0:
469,192,40280,1,0,0:0:0:0:
42,192,40655,128,0,40842:0:0:0:0:
128,192,40655,1,0,0:0:0:0:
298,192,40842,128,0,41030:0:0:0:0:
128,192,41030,128,0,41217:0:0:0:0:
213,192,41030,1,0,0:0:0:0:
384,192,41217,128,0,41405:0:0:0:0:
213,192,41405,128,0,41592:0:0:0:0:
298,192,41405,1,0,0:0:0:0:
469,192,41592,128,0,41780:0:0:0:0:
42,192,41780,128,0,42155:0:0:0:0:
128,192,41780,1,0,0:0:0:0:
213,192,42155,128,0,42342:0:0:0:0:
384,192,42155,1,0,0:0:0:0:
469,192,42342,128,0,42530:0:0:0:0:
128,192,42530,128,0,42717:0:0:0:0:
298,192,42530,1,0,0:0:0:0:
384,192,42717,128,0,42905:0:0:0:0:
42,192,42905,128,0,43092:0:0:0:0:
213,192,42905,1,0,0:0:0:0:
298,192,43092,128,0,43280:0:0:0:0:
128,192,43280,1,0,0:0:0:0:
469,192,43280,128,0,43655:0:0:0:0:
42,192,43655,128,0,43842:0:0:0:0:
298,192,43655,1,0,0:0:0:0:
213,192,43842,128,0,44030:0:0:0:0:
128,192,44030,128,0,44217:0:0:0:0:
384,192,44030,1,0,0:0:0:0:
298,192,44217,128,0,44405:0:0:0:0:
213,192,44405,128,0,44592:0:0:0:0:
469,192,44405,1,0,0:0:0:0:
384,192,44592,128,0,44780:0:0:0:0:
469,192,44780,128,0,45155:0:0:0:0:
42,192,44780,1,0,0:0:0:0:
213,192,45155,128,0,45342:0:0:0:0:
298,192,45155,1,0,0:0:0:0:
469,192,45342,128,0,45530:0:0:0:0:
128,192,45530,128,0,45717:0:0:0:0:
213,192,45530,1,0,0:0:0:0:
384,192,45717,128,0,45905:0:0:0:0:
42,192,45905,128,0,46092:0:0:0:0:
128,192,45905,1,0,0:0:0:0:
298,192,46092,128,0,46280:0:0:0:0:
384,192,46280,1,0,0:0:0:0:
469,192,46280,128,0,46655:0:0:0:0:
128,192,46655,1,0,0:0:0:0:
42,192,46655,1,0,0:0:0:0:
384,192,47030,1,0,0:0:0:0:
469,192,47030,1,0,0:0:0:0:
298,192,47405,1,0,0:0:0:0:
384,192,47405,1,0,0:0:0:0:
128,192,47592,1,0,0:0:0:0:
213,192,47780,1,0,0:0:0:0:
298,192,47780,1,0,0:0:0:0:
128,192,48155,1,0,0:0:0:0:
213,192,48155,1,0,0:0:0:0:
42,192,48342,1,0,0:0:0:0:
384,192,48530,1,0,0:0:0:0:
298,192,48717,1,0,0:0:0:0:
213,192,48905,1,0,0:0:0:0:
469,192,48905,1,0,0:0:0:0:
384,192,49280,1,0,0:0:0:0:
298,192,49467,1,0,0:0:0:0:
42,192,49655,1,0,0:0:0:0:
469,192,49655,1,0,0:0:0:0:
128,192,49842,1,0,0:0:0:0:
213,192,50030,1,0,0:0:0:0:
298,192,50030,1,0,0:0:0:0:
384,192,50217,1,0,0:0:0:0:
469,192,50405,1,0,0:0:0:0:
42,192,50405,1,0,0:0:0:0:
298,192,50592,1,0,0:0:0:0:
213,192,50780,1,0,0:0:0:0:
128,192,50967,1,0,0:0:0:0:
42,192,51155,1,0,0:0:0:0:
384,192,51155,1,0,0:0:0:0:
298,192,51530,1,0,0:0:0:0:
469,192,51717,1,0,0:0:0:0:
128,192,51905,1,0,0:0:0:0:
384,192,51905,1,0,0:0:0:0:
298,192,52092,1,0,0:0:0:0:
42,192,52280,128,0,52467:0:0:0:0:
213,192,52467,128,0,52655:0:0:0:0:
384,192,52655,1,0,0:0:0:0:
469,192,52655,1,0,0:0:0:0:
42,192,52842,1,0,0:0:0:0:
128,192,52842,1,0,0:0:0:0:
213,192,53030,1,0,0:0:0:0:
298,192,53030,1,0,0:0:0:0:
128,192,53405,1,0,0:0:0:0:
384,192,53405,1,0,0:0:0:0:
42,192,53780,1,0,0:0:0:0:
298,192,53780,1,0,0:0:0:0:
469,192,53967,128,0,54155:0:0:0:0:
128,192,54155,1,0,0:0:0:0:
213,192,54155,1,0,0:0:0:0:
42,192,54530,1,0,0:0:0:0:
128,192,54717,1,0,0:0:0:0:
213,192,54905,1,0,0:0:0:0:
469,192,54905,1,0,0:0:0:0:
384,192,55092,1,0,0:0:0:0:
128,192,55280,1,0,0:0:0:0:
213,192,55467,1,0,0:0:0:0:
42,192,55655,1,0,0:0:0:0:
298,192,55655,1,0,0:0:0:0:
384,192,55842,1,0,0:0:0:0:
213,192,56030,1,0,0:0:0:0:
469,192,56030,1,0,0:0:0:0:
298,192,56217,128,0,56405:0:0:0:0:
42,192,56405,1,0,0:0:0:0:
128,192,56405,1,0,0:0:0:0:
213,192,56780,1,0,0:0:0:0:
298,192,56780,1,0,0:0:0:0:
384,192,56967,1,0,0:0:0:0:
469,192,57155,1,0,0:0:0:0:
42,192,57155,1,0,0:0:0:0:
128,192,57342,1,0,0:0:0:0:
213,192,57530,1,0,0:0:0:0:
298,192,57717,1,0,0:0:0:0:
298,192,57905,1,0,0:0:0:0:
42,192,57905,1,0,0:0:0:0:
128,192,58092,1,0,0:0:0:0:
384,192,58092,1,0,0:0:0:0:
213,192,58280,1,0,0:0:0:0:
469,192,58280,1,0,0:0:0:0:
42,192,58467,1,0,0:0:0:0:
384,192,58467,1,0,0:0:0:0:
128,192,58655,1,0,0:0:0:0:
298,192,58655,1,0,0:0:0:0:
384,192,58936,1,0,0:0:0:0:
128,192,59030,1,0,0:0:0:0:
298,192,59217,128,0,59405:0:0:0:0:
469,192,59405,128,0,59592:0:0:0:0:
42,192,59592,128,0,59780:0:0:0:0:
213,192,59780,128,0,59967:0:0:0:0:
384,192,59967,128,0,60155:0:0:0:0:
42,192,60155,1,0,0:0:0:0:
469,192,60155,1,0,0:0:0:0:
298,192,60436,1,0,0:0:0:0:
128,192,60530,1,0,0:0:0:0:
213,192,60717,128,0,60905:0:0:0:0:
298,192,60905,128,0,61092:0:0:0:0:
384,192,61092,128,0,61280:0:0:0:0:
128,192,61280,128,0,61467:0:0:0:0:
213,192,61467,128,0,61655:0:0:0:0:
42,192,61655,1,0,0:0:0:0:
469,192,61655,1,0,0:0:0:0:
298,192,61936,1,0,0:0:0:0:
213,192,62030,1,0,0:0:0:0:
469,192,62217,128,0,62405:0:0:0:0:
213,192,62405,1,0,0:0:0:0:
128,192,62405,1,0,0:0:0:0:
42,192,62592,128,0,62780:0:0:0:0:
298,192,62780,128,0,62967:0:0:0:0:
213,192,62967,128,0,63155:0:0:0:0:
384,192,63155,1,0,0:0:0:0:
298,192,63530,1,0,0:0:0:0:
384,192,63717,1,0,0:0:0:0:
469,192,63905,1,0,0:0:0:0:
128,192,64092,1,0,0:0:0:0:
213,192,64280,1,0,0:0:0:0:
384,192,64467,1,0,0:0:0:0:
298,192,64467,1,0,0:0:0:0:
42,192,64655,1,0,0:0:0:0:
469,192,64655,1,0,0:0:0:0:
213,192,64936,1,0,0:0:0:0:
384,192,65030,1,0,0:0:0:0:
42,192,65217,128,0,65405:0:0:0:0:
469,192,65405,128,0,65592:0:0:0:0:
213,192,65592,128,0,65780:0:0:0:0:
298,192,65780,128,0,65967:0:0:0:0:
384,192,65967,128,0,66155:0:0:0:0:
42,192,66155,1,0,0:0:0:0:
469,192,66155,1,0,0:0:0:0:
213,192,66436,1,0,0:0:0:0:
298,192,66530,1,0,0:0:0:0:
469,192,66717,128,0,66905:0:0:0:0:
128,192,66905,128,0,67092:0:0:0:0:
384,192,67092,128,0,67280:0:0:0:0:
42,192,67280,128,0,67467:0:0:0:0:
298,192,67467,128,0,67655:0:0:0:0:
469,192,67655,1,0,0:0:0:0:
384,192,67655,1,0,0:0:0:0:
128,192,67936,1,0,0:0:0:0:
298,192,68030,1,0,0:0:0:0:
213,192,68217,1,0,0:0:0:0:
42,192,68405,128,0,68780:0:0:0:0:
469,192,68780,128,0,68967:0:0:0:0:
384,192,68967,128,0,69155:0:0:0:0:
42,192,69155,1,0,0:0:0:0:
213,192,69342,128,0,69530:0:0:0:0:
469,192,69530,1,0,0:0:0:0:
298,192,69717,128,0,69905:0:0:0:0:
42,192,69905,1,0,0:0:0:0:
213,192,70092,128,0,70280:0:0:0:0:
469,192,70280,1,0,0:0:0:0:
298,192,70467,128,0,70655:0:0:0:0:
42,192,70655,1,0,0:0:0:0:
128,192,70655,128,0,70842:0:0:0:0:
213,192,70842,128,0,71030:0:0:0:0:
384,192,71030,1,0,0:0:0:0:
298,192,71217,1,0,0:0:0:0:
213,192,71405,1,0,0:0:0:0:
128,192,71405,1,0,0:0:0:0:
298,192,71780,128,0,71967:0:0:0:0:
213,192,71967,128,0,72155:0:0:0:0:
469,192,72155,128,0,72530:0:0:0:0:
42,192,72530,128,0,72905:0:0:0:0:
384,192,72905,128,0,73280:0:0:0:0:
128,192,73280,128,0,73655:0:0:0:0:
469,192,73655,128,0,74030:0:0:0:0:
298,192,74030,128,0,74405:0:0:0:0:
469,192,74405,128,0,75155:0:0:0:0:
213,192,74780,128,0,75155:0:0:0:0:
42,192,75155,128,0,75342:0:0:0:0:
298,192,75342,1,0,0:0:0:0:
213,192,75905,128,0,76092:0:0:0:0:
469,192,76092,128,0,78530:0:0:0:0:
42,192,76748,128,0,78530:0:0:0:0:
213,192,79655,1,0,0:0:0:0:
298,192,79655,1,0,0:0:0:0:
42,192,80030,1,0,0:0:0:0:
384,192,80405,1,0,0:0:0:0:
469,192,80405,1,0,0:0:0:0:
213,192,80780,1,0,0:0:0:0:
298,192,80780,1,0,0:0:0:0:
128,192,81155,1,0,0:0:0:0:
469,192,81155,1,0,0:0:0:0:
213,192,81530,1,0,0:0:0:0:
384,192,81530,1,0,0:0:0:0:
42,192,81905,1,0,0:0:0:0:
128,192,81905,1,0,0:0:0:0:
213,192,82280,1,0,0:0:0:0:
298,192,82280,1,0,0:0:0:0:
128,192,82655,1,0,0:0:0:0:
384,192,82655,1,0,0:0:0:0:
213,192,83030,1,0,0:0:0:0:
298,192,83405,1,0,0:0:0:0:
384,192,83405,1,0,0:0:0:0:
128,192,83780,1,0,0:0:0:0:
469,192,83780,1,0,0:0:0:0:
42,192,84155,1,0,0:0:0:0:
469,192,84155,1,0,0:0:0:0:
213,192,84530,1,0,0:0:0:0:
384,192,84717,1,0,0:0:0:0:
384,192,84905,1,0,0:0:0:0:
128,192,84905,1,0,0:0:0:0:
298,192,85280,1,0,0:0:0:0:
42,192,85655,1,0,0:0:0:0:
469,192,85655,1,0,0:0:0:0:
128,192,85842,1,0,0:0:0:0:
213,192,86030,1,0,0:0:0:0:
298,192,86217,1,0,0:0:0:0:
384,192,86405,1,0,0:0:0:0:
469,192,86405,1,0,0:0:0:0:
128,192,86592,1,0,0:0:0:0:
213,192,86780,1,0,0:0:0:0:
298,192,86780,1,0,0:0:0:0:
42,192,86967,1,0,0:0:0:0:
128,192,87155,1,0,0:0:0:0:
469,192,87155,1,0,0:0:0:0:
213,192,87342,1,0,0:0:0:0:
298,192,87530,1,0,0:0:0:0:
384,192,87530,1,0,0:0:0:0:
469,192,87717,1,0,0:0:0:0:
42,192,87905,1,0,0:0:0:0:
128,192,87905,1,0,0:0:0:0:
213,192,88092,1,0,0:0:0:0:
298,192,88280,1,0,0:0:0:0:
384,192,88280,1,0,0:0:0:0:
42,192,88467,1,0,0:0:0:0:
213,192,88655,1,0,0:0:0:0:
469,192,88655,1,0,0:0:0:0:
298,192,89030,1,0,0:0:0:0:
384,192,89030,1,0,0:0:0:0:
213,192,89405,1,0,0:0:0:0:
298,192,89405,1,0,0:0:0:0:
42,192,89780,1,0,0:0:0:0:
128,192,89780,1,0,0:0:0:0:
213,192,90155,1,0,0:0:0:0:
469,192,90155,1,0,0:0:0:0:
298,192,90342,1,0,0:0:0:0:
384,192,90530,1,0,0:0:0:0:
469,192,90717,1,0,0:0:0:0:
42,192,90905,1,0,0:0:0:0:
128,192,90905,1,0,0:0:0:0:
384,192,91092,128,0,91280:0:0:0:0:
298,192,91280,128,0,91467:0:0:0:0:
213,192,91467,128,0,91655:0:0:0:0:
384,192,91655,1,0,0:0:0:0:
128,192,91655,128,0,92030:0:0:0:0:
469,192,92030,1,0,0:0:0:0:
298,192,92030,128,0,92405:0:0:0:0:
128,192,92405,1,0,0:0:0:0:
42,192,92405,128,0,92655:0:0:0:0:
298,192,92655,1,0,0:0:0:0:
213,192,92655,128,0,92905:0:0:0:0:
469,192,92905,1,0,0:0:0:0:
384,192,92905,128,0,93155:0:0:0:0:
298,192,93155,1,0,0:0:0:0:
42,192,93155,128,0,93530:0:0:0:0:
128,192,93530,128,0,93905:0:0:0:0:
384,192,93905,128,0,94280:0:0:0:0:
298,192,93905,1,0,0:0:0:0:
469,192,94280,128,0,94655:0:0:0:0:
298,192,94655,128,0,95030:0:0:0:0:
213,192,94655,1,0,0:0:0:0:
42,192,95030,128,0,95405:0:0:0:0:
384,192,95405,128,0,95780:0:0:0:0:
298,192,95405,1,0,0:0:0:0:
128,192,95780,128,0,96155:0:0:0:0:
384,192,96155,1,0,0:0:0:0:
469,192,96155,128,0,96530:0:0:0:0:
213,192,96530,128,0,96905:0:0:0:0:
42,192,96905,1,0,0:0:0:0:
128,192,96905,128,0,97155:0:0:0:0:
213,192,97155,1,0,0:0:0:0:
298,192,97155,128,0,97405:0:0:0:0:
384,192,97405,1,0,0:0:0:0:
469,192,97405,128,0,97655:0:0:0:0:
42,192,97655,128,0,98030:0:0:0:0:
213,192,97655,1,0,0:0:0:0:
469,192,98030,128,0,98405:0:0:0:0:
298,192,98405,1,0,0:0:0:0:
42,192,98405,128,0,98655:0:0:0:0:
384,192,98655,1,0,0:0:0:0:
128,192,98655,128,0,98905:0:0:0:0:
469,192,98905,1,0,0:0:0:0:
213,192,98905,128,0,99155:0:0:0:0:
298,192,99155,128,0,99530:0:0:0:0:
42,192,99155,1,0,0:0:0:0:
213,192,99530,128,0,99905:0:0:0:0:
469,192,99530,1,0,0:0:0:0:
298,192,99905,128,0,100280:0:0:0:0:
42,192,99905,1,0,0:0:0:0:
128,192,100280,1,0,0:0:0:0:
469,192,100280,128,0,100655:0:0:0:0:
42,192,100655,1,0,0:0:0:0:
384,192,100655,1,0,0:0:0:0:
298,192,100780,1,0,0:0:0:0:
213,192,100905,1,0,0:0:0:0:
128,192,101030,1,0,0:0:0:0:
469,192,101030,1,0,0:0:0:0:
298,192,101405,1,0,0:0:0:0:
384,192,101405,1,0,0:0:0:0:
213,192,101530,1,0,0:0:0:0:
128,192,101655,1,0,0:0:0:0:
42,192,101780,1,0,0:0:0:0:
469,192,101780,1,0,0:0:0:0:
469,192,102155,1,0,0:0:0:0:
42,192,102155,1,0,0:0:0:0:
384,192,102280,1,0,0:0:0:0:
298,192,102405,1,0,0:0:0:0:
213,192,102530,1,0,0:0:0:0:
128,192,102655,1,0,0:0:0:0:
384,192,102780,1,0,0:0:0:0:
298,192,102905,1,0,0:0:0:0:
213,192,103030,1,0,0:0:0:0:
469,192,103155,1,0,0:0:0:0:
384,192,103280,128,0,103467:0:0:0:0:
298,192,103467,128,0,103655:0:0:0:0:
128,192,103655,1,0,0:0:0:0:
213,192,103655,1,0,0:0:0:0:
42,192,103655,1,0,0:0:0:0:
384,192,104030,1,0,0:0:0:0:
469,192,104030,1,0,0:0:0:0:
298,192,104405,1,0,0:0:0:0:
384,192,104405,1,0,0:0:0:0:
128,192,104780,1,0,0:0:0:0:
213,192,104780,1,0,0:0:0:0:
42,192,105155,1,0,0:0:0:0:
469,192,105155,1,0,0:0:0:0:
128,192,105530,1,0,0:0:0:0:
213,192,105655,1,0,0:0:0:0:
298,192,105780,1,0,0:0:0:0:
384,192,105905,1,0,0:0:0:0:
469,192,106155,1,0,0:0:0:0:
213,192,106155,1,0,0:0:0:0:
384,192,106405,1,0,0:0:0:0:
128,192,106405,1,0,0:0:0:0:
298,192,106655,1,0,0:0:0:0:
469,192,106655,1,0,0:0:0:0:
42,192,106655,128,0,107030:0:0:0:0:
384,192,107030,128,0,107405:0:0:0:0:
128,192,107405,128,0,107780:0:0:0:0:
42,192,107405,1,0,0:0:0:0:
298,192,107780,128,0,108155:0:0:0:0:
213,192,107780,1,0,0:0:0:0:
384,192,108155,1,0,0:0:0:0:
469,192,108155,128,0,108530:0:0:0:0:
128,192,108530,1,0,0:0:0:0:
384,192,108780,1,0,0:0:0:0:
213,192,108905,1,0,0:0:0:0:
298,192,108905,1,0,0:0:0:0:
42,192,109155,1,0,0:0:0:0:
213,192,109280,128,0,109467:0:0:0:0:
298,192,109467,128,0,109655:0:0:0:0:
384,192,109655,1,0,0:0:0:0:
469,192,109655,128,0,110030:0:0:0:0:
42,192,110030,128,0,110217:0:0:0:0:
128,192,110217,128,0,110405:0:0:0:0:
469,192,110405,1,0,0:0:0:0:
384,192,110405,128,0,110592:0:0:0:0:
298,192,110592,128,0,110780:0:0:0:0:
213,192,110780,128,0,110967:0:0:0:0:
128,192,110967,128,0,111155:0:0:0:0:
42,192,111155,1,0,0:0:0:0:
384,192,111155,128,0,111342:0:0:0:0:
469,192,111342,128,0,111530:0:0:0:0:
298,192,111530,128,0,111717:0:0:0:0:
213,192,111717,128,0,111905:0:0:0:0:
128,192,111905,128,0,112092:0:0:0:0:
469,192,111905,1,0,0:0:0:0:
42,192,112092,128,0,112280:0:0:0:0:
298,192,112280,128,0,112467:0:0:0:0:
213,192,112280,1,0,0:0:0:0:
384,192,112467,128,0,112655:0:0:0:0:
469,192,112655,1,0,0:0:0:0:
128,192,112655,128,0,113030:0:0:0:0:
213,192,113030,128,0,113405:0:0:0:0:
298,192,113405,128,0,113780:0:0:0:0:
213,192,113780,1,0,0:0:0:0:
384,192,113967,128,0,114155:0:0:0:0:
128,192,114155,1,0,0:0:0:0:
128,192,114905,1,0,0:0:0:0:
213,192,115092,1,0,0:0:0:0:
298,192,115280,1,0,0:0:0:0:
384,192,115467,1,0,0:0:0:0:
469,192,115655,1,0,0:0:0:0:
42,192,115655,1,0,0:0:0:0:
128,192,115655,1,0,0:0:0:0:
213,192,115936,1,0,0:0:0:0:
384,192,116030,1,0,0:0:0:0:
128,192,116217,128,0,116405:0:0:0:0:
298,192,116405,128,0,116592:0:0:0:0:
469,192,116592,128,0,116780:0:0:0:0:
213,192,116780,128,0,116967:0:0:0:0:
384,192,116967,128,0,117155:0:0:0:0:
128,192,117155,1,0,0:0:0:0:
42,192,117155,1,0,0:0:0:0:
213,192,117436,1,0,0:0:0:0:
298,192,117530,1,0,0:0:0:0:
42,192,117717,128,0,117905:0:0:0:0:
213,192,117905,128,0,118092:0:0:0:0:
384,192,118092,128,0,118280:0:0:0:0:
128,192,118280,128,0,118467:0:0:0:0:
298,192,118467,128,0,118655:0:0:0:0:
469,192,118655,1,0,0:0:0:0:
42,192,118655,1,0,0:0:0:0:
128,192,118936,1,0,0:0:0:0:
298,192,119030,1,0,0:0:0:0:
213,192,119217,128,0,119405:0:0:0:0:
384,192,119405,1,0,0:0:0:0:
42,192,119592,128,0,119780:0:0:0:0:
469,192,119780,128,0,119967:0:0:0:0:
298,192,119967,128,0,120155:0:0:0:0:
128,192,120155,1,0,0:0:0:0:
298,192,120530,1,0,0:0:0:0:
384,192,120717,1,0,0:0:0:0:
469,192,120905,1,0,0:0:0:0:
42,192,121092,1,0,0:0:0:0:
128,192,121280,1,0,0:0:0:0:
298,192,121467,1,0,0:0:0:0:
213,192,121467,1,0,0:0:0:0:
42,192,121655,1,0,0:0:0:0:
469,192,121655,1,0,0:0:0:0:
298,192,121936,1,0,0:0:0:0:
213,192,122030,1,0,0:0:0:0:
384,192,122217,128,0,122405:0:0:0:0:
128,192,122405,128,0,122592:0:0:0:0:
213,192,122592,128,0,122780:0:0:0:0:
298,192,122780,128,0,122967:0:0:0:0:
469,192,122967,128,0,123155:0:0:0:0:
42,192,123155,1,0,0:0:0:0:
128,192,123155,1,0,0:0:0:0:
298,192,123436,1,0,0:0:0:0:
213,192,123530,1,0,0:0:0:0:
469,192,123717,128,0,123905:0:0:0:0:
128,192,123905,128,0,124092:0:0:0:0:
384,192,124092,128,0,124280:0:0:0:0:
42,192,124280,128,0,124467:0:0:0:0:
298,192,124467,128,0,124655:0:0:0:0:
213,192,124655,1,0,0:0:0:0:
128,192,124655,1,0,0:0:0:0:
384,192,124936,1,0,0:0:0:0:
213,192,125030,1,0,0:0:0:0:
128,192,125217,1,0,0:0:0:0:
42,192,125405,128,0,125780:0:0:0:0:
469,192,125780,128,0,125967:0:0:0:0:
384,192,125967,128,0,126155:0:0:0:0:
42,192,126155,1,0,0:0:0:0:
213,192,126342,128,0,126530:0:0:0:0:
469,192,126530,1,0,0:0:0:0:
298,192,126717,128,0,126905:0:0:0:0:
42,192,126905,1,0,0:0:0:0:
213,192,127092,128,0,127280:0:0:0:0:
469,192,127280,1,0,0:0:0:0:
298,192,127467,128,0,127655:0:0:0:0:
42,192,127655,1,0,0:0:0:0:
128,192,127655,128,0,127842:0:0:0:0:
213,192,127842,128,0,128030:0:0:0:0:
384,192,128030,1,0,0:0:0:0:
469,192,128030,1,0,0:0:0:0:
298,192,128217,1,0,0:0:0:0:
128,192,128405,1,0,0:0:0:0:
213,192,128405,1,0,0:0:0:0:
298,192,128780,128,0,128967:0:0:0:0:
213,192,128967,128,0,129155:0:0:0:0:
469,192,129155,128,0,129530:0:0:0:0:
42,192,129530,128,0,129905:0:0:0:0:
384,192,129905,128,0,130280:0:0:0:0:
128,192,130280,128,0,130655:0:0:0:0:
469,192,130655,128,0,131030:0:0:0:0:
298,192,131030,128,0,131405:0:0:0:0:
469,192,131405,128,0,132155:0:0:0:0:
213,192,131780,128,0,132155:0:0:0:0:
42,192,132155,128,0,132342:0:0:0:0:
298,192,132342,1,0,0:0:0:0:
213,192,132905,128,0,133092:0:0:0:0:
469,192,133092,128,0,136280:0:0:0:0:
42,192,133655,128,0,136280:0:0:0:0:
128,192,133655,128,0,136280:0:0:0:0:
128,192,138155,1,0,0:0:0:0:
213,192,138155,1,0,0:0:0:0:
298,192,138530,1,0,0:0:0:0:
469,192,138905,1,0,0:0:0:0:
384,192,139280,1,0,0:0:0:0:
213,192,139655,1,0,0:0:0:0:
298,192,139655,1,0,0:0:0:0:
128,192,140030,1,0,0:0:0:0:
42,192,140405,1,0,0:0:0:0:
213,192,140780,1,0,0:0:0:0:
128,192,141155,1,0,0:0:0:0:
384,192,141155,1,0,0:0:0:0:
469,192,141530,1,0,0:0:0:0:
298,192,141905,1,0,0:0:0:0:
213,192,142280,1,0,0:0:0:0:
42,192,142655,1,0,0:0:0:0:
469,192,142655,1,0,0:0:0:0:
128,192,143030,1,0,0:0:0:0:
298,192,143405,1,0,0:0:0:0:
128,192,143780,1,0,0:0:0:0:
384,192,144155,1,0,0:0:0:0:
469,192,144155,1,0,0:0:0:0:
42,192,144530,1,0,0:0:0:0:
298,192,144905,1,0,0:0:0:0:
213,192,145280,1,0,0:0:0:0:
128,192,145655,1,0,0:0:0:0:
469,192,145655,1,0,0:0:0:0:
42,192,146030,1,0,0:0:0:0:
298,192,146405,1,0,0:0:0:0:
384,192,146780,1,0,0:0:0:0:
213,192,147155,1,0,0:0:0:0:
469,192,147155,1,0,0:0:0:0:
42,192,147530,1,0,0:0:0:0:
128,192,147905,1,0,0:0:0:0:
213,192,148155,1,0,0:0:0:0:
384,192,148405,1,0,0:0:0:0:
469,192,148655,128,0,152030:0:0:0:0:
